  0
SECTION
  2
HEADER
  9
$ACADVER
  1
AC1015
  9
$ACADMAINTVER
 70
     6
  9
$DWGCODEPAGE
  3
ANSI_932
  9
$INSBASE
 10
0.0
 20
0.0
 30
0.0
  9
$EXTMIN
 10
0.0
 20
0.0
 30
0.0
  9
$EXTMAX
 10
210.0
 20
297.0
 30
0.0
  9
$LIMMIN
 10
0.0
 20
0.0
  9
$LIMMAX
 10
210.0
 20
297.0
  9
$ORTHOMODE
 70
     0
  9
$REGENMODE
 70
     1
  9
$FILLMODE
 70
     1
  9
$QTEXTMODE
 70
     0
  9
$MIRRTEXT
 70
     1
  9
$LTSCALE
 40
1.0
  9
$ATTMODE
 70
     1
  9
$TEXTSIZE
 40
2.5
  9
$TRACEWID
 40
1.0
  9
$TEXTSTYLE
  7
Standard
  9
$CLAYER
  8
0
  9
$CELTYPE
  6
ByLayer
  9
$CECOLOR
 62
   256
  9
$CELTSCALE
 40
1.0
  9
$DISPSILH
 70
     0
  9
$DIMSCALE
 40
1.0
  9
$DIMASZ
 40
2.5
  9
$DIMEXO
 40
0.625
  9
$DIMDLI
 40
3.75
  9
$DIMRND
 40
0.0
  9
$DIMDLE
 40
0.0
  9
$DIMEXE
 40
1.25
  9
$DIMTP
 40
0.0
  9
$DIMTM
 40
0.0
  9
$DIMTXT
 40
2.5
  9
$DIMCEN
 40
2.5
  9
$DIMTSZ
 40
0.0
  9
$DIMTOL
 70
     0
  9
$DIMLIM
 70
     0
  9
$DIMTIH
 70
     0
  9
$DIMTOH
 70
     0
  9
$DIMSE1
 70
     0
  9
$DIMSE2
 70
     0
  9
$DIMTAD
 70
     1
  9
$DIMZIN
 70
     8
  9
$DIMBLK
  1

  9
$DIMASO
 70
     1
  9
$DIMSHO
 70
     1
  9
$DIMPOST
  1

  9
$DIMAPOST
  1

  9
$DIMALT
 70
     0
  9
$DIMALTD
 70
     3
  9
$DIMALTF
 40
0.0393700787
  9
$DIMLFAC
 40
1.0
  9
$DIMTOFL
 70
     1
  9
$DIMTVP
 40
0.0
  9
$DIMTIX
 70
     0
  9
$DIMSOXD
 70
     0
  9
$DIMSAH
 70
     0
  9
$DIMBLK1
  1

  9
$DIMBLK2
  1

  9
$DIMSTYLE
  2
ISO-25
  9
$DIMCLRD
 70
     0
  9
$DIMCLRE
 70
     0
  9
$DIMCLRT
 70
     0
  9
$DIMTFAC
 40
1.0
  9
$DIMGAP
 40
0.625
  9
$DIMJUST
 70
     0
  9
$DIMSD1
 70
     0
  9
$DIMSD2
 70
     0
  9
$DIMTOLJ
 70
     0
  9
$DIMTZIN
 70
     8
  9
$DIMALTZ
 70
     0
  9
$DIMALTTZ
 70
     0
  9
$DIMUPT
 70
     0
  9
$DIMDEC
 70
     2
  9
$DIMTDEC
 70
     2
  9
$DIMALTU
 70
     2
  9
$DIMALTTD
 70
     3
  9
$DIMTXSTY
  7
Standard
  9
$DIMAUNIT
 70
     0
  9
$DIMADEC
 70
     0
  9
$DIMALTRND
 40
0.0
  9
$DIMAZIN
 70
     0
  9
$DIMDSEP
 70
    44
  9
$DIMATFIT
 70
     3
  9
$DIMFRAC
 70
     0
  9
$DIMLDRBLK
  1

  9
$DIMLUNIT
 70
     2
  9
$DIMLWD
 70
    -2
  9
$DIMLWE
 70
    -2
  9
$DIMTMOVE
 70
     0
  9
$LUNITS
 70
     2
  9
$LUPREC
 70
     4
  9
$SKETCHINC
 40
1.0
  9
$FILLETRAD
 40
10.0
  9
$AUNITS
 70
     0
  9
$AUPREC
 70
     0
  9
$MENU
  1
.
  9
$ELEVATION
 40
0.0
  9
$PELEVATION
 40
0.0
  9
$THICKNESS
 40
0.0
  9
$LIMCHECK
 70
     0
  9
$CHAMFERA
 40
10.0
  9
$CHAMFERB
 40
10.0
  9
$CHAMFERC
 40
20.0
  9
$CHAMFERD
 40
0.0
  9
$SKPOLY
 70
     0
  9
$TDCREATE
 40
2456107.382875856
  9
$TDUCREATE
 40
2456107.007875856
  9
$TDUPDATE
 40
2456107.382875868
  9
$TDUUPDATE
 40
2456107.007875868
  9
$TDINDWG
 40
0.0000000116
  9
$TDUSRTIMER
 40
0.0000000116
  9
$USRTIMER
 70
     1
  9
$ANGBASE
 50
0.0
  9
$ANGDIR
 70
     0
  9
$PDMODE
 70
     0
  9
$PDSIZE
 40
0.0
  9
$PLINEWID
 40
0.0
  9
$SPLFRAME
 70
     0
  9
$SPLINETYPE
 70
     6
  9
$SPLINESEGS
 70
     8
  9
$HANDSEED
  5
2FE
  9
$SURFTAB1
 70
     6
  9
$SURFTAB2
 70
     6
  9
$SURFTYPE
 70
     6
  9
$SURFU
 70
     6
  9
$SURFV
 70
     6
  9
$UCSBASE
  2

  9
$UCSNAME
  2

  9
$UCSORG
 10
0.0
 20
0.0
 30
0.0
  9
$UCSXDIR
 10
1.0
 20
0.0
 30
0.0
  9
$UCSYDIR
 10
0.0
 20
1.0
 30
0.0
  9
$UCSORTHOREF
  2

  9
$UCSORTHOVIEW
 70
     0
  9
$UCSORGTOP
 10
0.0
 20
0.0
 30
0.0
  9
$UCSORGBOTTOM
 10
0.0
 20
0.0
 30
0.0
  9
$UCSORGLEFT
 10
0.0
 20
0.0
 30
0.0
  9
$UCSORGRIGHT
 10
0.0
 20
0.0
 30
0.0
  9
$UCSORGFRONT
 10
0.0
 20
0.0
 30
0.0
  9
$UCSORGBACK
 10
0.0
 20
0.0
 30
0.0
  9
$PUCSBASE
  2

  9
$PUCSNAME
  2

  9
$PUCSORG
 10
0.0
 20
0.0
 30
0.0
  9
$PUCSXDIR
 10
1.0
 20
0.0
 30
0.0
  9
$PUCSYDIR
 10
0.0
 20
1.0
 30
0.0
  9
$PUCSORTHOREF
  2

  9
$PUCSORTHOVIEW
 70
     0
  9
$PUCSORGTOP
 10
0.0
 20
0.0
 30
0.0
  9
$PUCSORGBOTTOM
 10
0.0
 20
0.0
 30
0.0
  9
$PUCSORGLEFT
 10
0.0
 20
0.0
 30
0.0
  9
$PUCSORGRIGHT
 10
0.0
 20
0.0
 30
0.0
  9
$PUCSORGFRONT
 10
0.0
 20
0.0
 30
0.0
  9
$PUCSORGBACK
 10
0.0
 20
0.0
 30
0.0
  9
$USERI1
 70
     0
  9
$USERI2
 70
     0
  9
$USERI3
 70
     0
  9
$USERI4
 70
     0
  9
$USERI5
 70
     0
  9
$USERR1
 40
0.0
  9
$USERR2
 40
0.0
  9
$USERR3
 40
0.0
  9
$USERR4
 40
0.0
  9
$USERR5
 40
0.0
  9
$WORLDVIEW
 70
     1
  9
$SHADEDGE
 70
     3
  9
$SHADEDIF
 70
    70
  9
$TILEMODE
 70
     1
  9
$MAXACTVP
 70
    64
  9
$PINSBASE
 10
0.0
 20
0.0
 30
0.0
  9
$PLIMCHECK
 70
     0
  9
$PEXTMIN
 10
0.0
 20
0.0
 30
0.0
  9
$PEXTMAX
 10
210.0
 20
297.0
 30
0.0
  9
$PLIMMIN
 10
0.0
 20
0.0
  9
$PLIMMAX
 10
210.0
 20
297.0
  9
$UNITMODE
 70
     0
  9
$VISRETAIN
 70
     1
  9
$PLINEGEN
 70
     0
  9
$PSLTSCALE
 70
     1
  9
$TREEDEPTH
 70
  3020
  9
$CMLSTYLE
  2
Standard
  9
$CMLJUST
 70
     0
  9
$CMLSCALE
 40
20.0
  9
$PROXYGRAPHICS
 70
     1
  9
$MEASUREMENT
 70
     1
  9
$CELWEIGHT
370
    -1
  9
$ENDCAPS
280
     0
  9
$JOINSTYLE
280
     0
  9
$LWDISPLAY
290
     0
  9
$INSUNITS
 70
     4
  9
$HYPERLINKBASE
  1

  9
$STYLESHEET
  1

  9
$XEDIT
290
     1
  9
$CEPSNTYPE
380
     0
  9
$PSTYLEMODE
290
     1
  9
$FINGERPRINTGUID
  2
{38A8ED14-F8CF-4FE2-92F4-A8F435D6E2B6}
  9
$VERSIONGUID
  2
{FAEB1C32-E019-11D5-929B-00C0DF256EC4}
  9
$EXTNAMES
290
     1
  9
$PSVPSCALE
 40
0.0
  9
$OLESTARTUP
290
     0
  0
ENDSEC
  0
SECTION
  2
CLASSES
  0
CLASS
  1
ACDBDICTIONARYWDFLT
  2
AcDbDictionaryWithDefault
  3
ObjectDBX Classes
 90
        0
280
     0
281
     0
  0
CLASS
  1
ACDBPLACEHOLDER
  2
AcDbPlaceHolder
  3
ObjectDBX Classes
 90
        0
280
     0
281
     0
  0
CLASS
  1
LAYOUT
  2
AcDbLayout
  3
ObjectDBX Classes
 90
        0
280
     0
281
     0
  0
ENDSEC
  0
SECTION
  2
TABLES
  0
TABLE
  2
VPORT
  5
8
330
0
100
AcDbSymbolTable
 70
     1
  0
VPORT
  5
29
330
8
100
AcDbSymbolTableRecord
100
AcDbViewportTableRecord
  2
*Active
 70
     0
 10
0.0
 20
0.0
 11
1.0
 21
1.0
 12
344.1869158879
 22
148.5
 13
0.0
 23
0.0
 14
10.0
 24
10.0
 15
10.0
 25
10.0
 16
0.0
 26
0.0
 36
1.0
 17
0.0
 27
0.0
 37
0.0
 40
297.0
 41
1.9729729729
 42
50.0
 43
0.0
 44
0.0
 50
0.0
 51
0.0
 71
     0
 72
   100
 73
     1
 74
     3
 75
     0
 76
     0
 77
     0
 78
     0
281
     0
 65
     1
110
0.0
120
0.0
130
0.0
111
1.0
121
0.0
131
0.0
112
0.0
122
1.0
132
0.0
 79
     0
146
0.0
  0
ENDTAB
  0
TABLE
  2
LTYPE
  5
5
330
0
100
AcDbSymbolTable
 70
     3
  0
LTYPE
  5
14
330
5
100
AcDbSymbolTableRecord
100
AcDbLinetypeTableRecord
  2
ByBlock
 70
     0
  3

 72
    65
 73
     0
 40
0.0
  0
LTYPE
  5
15
330
5
100
AcDbSymbolTableRecord
100
AcDbLinetypeTableRecord
  2
ByLayer
 70
     0
  3

 72
    65
 73
     0
 40
0.0
  0
LTYPE
  5
16
330
5
100
AcDbSymbolTableRecord
100
AcDbLinetypeTableRecord
  2
Continuous
 70
     0
  3
Solid line
 72
    65
 73
     0
 40
0.0
  0
LTYPE
  5
3C
330
5
100
AcDbSymbolTableRecord
100
AcDbLinetypeTableRecord
  2
HIDDEN2
 70
     0
  3
Hidden (.5x) _ _ _ _ _ _ _ _ _ _ _ _ _ _ _ _ _ 
 72
    65
 73
     2
 40
4.7625
 49
3.175
 74
     4
 75
     0
340
0
 46
0.0
 50
0.0
 44
0.0
 45
0.0
 49
-1.5875
 74
     4
 75
     0
340
0
 46
0.0
 50
0.0
 44
0.0
 45
0.0
  0
LTYPE
  5
55
330
5
100
AcDbSymbolTableRecord
100
AcDbLinetypeTableRecord
  2
CENTER2
 70
     0
  3
Center (.5x) ___ _ ___ _ ___ _ ___ _ ___ _ ___
 72
    65
 73
     4
 40
28.575
 49
19.05
 74
     4
 75
     0
340
0
 46
0.0
 50
0.0
 44
0.0
 45
0.0
 49
-3.175
 74
     4
 75
     0
340
0
 46
0.0
 50
0.0
 44
0.0
 45
0.0
 49
3.175
 74
     4
 75
     0
340
0
 46
0.0
 50
0.0
 44
0.0
 45
0.0
 49
-3.175
 74
     4
 75
     0
340
0
 46
0.0
 50
0.0
 44
0.0
 45
0.0
  0
ENDTAB
  0
TABLE
  2
LAYER
  5
2
330
0
100
AcDbSymbolTable
 70
     8
  0
LAYER
  5
10
330
2
100
AcDbSymbolTableRecord
100
AcDbLayerTableRecord
  2
0
 70
     0
 62
     7
  6
Continuous
370
    -3
390
F
  0
LAYER
  5
2A
330
2
100
AcDbSymbolTableRecord
100
AcDbLayerTableRecord
  2
Layer9
 70
     0
 62
     7
  6
Continuous
370
    -3
390
F
  0
LAYER
  5
30
330
2
100
AcDbSymbolTableRecord
100
AcDbLayerTableRecord
  2
Layer2
 70
     0
 62
     7
  6
Continuous
370
    -3
390
F
  0
LAYER
  5
32
330
2
100
AcDbSymbolTableRecord
100
AcDbLayerTableRecord
  2
Layer50
 70
     0
 62
     7
  6
Continuous
370
    -3
390
F
  0
LAYER
  5
34
330
2
100
AcDbSymbolTableRecord
100
AcDbLayerTableRecord
  2
Standard
 70
     0
 62
     7
  6
Continuous
370
    -3
390
F
  0
LAYER
  5
36
330
2
100
AcDbSymbolTableRecord
100
AcDbLayerTableRecord
  2
Layer3
 70
     0
 62
     7
  6
Continuous
370
    -3
390
F
  0
LAYER
  5
3B
330
2
100
AcDbSymbolTableRecord
100
AcDbLayerTableRecord
  2
Layer1
 70
     0
 62
     7
  6
Continuous
370
    -3
390
F
  0
LAYER
  5
59
330
2
100
AcDbSymbolTableRecord
100
AcDbLayerTableRecord
  2
Default
 70
     0
 62
     7
  6
Continuous
370
    -3
390
F
  0
ENDTAB
  0
TABLE
  2
STYLE
  5
3
330
0
100
AcDbSymbolTable
 70
     4
  0
STYLE
  5
11
330
3
100
AcDbSymbolTableRecord
100
AcDbTextStyleTableRecord
  2
Standard
 70
     0
 40
0.0
 41
1.0
 50
0.0
 71
     0
 42
2.5
  3
txt
  4

  0
STYLE
  5
57
330
3
100
AcDbSymbolTableRecord
100
AcDbTextStyleTableRecord
  2
SEACAD_seiso_ttf
 70
     0
 40
0.0
 41
1.0
 50
0.0
 71
     0
 42
0.2
  3
seiso.ttf
  4

  0
STYLE
  5
62
330
3
100
AcDbSymbolTableRecord
100
AcDbTextStyleTableRecord
  2
SEACAD_arial_ttf
 70
     0
 40
0.0
 41
1.0
 50
0.0
 71
     0
 42
0.2
  3
arial.ttf
  4

  0
STYLE
  5
286
330
3
100
AcDbSymbolTableRecord
100
AcDbTextStyleTableRecord
  2
SEACAD_semeca1_ttf
 70
     0
 40
0.0
 41
1.0
 50
0.0
 71
     0
 42
0.2
  3
semeca1.ttf
  4

  0
ENDTAB
  0
TABLE
  2
VIEW
  5
6
330
0
100
AcDbSymbolTable
 70
     0
  0
ENDTAB
  0
TABLE
  2
UCS
  5
7
330
0
100
AcDbSymbolTable
 70
     0
  0
ENDTAB
  0
TABLE
  2
APPID
  5
9
330
0
100
AcDbSymbolTable
 70
     1
  0
APPID
  5
12
330
9
100
AcDbSymbolTableRecord
100
AcDbRegAppTableRecord
  2
ACAD
 70
     0
  0
ENDTAB
  0
TABLE
  2
DIMSTYLE
  5
A
330
0
100
AcDbSymbolTable
 70
     3
100
AcDbDimStyleTable
  0
DIMSTYLE
105
27
330
A
100
AcDbSymbolTableRecord
100
AcDbDimStyleTableRecord
  2
ISO-25
 70
     0
 41
2.5
 42
0.625
 43
3.75
 44
1.25
 73
     0
 74
     0
 77
     1
 78
     8
140
2.5
141
2.5
143
0.0393700787
147
0.625
171
     3
172
     1
271
     2
272
     2
274
     3
278
    44
283
     0
284
     8
340
11
  0
DIMSTYLE
105
275
330
A
100
AcDbSymbolTableRecord
100
AcDbDimStyleTableRecord
  2
Standard
 70
     0
340
11
  0
DIMSTYLE
105
284
102
{ACAD_REACTORS
330
285
330
292
330
29D
330
2A8
330
2B4
102
}
330
A
100
AcDbSymbolTableRecord
100
AcDbDimStyleTableRecord
  2
$DDT_AUDIT_GENERATED_(284)
 70
     0
 41
6.0
 42
0.0
 44
3.0
 78
     8
140
6.0
141
3.0
147
3.0
173
     1
176
   136
177
   136
178
   136
271
     0
272
     0
278
    44
284
     8
340
62
343
27F
344
27F
  0
ENDTAB
  0
TABLE
  2
BLOCK_RECORD
  5
1
330
0
100
AcDbSymbolTable
 70
     9
  0
BLOCK_RECORD
  5
1F
330
1
100
AcDbSymbolTableRecord
100
AcDbBlockTableRecord
  2
*Model_Space
340
22
  0
BLOCK_RECORD
  5
1B
330
1
100
AcDbSymbolTableRecord
100
AcDbBlockTableRecord
  2
*Paper_Space
340
1E
  0
BLOCK_RECORD
  5
276
330
1
100
AcDbSymbolTableRecord
100
AcDbBlockTableRecord
  2
_Oblique
340
0
1001
ACAD
1000
DesignCenter Data
1002
{
1070
     1
1070
     0
1002
}
  0
BLOCK_RECORD
  5
27A
330
1
100
AcDbSymbolTableRecord
100
AcDbBlockTableRecord
  2
_Dot
340
0
1001
ACAD
1000
DesignCenter Data
1002
{
1070
     1
1070
     0
1002
}
  0
BLOCK_RECORD
  5
27F
330
1
100
AcDbSymbolTableRecord
100
AcDbBlockTableRecord
  2
_SE_FILLED
340
0
1001
ACAD
1000
DesignCenter Data
1002
{
1070
     1
1070
     0
1002
}
  0
BLOCK_RECORD
  5
287
330
1
100
AcDbSymbolTableRecord
100
AcDbBlockTableRecord
  2
DMBLK11
340
0
1001
ACAD
1000
DesignCenter Data
1002
{
1070
     1
1070
     0
1002
}
  0
BLOCK_RECORD
  5
293
330
1
100
AcDbSymbolTableRecord
100
AcDbBlockTableRecord
  2
DMBLK12
340
0
1001
ACAD
1000
DesignCenter Data
1002
{
1070
     1
1070
     0
1002
}
  0
BLOCK_RECORD
  5
29E
330
1
100
AcDbSymbolTableRecord
100
AcDbBlockTableRecord
  2
DMBLK13
340
0
1001
ACAD
1000
DesignCenter Data
1002
{
1070
     1
1070
     0
1002
}
  0
BLOCK_RECORD
  5
2A9
330
1
100
AcDbSymbolTableRecord
100
AcDbBlockTableRecord
  2
DMBLK14
340
0
1001
ACAD
1000
DesignCenter Data
1002
{
1070
     1
1070
     0
1002
}
  0
BLOCK_RECORD
  5
2B5
330
1
100
AcDbSymbolTableRecord
100
AcDbBlockTableRecord
  2
DMBLK15
340
0
1001
ACAD
1000
DesignCenter Data
1002
{
1070
     1
1070
     0
1002
}
  0
ENDTAB
  0
ENDSEC
  0
SECTION
  2
BLOCKS
  0
BLOCK
  5
20
330
1F
100
AcDbEntity
  8
0
100
AcDbBlockBegin
  2
*Model_Space
 70
     0
 71
     0
 10
0.0
 20
0.0
 30
0.0
  3
*Model_Space
  1

  0
ENDBLK
  5
21
330
1F
100
AcDbEntity
  8
0
100
AcDbBlockEnd
  0
BLOCK
  5
1C
330
1B
100
AcDbEntity
 67
     1
  8
0
100
AcDbBlockBegin
  2
*Paper_Space
 70
     0
 71
     0
 10
0.0
 20
0.0
 30
0.0
  3
*Paper_Space
  1

  0
ENDBLK
  5
1D
330
1B
100
AcDbEntity
 67
     1
  8
0
100
AcDbBlockEnd
  0
BLOCK
  5
277
330
276
100
AcDbEntity
  8
0
100
AcDbBlockBegin
  2
_Oblique
 70
     0
 71
     0
 10
0.0
 20
0.0
 30
0.0
  3
_Oblique
  1

  0
LINE
  5
279
330
276
100
AcDbEntity
  8
0
  6
ByBlock
 62
     0
370
    -2
100
AcDbLine
 10
-0.5
 20
-0.5
 30
0.0
 11
0.5
 21
0.5
 31
0.0
  0
ENDBLK
  5
278
330
276
100
AcDbEntity
  8
0
100
AcDbBlockEnd
  0
BLOCK
  5
27B
330
27A
100
AcDbEntity
  8
0
100
AcDbBlockBegin
  2
_Dot
 70
     0
 71
     0
 10
0.0
 20
0.0
 30
0.0
  3
_Dot
  1

  0
LWPOLYLINE
  5
27D
330
27A
100
AcDbEntity
  8
0
  6
ByBlock
 62
     0
100
AcDbPolyline
 90
        2
 70
     1
 43
0.5
 10
-0.25
 20
0.0
 42
1.0
 10
0.25
 20
0.0
 42
1.0
  0
LINE
  5
27E
330
27A
100
AcDbEntity
  8
0
  6
ByBlock
 62
     0
370
    -2
100
AcDbLine
 10
-0.5
 20
0.0
 30
0.0
 11
-1.0
 21
0.0
 31
0.0
  0
ENDBLK
  5
27C
330
27A
100
AcDbEntity
  8
0
100
AcDbBlockEnd
  0
BLOCK
  5
282
330
27F
100
AcDbEntity
  8
0
100
AcDbBlockBegin
  2
_SE_FILLED
 70
     0
 71
     0
 10
0.0
 20
0.0
 30
0.0
  3
_SE_FILLED
  1

  0
SOLID
  5
280
330
27F
100
AcDbEntity
  8
0
 62
     0
100
AcDbTrace
 10
0.0
 20
0.0
 30
0.0
 11
-1.0
 21
-0.1665
 31
0.0
 12
-1.0
 22
0.1665
 32
0.0
 13
0.0
 23
0.0
 33
0.0
  0
LINE
  5
281
330
27F
100
AcDbEntity
  8
0
 62
     0
100
AcDbLine
 10
0.0
 20
0.0
 30
0.0
 11
-1.0
 21
0.0
 31
0.0
  0
ENDBLK
  5
283
330
27F
100
AcDbEntity
  8
0
100
AcDbBlockEnd
  0
BLOCK
  5
290
330
287
100
AcDbEntity
  8
0
100
AcDbBlockBegin
  2
DMBLK11
 70
     0
 71
     0
 10
0.0
 20
0.0
 30
0.0
  3
DMBLK11
  1

  0
HATCH
  5
288
330
287
100
AcDbEntity
  8
Layer3
  6
Continuous
 62
   136
370
    20
100
AcDbHatch
 10
0.0
 20
0.0
 30
0.0
210
0.0
220
0.0
230
1.0
  2
SOLID
 70
     1
 71
     0
 91
        1
 92
        1
 93
        3
 72
     1
 10
17.42342778317329
 20
167.4975837675705
 11
19.42342780055798
 21
167.4975837675705
 72
     1
 10
19.42342780055798
 20
167.4975837675705
 11
18.42342779186563
 21
173.4975838197246
 72
     1
 10
18.42342779186563
 20
173.4975838197246
 11
17.42342778317329
 21
167.4975837675705
 97
        0
 75
     0
 76
     1
 98
        0
  0
HATCH
  5
289
330
287
100
AcDbEntity
  8
Layer3
  6
Continuous
 62
   136
370
    20
100
AcDbHatch
 10
0.0
 20
0.0
 30
0.0
210
0.0
220
0.0
230
1.0
  2
SOLID
 70
     1
 71
     0
 91
        1
 92
        1
 93
        3
 72
     1
 10
17.42342778317329
 20
127.4975838718787
 11
18.42342779186563
 21
121.4975838197246
 72
     1
 10
18.42342779186563
 20
121.4975838197246
 11
19.42342780055798
 21
127.4975838718787
 72
     1
 10
19.42342780055798
 20
127.4975838718787
 11
17.42342778317329
 21
127.4975838718787
 97
        0
 75
     0
 76
     1
 98
        0
  0
LINE
  5
28A
330
287
100
AcDbEntity
  8
Layer3
  6
Continuous
 62
   136
370
    20
100
AcDbLine
 10
59.3988643601
 20
173.4975838197
 30
0.0
 11
15.4234277658
 21
173.4975838197
 31
0.0
  0
LINE
  5
28B
330
287
100
AcDbEntity
  8
Layer3
  6
Continuous
 62
   136
370
    20
100
AcDbLine
 10
59.3988643601
 20
121.4975838197
 30
0.0
 11
15.4234277658
 21
121.4975838197
 31
0.0
  0
LINE
  5
28C
330
287
100
AcDbEntity
  8
Layer3
  6
Continuous
 62
   136
370
    20
100
AcDbLine
 10
18.4234277919
 20
173.4975838197
 30
0.0
 11
18.4234277919
 21
152.597583933
 31
0.0
  0
LINE
  5
28D
330
287
100
AcDbEntity
  8
Layer3
  6
Continuous
 62
   136
370
    20
100
AcDbLine
 10
18.4234277919
 20
142.3975837065
 30
0.0
 11
18.4234277919
 21
121.4975838197
 31
0.0
  0
TEXT
  5
28E
330
287
100
AcDbEntity
  8
Layer3
  6
Continuous
 62
   136
370
    20
100
AcDbText
 10
17.7488282495
 20
144.4975832833
 30
0.0
 40
6.0
  1
52
  7
SEACAD_arial_ttf
 11
17.7488282495
 21
150.4975832833
 31
0.0
100
AcDbText
 73
     3
  0
TEXT
  5
28F
330
287
100
AcDbEntity
  8
Layer3
  6
Continuous
 62
   136
370
    20
100
AcDbText
 10
9.7067229864
 20
144.4975832833
 30
0.0
 40
6.0
  1
q
  7
SEACAD_semeca1_ttf
 11
9.7067229864
 21
150.4975832833
 31
0.0
100
AcDbText
 73
     3
  0
ENDBLK
  5
291
330
287
100
AcDbEntity
  8
0
100
AcDbBlockEnd
  0
BLOCK
  5
29B
330
293
100
AcDbEntity
  8
0
100
AcDbBlockBegin
  2
DMBLK12
 70
     0
 71
     0
 10
0.0
 20
0.0
 30
0.0
  3
DMBLK12
  1

  0
HATCH
  5
294
330
293
100
AcDbEntity
  8
Layer3
  6
Continuous
 62
   136
370
    20
100
AcDbHatch
 10
0.0
 20
0.0
 30
0.0
210
0.0
220
0.0
230
1.0
  2
SOLID
 70
     1
 71
     0
 91
        1
 92
        1
 93
        3
 72
     1
 10
69.0488644122799
 20
190.9373140268557
 11
63.04886436012583
 21
189.9373140181634
 72
     1
 10
63.04886436012583
 20
189.9373140181634
 11
69.0488644122799
 21
188.937314009471
 72
     1
 10
69.0488644122799
 20
188.937314009471
 11
69.0488644122799
 21
190.9373140268557
 97
        0
 75
     0
 76
     1
 98
        0
  0
HATCH
  5
295
330
293
100
AcDbEntity
  8
Layer3
  6
Continuous
 62
   136
370
    20
100
AcDbHatch
 10
0.0
 20
0.0
 30
0.0
210
0.0
220
0.0
230
1.0
  2
SOLID
 70
     1
 71
     0
 91
        1
 92
        1
 93
        3
 72
     1
 10
123.5888643079715
 20
190.9373140268557
 11
123.5888643079715
 21
188.937314009471
 72
     1
 10
123.5888643079715
 20
188.937314009471
 11
129.5888643601255
 21
189.9373140181634
 72
     1
 10
129.5888643601255
 20
189.9373140181634
 11
123.5888643079715
 21
190.9373140268557
 97
        0
 75
     0
 76
     1
 98
        0
  0
LINE
  5
296
330
293
100
AcDbEntity
  8
Layer3
  6
Continuous
 62
   136
370
    20
100
AcDbLine
 10
63.0488643601
 20
182.8306154344
 30
0.0
 11
63.0488643601
 21
192.9373140442
 31
0.0
  0
LINE
  5
297
330
293
100
AcDbEntity
  8
Layer3
  6
Continuous
 62
   136
370
    20
100
AcDbLine
 10
129.5888643601
 20
172.2427454494
 30
0.0
 11
129.5888643601
 21
192.9373140442
 31
0.0
  0
LINE
  5
298
330
293
100
AcDbEntity
  8
Layer3
  6
Continuous
 62
   136
370
    20
100
AcDbLine
 10
63.0488643601
 20
189.9373140182
 30
0.0
 11
89.5232135609
 21
189.9373140182
 31
0.0
  0
LINE
  5
299
330
293
100
AcDbEntity
  8
Layer3
  6
Continuous
 62
   136
370
    20
100
AcDbLine
 10
103.114517022
 20
189.9373140182
 30
0.0
 11
129.5888643601
 21
189.9373140182
 31
0.0
  0
TEXT
  5
29A
330
293
100
AcDbEntity
  8
Layer3
  6
Continuous
 62
   136
370
    20
100
AcDbText
 10
91.6232135977
 20
186.9373140182
 30
0.0
 40
6.0
  1
67
  7
SEACAD_arial_ttf
 11
91.6232135977
 21
192.9373140182
 31
0.0
100
AcDbText
 73
     3
  0
ENDBLK
  5
29C
330
293
100
AcDbEntity
  8
0
100
AcDbBlockEnd
  0
BLOCK
  5
2A6
330
29E
100
AcDbEntity
  8
0
100
AcDbBlockBegin
  2
DMBLK13
 70
     0
 71
     0
 10
0.0
 20
0.0
 30
0.0
  3
DMBLK13
  1

  0
HATCH
  5
29F
330
29E
100
AcDbEntity
  8
Layer3
  6
Continuous
 62
   136
370
    20
100
AcDbHatch
 10
0.0
 20
0.0
 30
0.0
210
0.0
220
0.0
230
1.0
  2
SOLID
 70
     1
 71
     0
 91
        1
 92
        1
 93
        3
 72
     1
 10
69.0488644122799
 20
107.314855129934
 11
69.0488644122799
 21
109.3148551473187
 72
     1
 10
69.0488644122799
 20
109.3148551473187
 11
63.04886436012583
 21
108.3148551386264
 72
     1
 10
63.04886436012583
 20
108.3148551386264
 11
69.0488644122799
 21
107.314855129934
 97
        0
 75
     0
 76
     1
 98
        0
  0
HATCH
  5
2A0
330
29E
100
AcDbEntity
  8
Layer3
  6
Continuous
 62
   136
370
    20
100
AcDbHatch
 10
0.0
 20
0.0
 30
0.0
210
0.0
220
0.0
230
1.0
  2
SOLID
 70
     1
 71
     0
 91
        1
 92
        1
 93
        3
 72
     1
 10
103.9823708790325
 20
107.314855129934
 11
109.9823709311866
 21
108.3148551386264
 72
     1
 10
109.9823709311866
 20
108.3148551386264
 11
103.9823708790325
 21
109.3148551473187
 72
     1
 10
103.9823708790325
 20
109.3148551473187
 11
103.9823708790325
 21
107.314855129934
 97
        0
 75
     0
 76
     1
 98
        0
  0
LINE
  5
2A1
330
29E
100
AcDbEntity
  8
Layer3
  6
Continuous
 62
   136
370
    20
100
AcDbLine
 10
63.0488643601
 20
112.1645522051
 30
0.0
 11
63.0488643601
 21
105.3148551125
 31
0.0
  0
LINE
  5
2A2
330
29E
100
AcDbEntity
  8
Layer3
  6
Continuous
 62
   136
370
    20
100
AcDbLine
 10
109.9823709312
 20
128.2475838197
 30
0.0
 11
109.9823709312
 21
105.3148551125
 31
0.0
  0
LINE
  5
2A3
330
29E
100
AcDbEntity
  8
Layer3
  6
Continuous
 62
   136
370
    20
100
AcDbLine
 10
63.0488643601
 20
108.3148551386
 30
0.0
 11
79.7199649915
 21
108.3148551386
 31
0.0
  0
LINE
  5
2A4
330
29E
100
AcDbEntity
  8
Layer3
  6
Continuous
 62
   136
370
    20
100
AcDbLine
 10
93.3112702998
 20
108.3148551386
 30
0.0
 11
109.9823709312
 21
108.3148551386
 31
0.0
  0
TEXT
  5
2A5
330
29E
100
AcDbEntity
  8
Layer3
  6
Continuous
 62
   136
370
    20
100
AcDbText
 10
81.8199650283
 20
105.3148551386
 30
0.0
 40
6.0
  1
47
  7
SEACAD_arial_ttf
 11
81.8199650283
 21
111.3148551386
 31
0.0
100
AcDbText
 73
     3
  0
ENDBLK
  5
2A7
330
29E
100
AcDbEntity
  8
0
100
AcDbBlockEnd
  0
BLOCK
  5
2B2
330
2A9
100
AcDbEntity
  8
0
100
AcDbBlockBegin
  2
DMBLK14
 70
     0
 71
     0
 10
0.0
 20
0.0
 30
0.0
  3
DMBLK14
  1

  0
HATCH
  5
2AA
330
2A9
100
AcDbEntity
  8
Layer3
  6
Continuous
 62
   136
370
    20
100
AcDbHatch
 10
0.0
 20
0.0
 30
0.0
210
0.0
220
0.0
230
1.0
  2
SOLID
 70
     1
 71
     0
 91
        1
 92
        1
 93
        3
 72
     1
 10
159.7988644122732
 20
191.4578878502706
 11
153.7988643601191
 21
190.4578878415782
 72
     1
 10
153.7988643601191
 20
190.4578878415782
 11
159.7988644122732
 21
189.4578878328859
 72
     1
 10
159.7988644122732
 20
189.4578878328859
 11
159.7988644122732
 21
191.4578878502706
 97
        0
 75
     0
 76
     1
 98
        0
  0
HATCH
  5
2AB
330
2A9
100
AcDbEntity
  8
Layer3
  6
Continuous
 62
   136
370
    20
100
AcDbHatch
 10
0.0
 20
0.0
 30
0.0
210
0.0
220
0.0
230
1.0
  2
SOLID
 70
     1
 71
     0
 91
        1
 92
        1
 93
        3
 72
     1
 10
186.2988643079672
 20
191.4578878502706
 11
186.2988643079672
 21
189.4578878328859
 72
     1
 10
186.2988643079672
 20
189.4578878328859
 11
192.2988643601213
 21
190.4578878415782
 72
     1
 10
192.2988643601213
 20
190.4578878415782
 11
186.2988643079672
 21
191.4578878502706
 97
        0
 75
     0
 76
     1
 98
        0
  0
LINE
  5
2AC
330
2A9
100
AcDbEntity
  8
Layer3
  6
Continuous
 62
   136
370
    20
100
AcDbLine
 10
153.7988643601
 20
166.2475838197
 30
0.0
 11
153.7988643601
 21
193.4578878677
 31
0.0
  0
LINE
  5
2AD
330
2A9
100
AcDbEntity
  8
Layer3
  6
Continuous
 62
   136
370
    20
100
AcDbLine
 10
192.2988643601
 20
166.2475838197
 30
0.0
 11
192.2988643601
 21
193.4578878677
 31
0.0
  0
LINE
  5
2AE
330
2A9
100
AcDbEntity
  8
Layer3
  6
Continuous
 62
   136
370
    20
100
AcDbLine
 10
153.7988643601
 20
190.4578878416
 30
0.0
 11
162.232159774
 21
190.4578878416
 31
0.0
  0
LINE
  5
2AF
330
2A9
100
AcDbEntity
  8
Layer3
  6
Continuous
 62
   136
370
    20
100
AcDbLine
 10
183.8655689463
 20
190.4578878416
 30
0.0
 11
192.2988643601
 21
190.4578878416
 31
0.0
  0
TEXT
  5
2B0
330
2A9
100
AcDbEntity
  8
Layer3
  6
Continuous
 62
   136
370
    20
100
AcDbText
 10
172.3742647135
 20
187.4578878416
 30
0.0
 40
6.0
  1
38
  7
SEACAD_arial_ttf
 11
172.3742647135
 21
193.4578878416
 31
0.0
100
AcDbText
 73
     3
  0
TEXT
  5
2B1
330
2A9
100
AcDbEntity
  8
Layer3
  6
Continuous
 62
   136
370
    20
100
AcDbText
 10
164.3321594503
 20
187.4578878416
 30
0.0
 40
6.0
  1
q
  7
SEACAD_semeca1_ttf
 11
164.3321594503
 21
193.4578878416
 31
0.0
100
AcDbText
 73
     3
  0
ENDBLK
  5
2B3
330
2A9
100
AcDbEntity
  8
0
100
AcDbBlockEnd
  0
BLOCK
  5
2BD
330
2B5
100
AcDbEntity
  8
0
100
AcDbBlockBegin
  2
DMBLK15
 70
     0
 71
     0
 10
0.0
 20
0.0
 30
0.0
  3
DMBLK15
  1

  0
HATCH
  5
2B6
330
2B5
100
AcDbEntity
  8
Layer3
  6
Continuous
 62
   136
370
    20
100
AcDbHatch
 10
0.0
 20
0.0
 30
0.0
210
0.0
220
0.0
230
1.0
  2
SOLID
 70
     1
 71
     0
 91
        1
 92
        1
 93
        3
 72
     1
 10
42.67518803421535
 20
162.4975838718649
 11
40.67518801683065
 21
162.4975838718649
 72
     1
 10
40.67518801683065
 20
162.4975838718649
 11
41.675188025523
 21
156.4975838197109
 72
     1
 10
41.675188025523
 20
156.4975838197109
 11
42.67518803421535
 21
162.4975838718649
 97
        0
 75
     0
 76
     1
 98
        0
  0
HATCH
  5
2B7
330
2B5
100
AcDbEntity
  8
Layer3
  6
Continuous
 62
   136
370
    20
100
AcDbHatch
 10
0.0
 20
0.0
 30
0.0
210
0.0
220
0.0
230
1.0
  2
SOLID
 70
     1
 71
     0
 91
        1
 92
        1
 93
        3
 72
     1
 10
42.67518803421535
 20
132.4975837675568
 11
41.675188025523
 21
138.4975838197109
 72
     1
 10
41.675188025523
 20
138.4975838197109
 11
40.67518801683065
 21
132.4975837675568
 72
     1
 10
40.67518801683065
 20
132.4975837675568
 11
42.67518803421535
 21
132.4975837675568
 97
        0
 75
     0
 76
     1
 98
        0
  0
LINE
  5
2B8
330
2B5
100
AcDbEntity
  8
Layer3
  6
Continuous
 62
   136
370
    20
100
AcDbLine
 10
22.588864347
 20
156.4975838197
 30
0.0
 11
44.6751880516
 21
156.4975838197
 31
0.0
  0
LINE
  5
2B9
330
2B5
100
AcDbEntity
  8
Layer3
  6
Continuous
 62
   136
370
    20
100
AcDbLine
 10
22.588864347
 20
138.4975838197
 30
0.0
 11
44.6751880516
 21
138.4975838197
 31
0.0
  0
LINE
  5
2BA
330
2B5
100
AcDbEntity
  8
Layer3
  6
Continuous
 62
   136
370
    20
100
AcDbLine
 10
41.6751880255
 20
168.497583924
 30
0.0
 11
41.6751880255
 21
156.4975838197
 31
0.0
  0
LINE
  5
2BB
330
2B5
100
AcDbEntity
  8
Layer3
  6
Continuous
 62
   136
370
    20
100
AcDbLine
 10
41.6751880255
 20
138.4975838197
 30
0.0
 11
41.6751880255
 21
126.4975837154
 31
0.0
  0
TEXT
  5
2BC
330
2B5
100
AcDbEntity
  8
Layer3
  6
Continuous
 62
   136
370
    20
100
AcDbText
 10
36.9795358516
 20
144.4975842071
 30
0.0
 40
6.0
  1
18
  7
SEACAD_arial_ttf
 11
36.9795358516
 21
150.4975842071
 31
0.0
100
AcDbText
 73
     3
  0
ENDBLK
  5
2BE
330
2B5
100
AcDbEntity
  8
0
100
AcDbBlockEnd
  0
ENDSEC
  0
SECTION
  2
ENTITIES
  0
LINE
  5
2B
330
1F
100
AcDbEntity
  8
Layer9
  6
Continuous
 62
     7
100
AcDbLine
 10
63.0452663601
 20
131.4975838197
 30
0.0
 11
63.0452663601
 21
163.4975838197
 31
0.0
  0
LINE
  5
2C
330
1F
100
AcDbEntity
  8
Layer9
  6
Continuous
 62
     7
100
AcDbLine
 10
63.0488643601
 20
128.9975838197
 30
0.0
 11
63.0488643601
 21
165.9975838197
 31
0.0
  0
LINE
  5
2D
330
1F
100
AcDbEntity
  8
Layer9
  6
Continuous
 62
     7
100
AcDbLine
 10
63.0488643601
 20
123.4975838197
 30
0.0
 11
63.0488643601
 21
171.4975838197
 31
0.0
  0
LINE
  5
2E
330
1F
100
AcDbEntity
  8
Layer9
  6
Continuous
 62
     7
100
AcDbLine
 10
63.0488643601
 20
171.4975838197
 30
0.0
 11
63.0488643601
 21
172.4975838197
 31
0.0
  0
LINE
  5
2F
330
1F
100
AcDbEntity
  8
Layer9
  6
Continuous
 62
     7
100
AcDbLine
 10
63.0488643601
 20
122.4975838197
 30
0.0
 11
63.0488643601
 21
123.4975838197
 31
0.0
  0
LINE
  5
31
330
1F
100
AcDbEntity
  8
Layer2
  6
Continuous
 62
     7
100
AcDbLine
 10
63.0488643601
 20
122.4975838197
 30
0.0
 11
63.0488643601
 21
172.4975838197
 31
0.0
  0
HATCH
  5
33
330
1F
100
AcDbEntity
  8
Layer50
  6
Continuous
 62
     7
100
AcDbHatch
 10
0.0
 20
0.0
 30
0.0
210
0.0
220
0.0
230
1.0
  2
LINE
 70
     0
 71
     0
 91
        1
 92
        1
 93
        8
 72
     1
 10
51.85620666230703
 20
182.8306154343518
 11
51.85620666230703
 21
112.1645522050974
 72
     1
 10
51.85620666230703
 20
112.1645522050974
 11
63.0488643601258
 21
112.1645522050974
 72
     1
 10
63.0488643601258
 20
112.1645522050974
 11
63.04886436012583
 21
122.4975838197246
 72
     1
 10
63.04886436012583
 20
122.4975838197246
 11
63.04886436012583
 21
123.4975838197246
 72
     1
 10
63.04886436012583
 20
123.4975838197246
 11
63.04886436012583
 21
171.4975838197246
 72
     1
 10
63.04886436012583
 20
171.4975838197246
 11
63.04886436012583
 21
172.4975838197246
 72
     1
 10
63.04886436012583
 20
172.4975838197246
 11
63.04886436012583
 21
182.8306154343519
 72
     1
 10
63.04886436012583
 20
182.8306154343519
 11
51.85620666230706
 21
182.8306154343518
 97
        0
 75
     0
 76
     2
 52
45.0
 41
1.0
 77
     0
 78
     1
 53
45.0
 43
0.0
 44
0.0
 45
-2.245064030267288
 46
2.245064030267288
 79
     0
 98
        0
  0
LINE
  5
35
330
1F
100
AcDbEntity
  8
Standard
  6
Continuous
 62
     7
100
AcDbLine
 10
63.0488643601
 20
123.4975838197
 30
0.0
 11
63.0488643601
 21
122.4975838197
 31
0.0
  0
LINE
  5
37
330
1F
100
AcDbEntity
  8
Layer3
  6
Continuous
 62
     7
100
AcDbLine
 10
63.0488643601
 20
173.4975838197
 30
0.0
 11
55.7488643601
 21
173.4975838197
 31
0.0
  0
LINE
  5
38
330
1F
100
AcDbEntity
  8
Layer3
  6
Continuous
 62
     7
100
AcDbLine
 10
55.7488643601
 20
121.4975838197
 30
0.0
 11
63.0488643601
 21
121.4975838197
 31
0.0
  0
LINE
  5
39
330
1F
100
AcDbEntity
  8
Standard
  6
Continuous
 62
     7
100
AcDbLine
 10
63.0488643601
 20
172.4975838197
 30
0.0
 11
63.0488643601
 21
171.4975838197
 31
0.0
  0
LINE
  5
3A
330
1F
100
AcDbEntity
  8
Layer50
  6
Continuous
 62
     7
100
AcDbLine
 10
63.0488643601
 20
182.8306154344
 30
0.0
 11
63.0488643601
 21
112.1645522051
 31
0.0
  0
LINE
  5
3D
330
1F
100
AcDbEntity
  8
Layer1
  6
HIDDEN2
 62
     7
100
AcDbLine
 10
96.1077731891
 20
166.7475838197
 30
0.0
 11
98.1254896704
 21
128.2475838197
 31
0.0
  0
LINE
  5
3E
330
1F
100
AcDbEntity
  8
Layer1
  6
HIDDEN2
 62
     7
100
AcDbLine
 10
121.839252192
 20
128.2475838197
 30
0.0
 11
121.8392278874
 21
166.7475838197
 31
0.0
  0
LINE
  5
3F
330
1F
100
AcDbEntity
  8
Layer1
  6
Continuous
 62
     7
100
AcDbLine
 10
122.0892523201
 20
128.2475838197
 30
0.0
 11
122.0892689525
 21
128.2475838197
 31
0.0
  0
LINE
  5
40
330
1F
100
AcDbEntity
  8
Layer1
  6
Continuous
 62
     7
100
AcDbLine
 10
71.5823532307
 20
128.2475838197
 30
0.0
 11
129.0888643601
 21
128.2475838197
 31
0.0
  0
LINE
  5
41
330
1F
100
AcDbEntity
  8
Layer1
  6
Continuous
 62
     7
100
AcDbLine
 10
129.5888643601
 20
128.7475838197
 30
0.0
 11
129.5888643601
 21
166.2475838197
 31
0.0
  0
LINE
  5
42
330
1F
100
AcDbEntity
  8
Layer1
  6
Continuous
 62
     7
100
AcDbLine
 10
129.0888643601
 20
166.7475838197
 30
0.0
 11
71.5823532307
 21
166.7475838197
 31
0.0
  0
ARC
  5
43
330
1F
100
AcDbEntity
  8
Layer1
  6
Continuous
 62
     7
100
AcDbCircle
 10
129.0888643601
 20
166.2475838197
 30
0.0
 40
0.5000000000000143
100
AcDbArc
 50
0.0
 51
90.0
  0
ARC
  5
44
330
1F
100
AcDbEntity
  8
Layer1
  6
Continuous
 62
     7
100
AcDbCircle
 10
129.0888643601
 20
128.7475838197
 30
0.0
 40
0.5000000000000004
100
AcDbArc
 50
270.0
 51
360.0
  0
ARC
  5
45
330
1F
100
AcDbEntity
  8
Layer1
  6
Continuous
 62
     7
100
AcDbCircle
 10
68.7072001545
 20
121.9974293371
 30
0.0
 40
0.4998455285266177
100
AcDbArc
 50
269.9878959655
 51
338.7083060349
  0
ARC
  5
46
330
1F
100
AcDbEntity
  8
Layer1
  6
Continuous
 62
     7
100
AcDbCircle
 10
68.7070945595
 20
172.9975838198
 30
0.0
 40
0.4999999999698108
100
AcDbArc
 50
21.2916939651
 51
90.0000000032
  0
SPLINE
  5
47
330
1F
100
AcDbEntity
  8
Layer1
  6
Continuous
 62
     7
100
AcDbSpline
210
0.0
220
0.0
230
1.0
 70
    12
 71
     2
 72
     6
 73
     3
 74
     0
 42
0.0000000517703234
 43
0.0000000001
 40
0.0
 40
0.0
 40
0.0
 40
1.0
 40
1.0
 40
1.0
 10
69.17296649825879
 20
172.9975721920055
 30
0.0
 41
1.0
 10
69.205850190721
 20
173.0947634491354
 30
0.0
 41
0.9664738067381753
 10
69.17296735041468
 20
173.179139713936
 30
0.0
 41
1.0
  0
LINE
  5
48
330
1F
100
AcDbEntity
  8
Layer1
  6
Continuous
 62
     7
100
AcDbLine
 10
68.7070945595
 20
173.4975838197
 30
0.0
 11
63.0488643601
 21
173.4975838197
 31
0.0
  0
LINE
  5
49
330
1F
100
AcDbEntity
  8
Layer1
  6
Continuous
 62
     7
100
AcDbLine
 10
63.0488643601
 20
173.4975838197
 30
0.0
 11
63.0488643601
 21
121.4975838197
 31
0.0
  0
LINE
  5
4A
330
1F
100
AcDbEntity
  8
Layer1
  6
Continuous
 62
     7
100
AcDbLine
 10
63.0488643601
 20
121.4975838197
 30
0.0
 11
68.7070945595
 21
121.4975838197
 31
0.0
  0
LINE
  5
4B
330
1F
100
AcDbEntity
  8
Layer1
  6
Continuous
 62
     7
100
AcDbLine
 10
69.172928155
 20
121.8159273515
 30
0.0
 11
71.5823532307
 21
127.9984311894
 31
0.0
  0
LINE
  5
4C
330
1F
100
AcDbEntity
  8
Layer1
  6
Continuous
 62
     7
100
AcDbLine
 10
69.1729664983
 20
172.997572192
 30
0.0
 11
71.5823532307
 21
166.8151749268
 31
0.0
  0
LINE
  5
4D
330
1F
100
AcDbEntity
  8
Layer1
  6
Continuous
 62
     7
100
AcDbLine
 10
68.7566399778
 20
121.9975954474
 30
0.0
 11
68.7566399778
 21
172.997572192
 31
0.0
  0
LINE
  5
4E
330
1F
100
AcDbEntity
  8
Layer1
  6
Continuous
 62
     7
100
AcDbLine
 10
69.1729664983
 20
173.1791419005
 30
0.0
 11
71.5823532307
 21
166.9967364501
 31
0.0
  0
SPLINE
  5
4F
330
1F
100
AcDbEntity
  8
Layer1
  6
Continuous
 62
     7
100
AcDbSpline
210
0.0
220
0.0
230
1.0
 70
    12
 71
     2
 72
     6
 73
     3
 74
     0
 42
0.0000000546051827
 43
0.0000000001
 40
0.0
 40
0.0
 40
0.0
 40
1.0
 40
1.0
 40
1.0
 10
71.58235323055678
 20
166.8151749268223
 30
0.0
 41
1.0
 10
71.58235358241328
 20
166.9044079611412
 30
0.0
 41
0.9915829255749062
 10
71.56442358428812
 20
166.9965799804225
 30
0.0
 41
1.0
  0
LINE
  5
50
330
1F
100
AcDbEntity
  8
Layer1
  6
Continuous
 62
     7
100
AcDbLine
 10
71.5644235843
 20
127.998587659
 30
0.0
 11
71.5823532306
 21
127.9984311894
 31
0.0
  0
LINE
  5
51
330
1F
100
AcDbEntity
  8
Layer1
  6
Continuous
 62
     7
100
AcDbLine
 10
71.5823532307
 20
166.8151749268
 30
0.0
 11
71.5823532307
 21
128.1799927127
 31
0.0
  0
SPLINE
  5
52
330
1F
100
AcDbEntity
  8
Layer1
  6
Continuous
 62
     7
100
AcDbSpline
210
0.0
220
0.0
230
1.0
 70
    12
 71
     2
 72
     6
 73
     3
 74
     0
 42
0.0000000546051827
 43
0.0000000001
 40
0.0
 40
0.0
 40
0.0
 40
1.0
 40
1.0
 40
1.0
 10
71.56442358428812
 20
127.9985876590268
 30
0.0
 41
1.0
 10
71.58235358254632
 20
128.0907596783312
 30
0.0
 41
0.9915829255783385
 10
71.58235323082549
 20
128.1799927127159
 30
0.0
 41
1.0
  0
LINE
  5
53
330
1F
100
AcDbEntity
  8
Layer1
  6
Continuous
 62
     7
100
AcDbLine
 10
71.5823532308
 20
166.9967364501
 30
0.0
 11
71.5644235843
 21
166.9965799804
 31
0.0
  0
LINE
  5
54
330
1F
100
AcDbEntity
  8
Layer3
  6
Continuous
 62
     7
100
AcDbLine
 10
129.5888643601
 20
166.2475838197
 30
0.0
 11
129.5888643601
 21
172.2427454494
 31
0.0
  0
LINE
  5
56
330
1F
100
AcDbEntity
  8
Layer3
  6
CENTER2
 62
     7
100
AcDbLine
 10
109.9823709312
 20
128.2475838197
 30
0.0
 11
109.9823709312
 21
170.7765630246
 31
0.0
  0
TEXT
  5
58
330
1F
100
AcDbEntity
  8
Default
  6
Continuous
 62
     7
100
AcDbText
 10
92.9886363636
 20
20.1363636364
 30
0.0
 40
3.8
  1
HALTER,BRS-
  7
SEACAD_seiso_ttf
 11
92.9886363636
 21
23.9363636364
 31
0.0
100
AcDbText
 73
     3
  0
TEXT
  5
5A
330
1F
100
AcDbEntity
  8
Default
  6
Continuous
 62
     7
100
AcDbText
 10
85.0431818182
 20
14.1363636364
 30
0.0
 40
3.8
  1
HANDSHOWER HOLDER
  7
SEACAD_seiso_ttf
 11
85.0431818182
 21
17.9363636364
 31
0.0
100
AcDbText
 73
     3
  0
TEXT
  5
5B
330
1F
100
AcDbEntity
  8
Default
  6
Continuous
 62
     7
100
AcDbText
 10
96.7045454545
 20
7.0681818182
 30
0.0
 40
3.0
  1
27706000
  7
SEACAD_seiso_ttf
 11
96.7045454545
 21
10.0681818182
 31
0.0
100
AcDbText
 73
     3
  0
TEXT
  5
5C
330
1F
100
AcDbEntity
  8
Default
  6
Continuous
 62
     7
100
AcDbText
 10
170.5909090909
 20
14.7136363636
 30
0.0
 40
5.0
  1
27706000
  7
SEACAD_seiso_ttf
 11
170.5909090909
 21
19.7136363636
 31
0.0
100
AcDbText
 73
     3
  0
TEXT
  5
5D
330
1F
100
AcDbEntity
  8
Default
  6
Continuous
 62
     7
100
AcDbText
 10
50.825
 20
41.55
 30
0.0
 40
2.2
  1
220885
  7
SEACAD_seiso_ttf
 11
50.825
 21
43.75
 31
0.0
100
AcDbText
 73
     3
  0
TEXT
  5
5E
330
1F
100
AcDbEntity
  8
Default
  6
Continuous
 62
     7
100
AcDbText
 10
49.725
 20
36.55
 30
0.0
 40
2.2
  1
30.05.2011
  7
SEACAD_seiso_ttf
 11
49.725
 21
38.75
 31
0.0
100
AcDbText
 73
     3
  0
TEXT
  5
5F
330
1F
100
AcDbEntity
  8
Default
  6
Continuous
 62
     7
100
AcDbText
 10
50.6
 20
31.35
 30
0.0
 40
2.2
  1
tecteam
  7
SEACAD_seiso_ttf
 11
50.6
 21
33.55
 31
0.0
100
AcDbText
 73
     3
  0
TEXT
  5
60
330
1F
100
AcDbEntity
  8
Default
  6
Continuous
 62
     7
100
AcDbText
 10
52.575
 20
26.55
 30
0.0
 40
2.2
  1
Weil
  7
SEACAD_seiso_ttf
 11
52.575
 21
28.75
 31
0.0
100
AcDbText
 73
     3
  0
TEXT
  5
61
330
1F
100
AcDbEntity
  8
Default
  6
Continuous
 62
     7
100
AcDbText
 10
13.3568181818
 20
30.5136363636
 30
0.0
 40
5.0
  1
1:1
  7
SEACAD_seiso_ttf
 11
13.3568181818
 21
35.5136363636
 31
0.0
100
AcDbText
 73
     3
  0
TEXT
  5
63
330
1F
100
AcDbEntity
  8
Default
  6
Continuous
 62
     7
100
AcDbText
 10
167.3695652174
 20
5.4652173913
 30
0.0
 40
3.0
  1
m27706000_3a_
  7
SEACAD_arial_ttf
 11
167.3695652174
 21
8.4652173913
 31
0.0
100
AcDbText
 73
     3
  0
LINE
  5
64
330
1F
100
AcDbEntity
  8
Standard
  6
Continuous
 62
     7
100
AcDbLine
 10
60.5888643171
 20
243.6688175133
 30
0.0
 11
59.5888643171
 21
243.6688175133
 31
0.0
  0
LINE
  5
65
330
1F
100
AcDbEntity
  8
Standard
  6
Continuous
 62
     7
100
AcDbLine
 10
59.5888643171
 20
243.3249159719
 30
0.0
 11
59.5888643171
 21
243.2475838197
 31
0.0
  0
LINE
  5
66
330
1F
100
AcDbEntity
  8
Standard
  6
Continuous
 62
     7
100
AcDbLine
 10
60.5888643171
 20
249.7475838197
 30
0.0
 11
59.5888643171
 21
249.7475838197
 31
0.0
  0
LINE
  5
67
330
1F
100
AcDbEntity
  8
Standard
  6
Continuous
 62
     7
100
AcDbLine
 10
60.5888643601
 20
242.4975838197
 30
0.0
 11
60.5888643601
 21
252.4975838197
 31
0.0
  0
LINE
  5
68
330
1F
100
AcDbEntity
  8
Standard
  6
Continuous
 62
     7
100
AcDbLine
 10
46.0888643601
 20
246.4975838197
 30
0.0
 11
46.0888643601
 21
244.4975838197
 31
0.0
  0
LINE
  5
69
330
1F
100
AcDbEntity
  8
Standard
  6
Continuous
 62
     7
100
AcDbLine
 10
44.0888643601
 20
246.4975838197
 30
0.0
 11
44.0888643601
 21
244.4975838197
 31
0.0
  0
LINE
  5
6A
330
1F
100
AcDbEntity
  8
Standard
  6
Continuous
 62
     7
100
AcDbLine
 10
42.0888643601
 20
246.4975838197
 30
0.0
 11
42.0888643601
 21
244.4975838197
 31
0.0
  0
LINE
  5
6B
330
1F
100
AcDbEntity
  8
Standard
  6
Continuous
 62
     7
100
AcDbLine
 10
40.0888643601
 20
246.4975838197
 30
0.0
 11
40.0888643601
 21
244.4975838197
 31
0.0
  0
LINE
  5
6C
330
1F
100
AcDbEntity
  8
Standard
  6
Continuous
 62
     7
100
AcDbLine
 10
38.0888643601
 20
246.4975838197
 30
0.0
 11
38.0888643601
 21
244.4975838197
 31
0.0
  0
LINE
  5
6D
330
1F
100
AcDbEntity
  8
Standard
  6
Continuous
 62
     7
100
AcDbLine
 10
36.0888643601
 20
247.4975838197
 30
0.0
 11
36.0888643601
 21
246.4975838197
 31
0.0
  0
LINE
  5
6E
330
1F
100
AcDbEntity
  8
Standard
  6
Continuous
 62
     7
100
AcDbLine
 10
28.5888643601
 20
244.4975838197
 30
0.0
 11
28.5888643601
 21
250.4975838197
 31
0.0
  0
LINE
  5
6F
330
1F
100
AcDbEntity
  8
Standard
  6
Continuous
 62
     7
100
AcDbLine
 10
26.5888643601
 20
244.8502377811
 30
0.0
 11
26.5888643601
 21
250.1449298583
 31
0.0
  0
LINE
  5
70
330
1F
100
AcDbEntity
  8
Standard
  6
Continuous
 62
     7
100
AcDbLine
 10
51.0888643601
 20
247.4975838197
 30
0.0
 11
51.0888643601
 21
250.6475838197
 31
0.0
  0
LINE
  5
71
330
1F
100
AcDbEntity
  8
Standard
  6
Continuous
 62
     7
100
AcDbLine
 10
36.0888643601
 20
248.4975838197
 30
0.0
 11
33.0888643601
 21
248.4975838197
 31
0.0
  0
LINE
  5
72
330
1F
100
AcDbEntity
  8
Standard
  6
Continuous
 62
     7
100
AcDbLine
 10
51.0888643601
 20
248.4975838197
 30
0.0
 11
50.9888643601
 21
248.4975838197
 31
0.0
  0
LINE
  5
73
330
1F
100
AcDbEntity
  8
Standard
  6
Continuous
 62
     7
100
AcDbLine
 10
50.9888643601
 20
248.4975838197
 30
0.0
 11
46.0888643601
 21
248.4975838197
 31
0.0
  0
LINE
  5
74
330
1F
100
AcDbEntity
  8
Standard
  6
Continuous
 62
     7
100
AcDbLine
 10
46.0888643601
 20
248.4975838197
 30
0.0
 11
44.0888643601
 21
248.4975838197
 31
0.0
  0
LINE
  5
75
330
1F
100
AcDbEntity
  8
Standard
  6
Continuous
 62
     7
100
AcDbLine
 10
44.0888643601
 20
248.4975838197
 30
0.0
 11
42.0888643601
 21
248.4975838197
 31
0.0
  0
LINE
  5
76
330
1F
100
AcDbEntity
  8
Standard
  6
Continuous
 62
     7
100
AcDbLine
 10
42.0888643601
 20
248.4975838197
 30
0.0
 11
40.0888643601
 21
248.4975838197
 31
0.0
  0
LINE
  5
77
330
1F
100
AcDbEntity
  8
Standard
  6
Continuous
 62
     7
100
AcDbLine
 10
40.0888643601
 20
248.4975838197
 30
0.0
 11
38.0888643601
 21
248.4975838197
 31
0.0
  0
LINE
  5
78
330
1F
100
AcDbEntity
  8
Standard
  6
Continuous
 62
     7
100
AcDbLine
 10
38.0888643601
 20
248.4975838197
 30
0.0
 11
36.0888643601
 21
248.4975838197
 31
0.0
  0
LINE
  5
79
330
1F
100
AcDbEntity
  8
Standard
  6
Continuous
 62
     7
100
AcDbLine
 10
33.0888643601
 20
247.4975838197
 30
0.0
 11
36.0888643601
 21
247.4975838197
 31
0.0
  0
LINE
  5
7A
330
1F
100
AcDbEntity
  8
Standard
  6
Continuous
 62
     7
100
AcDbLine
 10
48.0888643601
 20
247.4975838197
 30
0.0
 11
49.5888643601
 21
247.4975838197
 31
0.0
  0
LINE
  5
7B
330
1F
100
AcDbEntity
  8
Standard
  6
Continuous
 62
     7
100
AcDbLine
 10
33.0888643601
 20
247.4975838197
 30
0.0
 11
33.0888643601
 21
248.4975838197
 31
0.0
  0
LINE
  5
7C
330
1F
100
AcDbEntity
  8
Standard
  6
Continuous
 62
     7
100
AcDbLine
 10
36.0888643601
 20
246.4975838197
 30
0.0
 11
36.0888643601
 21
244.4975838197
 31
0.0
  0
LINE
  5
7D
330
1F
100
AcDbEntity
  8
Standard
  6
Continuous
 62
     7
100
AcDbLine
 10
48.0888643601
 20
247.4975838197
 30
0.0
 11
46.0888643601
 21
247.4975838197
 31
0.0
  0
LINE
  5
7E
330
1F
100
AcDbEntity
  8
Standard
  6
Continuous
 62
     7
100
AcDbLine
 10
46.0888643601
 20
247.4975838197
 30
0.0
 11
44.0888643601
 21
247.4975838197
 31
0.0
  0
LINE
  5
7F
330
1F
100
AcDbEntity
  8
Standard
  6
Continuous
 62
     7
100
AcDbLine
 10
44.0888643601
 20
247.4975838197
 30
0.0
 11
42.0888643601
 21
247.4975838197
 31
0.0
  0
LINE
  5
80
330
1F
100
AcDbEntity
  8
Standard
  6
Continuous
 62
     7
100
AcDbLine
 10
42.0888643601
 20
247.4975838197
 30
0.0
 11
40.0888643601
 21
247.4975838197
 31
0.0
  0
LINE
  5
81
330
1F
100
AcDbEntity
  8
Standard
  6
Continuous
 62
     7
100
AcDbLine
 10
40.0888643601
 20
247.4975838197
 30
0.0
 11
38.0888643601
 21
247.4975838197
 31
0.0
  0
LINE
  5
82
330
1F
100
AcDbEntity
  8
Standard
  6
Continuous
 62
     7
100
AcDbLine
 10
38.0888643601
 20
247.4975838197
 30
0.0
 11
36.0888643601
 21
247.4975838197
 31
0.0
  0
LINE
  5
83
330
1F
100
AcDbEntity
  8
Standard
  6
Continuous
 62
     7
100
AcDbLine
 10
48.0888643601
 20
246.4975838197
 30
0.0
 11
46.0888643601
 21
246.4975838197
 31
0.0
  0
LINE
  5
84
330
1F
100
AcDbEntity
  8
Standard
  6
Continuous
 62
     7
100
AcDbLine
 10
46.0888643601
 20
246.4975838197
 30
0.0
 11
46.0888643601
 21
247.4975838197
 31
0.0
  0
LINE
  5
85
330
1F
100
AcDbEntity
  8
Standard
  6
Continuous
 62
     7
100
AcDbLine
 10
46.0888643601
 20
246.4975838197
 30
0.0
 11
44.0888643601
 21
246.4975838197
 31
0.0
  0
LINE
  5
86
330
1F
100
AcDbEntity
  8
Standard
  6
Continuous
 62
     7
100
AcDbLine
 10
44.0888643601
 20
246.4975838197
 30
0.0
 11
44.0888643601
 21
247.4975838197
 31
0.0
  0
LINE
  5
87
330
1F
100
AcDbEntity
  8
Standard
  6
Continuous
 62
     7
100
AcDbLine
 10
44.0888643601
 20
246.4975838197
 30
0.0
 11
42.0888643601
 21
246.4975838197
 31
0.0
  0
LINE
  5
88
330
1F
100
AcDbEntity
  8
Standard
  6
Continuous
 62
     7
100
AcDbLine
 10
42.0888643601
 20
246.4975838197
 30
0.0
 11
42.0888643601
 21
247.4975838197
 31
0.0
  0
LINE
  5
89
330
1F
100
AcDbEntity
  8
Standard
  6
Continuous
 62
     7
100
AcDbLine
 10
42.0888643601
 20
246.4975838197
 30
0.0
 11
40.0888643601
 21
246.4975838197
 31
0.0
  0
LINE
  5
8A
330
1F
100
AcDbEntity
  8
Standard
  6
Continuous
 62
     7
100
AcDbLine
 10
40.0888643601
 20
246.4975838197
 30
0.0
 11
40.0888643601
 21
247.4975838197
 31
0.0
  0
LINE
  5
8B
330
1F
100
AcDbEntity
  8
Standard
  6
Continuous
 62
     7
100
AcDbLine
 10
40.0888643601
 20
246.4975838197
 30
0.0
 11
38.0888643601
 21
246.4975838197
 31
0.0
  0
LINE
  5
8C
330
1F
100
AcDbEntity
  8
Standard
  6
Continuous
 62
     7
100
AcDbLine
 10
38.0888643601
 20
246.4975838197
 30
0.0
 11
38.0888643601
 21
247.4975838197
 31
0.0
  0
LINE
  5
8D
330
1F
100
AcDbEntity
  8
Standard
  6
Continuous
 62
     7
100
AcDbLine
 10
38.0888643601
 20
246.4975838197
 30
0.0
 11
36.0888643601
 21
246.4975838197
 31
0.0
  0
LINE
  5
8E
330
1F
100
AcDbEntity
  8
Standard
  6
Continuous
 62
     7
100
AcDbLine
 10
48.0888643601
 20
246.4975838197
 30
0.0
 11
48.0888643601
 21
247.4975838197
 31
0.0
  0
LINE
  5
8F
330
1F
100
AcDbEntity
  8
Standard
  6
Continuous
 62
     7
100
AcDbLine
 10
46.0888643601
 20
250.4975838197
 30
0.0
 11
46.0888643601
 21
248.4975838197
 31
0.0
  0
LINE
  5
90
330
1F
100
AcDbEntity
  8
Standard
  6
Continuous
 62
     7
100
AcDbLine
 10
44.0888643601
 20
250.4975838197
 30
0.0
 11
44.0888643601
 21
248.4975838197
 31
0.0
  0
LINE
  5
91
330
1F
100
AcDbEntity
  8
Standard
  6
Continuous
 62
     7
100
AcDbLine
 10
42.0888643601
 20
250.4975838197
 30
0.0
 11
42.0888643601
 21
248.4975838197
 31
0.0
  0
LINE
  5
92
330
1F
100
AcDbEntity
  8
Standard
  6
Continuous
 62
     7
100
AcDbLine
 10
40.0888643601
 20
250.4975838197
 30
0.0
 11
40.0888643601
 21
248.4975838197
 31
0.0
  0
LINE
  5
93
330
1F
100
AcDbEntity
  8
Standard
  6
Continuous
 62
     7
100
AcDbLine
 10
38.0888643601
 20
250.4975838197
 30
0.0
 11
38.0888643601
 21
248.4975838197
 31
0.0
  0
LINE
  5
94
330
1F
100
AcDbEntity
  8
Standard
  6
Continuous
 62
     7
100
AcDbLine
 10
36.0888643601
 20
250.4975838197
 30
0.0
 11
36.0888643601
 21
248.4975838197
 31
0.0
  0
LINE
  5
95
330
1F
100
AcDbEntity
  8
Standard
  6
Continuous
 62
     7
100
AcDbLine
 10
49.5888643601
 20
247.4975838197
 30
0.0
 11
49.5888643601
 21
246.4975838197
 31
0.0
  0
LINE
  5
96
330
1F
100
AcDbEntity
  8
Standard
  6
Continuous
 62
     7
100
AcDbLine
 10
51.0888643601
 20
244.3475838197
 30
0.0
 11
51.0888643601
 21
246.4975838197
 31
0.0
  0
LINE
  5
97
330
1F
100
AcDbEntity
  8
Standard
  6
Continuous
 62
     7
100
AcDbLine
 10
59.5888643601
 20
247.4975838197
 30
0.0
 11
49.5888643601
 21
247.4975838197
 31
0.0
  0
LINE
  5
98
330
1F
100
AcDbEntity
  8
Standard
  6
Continuous
 62
     7
100
AcDbLine
 10
53.7291364837
 20
244.2475838197
 30
0.0
 11
59.5888643601
 21
243.3249159651
 31
0.0
  0
LINE
  5
99
330
1F
100
AcDbEntity
  8
Standard
  6
Continuous
 62
     7
100
AcDbLine
 10
59.5888643601
 20
246.4975838197
 30
0.0
 11
49.5888643601
 21
246.4975838197
 31
0.0
  0
LINE
  5
9A
330
1F
100
AcDbEntity
  8
Standard
  6
Continuous
 62
     7
100
AcDbLine
 10
59.5888643601
 20
251.6702516743
 30
0.0
 11
53.7291364837
 21
250.7475838197
 31
0.0
  0
LINE
  5
9B
330
1F
100
AcDbEntity
  8
Standard
  6
Continuous
 62
     7
100
AcDbLine
 10
59.5888643601
 20
247.4975838197
 30
0.0
 11
59.5888643601
 21
246.4975838197
 31
0.0
  0
LINE
  5
9C
330
1F
100
AcDbEntity
  8
Standard
  6
Continuous
 62
     7
100
AcDbLine
 10
60.5888643601
 20
246.1619016539
 30
0.0
 11
59.5888643601
 21
246.1869021298
 31
0.0
  0
LINE
  5
9D
330
1F
100
AcDbEntity
  8
Standard
  6
Continuous
 62
     7
100
AcDbLine
 10
59.5888643601
 20
249.778125004
 30
0.0
 11
60.5888643601
 21
249.821428747
 31
0.0
  0
LINE
  5
9E
330
1F
100
AcDbEntity
  8
Standard
  6
Continuous
 62
     7
100
AcDbLine
 10
60.5888643601
 20
250.2977648975
 30
0.0
 11
59.5888643601
 21
250.2977648975
 31
0.0
  0
LINE
  5
9F
330
1F
100
AcDbEntity
  8
Standard
  6
Continuous
 62
     7
100
AcDbLine
 10
59.5888643601
 20
245.8868973859
 30
0.0
 11
60.5888643601
 21
245.8868973859
 31
0.0
  0
LINE
  5
A0
330
1F
100
AcDbEntity
  8
Standard
  6
Continuous
 62
     7
100
AcDbLine
 10
59.5888643601
 20
245.8868973859
 30
0.0
 11
59.5888643601
 21
246.4975838197
 31
0.0
  0
LINE
  5
A1
330
1F
100
AcDbEntity
  8
Standard
  6
Continuous
 62
     7
100
AcDbLine
 10
59.5888643601
 20
247.4975838197
 30
0.0
 11
59.5888643601
 21
250.2977648975
 31
0.0
  0
LINE
  5
A2
330
1F
100
AcDbEntity
  8
Standard
  6
Continuous
 62
     7
100
AcDbLine
 10
60.5888643601
 20
244.6688175133
 30
0.0
 11
59.5888643601
 21
244.6688175133
 31
0.0
  0
LINE
  5
A3
330
1F
100
AcDbEntity
  8
Standard
  6
Continuous
 62
     7
100
AcDbLine
 10
59.5888643601
 20
244.6688175133
 30
0.0
 11
59.5888643601
 21
244.2475838197
 31
0.0
  0
LINE
  5
A4
330
1F
100
AcDbEntity
  8
Standard
  6
Continuous
 62
     7
100
AcDbLine
 10
59.5888643601
 20
244.2475838197
 30
0.0
 11
59.5888643601
 21
243.3249159651
 31
0.0
  0
LINE
  5
A5
330
1F
100
AcDbEntity
  8
Standard
  6
Continuous
 62
     7
100
AcDbLine
 10
59.5888643601
 20
251.6702516743
 30
0.0
 11
59.5888643601
 21
250.7475838197
 31
0.0
  0
LINE
  5
A6
330
1F
100
AcDbEntity
  8
Standard
  6
Continuous
 62
     7
100
AcDbLine
 10
36.0888643601
 20
250.4975838197
 30
0.0
 11
28.5888643601
 21
250.4975838197
 31
0.0
  0
LINE
  5
A7
330
1F
100
AcDbEntity
  8
Standard
  6
Continuous
 62
     7
100
AcDbLine
 10
28.5888643601
 20
244.4975838197
 30
0.0
 11
36.0888643601
 21
244.4975838197
 31
0.0
  0
LINE
  5
A8
330
1F
100
AcDbEntity
  8
Standard
  6
Continuous
 62
     7
100
AcDbLine
 10
28.5888643601
 20
250.4975838197
 30
0.0
 11
26.5888643601
 21
250.1449298583
 31
0.0
  0
LINE
  5
A9
330
1F
100
AcDbEntity
  8
Standard
  6
Continuous
 62
     7
100
AcDbLine
 10
26.5888643601
 20
244.8502377811
 30
0.0
 11
28.5888643601
 21
244.4975838197
 31
0.0
  0
LINE
  5
AA
330
1F
100
AcDbEntity
  8
Standard
  6
Continuous
 62
     7
100
AcDbLine
 10
61.5888643601
 20
252.4975838197
 30
0.0
 11
60.5888643601
 21
252.4975838197
 31
0.0
  0
LINE
  5
AB
330
1F
100
AcDbEntity
  8
Standard
  6
Continuous
 62
     7
100
AcDbLine
 10
60.5888643601
 20
242.4975838197
 30
0.0
 11
61.5888643601
 21
242.4975838197
 31
0.0
  0
ARC
  5
AC
330
1F
100
AcDbEntity
  8
Standard
  6
Continuous
 62
     7
100
AcDbCircle
 10
50.9888643601
 20
244.3975838197
 30
0.0
 40
0.1000000000000003
100
AcDbArc
 50
0.0
 51
90.0
  0
LINE
  5
AD
330
1F
100
AcDbEntity
  8
Standard
  6
Continuous
 62
     7
100
AcDbLine
 10
46.0888643601
 20
244.4975838197
 30
0.0
 11
50.9888643601
 21
244.4975838197
 31
0.0
  0
LINE
  5
AE
330
1F
100
AcDbEntity
  8
Standard
  6
Continuous
 62
     7
100
AcDbLine
 10
44.0888643601
 20
244.8502377811
 30
0.0
 11
46.0888643601
 21
244.4975838197
 31
0.0
  0
LINE
  5
AF
330
1F
100
AcDbEntity
  8
Standard
  6
Continuous
 62
     7
100
AcDbLine
 10
42.0888643601
 20
244.4975838197
 30
0.0
 11
44.0888643601
 21
244.4975838197
 31
0.0
  0
LINE
  5
B0
330
1F
100
AcDbEntity
  8
Standard
  6
Continuous
 62
     7
100
AcDbLine
 10
40.0888643601
 20
244.8502377811
 30
0.0
 11
42.0888643601
 21
244.4975838197
 31
0.0
  0
LINE
  5
B1
330
1F
100
AcDbEntity
  8
Standard
  6
Continuous
 62
     7
100
AcDbLine
 10
38.0888643601
 20
244.4975838197
 30
0.0
 11
40.0888643601
 21
244.4975838197
 31
0.0
  0
LINE
  5
B2
330
1F
100
AcDbEntity
  8
Standard
  6
Continuous
 62
     7
100
AcDbLine
 10
36.0888643601
 20
244.8502377811
 30
0.0
 11
38.0888643601
 21
244.4975838197
 31
0.0
  0
ARC
  5
B3
330
1F
100
AcDbEntity
  8
Standard
  6
Continuous
 62
     7
100
AcDbCircle
 10
50.9888643601
 20
250.5975838197
 30
0.0
 40
0.0999999999999994
100
AcDbArc
 50
270.0
 51
360.0
  0
LINE
  5
B4
330
1F
100
AcDbEntity
  8
Standard
  6
Continuous
 62
     7
100
AcDbLine
 10
46.0888643601
 20
250.4975838197
 30
0.0
 11
44.0888643601
 21
250.1449298583
 31
0.0
  0
LINE
  5
B5
330
1F
100
AcDbEntity
  8
Standard
  6
Continuous
 62
     7
100
AcDbLine
 10
44.0888643601
 20
250.4975838197
 30
0.0
 11
42.0888643601
 21
250.4975838197
 31
0.0
  0
LINE
  5
B6
330
1F
100
AcDbEntity
  8
Standard
  6
Continuous
 62
     7
100
AcDbLine
 10
42.0888643601
 20
250.4975838197
 30
0.0
 11
40.0888643601
 21
250.1449298583
 31
0.0
  0
LINE
  5
B7
330
1F
100
AcDbEntity
  8
Standard
  6
Continuous
 62
     7
100
AcDbLine
 10
40.0888643601
 20
250.4975838197
 30
0.0
 11
38.0888643601
 21
250.4975838197
 31
0.0
  0
LINE
  5
B8
330
1F
100
AcDbEntity
  8
Standard
  6
Continuous
 62
     7
100
AcDbLine
 10
38.0888643601
 20
250.4975838197
 30
0.0
 11
36.0888643601
 21
250.1449298583
 31
0.0
  0
LINE
  5
B9
330
1F
100
AcDbEntity
  8
Standard
  6
Continuous
 62
     7
100
AcDbLine
 10
50.9888643601
 20
250.4975838197
 30
0.0
 11
46.0888643601
 21
250.4975838197
 31
0.0
  0
ARC
  5
BA
330
1F
100
AcDbEntity
  8
Standard
  6
Continuous
 62
     7
100
AcDbCircle
 10
51.1888643601
 20
244.3475838197
 30
0.0
 40
0.1000000000000029
100
AcDbArc
 50
180.0
 51
270.0
  0
LINE
  5
BB
330
1F
100
AcDbEntity
  8
Standard
  6
Continuous
 62
     7
100
AcDbLine
 10
51.1888643601
 20
244.2475838197
 30
0.0
 11
59.5888643601
 21
244.2475838197
 31
0.0
  0
ARC
  5
BC
330
1F
100
AcDbEntity
  8
Standard
  6
Continuous
 62
     7
100
AcDbCircle
 10
51.1888643601
 20
250.6475838197
 30
0.0
 40
0.0999999999999994
100
AcDbArc
 50
90.0
 51
180.0
  0
LINE
  5
BD
330
1F
100
AcDbEntity
  8
Standard
  6
Continuous
 62
     7
100
AcDbLine
 10
60.5888643601
 20
250.7475838197
 30
0.0
 11
51.1888643601
 21
250.7475838197
 31
0.0
  0
LINE
  5
BE
330
1F
100
AcDbEntity
  8
Standard
  6
Continuous
 62
     7
100
AcDbLine
 10
26.588864347
 20
247.4975838197
 30
0.0
 11
26.236640251
 21
247.4975838197
 31
0.0
  0
SPLINE
  5
BF
330
1F
100
AcDbEntity
  8
Standard
  6
Continuous
 62
     7
100
AcDbSpline
210
0.0
220
0.0
230
1.0
 70
     8
 71
     3
 72
     8
 73
     4
 74
     0
 42
0.0000000098633552
 43
0.0000000001
 40
0.0
 40
0.0
 40
0.0
 40
0.0
 40
0.9999999999999999
 40
0.9999999999999999
 40
0.9999999999999999
 40
0.9999999999999999
 10
34.42219731955354
 20
248.4975856516787
 30
0.0
 10
34.47774771822357
 20
248.1953015705233
 30
0.0
 10
34.53329811689363
 20
247.8464611196771
 30
0.0
 10
34.58884851556368
 20
247.4975838814916
 30
0.0
  0
SPLINE
  5
C0
330
1F
100
AcDbEntity
  8
Standard
  6
Continuous
 62
     7
100
AcDbSpline
210
0.0
220
0.0
230
1.0
 70
     8
 71
     3
 72
    10
 73
     6
 74
     0
 42
0.0000000098634474
 43
0.0000000001
 40
0.0
 40
0.0
 40
0.0
 40
0.0
 40
0.076975598144451
 40
0.076975598144451
 40
1.0
 40
1.0
 40
1.0
 40
1.0
 10
36.42218949878593
 20
248.4975872441137
 30
0.0
 10
36.42646573025444
 20
248.4743447599705
 30
0.0
 10
36.43074196172292
 20
248.4508209104114
 30
0.0
 10
36.48629504051127
 20
248.1417522292815
 30
0.0
 10
36.53757188783113
 20
247.8196574510875
 30
0.0
 10
36.58884873515098
 20
247.49758387598
 30
0.0
  0
SPLINE
  5
C1
330
1F
100
AcDbEntity
  8
Standard
  6
Continuous
 62
     7
100
AcDbSpline
210
0.0
220
0.0
230
1.0
 70
     8
 71
     3
 72
    10
 73
     6
 74
     0
 42
0.0000000098634058
 43
0.0000000001
 40
0.0
 40
0.0
 40
0.0
 40
0.0
 40
0.1610024324334005
 40
0.1610024324334005
 40
0.9999999999999999
 40
0.9999999999999999
 40
0.9999999999999999
 40
0.9999999999999999
 10
38.42216762570786
 20
248.4975963046338
 30
0.0
 10
38.43111315286438
 20
248.4490107283024
 30
0.0
 10
38.44005868002093
 20
248.3992147741575
 30
0.0
 10
38.49562012105839
 20
248.0832718096912
 30
0.0
 10
38.54223603493931
 20
247.7904131966065
 30
0.0
 10
38.58885194882025
 20
247.4975838582504
 30
0.0
  0
SPLINE
  5
C2
330
1F
100
AcDbEntity
  8
Standard
  6
Continuous
 62
     7
100
AcDbSpline
210
0.0
220
0.0
230
1.0
 70
     8
 71
     3
 72
    10
 73
     6
 74
     0
 42
0.0000000098632711
 43
0.0000000001
 40
0.0
 40
0.0
 40
0.0
 40
0.0
 40
0.2450261876225159
 40
0.2450261876225159
 40
1.0
 40
1.0
 40
1.0
 40
1.0
 10
40.42213997269731
 20
248.497607635905
 30
0.0
 10
40.43575672218602
 20
248.4236745024716
 30
0.0
 10
40.44937347167477
 20
248.3469757561258
 30
0.0
 10
40.50494610095512
 20
248.0247500138303
 30
0.0
 10
40.54690198074679
 20
247.7611577268501
 30
0.0
 10
40.58885786053843
 20
247.4975816282998
 30
0.0
  0
SPLINE
  5
C3
330
1F
100
AcDbEntity
  8
Standard
  6
Continuous
 62
     7
100
AcDbSpline
210
0.0
220
0.0
230
1.0
 70
     8
 71
     3
 72
    10
 73
     6
 74
     0
 42
0.0000000098631538
 43
0.0000000001
 40
0.0
 40
0.0
 40
0.0
 40
0.0
 40
0.329013537723252
 40
0.329013537723252
 40
1.0
 40
1.0
 40
1.0
 40
1.0
 10
42.42211267889143
 20
248.4976187150091
 30
0.0
 10
42.44040053097747
 20
248.3983214201409
 30
0.0
 10
42.45868838306349
 20
248.2940897126584
 30
0.0
 10
42.51427227244564
 20
247.9662003719939
 30
0.0
 10
42.55156830974175
 20
247.7318920958593
 30
0.0
 10
42.58886434703785
 20
247.4975838197246
 30
0.0
  0
SPLINE
  5
C4
330
1F
100
AcDbEntity
  8
Standard
  6
Continuous
 62
     7
100
AcDbSpline
210
0.0
220
0.0
230
1.0
 70
     8
 71
     3
 72
    10
 73
     6
 74
     0
 42
0.0000000098630435
 43
0.0000000001
 40
0.0
 40
0.0
 40
0.0
 40
0.0
 40
0.4129501667059861
 40
0.4129501667059861
 40
1.0
 40
1.0
 40
1.0
 40
1.0
 10
44.42209012967041
 20
248.4976278021622
 30
0.0
 10
44.44504750282546
 20
248.3729431769902
 30
0.0
 10
44.46800487598052
 20
248.2405444698346
 30
0.0
 10
44.52359844393614
 20
247.9076317761006
 30
0.0
 10
44.5562346387367
 20
247.702613791279
 30
0.0
 10
44.58887083353727
 20
247.4975860111495
 30
0.0
  0
SPLINE
  5
C5
330
1F
100
AcDbEntity
  8
Standard
  6
Continuous
 62
     7
100
AcDbSpline
210
0.0
220
0.0
230
1.0
 70
     8
 71
     3
 72
    10
 73
     6
 74
     0
 42
0.0000000098629186
 43
0.0000000001
 40
0.0
 40
0.0
 40
0.0
 40
0.0
 40
0.4968366108460278
 40
0.4968366108460278
 40
1.0
 40
1.0
 40
1.0
 40
1.0
 10
46.42207509803117
 20
248.4976338368543
 30
0.0
 10
46.44969948639466
 20
248.3475372835457
 30
0.0
 10
46.47732387475811
 20
248.1863302080691
 30
0.0
 10
46.53292442383289
 20
247.84905151796
 30
0.0
 10
46.56090058454418
 20
247.6733229215224
 30
0.0
 10
46.58887674525544
 20
247.4975837811989
 30
0.0
  0
SPLINE
  5
C6
330
1F
100
AcDbEntity
  8
Standard
  6
Continuous
 62
     7
100
AcDbSpline
210
0.0
220
0.0
230
1.0
 70
     8
 71
     3
 72
    10
 73
     6
 74
     0
 42
0.0000000098628568
 43
0.0000000001
 40
0.0
 40
0.0
 40
0.0
 40
0.0
 40
0.5806891333251957
 40
0.5806891333251957
 40
1.0
 40
1.0
 40
1.0
 40
1.0
 10
48.42206891877271
 20
248.4976363323245
 30
0.0
 10
48.45435737155101
 20
248.3221063570148
 30
0.0
 10
48.48664582432932
 20
248.1314396692654
 30
0.0
 10
48.54224950438002
 20
247.7904686268996
 30
0.0
 10
48.56556473165236
 20
247.6440283870089
 30
0.0
 10
48.58887995892472
 20
247.4975837634693
 30
0.0
  0
SPLINE
  5
C7
330
1F
100
AcDbEntity
  8
Standard
  6
Continuous
 62
     7
100
AcDbSpline
210
0.0
220
0.0
230
1.0
 70
     8
 71
     3
 72
    10
 73
     6
 74
     0
 42
0.0000000098628402
 43
0.0000000001
 40
0.0
 40
0.0
 40
0.0
 40
0.0
 40
0.6645261472876587
 40
0.6645261472876587
 40
1.0
 40
1.0
 40
1.0
 40
1.0
 10
50.42207168668506
 20
248.4976352743022
 30
0.0
 10
50.45902122148793
 20
248.2966572769211
 30
0.0
 10
50.49597075629081
 20
248.0758682072232
 30
0.0
 10
50.55157358689979
 20
247.7318872261695
 30
0.0
 10
50.5702268827059
 20
247.6147334180806
 30
0.0
 10
50.58888017851201
 20
247.4975837579577
 30
0.0
  0
SPLINE
  5
C8
330
1F
100
AcDbEntity
  8
Standard
  6
Continuous
 62
     7
100
AcDbSpline
210
0.0
220
0.0
230
1.0
 70
     8
 71
     3
 72
    14
 73
    10
 74
     0
 42
0.0000000097076017
 43
0.0000000001
 40
0.0
 40
0.0
 40
0.0
 40
0.0
 40
0.4551450371065981
 40
0.4551450371065981
 40
0.4551450371065981
 40
0.9259566763545067
 40
0.9259566763545067
 40
0.9259566763545067
 40
0.9999999999999999
 40
0.9999999999999999
 40
0.9999999999999999
 40
0.9999999999999999
 10
50.30050978084638
 20
247.4975865309895
 30
0.0
 10
50.26502987646764
 20
247.6636267147342
 30
0.0
 10
50.22924491459113
 20
247.8317705206981
 30
0.0
 10
50.19427790025382
 20
247.9886193312655
 30
0.0
 10
50.15810751188762
 20
248.1508660229124
 30
0.0
 10
50.12126976900799
 20
248.3053817285537
 30
0.0
 10
50.0846038615107
 20
248.4389807514509
 30
0.0
 10
50.07883745330036
 20
248.4599917274533
 30
0.0
 10
50.07305998438164
 20
248.4805784033004
 30
0.0
 10
50.06727685423104
 20
248.5007021938115
 30
0.0
  0
SPLINE
  5
C9
330
1F
100
AcDbEntity
  8
Standard
  6
Continuous
 62
     7
100
AcDbSpline
210
0.0
220
0.0
230
1.0
 70
     8
 71
     3
 72
    14
 73
    10
 74
     0
 42
0.0000000097130143
 43
0.0000000001
 40
0.0
 40
0.0
 40
0.0
 40
0.0
 40
0.3532465625517023
 40
0.3532465625517023
 40
0.3532465625517023
 40
0.824545031757387
 40
0.824545031757387
 40
0.824545031757387
 40
1.0
 40
1.0
 40
1.0
 40
1.0
 10
48.30059206946036
 20
247.4975940159709
 30
0.0
 10
48.27296221934502
 20
247.6269259618036
 30
0.0
 10
48.24508364410543
 20
247.7569148563705
 30
0.0
 10
48.21785923688016
 20
247.8813393784355
 30
0.0
 10
48.18153780975057
 20
248.0473402824743
 30
0.0
 10
48.14501617780095
 20
248.2079249645418
 30
0.0
 10
48.10853484928529
 20
248.3492502563388
 30
0.0
 10
48.09495312548837
 20
248.4018645978884
 30
0.0
 10
48.08123086431437
 20
248.4523525037859
 30
0.0
 10
48.06747925851496
 20
248.5001676047215
 30
0.0
  0
SPLINE
  5
CA
330
1F
100
AcDbEntity
  8
Standard
  6
Continuous
 62
     7
100
AcDbSpline
210
0.0
220
0.0
230
1.0
 70
     8
 71
     3
 72
    14
 73
    10
 74
     0
 42
0.0000000097164852
 43
0.0000000001
 40
0.0
 40
0.0
 40
0.0
 40
0.0
 40
0.2517600093243037
 40
0.2517600093243037
 40
0.2517600093243037
 40
0.7232648671605214
 40
0.7232648671605214
 40
0.7232648671605214
 40
1.0
 40
1.0
 40
1.0
 40
1.0
 10
46.30064507964337
 20
247.4975765288332
 30
0.0
 10
46.28096844475679
 20
247.589879366767
 30
0.0
 10
46.26122322466786
 20
247.6822176658783
 30
0.0
 10
46.24165086644869
 20
247.7723162902203
 30
0.0
 10
46.2049960641111
 20
247.9410515662233
 30
0.0
 10
46.16845477144626
 20
248.1066895303478
 30
0.0
 10
46.13219265073288
 20
248.2549173441186
 30
0.0
 10
46.1109092498985
 20
248.341916998668
 30
0.0
 10
46.08929655419436
 20
248.4243163872377
 30
0.0
 10
46.06765809548424
 20
248.4998104277377
 30
0.0
  0
SPLINE
  5
CB
330
1F
100
AcDbEntity
  8
Standard
  6
Continuous
 62
     7
100
AcDbSpline
210
0.0
220
0.0
230
1.0
 70
     8
 71
     3
 72
    14
 73
    10
 74
     0
 42
0.0000000097216344
 43
0.0000000001
 40
0.0
 40
0.0
 40
0.0
 40
0.0
 40
0.1502401246499127
 40
0.1502401246499127
 40
0.1502401246499127
 40
0.6218618718158441
 40
0.6218618718158441
 40
0.6218618718158441
 40
1.0
 40
1.0
 40
1.0
 40
1.0
 10
44.3006991064514
 20
247.4975904099324
 30
0.0
 10
44.28901140201061
 20
247.5525965671626
 30
0.0
 10
44.27731414734781
 20
247.6075073350346
 30
0.0
 10
44.26563491524432
 20
247.6618356017799
 30
0.0
 10
44.22897207725352
 20
247.8323800711729
 30
0.0
 10
44.19187704879568
 20
248.0019780023466
 30
0.0
 10
44.15571062982057
 20
248.1562238151211
 30
0.0
 10
44.12671328917359
 20
248.2798942946196
 30
0.0
 10
44.09731088707849
 20
248.396352715248
 30
0.0
 10
44.06790434526625
 20
248.4993081680064
 30
0.0
  0
SPLINE
  5
CC
330
1F
100
AcDbEntity
  8
Standard
  6
Continuous
 62
     7
100
AcDbSpline
210
0.0
220
0.0
230
1.0
 70
     8
 71
     3
 72
    17
 73
    13
 74
     0
 42
0.0000000097342229
 43
0.0000000001
 40
0.0
 40
0.0
 40
0.0
 40
0.0
 40
0.0481795073461168
 40
0.0481795073461168
 40
0.0481795073461168
 40
0.5203539466970213
 40
0.5203539466970213
 40
0.5203539466970213
 40
0.992826012501794
 40
0.992826012501794
 40
0.992826012501794
 40
1.0
 40
1.0
 40
1.0
 40
1.0
 10
42.30073276067522
 20
247.497583158075
 30
0.0
 10
42.29701153586859
 20
247.5151368123113
 30
0.0
 10
42.29329046199554
 20
247.5326697843872
 30
0.0
 10
42.28956980515
 20
247.5501660590419
 30
0.0
 10
42.25310496876303
 20
247.7216408332963
 30
0.0
 10
42.21563319723825
 20
247.8943105246202
 30
0.0
 10
42.17930543593146
 20
248.0536905324767
 30
0.0
 10
42.14295596160866
 20
248.2131658013824
 30
0.0
 10
42.10645288428486
 20
248.3636541313458
 30
0.0
 10
42.06999239292569
 20
248.4921741880819
 30
0.0
 10
42.06943876008384
 20
248.4941256956342
 30
0.0
 10
42.06888488856089
 20
248.4960729601662
 30
0.0
 10
42.06833078586772
 20
248.4980159492774
 30
0.0
  0
SPLINE
  5
CD
330
1F
100
AcDbEntity
  8
Standard
  6
Continuous
 62
     7
100
AcDbSpline
210
0.0
220
0.0
230
1.0
 70
     8
 71
     3
 72
    14
 73
    10
 74
     0
 42
0.0000000097226633
 43
0.0000000001
 40
0.0
 40
0.0
 40
0.0
 40
0.0
 40
0.4173962541503154
 40
0.4173962541503154
 40
0.4173962541503154
 40
0.8891843056829482
 40
0.8891843056829482
 40
0.8891843056829482
 40
1.0
 40
1.0
 40
1.0
 40
1.0
 10
40.3007019719214
 20
247.4975993451032
 30
0.0
 10
40.26843978700212
 20
247.6499351179235
 30
0.0
 10
40.2355622470493
 20
247.8036479192659
 30
0.0
 10
40.20311981540014
 20
247.9484730667209
 30
0.0
 10
40.16645063484744
 20
248.1121666991224
 30
0.0
 10
40.12987224778955
 20
248.2691245059486
 30
0.0
 10
40.0936262306184
 20
248.4057915376102
 30
0.0
 10
40.08511243508816
 20
248.4378931381198
 30
0.0
 10
40.07654705410302
 20
248.4690814006382
 30
0.0
 10
40.06794865299867
 20
248.4992247429617
 30
0.0
  0
SPLINE
  5
CE
330
1F
100
AcDbEntity
  8
Standard
  6
Continuous
 62
     7
100
AcDbSpline
210
0.0
220
0.0
230
1.0
 70
     8
 71
     3
 72
    14
 73
    10
 74
     0
 42
0.0000000097284203
 43
0.0000000001
 40
0.0
 40
0.0
 40
0.0
 40
0.0
 40
0.3157382833877496
 40
0.3157382833877496
 40
0.3157382833877496
 40
0.7877354515168776
 40
0.7877354515168776
 40
0.7877354515168776
 40
1.0
 40
1.0
 40
1.0
 40
1.0
 10
38.30062953396438
 20
247.4975848797612
 30
0.0
 10
38.27621274806953
 20
247.6131292585154
 30
0.0
 10
38.25162752258981
 20
247.729021776576
 30
0.0
 10
38.22711082454633
 20
247.8407491144033
 30
0.0
 10
38.19046036372264
 20
248.0077723575298
 30
0.0
 10
38.15331292164132
 20
248.1701758260265
 30
0.0
 10
38.11714399399118
 20
248.3141819780712
 30
0.0
 10
38.10087845253243
 20
248.3789430364874
 30
0.0
 10
38.08449323254231
 20
248.440762524145
 30
0.0
 10
38.06805363432655
 20
248.4986354590365
 30
0.0
  0
SPLINE
  5
CF
330
1F
100
AcDbEntity
  8
Standard
  6
Continuous
 62
     7
100
AcDbSpline
210
0.0
220
0.0
230
1.0
 70
     8
 71
     3
 72
    14
 73
    10
 74
     0
 42
0.0000000097250984
 43
0.0000000001
 40
0.0
 40
0.0
 40
0.0
 40
0.0
 40
0.213653594494562
 40
0.213653594494562
 40
0.213653594494562
 40
0.6853743732274864
 40
0.6853743732274864
 40
0.6853743732274864
 40
1.0
 40
1.0
 40
1.0
 40
1.0
 10
36.3005511775838
 20
247.4975867919284
 30
0.0
 10
36.2840475901228
 20
247.5758708356605
 30
0.0
 10
36.26753345885919
 20
247.6541032422217
 30
0.0
 10
36.25102790408691
 20
247.7308695584121
 30
0.0
 10
36.21458443304009
 20
247.9003658922253
 30
0.0
 10
36.17711123314643
 20
248.0673802816407
 30
0.0
 10
36.14075347070589
 20
248.2179016926341
 30
0.0
 10
36.11650459414376
 20
248.3182922246725
 30
0.0
 10
36.09220832509219
 20
248.4131617721634
 30
0.0
 10
36.06791021357694
 20
248.4989777864084
 30
0.0
  0
SPLINE
  5
D0
330
1F
100
AcDbEntity
  8
Standard
  6
Continuous
 62
     7
100
AcDbSpline
210
0.0
220
0.0
230
1.0
 70
     8
 71
     3
 72
    14
 73
    10
 74
     0
 42
0.0000000097125321
 43
0.0000000001
 40
0.0
 40
0.0
 40
0.0
 40
0.0
 40
0.1116650388909439
 40
0.1116650388909439
 40
0.1116650388909439
 40
0.5826910411118699
 40
0.5826910411118699
 40
0.5826910411118699
 40
1.0
 40
1.0
 40
1.0
 40
1.0
 10
34.30048802434909
 20
247.4975807261912
 30
0.0
 10
34.29186504479775
 20
247.5384828384104
 30
0.0
 10
34.28325705717289
 20
247.5793134476711
 30
0.0
 10
34.27466703108273
 20
247.619870584234
 30
0.0
 10
34.23843180351843
 20
247.790952378083
 30
0.0
 10
34.2012573831344
 20
247.9618249664011
 30
0.0
 10
34.16459031064434
 20
248.1180225596986
 30
0.0
 10
34.13210554756147
 20
248.2564039866248
 30
0.0
 10
34.09966824977334
 20
248.3867260499899
 30
0.0
 10
34.06750646017856
 20
248.5002375222572
 30
0.0
  0
ARC
  5
D1
330
1F
100
AcDbEntity
  8
Standard
  6
Continuous
 62
     7
100
AcDbCircle
 10
39.3586216665
 20
250.7707792669
 30
0.0
 40
13.52406021519858
100
AcDbArc
 50
194.0062402113
 51
199.2263345038
  0
SPLINE
  5
D2
330
1F
100
AcDbEntity
  8
Standard
  6
Continuous
 62
     7
100
AcDbSpline
210
0.0
220
0.0
230
1.0
 70
     8
 71
     3
 72
    17
 73
    13
 74
     0
 42
0.0000000097165056
 43
0.0000000001
 40
0.0
 40
0.0
 40
0.0
 40
0.0
 40
0.0418043730511265
 40
0.0418043730511265
 40
0.0418043730511265
 40
0.5130778189213896
 40
0.5130778189213896
 40
0.5130778189213896
 40
0.9843760711607749
 40
0.9843760711607749
 40
0.9843760711607749
 40
1.0
 40
1.0
 40
1.0
 40
1.0
 10
34.64424851856446
 20
248.4997814923635
 30
0.0
 10
34.64750568337227
 20
248.4884375295599
 30
0.0
 10
34.65076164710162
 20
248.4769475897823
 30
0.0
 10
34.65401571647553
 20
248.4653184542651
 30
0.0
 10
34.69069988376544
 20
248.3342194813395
 30
0.0
 10
34.7276733324223
 20
248.1817349199388
 30
0.0
 10
34.76384178847589
 20
248.0208259403172
 30
0.0
 10
34.80001204700872
 20
247.8599089416888
 30
0.0
 10
34.83689333279549
 20
247.6862376954132
 30
0.0
 10
34.87357012734027
 20
247.5146541201582
 30
0.0
 10
34.8747860004105
 20
247.5089659499941
 30
0.0
 10
34.87600227746718
 20
247.5032747660114
 30
0.0
 10
34.87721891322931
 20
247.4975811084598
 30
0.0
  0
SPLINE
  5
D3
330
1F
100
AcDbEntity
  8
Standard
  6
Continuous
 62
     7
100
AcDbSpline
210
0.0
220
0.0
230
1.0
 70
     8
 71
     3
 72
    14
 73
    10
 74
     0
 42
0.0000000097111648
 43
0.0000000001
 40
0.0
 40
0.0
 40
0.0
 40
0.0
 40
0.4110736852928591
 40
0.4110736852928591
 40
0.4110736852928591
 40
0.882261340202149
 40
0.882261340202149
 40
0.882261340202149
 40
1.0
 40
1.0
 40
1.0
 40
1.0
 10
36.64400872745202
 20
248.5003171298092
 30
0.0
 10
36.67605805844809
 20
248.3885187540897
 30
0.0
 10
36.70861399096553
 20
248.260515189419
 30
0.0
 10
36.74027535153429
 20
248.1244075305533
 30
0.0
 10
36.77656568793419
 20
247.9684005669196
 30
0.0
 10
36.81311291860984
 20
247.7975114372516
 30
0.0
 10
36.84961950023058
 20
247.6264731419552
 30
0.0
 10
36.85874192906729
 20
247.5837333233273
 30
0.0
 10
36.86792545511941
 20
247.5406899802203
 30
0.0
 10
36.87713662461531
 20
247.4975736234783
 30
0.0
  0
SPLINE
  5
D4
330
1F
100
AcDbEntity
  8
Standard
  6
Continuous
 62
     7
100
AcDbSpline
210
0.0
220
0.0
230
1.0
 70
     8
 71
     3
 72
    14
 73
    10
 74
     0
 42
0.0000000097089533
 43
0.0000000001
 40
0.0
 40
0.0
 40
0.0
 40
0.0
 40
0.3095948066557895
 40
0.3095948066557895
 40
0.3095948066557895
 40
0.7806829206563137
 40
0.7806829206563137
 40
0.7806829206563137
 40
1.0
 40
1.0
 40
1.0
 40
1.0
 10
38.64389027874782
 20
248.5005710663627
 30
0.0
 10
38.668071110809
 20
248.4161014652386
 30
0.0
 10
38.69243638631789
 20
248.3228679430982
 30
0.0
 10
38.71651170775289
 20
248.2241770439637
 30
0.0
 10
38.75314430208874
 20
248.0740106720464
 30
0.0
 10
38.78964694442871
 20
247.9069591474151
 30
0.0
 10
38.82593025362863
 20
247.737446419862
 30
0.0
 10
38.84282252929678
 20
247.6585270548364
 30
0.0
 10
38.85992700061022
 20
247.5780725625636
 30
0.0
 10
38.87708361443232
 20
247.4975911106161
 30
0.0
  0
SPLINE
  5
D5
330
1F
100
AcDbEntity
  8
Standard
  6
Continuous
 62
     7
100
AcDbSpline
210
0.0
220
0.0
230
1.0
 70
     8
 71
     3
 72
    14
 73
    10
 74
     0
 42
0.0000000097216763
 43
0.0000000001
 40
0.0
 40
0.0
 40
0.0
 40
0.0
 40
0.2068814626899075
 40
0.2068814626899075
 40
0.2068814626899075
 40
0.6785364859769883
 40
0.6785364859769883
 40
0.6785364859769883
 40
0.9999999999999999
 40
0.9999999999999999
 40
0.9999999999999999
 40
0.9999999999999999
 10
40.64423499570613
 20
248.4992736704564
 30
0.0
 10
40.66032466381639
 20
248.4428654215213
 30
0.0
 10
40.67645220368293
 20
248.3827218832115
 30
0.0
 10
40.6925391585134
 20
248.3197750852393
 30
0.0
 10
40.7292148940662
 20
248.1762662521099
 30
0.0
 10
40.76624343500362
 20
248.0141499659836
 30
0.0
 10
40.80240971099855
 20
247.8471899343622
 30
0.0
 10
40.82705923526769
 20
247.7333964834687
 30
0.0
 10
40.85202255148037
 20
247.6152685151719
 30
0.0
 10
40.87702958762429
 20
247.4975772295168
 30
0.0
  0
SPLINE
  5
D6
330
1F
100
AcDbEntity
  8
Standard
  6
Continuous
 62
     7
100
AcDbSpline
210
0.0
220
0.0
230
1.0
 70
     8
 71
     3
 72
    14
 73
    10
 74
     0
 42
0.000000009701647
 43
0.0000000001
 40
0.0
 40
0.0
 40
0.0
 40
0.0
 40
0.1070880641928796
 40
0.1070880641928796
 40
0.1070880641928796
 40
0.5773960262012684
 40
0.5773960262012684
 40
0.5773960262012684
 40
0.9999999999999999
 40
0.9999999999999999
 40
0.9999999999999999
 40
0.9999999999999999
 10
42.64365656828617
 20
248.5013256455068
 30
0.0
 10
42.65196582526637
 20
248.4721714551115
 30
0.0
 10
42.66027658910387
 20
248.4420401108131
 30
0.0
 10
42.66858522452435
 20
248.411053314162
 30
0.0
 10
42.70507615910385
 20
248.2749615118142
 30
0.0
 10
42.74253677728751
 20
248.1186457527683
 30
0.0
 10
42.77883129186672
 20
247.9552097075149
 30
0.0
 10
42.81144339182921
 20
247.8083557625846
 30
0.0
 10
42.8442255152035
 20
247.6521681521006
 30
0.0
 10
42.87699593340049
 20
247.4975844813743
 30
0.0
  0
SPLINE
  5
D7
330
1F
100
AcDbEntity
  8
Standard
  6
Continuous
 62
     7
100
AcDbSpline
210
0.0
220
0.0
230
1.0
 70
     8
 71
     3
 72
    17
 73
    13
 74
     0
 42
0.0000000097378105
 43
0.0000000001
 40
0.0
 40
0.0
 40
0.0
 40
0.0
 40
0.0005754901607007
 40
0.0005754901607007
 40
0.0005754901607007
 40
0.4730272300319677
 40
0.4730272300319677
 40
0.4730272300319677
 40
0.9457125964040036
 40
0.9457125964040036
 40
0.9457125964040036
 40
1.0
 40
1.0
 40
1.0
 40
1.0
 10
44.64475740946039
 20
248.4976204689339
 30
0.0
 10
44.64480158859651
 20
248.4974646417317
 30
0.0
 10
44.64484576742311
 20
248.4973087872061
 30
0.0
 10
44.64488994593996
 20
248.4971529053742
 30
0.0
 10
44.68115947088525
 20
248.3691775817611
 30
0.0
 10
44.71841098599294
 20
248.2193308347088
 30
0.0
 10
44.75504492524001
 20
248.0603001371745
 30
0.0
 10
44.79169597241211
 20
247.9011951728452
 30
0.0
 10
44.82822944767955
 20
247.7283927690595
 30
0.0
 10
44.86449540867171
 20
247.5568043999693
 30
0.0
 10
44.86866061046421
 20
247.5370972100051
 30
0.0
 10
44.87283848103701
 20
247.5173443556685
 30
0.0
 10
44.8770267221543
 20
247.4975682943461
 30
0.0
  0
SPLINE
  5
D8
330
1F
100
AcDbEntity
  8
Standard
  6
Continuous
 62
     7
100
AcDbSpline
210
0.0
220
0.0
230
1.0
 70
     8
 71
     3
 72
    14
 73
    10
 74
     0
 42
0.0000000097044218
 43
0.0000000001
 40
0.0
 40
0.0
 40
0.0
 40
0.0
 40
0.3734827352799824
 40
0.3734827352799824
 40
0.3734827352799824
 40
0.8441036657045822
 40
0.8441036657045822
 40
0.8441036657045822
 40
0.9999999999999999
 40
0.9999999999999999
 40
0.9999999999999999
 40
0.9999999999999999
 10
46.64385749038213
 20
248.5010565513835
 30
0.0
 10
46.67275258922332
 20
248.3992476619872
 30
0.0
 10
46.70196547961808
 20
248.284257639616
 30
0.0
 10
46.7310627778528
 20
248.1621906425213
 30
0.0
 10
46.76772822156855
 20
248.0083742786986
 30
0.0
 10
46.80481099805952
 20
247.8390021458034
 30
0.0
 10
46.84097714802083
 20
247.6684366147816
 30
0.0
 10
46.85295732508315
 20
247.6119361228974
 30
0.0
 10
46.86500758866874
 20
247.5548021298587
 30
0.0
 10
46.87709916011135
 20
247.497582759688
 30
0.0
  0
SPLINE
  5
D9
330
1F
100
AcDbEntity
  8
Standard
  6
Continuous
 62
     7
100
AcDbSpline
210
0.0
220
0.0
230
1.0
 70
     8
 71
     3
 72
    14
 73
    10
 74
     0
 42
0.0000000097232403
 43
0.0000000001
 40
0.0
 40
0.0
 40
0.0
 40
0.0
 40
0.2700734918120443
 40
0.2700734918120443
 40
0.2700734918120443
 40
0.7416920438652366
 40
0.7416920438652366
 40
0.7416920438652366
 40
1.0
 40
1.0
 40
1.0
 40
1.0
 10
48.64448243878061
 20
248.4991524770937
 30
0.0
 10
48.66534342727599
 20
248.4254591959664
 30
0.0
 10
48.6862403155226
 20
248.3452298896371
 30
0.0
 10
48.70712409466179
 20
248.2606406204648
 30
0.0
 10
48.74359381773164
 20
248.1129208423141
 30
0.0
 10
48.78106427703249
 20
247.9478635207798
 30
0.0
 10
48.81738553551482
 20
247.7793065410791
 30
0.0
 10
48.83727823600417
 20
247.6869899845312
 30
0.0
 10
48.85722016692434
 20
247.5922476604191
 30
0.0
 10
48.8771775164919
 20
247.4975808475208
 30
0.0
  0
SPLINE
  5
DA
330
1F
100
AcDbEntity
  8
Standard
  6
Continuous
 62
     7
100
AcDbSpline
210
0.0
220
0.0
230
1.0
 70
     8
 71
     3
 72
    14
 73
    10
 74
     0
 42
0.0000000097086793
 43
0.0000000001
 40
0.0
 40
0.0
 40
0.0
 40
0.0
 40
0.169825822904156
 40
0.169825822904156
 40
0.169825822904156
 40
0.6406134585290886
 40
0.6406134585290886
 40
0.6406134585290886
 40
1.0
 40
1.0
 40
1.0
 40
1.0
 10
50.6441294562072
 20
248.500648099039
 30
0.0
 10
50.65726700416348
 20
248.4543385322503
 30
0.0
 10
50.67037758480159
 20
248.4055245851467
 30
0.0
 10
50.68345487567039
 20
248.3547131931605
 30
0.0
 10
50.7197083211697
 20
248.2138515996855
 30
0.0
 10
50.75692573967122
 20
248.0538201082904
 30
0.0
 10
50.79357641055168
 20
247.8881783242964
 30
0.0
 10
50.82155384196665
 20
247.7617350276304
 30
0.0
 10
50.84947497531378
 20
247.6292902928097
 30
0.0
 10
50.8772406697266
 20
247.497586913258
 30
0.0
  0
SPLINE
  5
DB
330
1F
100
AcDbEntity
  8
Standard
  6
Continuous
 62
     7
100
AcDbSpline
210
0.0
220
0.0
230
1.0
 70
     8
 71
     3
 72
    12
 73
     8
 74
     0
 42
0.0000000046194307
 43
0.0000000001
 40
0.0
 40
0.0
 40
0.0
 40
0.0
 40
0.4603140958654178
 40
0.4603140958654178
 40
0.9206281917308355
 40
0.9206281917308355
 40
1.0
 40
1.0
 40
1.0
 40
1.0
 10
26.58886434703744
 20
247.4975838197271
 30
0.0
 10
26.49997545814855
 20
248.0560891803628
 30
0.0
 10
26.41108656925967
 20
248.5844523370617
 30
0.0
 10
26.23330879148189
 20
249.2594676919532
 30
0.0
 10
26.14441990259298
 20
249.4020495806834
 30
0.0
 10
26.04020393180606
 20
249.3069248227683
 30
0.0
 10
26.02487684990804
 20
249.2863728319747
 30
0.0
 10
26.00954976801001
 20
249.2598271472972
 30
0.0
  0
SPLINE
  5
DC
330
1F
100
AcDbEntity
  8
Standard
  6
Continuous
 62
     7
100
AcDbSpline
210
0.0
220
0.0
230
1.0
 70
     8
 71
     3
 72
    20
 73
    16
 74
     0
 42
0.0000000071772351
 43
0.0000000001
 40
0.0
 40
0.0
 40
0.0
 40
0.0
 40
0.2300690768408609
 40
0.2300690768408609
 40
0.2300690768408609
 40
0.4593326673613047
 40
0.4593326673613047
 40
0.4593326673613047
 40
0.682010232109323
 40
0.682010232109323
 40
0.682010232109323
 40
0.9016681532286694
 40
0.9016681532286694
 40
0.9016681532286694
 40
1.0
 40
1.0
 40
1.0
 40
1.0
 10
26.23664025098249
 20
247.4975838197246
 30
0.0
 10
26.20047630199382
 20
247.6554885181384
 30
0.0
 10
26.16404968025349
 20
247.813751731688
 30
0.0
 10
26.1272726642317
 20
247.9582120845816
 30
0.0
 10
26.09064130360453
 20
248.1021003021586
 30
0.0
 10
26.05239696457587
 20
248.2362582853813
 30
0.0
 10
26.01412368957101
 20
248.3483804036402
 30
0.0
 10
25.97692548862241
 20
248.4573530767455
 30
0.0
 10
25.93937171599245
 20
248.548914931891
 30
0.0
 10
25.90207876618372
 20
248.6142110486267
 30
0.0
 10
25.86530348675628
 20
248.678600777806
 30
0.0
 10
25.82732614276695
 20
248.7190912822973
 30
0.0
 10
25.78885694731545
 20
248.7313041137288
 30
0.0
 10
25.77162220495449
 20
248.7367756345326
 30
0.0
 10
25.75410667102479
 20
248.7366737465915
 30
0.0
 10
25.73652566625934
 20
248.7310911243352
 30
0.0
  0
SPLINE
  5
DD
330
1F
100
AcDbEntity
  8
Standard
  6
Continuous
 62
     7
100
AcDbSpline
210
0.0
220
0.0
230
1.0
 70
     8
 71
     3
 72
    29
 73
    25
 74
     0
 42
0.0000000058490814
 43
0.0000000001
 40
0.0
 40
0.0
 40
0.0
 40
0.0
 40
0.0813165340402288
 40
0.0813165340402288
 40
0.0813165340402288
 40
0.2338983066577821
 40
0.2338983066577821
 40
0.2338983066577821
 40
0.3805215733684815
 40
0.3805215733684815
 40
0.3805215733684815
 40
0.523506813870504
 40
0.523506813870504
 40
0.523506813870504
 40
0.6601970066172537
 40
0.6601970066172537
 40
0.6601970066172537
 40
0.7932097340519649
 40
0.7932097340519649
 40
0.7932097340519649
 40
0.9204526692253353
 40
0.9204526692253353
 40
0.9204526692253353
 40
1.0
 40
1.0
 40
1.0
 40
1.0
 10
24.58857019546867
 20
246.7158046095151
 30
0.0
 10
24.56854133731026
 20
246.7462407672604
 30
0.0
 10
24.54835548440809
 20
246.7810502816621
 30
0.0
 10
24.52807684444947
 20
246.8195025965111
 30
0.0
 10
24.49002185839944
 20
246.8916623817903
 30
0.0
 10
24.45036075998025
 20
246.9787152011059
 30
0.0
 10
24.41043109218852
 20
247.0723882416128
 30
0.0
 10
24.37203128604615
 20
247.1624723017906
 30
0.0
 10
24.33268230962893
 20
247.2613914997765
 30
0.0
 10
24.29317906716261
 20
247.359660920522
 30
0.0
 10
24.2546618281462
 20
247.455477530262
 30
0.0
 10
24.21469799268067
 20
247.5533947525124
 30
0.0
 10
24.17421590666549
 20
247.6433851065595
 30
0.0
 10
24.13548212450531
 20
247.7294890382807
 30
0.0
 10
24.09538175063341
 20
247.8109492308284
 30
0.0
 10
24.05526201456887
 20
247.8795914587909
 30
0.0
 10
24.01622555542365
 20
247.9463802712393
 30
0.0
 10
23.97583299860129
 20
248.0028395040988
 30
0.0
 10
23.93486621192126
 20
248.0426282578807
 30
0.0
 10
23.89564904411212
 20
248.0807177044895
 30
0.0
 10
23.85474977789281
 20
248.1046606600781
 30
0.0
 10
23.813769096729
 20
248.1118216878354
 30
0.0
 10
23.78814634472043
 20
248.1162990472433
 30
0.0
 10
23.76193605627358
 20
248.1142426330897
 30
0.0
 10
23.73537137164233
 20
248.1057762787723
 30
0.0
  0
SPLINE
  5
DE
330
1F
100
AcDbEntity
  8
Standard
  6
Continuous
 62
     7
100
AcDbSpline
210
0.0
220
0.0
230
1.0
 70
     8
 71
     3
 72
    38
 73
    34
 74
     0
 42
0.0000000036417156
 43
0.0000000001
 40
0.0
 40
0.0
 40
0.0
 40
0.0
 40
0.0132794692209977
 40
0.0132794692209977
 40
0.0132794692209977
 40
0.1462719070963123
 40
0.1462719070963123
 40
0.1462719070963123
 40
0.275086239118212
 40
0.275086239118212
 40
0.275086239118212
 40
0.395448512685962
 40
0.395448512685962
 40
0.395448512685962
 40
0.5092723261398978
 40
0.5092723261398978
 40
0.5092723261398978
 40
0.6172739315544383
 40
0.6172739315544383
 40
0.6172739315544383
 40
0.7168911106778945
 40
0.7168911106778945
 40
0.7168911106778945
 40
0.8119548916672529
 40
0.8119548916672529
 40
0.8119548916672529
 40
0.898499357156591
 40
0.898499357156591
 40
0.898499357156591
 40
0.9800988760569588
 40
0.9800988760569588
 40
0.9800988760569588
 40
0.9999999999999999
 40
0.9999999999999999
 40
0.9999999999999999
 40
0.9999999999999999
 10
25.01372348967113
 20
246.0976146425677
 30
0.0
 10
25.00921754039614
 20
246.1002114972347
 30
0.0
 10
25.00469933212771
 20
246.1030948702309
 30
0.0
 10
25.00016943140903
 20
246.1062660559705
 30
0.0
 10
24.95472419060804
 20
246.1380802851358
 30
0.0
 10
24.90697075015241
 20
246.199530290252
 30
0.0
 10
24.85971603778894
 20
246.2855070173838
 30
0.0
 10
24.8139717393297
 20
246.3687356494029
 30
0.0
 10
24.76665011753015
 20
246.4779606804435
 30
0.0
 10
24.71790883320418
 20
246.603455255408
 30
0.0
 10
24.67232085046642
 20
246.7208309995289
 30
0.0
 10
24.62388513234365
 20
246.8558298731803
 30
0.0
 10
24.57526558790468
 20
246.995623876756
 30
0.0
 10
24.52925627325758
 20
247.1279127817739
 30
0.0
 10
24.48193270984756
 20
247.2686925594332
 30
0.0
 10
24.43334908784017
 20
247.4036328881583
 30
0.0
 10
24.38725147771728
 20
247.5316683537413
 30
0.0
 10
24.33838669664848
 20
247.6581825189876
 30
0.0
 10
24.28838780471043
 20
247.7695020623451
 30
0.0
 10
24.24218948485501
 20
247.8723598592051
 30
0.0
 10
24.19420477809461
 20
247.9657790364033
 30
0.0
 10
24.1452185424201
 20
248.0390663557955
 30
0.0
 10
24.09849670547099
 20
248.108965953916
 30
0.0
 10
24.04912740333998
 20
248.1624080022305
 30
0.0
 10
23.99814010242332
 20
248.1921519447236
 30
0.0
 10
23.95163265619768
 20
248.2192825200074
 30
0.0
 10
23.90259690357466
 20
248.2277689282904
 30
0.0
 10
23.85250770360744
 20
248.2157752261402
 30
0.0
 10
23.80529142823456
 20
248.2044694367918
 30
0.0
 10
23.75539381179542
 20
248.1742935410308
 30
0.0
 10
23.70369994357146
 20
248.1278455718079
 30
0.0
 10
23.6910741855772
 20
248.1165010770181
 30
0.0
 10
23.67823271455482
 20
248.1040944012284
 30
0.0
 10
23.66520552358708
 20
248.0907523382954
 30
0.0
  0
SPLINE
  5
DF
330
1F
100
AcDbEntity
  8
Standard
  6
Continuous
 62
     7
100
AcDbSpline
210
0.0
220
0.0
230
1.0
 70
     8
 71
     3
 72
    32
 73
    28
 74
     0
 42
0.000000005045281
 43
0.0000000001
 40
0.0
 40
0.0
 40
0.0
 40
0.0
 40
0.0227540449808964
 40
0.0227540449808964
 40
0.0227540449808964
 40
0.1477879745502428
 40
0.1477879745502428
 40
0.1477879745502428
 40
0.2773879793633234
 40
0.2773879793633234
 40
0.2773879793633234
 40
0.4095977460463137
 40
0.4095977460463137
 40
0.4095977460463137
 40
0.5473618060435035
 40
0.5473618060435035
 40
0.5473618060435035
 40
0.6878057431839593
 40
0.6878057431839593
 40
0.6878057431839593
 40
0.8330674110929
 40
0.8330674110929
 40
0.8330674110929
 40
0.9826845337775626
 40
0.9826845337775626
 40
0.9826845337775626
 40
1.0
 40
1.0
 40
1.0
 40
1.0
 10
24.54067271573884
 20
248.1806305458863
 30
0.0
 10
24.54741527882237
 20
248.17119845276
 30
0.0
 10
24.55413435605763
 20
248.1612679814868
 30
0.0
 10
24.56082808658816
 20
248.1508673913958
 30
0.0
 10
24.59759958141244
 20
248.0937325481337
 30
0.0
 10
24.63460819722291
 20
248.0209664550434
 30
0.0
 10
24.67040525710074
 20
247.9387587888193
 30
0.0
 10
24.70748474032278
 20
247.8536060474802
 30
0.0
 10
24.74389069213462
 20
247.7558829105585
 30
0.0
 10
24.77931296020652
 20
247.6544047570342
 30
0.0
 10
24.81545608773122
 20
247.5508614763964
 30
0.0
 10
24.85172272947089
 20
247.4407843397257
 30
0.0
 10
24.88723414710092
 20
247.3332684704938
 30
0.0
 10
24.92420902466369
 20
247.221321768103
 30
0.0
 10
24.96117511666007
 20
247.1091028509373
 30
0.0
 10
24.99654937834839
 20
247.0059276097247
 30
0.0
 10
25.0326170654423
 20
246.9007298716438
 30
0.0
 10
25.06843067507539
 20
246.8022745805272
 30
0.0
 10
25.1036740467086
 20
246.7184364938442
 30
0.0
 10
25.14011264676347
 20
246.6317551586473
 30
0.0
 10
25.17693292694179
 20
246.5583503804774
 30
0.0
 10
25.21249564729366
 20
246.5039663969774
 30
0.0
 10
25.24910616773446
 20
246.4479800742249
 30
0.0
 10
25.28502695913343
 20
246.4107885361655
 30
0.0
 10
25.32016803004344
 20
246.3949263577019
 30
0.0
 10
25.32423555003466
 20
246.3930903371615
 30
0.0
 10
25.32830674692774
 20
246.3915331331705
 30
0.0
 10
25.33238017275266
 20
246.390253315817
 30
0.0
  0
SPLINE
  5
E0
330
1F
100
AcDbEntity
  8
Standard
  6
Continuous
 62
     7
100
AcDbSpline
210
0.0
220
0.0
230
1.0
 70
     8
 71
     3
 72
    11
 73
     7
 74
     0
 42
0.000000031606878
 43
0.0000000001
 40
0.0
 40
0.0
 40
0.0
 40
0.0
 40
0.2701944366338395
 40
0.2701944366338395
 40
0.2701944366338395
 40
0.9999999999999999
 40
0.9999999999999999
 40
0.9999999999999999
 40
0.9999999999999999
 10
26.46722918607797
 20
248.8305815187085
 30
0.0
 10
26.47831741680856
 20
248.8130026340075
 30
0.0
 10
26.48938019568375
 20
248.7929975348034
 30
0.0
 10
26.50038327709883
 20
248.7706973345821
 30
0.0
 10
26.53022249350373
 20
248.7102215028424
 30
0.0
 10
26.5600755722466
 20
248.6317335953541
 30
0.0
 10
26.58886434703792
 20
248.5396639330078
 30
0.0
  0
LINE
  5
E1
330
1F
100
AcDbEntity
  8
Standard
  6
Continuous
 62
     7
100
AcDbLine
 10
23.5327939143
 20
246.95260583
 30
0.0
 11
23.5327939143
 21
248.0425618095
 31
0.0
  0
SPLINE
  5
E2
330
1F
100
AcDbEntity
  8
Standard
  6
Continuous
 62
     7
100
AcDbSpline
210
0.0
220
0.0
230
1.0
 70
     8
 71
     3
 72
    41
 73
    37
 74
     0
 42
0.0000000035300869
 43
0.0000000001
 40
0.0
 40
0.0
 40
0.0
 40
0.0
 40
0.0284146827810683
 40
0.0284146827810683
 40
0.0284146827810683
 40
0.1037711007619699
 40
0.1037711007619699
 40
0.1037711007619699
 40
0.1814648857465159
 40
0.1814648857465159
 40
0.1814648857465159
 40
0.2639554577121924
 40
0.2639554577121924
 40
0.2639554577121924
 40
0.3500327816744179
 40
0.3500327816744179
 40
0.3500327816744179
 40
0.4390454867397058
 40
0.4390454867397058
 40
0.4390454867397058
 40
0.5332003177517769
 40
0.5332003177517769
 40
0.5332003177517769
 40
0.6297389257431357
 40
0.6297389257431357
 40
0.6297389257431357
 40
0.7309644029989891
 40
0.7309644029989891
 40
0.7309644029989891
 40
0.8363114692145841
 40
0.8363114692145841
 40
0.8363114692145841
 40
0.9441514212586669
 40
0.9441514212586669
 40
0.9441514212586669
 40
1.0
 40
1.0
 40
1.0
 40
1.0
 10
24.24052497592902
 20
248.4510951803335
 30
0.0
 10
24.25272338497209
 20
248.4582374932218
 30
0.0
 10
24.26481766167801
 20
248.4626957070113
 30
0.0
 10
24.27675288247888
 20
248.464405652777
 30
0.0
 10
24.30836893339716
 20
248.4689352491119
 30
0.0
 10
24.33945025457357
 20
248.4541281629467
 30
0.0
 10
24.3691073878643
 20
248.421779575919
 30
0.0
 10
24.39969416303589
 20
248.3884169798504
 30
0.0
 10
24.42990166079523
 20
248.3358163617839
 30
0.0
 10
24.45942247304455
 20
248.2689681468862
 30
0.0
 10
24.49074053369635
 20
248.1980501643135
 30
0.0
 10
24.52210339660865
 20
248.1092715767108
 30
0.0
 10
24.55213899945369
 20
248.0098672937104
 30
0.0
 10
24.58346220021376
 20
247.9062016430191
 30
0.0
 10
24.61393522276706
 20
247.7881890246307
 30
0.0
 10
24.64359584113934
 20
247.6659831697035
 30
0.0
 10
24.6742707246545
 20
247.5395984019382
 30
0.0
 10
24.70496184830656
 20
247.4054989546647
 30
0.0
 10
24.73490862723571
 20
247.2740767197483
 30
0.0
 10
24.76655212741016
 20
247.1352083785706
 30
0.0
 10
24.79802065075032
 20
246.9956265360068
 30
0.0
 10
24.8279355302895
 20
246.8664551795076
 30
0.0
 10
24.85861562789832
 20
246.7339796393513
 30
0.0
 10
24.88889430468039
 20
246.6090545606518
 30
0.0
 10
24.91865109201277
 20
246.5008699385789
 30
0.0
 10
24.9498353860414
 20
246.3874954325743
 30
0.0
 10
24.98128139855382
 20
246.2894884529176
 30
0.0
 10
25.01161268976432
 20
246.214102915319
 30
0.0
 10
25.04315623230447
 20
246.1357044424134
 30
0.0
 10
25.07391224357153
 20
246.0799419019939
 30
0.0
 10
25.10377669210556
 20
246.0502755598894
 30
0.0
 10
25.13435623112559
 20
246.0198988708662
 30
0.0
 10
25.16502538606319
 20
246.0158925062316
 30
0.0
 10
25.19515757104157
 20
246.0376243564552
 30
0.0
 10
25.21074804091819
 20
246.0488684715607
 30
0.0
 10
25.22637566111724
 20
246.0671652996953
 30
0.0
 10
25.24182573082745
 20
246.0919903986345
 30
0.0
  0
LINE
  5
E3
330
1F
100
AcDbEntity
  8
Standard
  6
Continuous
 62
     7
100
AcDbLine
 10
60.5888643171
 20
249.4975838197
 30
0.0
 11
59.5888643171
 21
249.4975838197
 31
0.0
  0
ARC
  5
E4
330
1F
100
AcDbEntity
  8
Standard
  6
Continuous
 62
     7
100
AcDbCircle
 10
9.4393222163
 20
236.9278346727
 30
0.0
 40
18.03609795326262
100
AcDbArc
 50
31.1442568419
 51
32.8978126189
  0
ARC
  5
E5
330
1F
100
AcDbEntity
  8
Standard
  6
Continuous
 62
     7
100
AcDbCircle
 10
-12.6399332455
 20
272.1540750607
 30
0.0
 40
44.92136203414244
100
AcDbArc
 50
328.5455635691
 51
329.3598435877
  0
ARC
  5
E6
330
1F
100
AcDbEntity
  8
Standard
  6
Continuous
 62
     7
100
AcDbCircle
 10
37.9178850551
 20
238.2034506737
 30
0.0
 40
14.92988798324545
100
AcDbArc
 50
146.8641642445
 51
148.1056272087
  0
ARC
  5
E7
330
1F
100
AcDbEntity
  8
Standard
  6
Continuous
 62
     7
100
AcDbCircle
 10
49.1835173916
 20
263.2726104758
 30
0.0
 40
26.91802262533194
100
AcDbArc
 50
211.3496470668
 51
212.4546384865
  0
ARC
  5
E8
330
1F
100
AcDbEntity
  8
Standard
  6
Continuous
 62
     7
100
AcDbCircle
 10
30.2549507622
 20
252.3753544273
 30
0.0
 40
7.087202698259262
100
AcDbArc
 50
214.4124607706
 51
216.323255723
  0
LINE
  5
E9
330
1F
100
AcDbEntity
  8
Standard
  6
Continuous
 62
     7
100
AcDbLine
 10
23.7318679526
 20
248.1047724464
 30
0.0
 11
23.5327939143
 21
248.0425618095
 31
0.0
  0
LINE
  5
EA
330
1F
100
AcDbEntity
  8
Standard
  6
Continuous
 62
     7
100
AcDbLine
 10
25.7308806909
 20
248.7294639272
 30
0.0
 11
24.4389275661
 21
248.3257285757
 31
0.0
  0
LINE
  5
EB
330
1F
100
AcDbEntity
  8
Standard
  6
Continuous
 62
     7
100
AcDbLine
 10
26.588864347
 20
248.9975838197
 30
0.0
 11
26.3996917624
 21
248.938467387
 31
0.0
  0
LINE
  5
EC
330
1F
100
AcDbEntity
  8
Standard
  6
Continuous
 62
     7
100
AcDbLine
 10
25.3306200594
 20
246.3907851596
 30
0.0
 11
26.588864347
 21
245.9975838197
 31
0.0
  0
LINE
  5
ED
330
1F
100
AcDbEntity
  8
Standard
  6
Continuous
 62
     7
100
AcDbLine
 10
23.5327939143
 20
246.95260583
 30
0.0
 11
24.6617065095
 21
246.599820644
 31
0.0
  0
LINE
  5
EE
330
1F
100
AcDbEntity
  8
Standard
  6
Continuous
 62
     7
100
AcDbLine
 10
23.5327939143
 20
248.0425618095
 30
0.0
 11
22.588864347
 21
247.4975838197
 31
0.0
  0
LINE
  5
EF
330
1F
100
AcDbEntity
  8
Standard
  6
Continuous
 62
     7
100
AcDbLine
 10
24.2349368003
 20
248.4479441937
 30
0.0
 11
23.7734433848
 21
248.181500846
 31
0.0
  0
LINE
  5
F0
330
1F
100
AcDbEntity
  8
Standard
  6
Continuous
 62
     7
100
AcDbLine
 10
25.0119329406
 20
246.098624515
 30
0.0
 11
25.1195384303
 21
246.0364984565
 31
0.0
  0
LINE
  5
F1
330
1F
100
AcDbEntity
  8
Standard
  6
Continuous
 62
     7
100
AcDbLine
 10
22.588864347
 20
247.4975838197
 30
0.0
 11
23.5327939143
 21
246.95260583
 31
0.0
  0
ARC
  5
F2
330
1F
100
AcDbEntity
  8
Standard
  6
Continuous
 62
     7
100
AcDbCircle
 10
68.7070945596
 20
221.9975838197
 30
0.0
 40
0.4999999999512462
100
AcDbArc
 50
269.9999999962
 51
338.7083060386
  0
ARC
  5
F3
330
1F
100
AcDbEntity
  8
Standard
  6
Continuous
 62
     7
100
AcDbCircle
 10
68.7072001545
 20
272.9977383024
 30
0.0
 40
0.4998455285266368
100
AcDbArc
 50
21.2795899308
 51
90.0121040345
  0
LINE
  5
F4
330
1F
100
AcDbEntity
  8
Standard
  6
Continuous
 62
     7
100
AcDbLine
 10
63.0488643601
 20
221.9975838197
 30
0.0
 11
63.0488643601
 21
272.9975838197
 31
0.0
  0
LINE
  5
F5
330
1F
100
AcDbEntity
  8
Standard
  6
Continuous
 62
     7
100
AcDbLine
 10
63.0488643601
 20
221.9975838197
 30
0.0
 11
63.0488643601
 21
221.4975838197
 31
0.0
  0
LINE
  5
F6
330
1F
100
AcDbEntity
  8
Standard
  6
Continuous
 62
     7
100
AcDbLine
 10
63.0488643601
 20
273.4975838197
 30
0.0
 11
63.0488643601
 21
272.9975838197
 31
0.0
  0
LINE
  5
F7
330
1F
100
AcDbEntity
  8
Standard
  6
Continuous
 62
     7
100
AcDbLine
 10
63.0488643601
 20
273.4975838197
 30
0.0
 11
68.7070945595
 21
273.4975838197
 31
0.0
  0
LINE
  5
F8
330
1F
100
AcDbEntity
  8
Standard
  6
Continuous
 62
     7
100
AcDbLine
 10
68.7070945595
 20
221.4975838197
 30
0.0
 11
63.0488643601
 21
221.4975838197
 31
0.0
  0
LINE
  5
F9
330
1F
100
AcDbEntity
  8
Standard
  6
Continuous
 62
     7
100
AcDbLine
 10
69.1729664983
 20
221.8160257389
 30
0.0
 11
71.5823532307
 21
227.9984311894
 31
0.0
  0
LINE
  5
FA
330
1F
100
AcDbEntity
  8
Standard
  6
Continuous
 62
     7
100
AcDbLine
 10
71.5823532307
 20
266.9967364501
 30
0.0
 11
69.1729664983
 21
273.1791419005
 31
0.0
  0
SPLINE
  5
FB
330
1F
100
AcDbEntity
  8
Standard
  6
Continuous
 62
     7
100
AcDbSpline
210
0.0
220
0.0
230
1.0
 70
    12
 71
     2
 72
     6
 73
     3
 74
     0
 42
0.0000000546051911
 43
0.0000000001
 40
0.0
 40
0.0
 40
0.0
 40
1.0
 40
1.0
 40
1.0
 10
71.58235323064717
 20
266.8151749546922
 30
0.0
 41
1.0
 10
71.58235357957187
 20
266.9044079757945
 30
0.0
 41
0.9915829282731026
 10
71.56442358426641
 20
266.9965799804223
 30
0.0
 41
1.0
  0
LINE
  5
FC
330
1F
100
AcDbEntity
  8
Standard
  6
Continuous
 62
     7
100
AcDbLine
 10
71.5823532308
 20
266.9967364501
 30
0.0
 11
71.5644235843
 21
266.9965799804
 31
0.0
  0
LINE
  5
FD
330
1F
100
AcDbEntity
  8
Standard
  6
Continuous
 62
     7
100
AcDbLine
 10
71.5644235843
 20
227.998587659
 30
0.0
 11
71.5823532306
 21
227.9984311894
 31
0.0
  0
LINE
  5
FE
330
1F
100
AcDbEntity
  8
Standard
  6
Continuous
 62
     7
100
AcDbLine
 10
71.5823532307
 20
266.8151749547
 30
0.0
 11
71.5823532307
 21
228.1799927127
 31
0.0
  0
SPLINE
  5
FF
330
1F
100
AcDbEntity
  8
Standard
  6
Continuous
 62
     7
100
AcDbSpline
210
0.0
220
0.0
230
1.0
 70
    12
 71
     2
 72
     6
 73
     3
 74
     0
 42
0.0000000546051827
 43
0.0000000001
 40
0.0
 40
0.0
 40
0.0
 40
1.0
 40
1.0
 40
1.0
 10
71.5644235842881
 20
227.9985876590268
 30
0.0
 41
1.0
 10
71.58235358254632
 20
228.0907596783312
 30
0.0
 41
0.9915829255784946
 10
71.58235323082552
 20
228.1799927127159
 30
0.0
 41
1.0
  0
LINE
  5
100
330
1F
100
AcDbEntity
  8
Standard
  6
Continuous
 62
     7
100
AcDbLine
 10
61.5888643601
 20
233.3475838197
 30
0.0
 11
61.5888643601
 21
261.6475838197
 31
0.0
  0
LINE
  5
101
330
1F
100
AcDbEntity
  8
Standard
  6
Continuous
 62
     7
100
AcDbLine
 10
63.0488643601
 20
261.6475838197
 30
0.0
 11
61.5888643601
 21
261.6475838197
 31
0.0
  0
LINE
  5
102
330
1F
100
AcDbEntity
  8
Standard
  6
Continuous
 62
     7
100
AcDbLine
 10
61.5888643601
 20
233.3475838197
 30
0.0
 11
63.0488643601
 21
233.3475838197
 31
0.0
  0
ARC
  5
103
330
1F
100
AcDbEntity
  8
Standard
  6
Continuous
 62
     7
100
AcDbCircle
 10
110.3393699343
 20
247.499943462
 30
0.0
 40
14.22196482520641
100
AcDbArc
 50
144.175188055
 51
270.0000662291
  0
ARC
  5
104
330
1F
100
AcDbEntity
  8
Standard
  6
Continuous
 62
     7
100
AcDbCircle
 10
146.4807673003
 20
233.37328591
 30
0.0
 40
36.14150659227112
100
AcDbArc
 50
180.1457884326
 51
180.1510925071
  0
LINE
  5
105
330
1F
100
AcDbEntity
  8
Standard
  6
Continuous
 62
     7
100
AcDbLine
 10
98.8393650977
 20
255.9501810965
 30
0.0
 11
98.8393650977
 21
266.2475838197
 31
0.0
  0
LINE
  5
106
330
1F
100
AcDbEntity
  8
Standard
  6
Continuous
 62
     7
100
AcDbLine
 10
101.3393545674
 20
255.0965467434
 30
0.0
 11
101.3393545675
 21
266.2475838197
 31
0.0
  0
LINE
  5
107
330
1F
100
AcDbEntity
  8
Standard
  6
Continuous
 62
     7
100
AcDbLine
 10
101.3178629406
 20
251.14921158
 30
0.0
 11
101.3210700817
 21
251.1479145549
 31
0.0
  0
LINE
  5
108
330
1F
100
AcDbEntity
  8
Standard
  6
Continuous
 62
     7
100
AcDbLine
 10
101.3393539329
 20
255.0965467434
 30
0.0
 11
101.339354041
 21
251.2416342658
 31
0.0
  0
LINE
  5
109
330
1F
100
AcDbEntity
  8
Standard
  6
Continuous
 62
     7
100
AcDbLine
 10
119.3392552642
 20
251.2416265497
 30
0.0
 11
119.3392548605
 21
255.0965417068
 31
0.0
  0
ARC
  5
10A
330
1F
100
AcDbEntity
  8
Standard
  6
Continuous
 62
     7
100
AcDbCircle
 10
119.583337736
 20
251.2413663514
 30
0.0
 40
0.2440826105782804
100
AcDbArc
 50
179.9389212199
 51
202.4847281794
  0
ARC
  5
10B
330
1F
100
AcDbEntity
  8
Standard
  6
Continuous
 62
     7
100
AcDbCircle
 10
101.0951717074
 20
251.2413823802
 30
0.0
 40
0.2441824634488542
100
AcDbArc
 50
337.520697215
 51
0.0591032753
  0
LINE
  5
10C
330
1F
100
AcDbEntity
  8
Standard
  6
Continuous
 62
     7
100
AcDbLine
 10
99.3393650977
 20
266.7475838197
 30
0.0
 11
100.8393545675
 21
266.7475838197
 31
0.0
  0
ARC
  5
10D
330
1F
100
AcDbEntity
  8
Standard
  6
Continuous
 62
     7
100
AcDbCircle
 10
100.8393545675
 20
266.2475838197
 30
0.0
 40
0.5000000000000004
100
AcDbArc
 50
0.0
 51
90.0
  0
ARC
  5
10E
330
1F
100
AcDbEntity
  8
Standard
  6
Continuous
 62
     7
100
AcDbCircle
 10
99.3393650977
 20
266.2475838197
 30
0.0
 40
0.5000000000000004
100
AcDbArc
 50
90.0
 51
180.0
  0
LINE
  5
10F
330
1F
100
AcDbEntity
  8
Standard
  6
Continuous
 62
     7
100
AcDbLine
 10
121.8392442443
 20
266.2475838197
 30
0.0
 11
121.8392442443
 21
255.9501783965
 31
0.0
  0
LINE
  5
110
330
1F
100
AcDbEntity
  8
Standard
  6
Continuous
 62
     7
100
AcDbLine
 10
119.8392547745
 20
266.7475838197
 30
0.0
 11
121.3392442443
 21
266.7475838197
 31
0.0
  0
LINE
  5
111
330
1F
100
AcDbEntity
  8
Standard
  6
Continuous
 62
     7
100
AcDbLine
 10
119.3392547745
 20
266.2475838197
 30
0.0
 11
119.3392547745
 21
255.0965417068
 31
0.0
  0
ARC
  5
112
330
1F
100
AcDbEntity
  8
Standard
  6
Continuous
 62
     7
100
AcDbCircle
 10
119.8392547745
 20
266.2475838197
 30
0.0
 40
0.5000000000000004
100
AcDbArc
 50
90.0
 51
180.0
  0
ARC
  5
113
330
1F
100
AcDbEntity
  8
Standard
  6
Continuous
 62
     7
100
AcDbCircle
 10
121.3392442443
 20
266.2475838197
 30
0.0
 40
0.5000000000000004
100
AcDbArc
 50
0.0
 51
90.0
  0
ARC
  5
114
330
1F
100
AcDbEntity
  8
Standard
  6
Continuous
 62
     7
100
AcDbCircle
 10
110.3429231966
 20
247.4973625576
 30
0.0
 40
14.21139043421221
100
AcDbArc
 50
269.9851858292
 51
35.7321478174
  0
LINE
  5
115
330
1F
100
AcDbEntity
  8
Standard
  6
Continuous
 62
     7
100
AcDbLine
 10
121.8843194339
 20
255.8004470706
 30
0.0
 11
121.870842758
 21
255.835823586
 31
0.0
  0
ARC
  5
116
330
1F
100
AcDbEntity
  8
Standard
  6
Continuous
 62
     7
100
AcDbCircle
 10
98.5568976112
 20
255.9539635377
 30
0.0
 40
0.2827033519546886
100
AcDbArc
 50
347.0621693429
 51
355.2244335501
  0
ARC
  5
117
330
1F
100
AcDbEntity
  8
Standard
  6
Continuous
 62
     7
100
AcDbCircle
 10
98.5568976112
 20
255.9539635377
 30
0.0
 40
0.2827033519546886
100
AcDbArc
 50
327.1107906453
 51
343.4672741376
  0
ARC
  5
118
330
1F
100
AcDbEntity
  8
Standard
  6
Continuous
 62
     7
100
AcDbCircle
 10
110.3400498948
 20
247.495968695
 30
0.0
 40
9.727259638947448
100
AcDbArc
 50
269.9956069758
 51
22.0495326644
  0
ARC
  5
119
330
1F
100
AcDbEntity
  8
Standard
  6
Continuous
 62
     7
100
AcDbCircle
 10
110.3387830384
 20
247.4964154192
 30
0.0
 40
9.727706080531409
100
AcDbArc
 50
157.9536948697
 51
270.003069161
  0
LINE
  5
11A
330
1F
100
AcDbEntity
  8
Standard
  6
Continuous
 62
     7
100
AcDbLine
 10
71.5823532307
 20
228.2475838197
 30
0.0
 11
129.0852531144
 21
228.2475838197
 31
0.0
  0
LINE
  5
11B
330
1F
100
AcDbEntity
  8
Standard
  6
Continuous
 62
     7
100
AcDbLine
 10
71.5823532307
 20
266.7475838197
 30
0.0
 11
98.5893650977
 21
266.7475838197
 31
0.0
  0
LINE
  5
11C
330
1F
100
AcDbEntity
  8
Standard
  6
Continuous
 62
     7
100
AcDbLine
 10
98.5893650977
 20
266.7374992937
 30
0.0
 11
98.5893650977
 21
266.7475838197
 31
0.0
  0
ARC
  5
11D
330
1F
100
AcDbEntity
  8
Standard
  6
Continuous
 62
     7
100
AcDbCircle
 10
129.0852531144
 20
228.7475838197
 30
0.0
 40
0.5000000000004514
100
AcDbArc
 50
270.0
 51
359.9999999999
  0
ARC
  5
11E
330
1F
100
AcDbEntity
  8
Standard
  6
Continuous
 62
     7
100
AcDbCircle
 10
98.5893650977
 20
266.4975838197
 30
0.0
 40
0.2500000000089175
100
AcDbArc
 50
0.0000035818
 51
20.6363581217
  0
LINE
  5
11F
330
1F
100
AcDbEntity
  8
Standard
  6
Continuous
 62
     7
100
AcDbLine
 10
98.8393650977
 20
266.2476201747
 30
0.0
 11
98.8393650977
 21
266.4975838353
 31
0.0
  0
LINE
  5
120
330
1F
100
AcDbEntity
  8
Standard
  6
Continuous
 62
     7
100
AcDbLine
 10
121.8392442443
 20
266.2475838197
 30
0.0
 11
121.8392442443
 21
255.9501781442
 31
0.0
  0
LINE
  5
121
330
1F
100
AcDbEntity
  8
Standard
  6
Continuous
 62
     7
100
AcDbLine
 10
129.0852531144
 20
266.7475838197
 30
0.0
 11
122.0892442443
 21
266.7475838197
 31
0.0
  0
LINE
  5
122
330
1F
100
AcDbEntity
  8
Standard
  6
Continuous
 62
     7
100
AcDbLine
 10
122.0892442443
 20
266.7475838197
 30
0.0
 11
122.0892442468
 21
266.7375669423
 31
0.0
  0
LINE
  5
123
330
1F
100
AcDbEntity
  8
Standard
  6
Continuous
 62
     7
100
AcDbLine
 10
129.5852531144
 20
228.7475838197
 30
0.0
 11
129.5852531144
 21
266.2475838197
 31
0.0
  0
LINE
  5
124
330
1F
100
AcDbEntity
  8
Standard
  6
Continuous
 62
     7
100
AcDbLine
 10
98.8393650976
 20
255.9501791747
 30
0.0
 11
98.8393650977
 21
266.2475838197
 31
0.0
  0
LINE
  5
125
330
1F
100
AcDbEntity
  8
Standard
  6
Continuous
 62
     7
100
AcDbLine
 10
121.8392442443
 20
266.2476201745
 30
0.0
 11
121.8392442443
 21
266.4975838353
 31
0.0
  0
ARC
  5
126
330
1F
100
AcDbEntity
  8
Standard
  6
Continuous
 62
     7
100
AcDbCircle
 10
98.5916502819
 20
255.9500532769
 30
0.0
 40
0.2477147220947994
100
AcDbArc
 50
323.9946802896
 51
0.0295247715
  0
ARC
  5
127
330
1F
100
AcDbEntity
  8
Standard
  6
Continuous
 62
     7
100
AcDbCircle
 10
122.0869786272
 20
255.9500682691
 30
0.0
 40
0.2477342339053049
100
AcDbArc
 50
179.9745483858
 51
216.0036306505
  0
ARC
  5
128
330
1F
100
AcDbEntity
  8
Standard
  6
Continuous
 62
     7
100
AcDbCircle
 10
122.0892442443
 20
266.4975838353
 30
0.0
 40
0.2499999843821842
100
AcDbArc
 50
159.1878315294
 51
180.0
  0
ARC
  5
129
330
1F
100
AcDbEntity
  8
Standard
  6
Continuous
 62
     7
100
AcDbCircle
 10
129.0852531144
 20
266.2475838197
 30
0.0
 40
0.4999999999993066
100
AcDbArc
 50
0.0000000001
 51
90.0
  0
LINE
  5
12A
330
1F
100
AcDbEntity
  8
Standard
  6
Continuous
 62
     7
100
AcDbLine
 10
121.8392442443
 20
255.8039063828
 30
0.0
 11
121.8392442443
 21
255.9501787838
 31
0.0
  0
ARC
  5
12B
330
1F
100
AcDbEntity
  8
Standard
  6
Continuous
 62
     7
100
AcDbCircle
 10
98.6055184223
 20
266.506630612
 30
0.0
 40
0.2317629228607685
100
AcDbArc
 50
18.9391742656
 51
93.9966198258
  0
ARC
  5
12C
330
1F
100
AcDbEntity
  8
Standard
  6
Continuous
 62
     7
100
AcDbCircle
 10
122.073117541
 20
266.5066172483
 30
0.0
 40
0.2317780890820618
100
AcDbArc
 50
86.0102389323
 51
160.7883792338
  0
ARC
  5
12D
330
1F
100
AcDbEntity
  8
Standard
  6
Continuous
 62
     7
100
AcDbCircle
 10
147.5486568272
 20
121.9973763299
 30
0.0
 40
0.4997925101306866
100
AcDbArc
 50
179.9762135408
 51
270.0237913967
  0
ARC
  5
12E
330
1F
100
AcDbEntity
  8
Standard
  6
Continuous
 62
     7
100
AcDbCircle
 10
147.5488643601
 20
172.9975838197
 30
0.0
 40
0.4999999999999702
100
AcDbArc
 50
90.0
 51
180.0
  0
ARC
  5
12F
330
1F
100
AcDbEntity
  8
Standard
  6
Continuous
 62
     7
100
AcDbCircle
 10
198.5488643601
 20
121.9975838197
 30
0.0
 40
0.5000000000000059
100
AcDbArc
 50
270.0
 51
360.0
  0
ARC
  5
130
330
1F
100
AcDbEntity
  8
Standard
  6
Continuous
 62
     7
100
AcDbCircle
 10
198.5490718931
 20
172.9977913527
 30
0.0
 40
0.4997925101307504
100
AcDbArc
 50
359.9762086013
 51
90.0237913987
  0
LINE
  5
131
330
1F
100
AcDbEntity
  8
Standard
  6
Continuous
 62
     7
100
AcDbLine
 10
147.5488643601
 20
173.4975838197
 30
0.0
 11
198.5488643601
 21
173.4975838197
 31
0.0
  0
LINE
  5
132
330
1F
100
AcDbEntity
  8
Standard
  6
Continuous
 62
     7
100
AcDbLine
 10
199.0488643601
 20
121.9975838197
 30
0.0
 11
199.0488643601
 21
172.9975838197
 31
0.0
  0
LINE
  5
133
330
1F
100
AcDbEntity
  8
Standard
  6
Continuous
 62
     7
100
AcDbLine
 10
198.5488643601
 20
121.4975838197
 30
0.0
 11
147.5486568272
 21
121.4975838197
 31
0.0
  0
LINE
  5
134
330
1F
100
AcDbEntity
  8
Standard
  6
Continuous
 62
     7
100
AcDbLine
 10
147.0488643601
 20
121.9975838197
 30
0.0
 11
147.0488643601
 21
172.9975838197
 31
0.0
  0
SPLINE
  5
135
330
1F
100
AcDbEntity
  8
Standard
  6
Continuous
 62
     7
100
AcDbSpline
210
0.0
220
0.0
230
1.0
 70
    12
 71
     2
 72
     6
 73
     3
 74
     0
 42
0.000000055125224
 43
0.0000000001
 40
0.0
 40
0.0
 40
0.0
 40
1.0
 40
1.0
 40
1.0
 10
192.5478605208234
 20
166.9965799804222
 30
0.0
 41
1.0
 10
192.4556885162086
 20
166.9967364531207
 30
0.0
 41
0.9915829283117542
 10
192.3664554950954
 20
166.9967364500757
 30
0.0
 41
1.0
  0
SPLINE
  5
136
330
1F
100
AcDbEntity
  8
Standard
  6
Continuous
 62
     7
100
AcDbSpline
210
0.0
220
0.0
230
1.0
 70
    12
 71
     2
 72
     6
 73
     3
 74
     0
 42
0.000000055125224
 43
0.0000000001
 40
0.0
 40
0.0
 40
0.0
 40
1.0
 40
1.0
 40
1.0
 10
192.548016990478
 20
166.8151749546527
 30
0.0
 41
1.0
 10
192.5480169935224
 20
166.9044079758006
 30
0.0
 41
0.9915829274826655
 10
192.5478605208233
 20
166.9965799804221
 30
0.0
 41
1.0
  0
SPLINE
  5
137
330
1F
100
AcDbEntity
  8
Standard
  6
Continuous
 62
     7
100
AcDbSpline
210
0.0
220
0.0
230
1.0
 70
    12
 71
     2
 72
     6
 73
     3
 74
     0
 42
0.0000000551252155
 43
0.0000000001
 40
0.0
 40
0.0
 40
0.0
 40
1.0
 40
1.0
 40
1.0
 10
153.5498681994278
 20
166.9965799804226
 30
0.0
 41
1.0
 10
153.5497117267047
 20
166.9044079611362
 30
0.0
 41
0.9915829240939079
 10
153.5497117297753
 20
166.815174926818
 30
0.0
 41
1.0
  0
SPLINE
  5
138
330
1F
100
AcDbEntity
  8
Standard
  6
Continuous
 62
     7
100
AcDbSpline
210
0.0
220
0.0
230
1.0
 70
    12
 71
     2
 72
     6
 73
     3
 74
     0
 42
0.0000000551252155
 43
0.0000000001
 40
0.0
 40
0.0
 40
0.0
 40
1.0
 40
1.0
 40
1.0
 10
192.3664554672241
 20
127.9984311893742
 30
0.0
 41
1.0
 10
192.4556885015458
 20
127.9984311863036
 30
0.0
 41
0.9915829254128128
 10
192.5478605208237
 20
127.9985876590268
 30
0.0
 41
1.0
  0
SPLINE
  5
139
330
1F
100
AcDbEntity
  8
Standard
  6
Continuous
 62
     7
100
AcDbSpline
210
0.0
220
0.0
230
1.0
 70
    12
 71
     2
 72
     6
 73
     3
 74
     0
 42
0.0000000551252155
 43
0.0000000001
 40
0.0
 40
0.0
 40
0.0
 40
1.0
 40
1.0
 40
1.0
 10
153.5498681994277
 20
127.9985876590265
 30
0.0
 41
1.0
 10
153.642040218714
 20
127.9984311863033
 30
0.0
 41
0.9915829245616242
 10
153.7312732530377
 20
127.998431189374
 30
0.0
 41
1.0
  0
LINE
  5
13A
330
1F
100
AcDbEntity
  8
Standard
  6
Continuous
 62
     7
100
AcDbLine
 10
153.731273253
 20
127.9984311894
 30
0.0
 11
192.3664554672
 21
127.9984311894
 31
0.0
  0
LINE
  5
13B
330
1F
100
AcDbEntity
  8
Standard
  6
Continuous
 62
     7
100
AcDbLine
 10
153.5497117298
 20
166.8151749268
 30
0.0
 11
153.5497117298
 21
128.1799927127
 31
0.0
  0
SPLINE
  5
13C
330
1F
100
AcDbEntity
  8
Standard
  6
Continuous
 62
     7
100
AcDbSpline
210
0.0
220
0.0
230
1.0
 70
    12
 71
     2
 72
     6
 73
     3
 74
     0
 42
0.0000000551252155
 43
0.0000000001
 40
0.0
 40
0.0
 40
0.0
 40
1.0
 40
1.0
 40
1.0
 10
153.5497117297731
 20
128.1799927127161
 30
0.0
 41
1.0
 10
153.5497117267037
 20
128.0907596783395
 30
0.0
 41
0.9915829253041031
 10
153.549868199428
 20
127.9985876590268
 30
0.0
 41
1.0
  0
SPLINE
  5
13D
330
1F
100
AcDbEntity
  8
Standard
  6
Continuous
 62
     7
100
AcDbSpline
210
0.0
220
0.0
230
1.0
 70
    12
 71
     2
 72
     6
 73
     3
 74
     0
 42
0.0000000551252155
 43
0.0000000001
 40
0.0
 40
0.0
 40
0.0
 40
1.0
 40
1.0
 40
1.0
 10
192.5478605208239
 20
127.9985876590265
 30
0.0
 41
1.0
 10
192.5480169935483
 20
128.0907596783496
 30
0.0
 41
0.9915829253974134
 10
192.5480169904788
 20
128.1799927127267
 30
0.0
 41
1.0
  0
LINE
  5
13E
330
1F
100
AcDbEntity
  8
Standard
  6
Continuous
 62
     7
100
AcDbLine
 10
192.5480169905
 20
128.1799927127
 30
0.0
 11
192.5480169905
 21
166.8151749547
 31
0.0
  0
LINE
  5
13F
330
1F
100
AcDbEntity
  8
Standard
  6
Continuous
 62
     7
100
AcDbLine
 10
192.3664554951
 20
166.9967364501
 30
0.0
 11
153.7312732531
 21
166.9967364501
 31
0.0
  0
SPLINE
  5
140
330
1F
100
AcDbEntity
  8
Standard
  6
Continuous
 62
     7
100
AcDbSpline
210
0.0
220
0.0
230
1.0
 70
    12
 71
     2
 72
     6
 73
     3
 74
     0
 42
0.0000000551252155
 43
0.0000000001
 40
0.0
 40
0.0
 40
0.0
 40
1.0
 40
1.0
 40
1.0
 10
153.7312732531173
 20
166.9967364500773
 30
0.0
 41
1.0
 10
153.6420402187407
 20
166.9967364531468
 30
0.0
 41
0.991582925304383
 10
153.5498681994279
 20
166.9965799804225
 30
0.0
 41
1.0
  0
LINE
  5
141
330
1F
100
AcDbEntity
  8
Standard
  6
Continuous
 62
     7
100
AcDbLine
 10
192.4956304666
 20
128.0508177132
 30
0.0
 11
192.4956304666
 21
166.9443499262
 31
0.0
  0
LINE
  5
142
330
1F
100
AcDbEntity
  8
Standard
  6
Continuous
 62
     7
100
AcDbLine
 10
192.4956304666
 20
166.9443499262
 30
0.0
 11
192.5478605208
 21
166.9965799804
 31
0.0
  0
LINE
  5
143
330
1F
100
AcDbEntity
  8
Standard
  6
Continuous
 62
     7
100
AcDbLine
 10
153.6020982536
 20
166.9443499262
 30
0.0
 11
153.5498681994
 21
166.9965799804
 31
0.0
  0
LINE
  5
144
330
1F
100
AcDbEntity
  8
Standard
  6
Continuous
 62
     7
100
AcDbLine
 10
153.6020982536
 20
166.9443499262
 30
0.0
 11
153.6020982536
 21
128.0508177132
 31
0.0
  0
LINE
  5
145
330
1F
100
AcDbEntity
  8
Standard
  6
Continuous
 62
     7
100
AcDbLine
 10
153.6020982536
 20
128.0508177132
 30
0.0
 11
153.5498681994
 21
127.998587659
 31
0.0
  0
LINE
  5
146
330
1F
100
AcDbEntity
  8
Standard
  6
Continuous
 62
     7
100
AcDbLine
 10
153.6020982536
 20
128.0508177132
 30
0.0
 11
192.4956304666
 21
128.0508177132
 31
0.0
  0
LINE
  5
147
330
1F
100
AcDbEntity
  8
Standard
  6
Continuous
 62
     7
100
AcDbLine
 10
192.4956304666
 20
128.0508177132
 30
0.0
 11
192.5478605208
 21
127.998587659
 31
0.0
  0
LINE
  5
148
330
1F
100
AcDbEntity
  8
Standard
  6
Continuous
 62
     7
100
AcDbLine
 10
192.4956304666
 20
166.9443499262
 30
0.0
 11
153.6020982536
 21
166.9443499262
 31
0.0
  0
LINE
  5
149
330
1F
100
AcDbEntity
  8
Standard
  6
Continuous
 62
     7
100
AcDbLine
 10
191.7988643601
 20
128.2475838197
 30
0.0
 11
154.2988643601
 21
128.2475838197
 31
0.0
  0
ARC
  5
14A
330
1F
100
AcDbEntity
  8
Standard
  6
Continuous
 62
     7
100
AcDbCircle
 10
154.2988643601
 20
128.7475838197
 30
0.0
 40
0.4999999999696497
100
AcDbArc
 50
179.9999999983
 51
270.000000001
  0
ARC
  5
14B
330
1F
100
AcDbEntity
  8
Standard
  6
Continuous
 62
     7
100
AcDbCircle
 10
191.7988643601
 20
128.7475838198
 30
0.0
 40
0.500000000021799
100
AcDbArc
 50
270.0000000025
 51
359.9999999971
  0
LINE
  5
14C
330
1F
100
AcDbEntity
  8
Standard
  6
Continuous
 62
     7
100
AcDbLine
 10
154.2988643601
 20
166.7475838197
 30
0.0
 11
191.7988643601
 21
166.7475838197
 31
0.0
  0
ARC
  5
14D
330
1F
100
AcDbEntity
  8
Standard
  6
Continuous
 62
     7
100
AcDbCircle
 10
154.2988643601
 20
166.2475838198
 30
0.0
 40
0.4999999999936999
100
AcDbArc
 50
89.9999999985
 51
180.0000000021
  0
LINE
  5
14E
330
1F
100
AcDbEntity
  8
Standard
  6
Continuous
 62
     7
100
AcDbLine
 10
153.7988643601
 20
128.7475838197
 30
0.0
 11
153.7988643601
 21
166.2475838197
 31
0.0
  0
LINE
  5
14F
330
1F
100
AcDbEntity
  8
Standard
  6
Continuous
 62
     7
100
AcDbLine
 10
192.2988643601
 20
166.2475838197
 30
0.0
 11
192.2988643601
 21
128.7475838198
 31
0.0
  0
ARC
  5
150
330
1F
100
AcDbEntity
  8
Standard
  6
Continuous
 62
     7
100
AcDbCircle
 10
191.7988643601
 20
166.2475838197
 30
0.0
 40
0.5000000000110506
100
AcDbArc
 50
0.0000000006
 51
90.000000001
  0
LINE
  5
151
330
1F
100
AcDbEntity
  8
Layer1
  6
Continuous
 62
     7
100
AcDbLine
 10
68.7566399778
 20
221.9975954474
 30
0.0
 11
68.7566399778
 21
272.997572192
 31
0.0
  0
ARC
  5
152
330
1F
100
AcDbEntity
  8
Standard
  6
Continuous
 62
     7
100
AcDbCircle
 10
110.3393264221
 20
247.4999294901
 30
0.0
 40
11.9695975072058
100
AcDbArc
 50
140.6049921755
 51
269.9999772574
  0
ARC
  5
153
330
1F
100
AcDbEntity
  8
Standard
  6
Continuous
 62
     7
100
AcDbCircle
 10
110.3392715556
 20
247.4999315684
 30
0.0
 40
11.96959958564916
100
AcDbArc
 50
270.0002398908
 51
39.3949337137
  0
ARC
  5
154
330
1F
100
AcDbEntity
  8
Standard
  6
Continuous
 62
     7
100
AcDbCircle
 10
110.3392608344
 20
247.4998943305
 30
0.0
 40
11.7198983303065
100
AcDbArc
 50
140.6047322922
 51
270.0001035172
  0
ARC
  5
155
330
1F
100
AcDbEntity
  8
Standard
  6
Continuous
 62
     7
100
AcDbCircle
 10
110.3392289573
 20
247.4999482983
 30
0.0
 40
11.71995229819352
100
AcDbArc
 50
270.0002593556
 51
39.3946559425
  0
LINE
  5
156
330
1F
100
AcDbEntity
  8
Standard
  6
Continuous
 62
     7
100
AcDbLine
 10
60.5888643171
 20
152.6688175133
 30
0.0
 11
59.5888643171
 21
152.6688175133
 31
0.0
  0
LINE
  5
157
330
1F
100
AcDbEntity
  8
Standard
  6
Continuous
 62
     7
100
AcDbLine
 10
59.5888643171
 20
152.3249159719
 30
0.0
 11
59.5888643171
 21
152.2475838197
 31
0.0
  0
LINE
  5
158
330
1F
100
AcDbEntity
  8
Standard
  6
Continuous
 62
     7
100
AcDbLine
 10
60.5888643171
 20
158.7475838197
 30
0.0
 11
59.5888643171
 21
158.7475838197
 31
0.0
  0
LINE
  5
159
330
1F
100
AcDbEntity
  8
Standard
  6
Continuous
 62
     7
100
AcDbLine
 10
60.5888643601
 20
151.4975838197
 30
0.0
 11
60.5888643601
 21
161.4975838197
 31
0.0
  0
LINE
  5
15A
330
1F
100
AcDbEntity
  8
Standard
  6
Continuous
 62
     7
100
AcDbLine
 10
46.0888643601
 20
155.4975838197
 30
0.0
 11
46.0888643601
 21
153.4975838197
 31
0.0
  0
LINE
  5
15B
330
1F
100
AcDbEntity
  8
Standard
  6
Continuous
 62
     7
100
AcDbLine
 10
44.0888643601
 20
155.4975838197
 30
0.0
 11
44.0888643601
 21
153.4975838197
 31
0.0
  0
LINE
  5
15C
330
1F
100
AcDbEntity
  8
Standard
  6
Continuous
 62
     7
100
AcDbLine
 10
42.0888643601
 20
155.4975838197
 30
0.0
 11
42.0888643601
 21
153.4975838197
 31
0.0
  0
LINE
  5
15D
330
1F
100
AcDbEntity
  8
Standard
  6
Continuous
 62
     7
100
AcDbLine
 10
40.0888643601
 20
155.4975838197
 30
0.0
 11
40.0888643601
 21
153.4975838197
 31
0.0
  0
LINE
  5
15E
330
1F
100
AcDbEntity
  8
Standard
  6
Continuous
 62
     7
100
AcDbLine
 10
38.0888643601
 20
155.4975838197
 30
0.0
 11
38.0888643601
 21
153.4975838197
 31
0.0
  0
LINE
  5
15F
330
1F
100
AcDbEntity
  8
Standard
  6
Continuous
 62
     7
100
AcDbLine
 10
36.0888643601
 20
156.4975838197
 30
0.0
 11
36.0888643601
 21
155.4975838197
 31
0.0
  0
LINE
  5
160
330
1F
100
AcDbEntity
  8
Standard
  6
Continuous
 62
     7
100
AcDbLine
 10
28.5888643601
 20
153.4975838197
 30
0.0
 11
28.5888643601
 21
159.4975838197
 31
0.0
  0
LINE
  5
161
330
1F
100
AcDbEntity
  8
Standard
  6
Continuous
 62
     7
100
AcDbLine
 10
26.5888643601
 20
153.8502377811
 30
0.0
 11
26.5888643601
 21
159.1449298583
 31
0.0
  0
LINE
  5
162
330
1F
100
AcDbEntity
  8
Standard
  6
Continuous
 62
     7
100
AcDbLine
 10
51.0888643601
 20
156.4975838197
 30
0.0
 11
51.0888643601
 21
159.6475838197
 31
0.0
  0
LINE
  5
163
330
1F
100
AcDbEntity
  8
Standard
  6
Continuous
 62
     7
100
AcDbLine
 10
36.0888643601
 20
157.4975838197
 30
0.0
 11
33.0888643601
 21
157.4975838197
 31
0.0
  0
LINE
  5
164
330
1F
100
AcDbEntity
  8
Standard
  6
Continuous
 62
     7
100
AcDbLine
 10
51.0888643601
 20
157.4975838197
 30
0.0
 11
50.9888643601
 21
157.4975838197
 31
0.0
  0
LINE
  5
165
330
1F
100
AcDbEntity
  8
Standard
  6
Continuous
 62
     7
100
AcDbLine
 10
50.9888643601
 20
157.4975838197
 30
0.0
 11
46.0888643601
 21
157.4975838197
 31
0.0
  0
LINE
  5
166
330
1F
100
AcDbEntity
  8
Standard
  6
Continuous
 62
     7
100
AcDbLine
 10
46.0888643601
 20
157.4975838197
 30
0.0
 11
44.0888643601
 21
157.4975838197
 31
0.0
  0
LINE
  5
167
330
1F
100
AcDbEntity
  8
Standard
  6
Continuous
 62
     7
100
AcDbLine
 10
44.0888643601
 20
157.4975838197
 30
0.0
 11
42.0888643601
 21
157.4975838197
 31
0.0
  0
LINE
  5
168
330
1F
100
AcDbEntity
  8
Standard
  6
Continuous
 62
     7
100
AcDbLine
 10
42.0888643601
 20
157.4975838197
 30
0.0
 11
40.0888643601
 21
157.4975838197
 31
0.0
  0
LINE
  5
169
330
1F
100
AcDbEntity
  8
Standard
  6
Continuous
 62
     7
100
AcDbLine
 10
40.0888643601
 20
157.4975838197
 30
0.0
 11
38.0888643601
 21
157.4975838197
 31
0.0
  0
LINE
  5
16A
330
1F
100
AcDbEntity
  8
Standard
  6
Continuous
 62
     7
100
AcDbLine
 10
38.0888643601
 20
157.4975838197
 30
0.0
 11
36.0888643601
 21
157.4975838197
 31
0.0
  0
LINE
  5
16B
330
1F
100
AcDbEntity
  8
Standard
  6
Continuous
 62
     7
100
AcDbLine
 10
33.0888643601
 20
156.4975838197
 30
0.0
 11
36.0888643601
 21
156.4975838197
 31
0.0
  0
LINE
  5
16C
330
1F
100
AcDbEntity
  8
Standard
  6
Continuous
 62
     7
100
AcDbLine
 10
48.0888643601
 20
156.4975838197
 30
0.0
 11
49.5888643601
 21
156.4975838197
 31
0.0
  0
LINE
  5
16D
330
1F
100
AcDbEntity
  8
Standard
  6
Continuous
 62
     7
100
AcDbLine
 10
33.0888643601
 20
156.4975838197
 30
0.0
 11
33.0888643601
 21
157.4975838197
 31
0.0
  0
LINE
  5
16E
330
1F
100
AcDbEntity
  8
Standard
  6
Continuous
 62
     7
100
AcDbLine
 10
36.0888643601
 20
155.4975838197
 30
0.0
 11
36.0888643601
 21
153.4975838197
 31
0.0
  0
LINE
  5
16F
330
1F
100
AcDbEntity
  8
Standard
  6
Continuous
 62
     7
100
AcDbLine
 10
48.0888643601
 20
156.4975838197
 30
0.0
 11
46.0888643601
 21
156.4975838197
 31
0.0
  0
LINE
  5
170
330
1F
100
AcDbEntity
  8
Standard
  6
Continuous
 62
     7
100
AcDbLine
 10
46.0888643601
 20
156.4975838197
 30
0.0
 11
44.0888643601
 21
156.4975838197
 31
0.0
  0
LINE
  5
171
330
1F
100
AcDbEntity
  8
Standard
  6
Continuous
 62
     7
100
AcDbLine
 10
44.0888643601
 20
156.4975838197
 30
0.0
 11
42.0888643601
 21
156.4975838197
 31
0.0
  0
LINE
  5
172
330
1F
100
AcDbEntity
  8
Standard
  6
Continuous
 62
     7
100
AcDbLine
 10
42.0888643601
 20
156.4975838197
 30
0.0
 11
40.0888643601
 21
156.4975838197
 31
0.0
  0
LINE
  5
173
330
1F
100
AcDbEntity
  8
Standard
  6
Continuous
 62
     7
100
AcDbLine
 10
40.0888643601
 20
156.4975838197
 30
0.0
 11
38.0888643601
 21
156.4975838197
 31
0.0
  0
LINE
  5
174
330
1F
100
AcDbEntity
  8
Standard
  6
Continuous
 62
     7
100
AcDbLine
 10
38.0888643601
 20
156.4975838197
 30
0.0
 11
36.0888643601
 21
156.4975838197
 31
0.0
  0
LINE
  5
175
330
1F
100
AcDbEntity
  8
Standard
  6
Continuous
 62
     7
100
AcDbLine
 10
48.0888643601
 20
155.4975838197
 30
0.0
 11
46.0888643601
 21
155.4975838197
 31
0.0
  0
LINE
  5
176
330
1F
100
AcDbEntity
  8
Standard
  6
Continuous
 62
     7
100
AcDbLine
 10
46.0888643601
 20
155.4975838197
 30
0.0
 11
46.0888643601
 21
156.4975838197
 31
0.0
  0
LINE
  5
177
330
1F
100
AcDbEntity
  8
Standard
  6
Continuous
 62
     7
100
AcDbLine
 10
46.0888643601
 20
155.4975838197
 30
0.0
 11
44.0888643601
 21
155.4975838197
 31
0.0
  0
LINE
  5
178
330
1F
100
AcDbEntity
  8
Standard
  6
Continuous
 62
     7
100
AcDbLine
 10
44.0888643601
 20
155.4975838197
 30
0.0
 11
44.0888643601
 21
156.4975838197
 31
0.0
  0
LINE
  5
179
330
1F
100
AcDbEntity
  8
Standard
  6
Continuous
 62
     7
100
AcDbLine
 10
44.0888643601
 20
155.4975838197
 30
0.0
 11
42.0888643601
 21
155.4975838197
 31
0.0
  0
LINE
  5
17A
330
1F
100
AcDbEntity
  8
Standard
  6
Continuous
 62
     7
100
AcDbLine
 10
42.0888643601
 20
155.4975838197
 30
0.0
 11
42.0888643601
 21
156.4975838197
 31
0.0
  0
LINE
  5
17B
330
1F
100
AcDbEntity
  8
Standard
  6
Continuous
 62
     7
100
AcDbLine
 10
42.0888643601
 20
155.4975838197
 30
0.0
 11
40.0888643601
 21
155.4975838197
 31
0.0
  0
LINE
  5
17C
330
1F
100
AcDbEntity
  8
Standard
  6
Continuous
 62
     7
100
AcDbLine
 10
40.0888643601
 20
155.4975838197
 30
0.0
 11
40.0888643601
 21
156.4975838197
 31
0.0
  0
LINE
  5
17D
330
1F
100
AcDbEntity
  8
Standard
  6
Continuous
 62
     7
100
AcDbLine
 10
40.0888643601
 20
155.4975838197
 30
0.0
 11
38.0888643601
 21
155.4975838197
 31
0.0
  0
LINE
  5
17E
330
1F
100
AcDbEntity
  8
Standard
  6
Continuous
 62
     7
100
AcDbLine
 10
38.0888643601
 20
155.4975838197
 30
0.0
 11
38.0888643601
 21
156.4975838197
 31
0.0
  0
LINE
  5
17F
330
1F
100
AcDbEntity
  8
Standard
  6
Continuous
 62
     7
100
AcDbLine
 10
38.0888643601
 20
155.4975838197
 30
0.0
 11
36.0888643601
 21
155.4975838197
 31
0.0
  0
LINE
  5
180
330
1F
100
AcDbEntity
  8
Standard
  6
Continuous
 62
     7
100
AcDbLine
 10
48.0888643601
 20
155.4975838197
 30
0.0
 11
48.0888643601
 21
156.4975838197
 31
0.0
  0
LINE
  5
181
330
1F
100
AcDbEntity
  8
Standard
  6
Continuous
 62
     7
100
AcDbLine
 10
46.0888643601
 20
159.4975838197
 30
0.0
 11
46.0888643601
 21
157.4975838197
 31
0.0
  0
LINE
  5
182
330
1F
100
AcDbEntity
  8
Standard
  6
Continuous
 62
     7
100
AcDbLine
 10
44.0888643601
 20
159.4975838197
 30
0.0
 11
44.0888643601
 21
157.4975838197
 31
0.0
  0
LINE
  5
183
330
1F
100
AcDbEntity
  8
Standard
  6
Continuous
 62
     7
100
AcDbLine
 10
42.0888643601
 20
159.4975838197
 30
0.0
 11
42.0888643601
 21
157.4975838197
 31
0.0
  0
LINE
  5
184
330
1F
100
AcDbEntity
  8
Standard
  6
Continuous
 62
     7
100
AcDbLine
 10
40.0888643601
 20
159.4975838197
 30
0.0
 11
40.0888643601
 21
157.4975838197
 31
0.0
  0
LINE
  5
185
330
1F
100
AcDbEntity
  8
Standard
  6
Continuous
 62
     7
100
AcDbLine
 10
38.0888643601
 20
159.4975838197
 30
0.0
 11
38.0888643601
 21
157.4975838197
 31
0.0
  0
LINE
  5
186
330
1F
100
AcDbEntity
  8
Standard
  6
Continuous
 62
     7
100
AcDbLine
 10
36.0888643601
 20
159.4975838197
 30
0.0
 11
36.0888643601
 21
157.4975838197
 31
0.0
  0
LINE
  5
187
330
1F
100
AcDbEntity
  8
Standard
  6
Continuous
 62
     7
100
AcDbLine
 10
49.5888643601
 20
156.4975838197
 30
0.0
 11
49.5888643601
 21
155.4975838197
 31
0.0
  0
LINE
  5
188
330
1F
100
AcDbEntity
  8
Standard
  6
Continuous
 62
     7
100
AcDbLine
 10
51.0888643601
 20
153.3475838197
 30
0.0
 11
51.0888643601
 21
155.4975838197
 31
0.0
  0
LINE
  5
189
330
1F
100
AcDbEntity
  8
Standard
  6
Continuous
 62
     7
100
AcDbLine
 10
59.5888643601
 20
156.4975838197
 30
0.0
 11
49.5888643601
 21
156.4975838197
 31
0.0
  0
LINE
  5
18A
330
1F
100
AcDbEntity
  8
Standard
  6
Continuous
 62
     7
100
AcDbLine
 10
53.7291364837
 20
153.2475838197
 30
0.0
 11
59.5888643601
 21
152.3249159651
 31
0.0
  0
LINE
  5
18B
330
1F
100
AcDbEntity
  8
Standard
  6
Continuous
 62
     7
100
AcDbLine
 10
59.5888643601
 20
155.4975838197
 30
0.0
 11
49.5888643601
 21
155.4975838197
 31
0.0
  0
LINE
  5
18C
330
1F
100
AcDbEntity
  8
Standard
  6
Continuous
 62
     7
100
AcDbLine
 10
59.5888643601
 20
160.6702516743
 30
0.0
 11
53.7291364837
 21
159.7475838197
 31
0.0
  0
LINE
  5
18D
330
1F
100
AcDbEntity
  8
Standard
  6
Continuous
 62
     7
100
AcDbLine
 10
59.5888643601
 20
156.4975838197
 30
0.0
 11
59.5888643601
 21
155.4975838197
 31
0.0
  0
LINE
  5
18E
330
1F
100
AcDbEntity
  8
Standard
  6
Continuous
 62
     7
100
AcDbLine
 10
60.5888643601
 20
155.1619016539
 30
0.0
 11
59.5888643601
 21
155.1869021298
 31
0.0
  0
LINE
  5
18F
330
1F
100
AcDbEntity
  8
Standard
  6
Continuous
 62
     7
100
AcDbLine
 10
59.5888643601
 20
158.778125004
 30
0.0
 11
60.5888643601
 21
158.821428747
 31
0.0
  0
LINE
  5
190
330
1F
100
AcDbEntity
  8
Standard
  6
Continuous
 62
     7
100
AcDbLine
 10
60.5888643601
 20
159.2977648975
 30
0.0
 11
59.5888643601
 21
159.2977648975
 31
0.0
  0
LINE
  5
191
330
1F
100
AcDbEntity
  8
Standard
  6
Continuous
 62
     7
100
AcDbLine
 10
59.5888643601
 20
154.8868973859
 30
0.0
 11
60.5888643601
 21
154.8868973859
 31
0.0
  0
LINE
  5
192
330
1F
100
AcDbEntity
  8
Standard
  6
Continuous
 62
     7
100
AcDbLine
 10
59.5888643601
 20
154.8868973859
 30
0.0
 11
59.5888643601
 21
155.4975838197
 31
0.0
  0
LINE
  5
193
330
1F
100
AcDbEntity
  8
Standard
  6
Continuous
 62
     7
100
AcDbLine
 10
59.5888643601
 20
156.4975838197
 30
0.0
 11
59.5888643601
 21
159.2977648975
 31
0.0
  0
LINE
  5
194
330
1F
100
AcDbEntity
  8
Standard
  6
Continuous
 62
     7
100
AcDbLine
 10
60.5888643601
 20
153.6688175133
 30
0.0
 11
59.5888643601
 21
153.6688175133
 31
0.0
  0
LINE
  5
195
330
1F
100
AcDbEntity
  8
Standard
  6
Continuous
 62
     7
100
AcDbLine
 10
59.5888643601
 20
153.6688175133
 30
0.0
 11
59.5888643601
 21
153.2475838197
 31
0.0
  0
LINE
  5
196
330
1F
100
AcDbEntity
  8
Standard
  6
Continuous
 62
     7
100
AcDbLine
 10
59.5888643601
 20
153.2475838197
 30
0.0
 11
59.5888643601
 21
152.3249159651
 31
0.0
  0
LINE
  5
197
330
1F
100
AcDbEntity
  8
Standard
  6
Continuous
 62
     7
100
AcDbLine
 10
59.5888643601
 20
160.6702516743
 30
0.0
 11
59.5888643601
 21
159.7475838197
 31
0.0
  0
LINE
  5
198
330
1F
100
AcDbEntity
  8
Standard
  6
Continuous
 62
     7
100
AcDbLine
 10
36.0888643601
 20
159.4975838197
 30
0.0
 11
28.5888643601
 21
159.4975838197
 31
0.0
  0
LINE
  5
199
330
1F
100
AcDbEntity
  8
Standard
  6
Continuous
 62
     7
100
AcDbLine
 10
28.5888643601
 20
153.4975838197
 30
0.0
 11
36.0888643601
 21
153.4975838197
 31
0.0
  0
LINE
  5
19A
330
1F
100
AcDbEntity
  8
Standard
  6
Continuous
 62
     7
100
AcDbLine
 10
28.5888643601
 20
159.4975838197
 30
0.0
 11
26.5888643601
 21
159.1449298583
 31
0.0
  0
LINE
  5
19B
330
1F
100
AcDbEntity
  8
Standard
  6
Continuous
 62
     7
100
AcDbLine
 10
26.5888643601
 20
153.8502377811
 30
0.0
 11
28.5888643601
 21
153.4975838197
 31
0.0
  0
LINE
  5
19C
330
1F
100
AcDbEntity
  8
Standard
  6
Continuous
 62
     7
100
AcDbLine
 10
61.5888643601
 20
161.4975838197
 30
0.0
 11
60.5888643601
 21
161.4975838197
 31
0.0
  0
LINE
  5
19D
330
1F
100
AcDbEntity
  8
Standard
  6
Continuous
 62
     7
100
AcDbLine
 10
60.5888643601
 20
151.4975838197
 30
0.0
 11
61.5888643601
 21
151.4975838197
 31
0.0
  0
ARC
  5
19E
330
1F
100
AcDbEntity
  8
Standard
  6
Continuous
 62
     7
100
AcDbCircle
 10
50.9888643601
 20
153.3975838197
 30
0.0
 40
0.1000000000000003
100
AcDbArc
 50
0.0
 51
90.0
  0
LINE
  5
19F
330
1F
100
AcDbEntity
  8
Standard
  6
Continuous
 62
     7
100
AcDbLine
 10
46.0888643601
 20
153.4975838197
 30
0.0
 11
50.9888643601
 21
153.4975838197
 31
0.0
  0
LINE
  5
1A0
330
1F
100
AcDbEntity
  8
Standard
  6
Continuous
 62
     7
100
AcDbLine
 10
44.0888643601
 20
153.8502377811
 30
0.0
 11
46.0888643601
 21
153.4975838197
 31
0.0
  0
LINE
  5
1A1
330
1F
100
AcDbEntity
  8
Standard
  6
Continuous
 62
     7
100
AcDbLine
 10
42.0888643601
 20
153.4975838197
 30
0.0
 11
44.0888643601
 21
153.4975838197
 31
0.0
  0
LINE
  5
1A2
330
1F
100
AcDbEntity
  8
Standard
  6
Continuous
 62
     7
100
AcDbLine
 10
40.0888643601
 20
153.8502377811
 30
0.0
 11
42.0888643601
 21
153.4975838197
 31
0.0
  0
LINE
  5
1A3
330
1F
100
AcDbEntity
  8
Standard
  6
Continuous
 62
     7
100
AcDbLine
 10
38.0888643601
 20
153.4975838197
 30
0.0
 11
40.0888643601
 21
153.4975838197
 31
0.0
  0
LINE
  5
1A4
330
1F
100
AcDbEntity
  8
Standard
  6
Continuous
 62
     7
100
AcDbLine
 10
36.0888643601
 20
153.8502377811
 30
0.0
 11
38.0888643601
 21
153.4975838197
 31
0.0
  0
ARC
  5
1A5
330
1F
100
AcDbEntity
  8
Standard
  6
Continuous
 62
     7
100
AcDbCircle
 10
50.9888643601
 20
159.5975838197
 30
0.0
 40
0.0999999999999994
100
AcDbArc
 50
270.0
 51
360.0
  0
LINE
  5
1A6
330
1F
100
AcDbEntity
  8
Standard
  6
Continuous
 62
     7
100
AcDbLine
 10
46.0888643601
 20
159.4975838197
 30
0.0
 11
44.0888643601
 21
159.1449298583
 31
0.0
  0
LINE
  5
1A7
330
1F
100
AcDbEntity
  8
Standard
  6
Continuous
 62
     7
100
AcDbLine
 10
44.0888643601
 20
159.4975838197
 30
0.0
 11
42.0888643601
 21
159.4975838197
 31
0.0
  0
LINE
  5
1A8
330
1F
100
AcDbEntity
  8
Standard
  6
Continuous
 62
     7
100
AcDbLine
 10
42.0888643601
 20
159.4975838197
 30
0.0
 11
40.0888643601
 21
159.1449298583
 31
0.0
  0
LINE
  5
1A9
330
1F
100
AcDbEntity
  8
Standard
  6
Continuous
 62
     7
100
AcDbLine
 10
40.0888643601
 20
159.4975838197
 30
0.0
 11
38.0888643601
 21
159.4975838197
 31
0.0
  0
LINE
  5
1AA
330
1F
100
AcDbEntity
  8
Standard
  6
Continuous
 62
     7
100
AcDbLine
 10
38.0888643601
 20
159.4975838197
 30
0.0
 11
36.0888643601
 21
159.1449298583
 31
0.0
  0
LINE
  5
1AB
330
1F
100
AcDbEntity
  8
Standard
  6
Continuous
 62
     7
100
AcDbLine
 10
50.9888643601
 20
159.4975838197
 30
0.0
 11
46.0888643601
 21
159.4975838197
 31
0.0
  0
ARC
  5
1AC
330
1F
100
AcDbEntity
  8
Standard
  6
Continuous
 62
     7
100
AcDbCircle
 10
51.1888643601
 20
153.3475838197
 30
0.0
 40
0.1000000000000029
100
AcDbArc
 50
180.0
 51
270.0
  0
LINE
  5
1AD
330
1F
100
AcDbEntity
  8
Standard
  6
Continuous
 62
     7
100
AcDbLine
 10
51.1888643601
 20
153.2475838197
 30
0.0
 11
59.5888643601
 21
153.2475838197
 31
0.0
  0
ARC
  5
1AE
330
1F
100
AcDbEntity
  8
Standard
  6
Continuous
 62
     7
100
AcDbCircle
 10
51.1888643601
 20
159.6475838197
 30
0.0
 40
0.0999999999999994
100
AcDbArc
 50
90.0
 51
180.0
  0
LINE
  5
1AF
330
1F
100
AcDbEntity
  8
Standard
  6
Continuous
 62
     7
100
AcDbLine
 10
60.5888643601
 20
159.7475838197
 30
0.0
 11
51.1888643601
 21
159.7475838197
 31
0.0
  0
LINE
  5
1B0
330
1F
100
AcDbEntity
  8
Standard
  6
Continuous
 62
     7
100
AcDbLine
 10
26.588864347
 20
156.4975838197
 30
0.0
 11
26.236640251
 21
156.4975838197
 31
0.0
  0
SPLINE
  5
1B1
330
1F
100
AcDbEntity
  8
Standard
  6
Continuous
 62
     7
100
AcDbSpline
210
0.0
220
0.0
230
1.0
 70
     8
 71
     3
 72
     8
 73
     4
 74
     0
 42
0.0000000098633552
 43
0.0000000001
 40
0.0
 40
0.0
 40
0.0
 40
0.0
 40
0.9999999999999999
 40
0.9999999999999999
 40
0.9999999999999999
 40
0.9999999999999999
 10
34.42219731955354
 20
157.4975856516788
 30
0.0
 10
34.47774771822357
 20
157.1953015705233
 30
0.0
 10
34.53329811689363
 20
156.8464611196771
 30
0.0
 10
34.58884851556368
 20
156.4975838814916
 30
0.0
  0
SPLINE
  5
1B2
330
1F
100
AcDbEntity
  8
Standard
  6
Continuous
 62
     7
100
AcDbSpline
210
0.0
220
0.0
230
1.0
 70
     8
 71
     3
 72
    10
 73
     6
 74
     0
 42
0.0000000098634474
 43
0.0000000001
 40
0.0
 40
0.0
 40
0.0
 40
0.0
 40
0.076975598144451
 40
0.076975598144451
 40
1.0
 40
1.0
 40
1.0
 40
1.0
 10
36.42218949878593
 20
157.4975872441137
 30
0.0
 10
36.42646573025444
 20
157.4743447599705
 30
0.0
 10
36.43074196172292
 20
157.4508209104114
 30
0.0
 10
36.48629504051127
 20
157.1417522292815
 30
0.0
 10
36.53757188783113
 20
156.8196574510875
 30
0.0
 10
36.58884873515098
 20
156.49758387598
 30
0.0
  0
SPLINE
  5
1B3
330
1F
100
AcDbEntity
  8
Standard
  6
Continuous
 62
     7
100
AcDbSpline
210
0.0
220
0.0
230
1.0
 70
     8
 71
     3
 72
    10
 73
     6
 74
     0
 42
0.0000000098634058
 43
0.0000000001
 40
0.0
 40
0.0
 40
0.0
 40
0.0
 40
0.1610024324334005
 40
0.1610024324334005
 40
0.9999999999999999
 40
0.9999999999999999
 40
0.9999999999999999
 40
0.9999999999999999
 10
38.42216762570786
 20
157.4975963046338
 30
0.0
 10
38.43111315286438
 20
157.4490107283024
 30
0.0
 10
38.44005868002093
 20
157.3992147741575
 30
0.0
 10
38.49562012105839
 20
157.0832718096912
 30
0.0
 10
38.54223603493931
 20
156.7904131966065
 30
0.0
 10
38.58885194882025
 20
156.4975838582504
 30
0.0
  0
SPLINE
  5
1B4
330
1F
100
AcDbEntity
  8
Standard
  6
Continuous
 62
     7
100
AcDbSpline
210
0.0
220
0.0
230
1.0
 70
     8
 71
     3
 72
    10
 73
     6
 74
     0
 42
0.0000000098632711
 43
0.0000000001
 40
0.0
 40
0.0
 40
0.0
 40
0.0
 40
0.2450261876225159
 40
0.2450261876225159
 40
1.0
 40
1.0
 40
1.0
 40
1.0
 10
40.42213997269731
 20
157.497607635905
 30
0.0
 10
40.43575672218602
 20
157.4236745024716
 30
0.0
 10
40.44937347167477
 20
157.3469757561258
 30
0.0
 10
40.50494610095512
 20
157.0247500138303
 30
0.0
 10
40.54690198074679
 20
156.7611577268501
 30
0.0
 10
40.58885786053843
 20
156.4975816282998
 30
0.0
  0
SPLINE
  5
1B5
330
1F
100
AcDbEntity
  8
Standard
  6
Continuous
 62
     7
100
AcDbSpline
210
0.0
220
0.0
230
1.0
 70
     8
 71
     3
 72
    10
 73
     6
 74
     0
 42
0.0000000098631538
 43
0.0000000001
 40
0.0
 40
0.0
 40
0.0
 40
0.0
 40
0.329013537723252
 40
0.329013537723252
 40
1.0
 40
1.0
 40
1.0
 40
1.0
 10
42.42211267889143
 20
157.4976187150091
 30
0.0
 10
42.44040053097747
 20
157.3983214201409
 30
0.0
 10
42.45868838306349
 20
157.2940897126584
 30
0.0
 10
42.51427227244564
 20
156.9662003719939
 30
0.0
 10
42.55156830974175
 20
156.7318920958593
 30
0.0
 10
42.58886434703785
 20
156.4975838197246
 30
0.0
  0
SPLINE
  5
1B6
330
1F
100
AcDbEntity
  8
Standard
  6
Continuous
 62
     7
100
AcDbSpline
210
0.0
220
0.0
230
1.0
 70
     8
 71
     3
 72
    10
 73
     6
 74
     0
 42
0.0000000098630435
 43
0.0000000001
 40
0.0
 40
0.0
 40
0.0
 40
0.0
 40
0.4129501667059861
 40
0.4129501667059861
 40
1.0
 40
1.0
 40
1.0
 40
1.0
 10
44.42209012967041
 20
157.4976278021622
 30
0.0
 10
44.44504750282546
 20
157.3729431769902
 30
0.0
 10
44.46800487598052
 20
157.2405444698346
 30
0.0
 10
44.52359844393614
 20
156.9076317761006
 30
0.0
 10
44.5562346387367
 20
156.702613791279
 30
0.0
 10
44.58887083353727
 20
156.4975860111495
 30
0.0
  0
SPLINE
  5
1B7
330
1F
100
AcDbEntity
  8
Standard
  6
Continuous
 62
     7
100
AcDbSpline
210
0.0
220
0.0
230
1.0
 70
     8
 71
     3
 72
    10
 73
     6
 74
     0
 42
0.0000000098629186
 43
0.0000000001
 40
0.0
 40
0.0
 40
0.0
 40
0.0
 40
0.4968366108460278
 40
0.4968366108460278
 40
1.0
 40
1.0
 40
1.0
 40
1.0
 10
46.42207509803117
 20
157.4976338368543
 30
0.0
 10
46.44969948639466
 20
157.3475372835457
 30
0.0
 10
46.47732387475811
 20
157.1863302080691
 30
0.0
 10
46.53292442383289
 20
156.84905151796
 30
0.0
 10
46.56090058454418
 20
156.6733229215224
 30
0.0
 10
46.58887674525544
 20
156.4975837811989
 30
0.0
  0
SPLINE
  5
1B8
330
1F
100
AcDbEntity
  8
Standard
  6
Continuous
 62
     7
100
AcDbSpline
210
0.0
220
0.0
230
1.0
 70
     8
 71
     3
 72
    10
 73
     6
 74
     0
 42
0.0000000098628568
 43
0.0000000001
 40
0.0
 40
0.0
 40
0.0
 40
0.0
 40
0.5806891333251957
 40
0.5806891333251957
 40
1.0
 40
1.0
 40
1.0
 40
1.0
 10
48.42206891877271
 20
157.4976363323245
 30
0.0
 10
48.45435737155101
 20
157.3221063570148
 30
0.0
 10
48.48664582432932
 20
157.1314396692654
 30
0.0
 10
48.54224950438002
 20
156.7904686268996
 30
0.0
 10
48.56556473165236
 20
156.6440283870089
 30
0.0
 10
48.58887995892472
 20
156.4975837634693
 30
0.0
  0
SPLINE
  5
1B9
330
1F
100
AcDbEntity
  8
Standard
  6
Continuous
 62
     7
100
AcDbSpline
210
0.0
220
0.0
230
1.0
 70
     8
 71
     3
 72
    10
 73
     6
 74
     0
 42
0.0000000098628402
 43
0.0000000001
 40
0.0
 40
0.0
 40
0.0
 40
0.0
 40
0.6645261472876587
 40
0.6645261472876587
 40
1.0
 40
1.0
 40
1.0
 40
1.0
 10
50.42207168668506
 20
157.4976352743022
 30
0.0
 10
50.45902122148793
 20
157.2966572769211
 30
0.0
 10
50.49597075629081
 20
157.0758682072232
 30
0.0
 10
50.55157358689979
 20
156.7318872261695
 30
0.0
 10
50.5702268827059
 20
156.6147334180806
 30
0.0
 10
50.58888017851201
 20
156.4975837579577
 30
0.0
  0
SPLINE
  5
1BA
330
1F
100
AcDbEntity
  8
Standard
  6
Continuous
 62
     7
100
AcDbSpline
210
0.0
220
0.0
230
1.0
 70
     8
 71
     3
 72
    14
 73
    10
 74
     0
 42
0.0000000097076017
 43
0.0000000001
 40
0.0
 40
0.0
 40
0.0
 40
0.0
 40
0.4551450371065981
 40
0.4551450371065981
 40
0.4551450371065981
 40
0.9259566763545067
 40
0.9259566763545067
 40
0.9259566763545067
 40
0.9999999999999999
 40
0.9999999999999999
 40
0.9999999999999999
 40
0.9999999999999999
 10
50.30050978084638
 20
156.4975865309895
 30
0.0
 10
50.26502987646764
 20
156.6636267147342
 30
0.0
 10
50.22924491459113
 20
156.8317705206981
 30
0.0
 10
50.19427790025382
 20
156.9886193312655
 30
0.0
 10
50.15810751188762
 20
157.1508660229124
 30
0.0
 10
50.12126976900799
 20
157.3053817285537
 30
0.0
 10
50.0846038615107
 20
157.4389807514509
 30
0.0
 10
50.07883745330036
 20
157.4599917274533
 30
0.0
 10
50.07305998438164
 20
157.4805784033004
 30
0.0
 10
50.06727685423104
 20
157.5007021938115
 30
0.0
  0
SPLINE
  5
1BB
330
1F
100
AcDbEntity
  8
Standard
  6
Continuous
 62
     7
100
AcDbSpline
210
0.0
220
0.0
230
1.0
 70
     8
 71
     3
 72
    14
 73
    10
 74
     0
 42
0.0000000097130143
 43
0.0000000001
 40
0.0
 40
0.0
 40
0.0
 40
0.0
 40
0.3532465625517023
 40
0.3532465625517023
 40
0.3532465625517023
 40
0.824545031757387
 40
0.824545031757387
 40
0.824545031757387
 40
1.0
 40
1.0
 40
1.0
 40
1.0
 10
48.30059206946036
 20
156.4975940159709
 30
0.0
 10
48.27296221934502
 20
156.6269259618036
 30
0.0
 10
48.24508364410543
 20
156.7569148563705
 30
0.0
 10
48.21785923688016
 20
156.8813393784355
 30
0.0
 10
48.18153780975057
 20
157.0473402824743
 30
0.0
 10
48.14501617780095
 20
157.2079249645418
 30
0.0
 10
48.10853484928529
 20
157.3492502563388
 30
0.0
 10
48.09495312548837
 20
157.4018645978884
 30
0.0
 10
48.08123086431437
 20
157.452352503786
 30
0.0
 10
48.06747925851496
 20
157.5001676047215
 30
0.0
  0
SPLINE
  5
1BC
330
1F
100
AcDbEntity
  8
Standard
  6
Continuous
 62
     7
100
AcDbSpline
210
0.0
220
0.0
230
1.0
 70
     8
 71
     3
 72
    14
 73
    10
 74
     0
 42
0.0000000097164852
 43
0.0000000001
 40
0.0
 40
0.0
 40
0.0
 40
0.0
 40
0.2517600093243037
 40
0.2517600093243037
 40
0.2517600093243037
 40
0.7232648671605214
 40
0.7232648671605214
 40
0.7232648671605214
 40
1.0
 40
1.0
 40
1.0
 40
1.0
 10
46.30064507964337
 20
156.4975765288332
 30
0.0
 10
46.28096844475679
 20
156.589879366767
 30
0.0
 10
46.26122322466786
 20
156.6822176658783
 30
0.0
 10
46.24165086644869
 20
156.7723162902203
 30
0.0
 10
46.2049960641111
 20
156.9410515662233
 30
0.0
 10
46.16845477144626
 20
157.1066895303478
 30
0.0
 10
46.13219265073288
 20
157.2549173441186
 30
0.0
 10
46.1109092498985
 20
157.341916998668
 30
0.0
 10
46.08929655419436
 20
157.4243163872377
 30
0.0
 10
46.06765809548424
 20
157.4998104277377
 30
0.0
  0
SPLINE
  5
1BD
330
1F
100
AcDbEntity
  8
Standard
  6
Continuous
 62
     7
100
AcDbSpline
210
0.0
220
0.0
230
1.0
 70
     8
 71
     3
 72
    14
 73
    10
 74
     0
 42
0.0000000097216344
 43
0.0000000001
 40
0.0
 40
0.0
 40
0.0
 40
0.0
 40
0.1502401246499127
 40
0.1502401246499127
 40
0.1502401246499127
 40
0.6218618718158441
 40
0.6218618718158441
 40
0.6218618718158441
 40
1.0
 40
1.0
 40
1.0
 40
1.0
 10
44.3006991064514
 20
156.4975904099324
 30
0.0
 10
44.28901140201061
 20
156.5525965671626
 30
0.0
 10
44.27731414734781
 20
156.6075073350346
 30
0.0
 10
44.26563491524432
 20
156.6618356017799
 30
0.0
 10
44.22897207725352
 20
156.8323800711729
 30
0.0
 10
44.19187704879568
 20
157.0019780023466
 30
0.0
 10
44.15571062982057
 20
157.1562238151211
 30
0.0
 10
44.12671328917359
 20
157.2798942946196
 30
0.0
 10
44.09731088707849
 20
157.396352715248
 30
0.0
 10
44.06790434526625
 20
157.4993081680064
 30
0.0
  0
SPLINE
  5
1BE
330
1F
100
AcDbEntity
  8
Standard
  6
Continuous
 62
     7
100
AcDbSpline
210
0.0
220
0.0
230
1.0
 70
     8
 71
     3
 72
    17
 73
    13
 74
     0
 42
0.0000000097342229
 43
0.0000000001
 40
0.0
 40
0.0
 40
0.0
 40
0.0
 40
0.0481795073461168
 40
0.0481795073461168
 40
0.0481795073461168
 40
0.5203539466970213
 40
0.5203539466970213
 40
0.5203539466970213
 40
0.992826012501794
 40
0.992826012501794
 40
0.992826012501794
 40
1.0
 40
1.0
 40
1.0
 40
1.0
 10
42.30073276067522
 20
156.497583158075
 30
0.0
 10
42.29701153586859
 20
156.5151368123113
 30
0.0
 10
42.29329046199554
 20
156.5326697843872
 30
0.0
 10
42.28956980515
 20
156.5501660590419
 30
0.0
 10
42.25310496876303
 20
156.7216408332963
 30
0.0
 10
42.21563319723825
 20
156.8943105246202
 30
0.0
 10
42.17930543593146
 20
157.0536905324767
 30
0.0
 10
42.14295596160866
 20
157.2131658013824
 30
0.0
 10
42.10645288428486
 20
157.3636541313458
 30
0.0
 10
42.06999239292569
 20
157.4921741880819
 30
0.0
 10
42.06943876008384
 20
157.4941256956342
 30
0.0
 10
42.06888488856089
 20
157.4960729601662
 30
0.0
 10
42.06833078586772
 20
157.4980159492774
 30
0.0
  0
SPLINE
  5
1BF
330
1F
100
AcDbEntity
  8
Standard
  6
Continuous
 62
     7
100
AcDbSpline
210
0.0
220
0.0
230
1.0
 70
     8
 71
     3
 72
    14
 73
    10
 74
     0
 42
0.0000000097226633
 43
0.0000000001
 40
0.0
 40
0.0
 40
0.0
 40
0.0
 40
0.4173962541503154
 40
0.4173962541503154
 40
0.4173962541503154
 40
0.8891843056829482
 40
0.8891843056829482
 40
0.8891843056829482
 40
1.0
 40
1.0
 40
1.0
 40
1.0
 10
40.3007019719214
 20
156.4975993451032
 30
0.0
 10
40.26843978700212
 20
156.6499351179235
 30
0.0
 10
40.2355622470493
 20
156.8036479192659
 30
0.0
 10
40.20311981540014
 20
156.9484730667209
 30
0.0
 10
40.16645063484744
 20
157.1121666991224
 30
0.0
 10
40.12987224778955
 20
157.2691245059487
 30
0.0
 10
40.0936262306184
 20
157.4057915376102
 30
0.0
 10
40.08511243508816
 20
157.4378931381198
 30
0.0
 10
40.07654705410302
 20
157.4690814006382
 30
0.0
 10
40.06794865299867
 20
157.4992247429617
 30
0.0
  0
SPLINE
  5
1C0
330
1F
100
AcDbEntity
  8
Standard
  6
Continuous
 62
     7
100
AcDbSpline
210
0.0
220
0.0
230
1.0
 70
     8
 71
     3
 72
    14
 73
    10
 74
     0
 42
0.0000000097284203
 43
0.0000000001
 40
0.0
 40
0.0
 40
0.0
 40
0.0
 40
0.3157382833877496
 40
0.3157382833877496
 40
0.3157382833877496
 40
0.7877354515168776
 40
0.7877354515168776
 40
0.7877354515168776
 40
1.0
 40
1.0
 40
1.0
 40
1.0
 10
38.30062953396438
 20
156.4975848797612
 30
0.0
 10
38.27621274806953
 20
156.6131292585154
 30
0.0
 10
38.25162752258981
 20
156.729021776576
 30
0.0
 10
38.22711082454633
 20
156.8407491144033
 30
0.0
 10
38.19046036372264
 20
157.0077723575298
 30
0.0
 10
38.15331292164132
 20
157.1701758260265
 30
0.0
 10
38.11714399399118
 20
157.3141819780712
 30
0.0
 10
38.10087845253243
 20
157.3789430364874
 30
0.0
 10
38.08449323254231
 20
157.440762524145
 30
0.0
 10
38.06805363432655
 20
157.4986354590365
 30
0.0
  0
SPLINE
  5
1C1
330
1F
100
AcDbEntity
  8
Standard
  6
Continuous
 62
     7
100
AcDbSpline
210
0.0
220
0.0
230
1.0
 70
     8
 71
     3
 72
    14
 73
    10
 74
     0
 42
0.0000000097250984
 43
0.0000000001
 40
0.0
 40
0.0
 40
0.0
 40
0.0
 40
0.213653594494562
 40
0.213653594494562
 40
0.213653594494562
 40
0.6853743732274864
 40
0.6853743732274864
 40
0.6853743732274864
 40
1.0
 40
1.0
 40
1.0
 40
1.0
 10
36.3005511775838
 20
156.4975867919284
 30
0.0
 10
36.2840475901228
 20
156.5758708356605
 30
0.0
 10
36.26753345885919
 20
156.6541032422217
 30
0.0
 10
36.25102790408691
 20
156.7308695584121
 30
0.0
 10
36.21458443304009
 20
156.9003658922253
 30
0.0
 10
36.17711123314643
 20
157.0673802816407
 30
0.0
 10
36.14075347070589
 20
157.2179016926341
 30
0.0
 10
36.11650459414376
 20
157.3182922246725
 30
0.0
 10
36.09220832509219
 20
157.4131617721634
 30
0.0
 10
36.06791021357694
 20
157.4989777864084
 30
0.0
  0
SPLINE
  5
1C2
330
1F
100
AcDbEntity
  8
Standard
  6
Continuous
 62
     7
100
AcDbSpline
210
0.0
220
0.0
230
1.0
 70
     8
 71
     3
 72
    14
 73
    10
 74
     0
 42
0.0000000097125321
 43
0.0000000001
 40
0.0
 40
0.0
 40
0.0
 40
0.0
 40
0.1116650388909439
 40
0.1116650388909439
 40
0.1116650388909439
 40
0.5826910411118699
 40
0.5826910411118699
 40
0.5826910411118699
 40
1.0
 40
1.0
 40
1.0
 40
1.0
 10
34.30048802434909
 20
156.4975807261912
 30
0.0
 10
34.29186504479775
 20
156.5384828384104
 30
0.0
 10
34.28325705717289
 20
156.5793134476711
 30
0.0
 10
34.27466703108273
 20
156.619870584234
 30
0.0
 10
34.23843180351843
 20
156.790952378083
 30
0.0
 10
34.2012573831344
 20
156.9618249664011
 30
0.0
 10
34.16459031064434
 20
157.1180225596986
 30
0.0
 10
34.13210554756147
 20
157.2564039866248
 30
0.0
 10
34.09966824977334
 20
157.3867260499899
 30
0.0
 10
34.06750646017856
 20
157.5002375222572
 30
0.0
  0
ARC
  5
1C3
330
1F
100
AcDbEntity
  8
Standard
  6
Continuous
 62
     7
100
AcDbCircle
 10
39.3586216665
 20
159.7707792669
 30
0.0
 40
13.52406021519858
100
AcDbArc
 50
194.0062402113
 51
199.2263345038
  0
SPLINE
  5
1C4
330
1F
100
AcDbEntity
  8
Standard
  6
Continuous
 62
     7
100
AcDbSpline
210
0.0
220
0.0
230
1.0
 70
     8
 71
     3
 72
    17
 73
    13
 74
     0
 42
0.0000000097165056
 43
0.0000000001
 40
0.0
 40
0.0
 40
0.0
 40
0.0
 40
0.0418043730511265
 40
0.0418043730511265
 40
0.0418043730511265
 40
0.5130778189213896
 40
0.5130778189213896
 40
0.5130778189213896
 40
0.9843760711607749
 40
0.9843760711607749
 40
0.9843760711607749
 40
1.0
 40
1.0
 40
1.0
 40
1.0
 10
34.64424851856446
 20
157.4997814923635
 30
0.0
 10
34.64750568337227
 20
157.4884375295599
 30
0.0
 10
34.65076164710162
 20
157.4769475897823
 30
0.0
 10
34.65401571647553
 20
157.4653184542651
 30
0.0
 10
34.69069988376544
 20
157.3342194813395
 30
0.0
 10
34.7276733324223
 20
157.1817349199388
 30
0.0
 10
34.76384178847589
 20
157.0208259403172
 30
0.0
 10
34.80001204700872
 20
156.8599089416888
 30
0.0
 10
34.83689333279549
 20
156.6862376954132
 30
0.0
 10
34.87357012734027
 20
156.5146541201582
 30
0.0
 10
34.8747860004105
 20
156.5089659499941
 30
0.0
 10
34.87600227746718
 20
156.5032747660114
 30
0.0
 10
34.87721891322931
 20
156.4975811084598
 30
0.0
  0
SPLINE
  5
1C5
330
1F
100
AcDbEntity
  8
Standard
  6
Continuous
 62
     7
100
AcDbSpline
210
0.0
220
0.0
230
1.0
 70
     8
 71
     3
 72
    14
 73
    10
 74
     0
 42
0.0000000097111648
 43
0.0000000001
 40
0.0
 40
0.0
 40
0.0
 40
0.0
 40
0.4110736852928591
 40
0.4110736852928591
 40
0.4110736852928591
 40
0.882261340202149
 40
0.882261340202149
 40
0.882261340202149
 40
1.0
 40
1.0
 40
1.0
 40
1.0
 10
36.64400872745202
 20
157.5003171298092
 30
0.0
 10
36.67605805844809
 20
157.3885187540897
 30
0.0
 10
36.70861399096553
 20
157.260515189419
 30
0.0
 10
36.74027535153429
 20
157.1244075305533
 30
0.0
 10
36.77656568793419
 20
156.9684005669196
 30
0.0
 10
36.81311291860984
 20
156.7975114372516
 30
0.0
 10
36.84961950023058
 20
156.6264731419552
 30
0.0
 10
36.85874192906729
 20
156.5837333233273
 30
0.0
 10
36.86792545511941
 20
156.5406899802203
 30
0.0
 10
36.87713662461531
 20
156.4975736234783
 30
0.0
  0
SPLINE
  5
1C6
330
1F
100
AcDbEntity
  8
Standard
  6
Continuous
 62
     7
100
AcDbSpline
210
0.0
220
0.0
230
1.0
 70
     8
 71
     3
 72
    14
 73
    10
 74
     0
 42
0.0000000097089533
 43
0.0000000001
 40
0.0
 40
0.0
 40
0.0
 40
0.0
 40
0.3095948066557895
 40
0.3095948066557895
 40
0.3095948066557895
 40
0.7806829206563137
 40
0.7806829206563137
 40
0.7806829206563137
 40
1.0
 40
1.0
 40
1.0
 40
1.0
 10
38.64389027874782
 20
157.5005710663627
 30
0.0
 10
38.668071110809
 20
157.4161014652386
 30
0.0
 10
38.69243638631789
 20
157.3228679430982
 30
0.0
 10
38.71651170775289
 20
157.2241770439637
 30
0.0
 10
38.75314430208874
 20
157.0740106720464
 30
0.0
 10
38.78964694442871
 20
156.9069591474151
 30
0.0
 10
38.82593025362863
 20
156.737446419862
 30
0.0
 10
38.84282252929678
 20
156.6585270548364
 30
0.0
 10
38.85992700061022
 20
156.5780725625636
 30
0.0
 10
38.87708361443232
 20
156.4975911106161
 30
0.0
  0
SPLINE
  5
1C7
330
1F
100
AcDbEntity
  8
Standard
  6
Continuous
 62
     7
100
AcDbSpline
210
0.0
220
0.0
230
1.0
 70
     8
 71
     3
 72
    14
 73
    10
 74
     0
 42
0.0000000097216763
 43
0.0000000001
 40
0.0
 40
0.0
 40
0.0
 40
0.0
 40
0.2068814626899075
 40
0.2068814626899075
 40
0.2068814626899075
 40
0.6785364859769883
 40
0.6785364859769883
 40
0.6785364859769883
 40
0.9999999999999999
 40
0.9999999999999999
 40
0.9999999999999999
 40
0.9999999999999999
 10
40.64423499570613
 20
157.4992736704564
 30
0.0
 10
40.66032466381639
 20
157.4428654215213
 30
0.0
 10
40.67645220368293
 20
157.3827218832115
 30
0.0
 10
40.6925391585134
 20
157.3197750852393
 30
0.0
 10
40.7292148940662
 20
157.1762662521099
 30
0.0
 10
40.76624343500362
 20
157.0141499659836
 30
0.0
 10
40.80240971099855
 20
156.8471899343622
 30
0.0
 10
40.82705923526769
 20
156.7333964834687
 30
0.0
 10
40.85202255148037
 20
156.6152685151719
 30
0.0
 10
40.87702958762429
 20
156.4975772295168
 30
0.0
  0
SPLINE
  5
1C8
330
1F
100
AcDbEntity
  8
Standard
  6
Continuous
 62
     7
100
AcDbSpline
210
0.0
220
0.0
230
1.0
 70
     8
 71
     3
 72
    14
 73
    10
 74
     0
 42
0.000000009701647
 43
0.0000000001
 40
0.0
 40
0.0
 40
0.0
 40
0.0
 40
0.1070880641928796
 40
0.1070880641928796
 40
0.1070880641928796
 40
0.5773960262012684
 40
0.5773960262012684
 40
0.5773960262012684
 40
0.9999999999999999
 40
0.9999999999999999
 40
0.9999999999999999
 40
0.9999999999999999
 10
42.64365656828617
 20
157.5013256455068
 30
0.0
 10
42.65196582526637
 20
157.4721714551115
 30
0.0
 10
42.66027658910387
 20
157.4420401108131
 30
0.0
 10
42.66858522452435
 20
157.411053314162
 30
0.0
 10
42.70507615910385
 20
157.2749615118142
 30
0.0
 10
42.74253677728751
 20
157.1186457527683
 30
0.0
 10
42.77883129186672
 20
156.9552097075149
 30
0.0
 10
42.81144339182921
 20
156.8083557625846
 30
0.0
 10
42.8442255152035
 20
156.6521681521006
 30
0.0
 10
42.87699593340049
 20
156.4975844813743
 30
0.0
  0
SPLINE
  5
1C9
330
1F
100
AcDbEntity
  8
Standard
  6
Continuous
 62
     7
100
AcDbSpline
210
0.0
220
0.0
230
1.0
 70
     8
 71
     3
 72
    17
 73
    13
 74
     0
 42
0.0000000097378105
 43
0.0000000001
 40
0.0
 40
0.0
 40
0.0
 40
0.0
 40
0.0005754901607007
 40
0.0005754901607007
 40
0.0005754901607007
 40
0.4730272300319677
 40
0.4730272300319677
 40
0.4730272300319677
 40
0.9457125964040036
 40
0.9457125964040036
 40
0.9457125964040036
 40
1.0
 40
1.0
 40
1.0
 40
1.0
 10
44.64475740946039
 20
157.4976204689339
 30
0.0
 10
44.64480158859651
 20
157.4974646417317
 30
0.0
 10
44.64484576742311
 20
157.4973087872061
 30
0.0
 10
44.64488994593996
 20
157.4971529053742
 30
0.0
 10
44.68115947088525
 20
157.3691775817611
 30
0.0
 10
44.71841098599294
 20
157.2193308347088
 30
0.0
 10
44.75504492524001
 20
157.0603001371745
 30
0.0
 10
44.79169597241211
 20
156.9011951728452
 30
0.0
 10
44.82822944767955
 20
156.7283927690595
 30
0.0
 10
44.86449540867171
 20
156.5568043999693
 30
0.0
 10
44.86866061046421
 20
156.5370972100051
 30
0.0
 10
44.87283848103701
 20
156.5173443556685
 30
0.0
 10
44.8770267221543
 20
156.4975682943461
 30
0.0
  0
SPLINE
  5
1CA
330
1F
100
AcDbEntity
  8
Standard
  6
Continuous
 62
     7
100
AcDbSpline
210
0.0
220
0.0
230
1.0
 70
     8
 71
     3
 72
    14
 73
    10
 74
     0
 42
0.0000000097044218
 43
0.0000000001
 40
0.0
 40
0.0
 40
0.0
 40
0.0
 40
0.3734827352799824
 40
0.3734827352799824
 40
0.3734827352799824
 40
0.8441036657045822
 40
0.8441036657045822
 40
0.8441036657045822
 40
0.9999999999999999
 40
0.9999999999999999
 40
0.9999999999999999
 40
0.9999999999999999
 10
46.64385749038213
 20
157.5010565513835
 30
0.0
 10
46.67275258922332
 20
157.3992476619872
 30
0.0
 10
46.70196547961808
 20
157.284257639616
 30
0.0
 10
46.7310627778528
 20
157.1621906425213
 30
0.0
 10
46.76772822156855
 20
157.0083742786986
 30
0.0
 10
46.80481099805952
 20
156.8390021458034
 30
0.0
 10
46.84097714802083
 20
156.6684366147816
 30
0.0
 10
46.85295732508315
 20
156.6119361228974
 30
0.0
 10
46.86500758866874
 20
156.5548021298587
 30
0.0
 10
46.87709916011135
 20
156.497582759688
 30
0.0
  0
SPLINE
  5
1CB
330
1F
100
AcDbEntity
  8
Standard
  6
Continuous
 62
     7
100
AcDbSpline
210
0.0
220
0.0
230
1.0
 70
     8
 71
     3
 72
    14
 73
    10
 74
     0
 42
0.0000000097232403
 43
0.0000000001
 40
0.0
 40
0.0
 40
0.0
 40
0.0
 40
0.2700734918120443
 40
0.2700734918120443
 40
0.2700734918120443
 40
0.7416920438652366
 40
0.7416920438652366
 40
0.7416920438652366
 40
1.0
 40
1.0
 40
1.0
 40
1.0
 10
48.64448243878061
 20
157.4991524770937
 30
0.0
 10
48.66534342727599
 20
157.4254591959664
 30
0.0
 10
48.6862403155226
 20
157.3452298896371
 30
0.0
 10
48.70712409466179
 20
157.2606406204648
 30
0.0
 10
48.74359381773164
 20
157.1129208423141
 30
0.0
 10
48.78106427703249
 20
156.9478635207798
 30
0.0
 10
48.81738553551482
 20
156.7793065410791
 30
0.0
 10
48.83727823600417
 20
156.6869899845312
 30
0.0
 10
48.85722016692434
 20
156.5922476604191
 30
0.0
 10
48.8771775164919
 20
156.4975808475208
 30
0.0
  0
SPLINE
  5
1CC
330
1F
100
AcDbEntity
  8
Standard
  6
Continuous
 62
     7
100
AcDbSpline
210
0.0
220
0.0
230
1.0
 70
     8
 71
     3
 72
    14
 73
    10
 74
     0
 42
0.0000000097086793
 43
0.0000000001
 40
0.0
 40
0.0
 40
0.0
 40
0.0
 40
0.169825822904156
 40
0.169825822904156
 40
0.169825822904156
 40
0.6406134585290886
 40
0.6406134585290886
 40
0.6406134585290886
 40
1.0
 40
1.0
 40
1.0
 40
1.0
 10
50.6441294562072
 20
157.500648099039
 30
0.0
 10
50.65726700416348
 20
157.4543385322503
 30
0.0
 10
50.67037758480159
 20
157.4055245851467
 30
0.0
 10
50.68345487567039
 20
157.3547131931605
 30
0.0
 10
50.7197083211697
 20
157.2138515996855
 30
0.0
 10
50.75692573967122
 20
157.0538201082904
 30
0.0
 10
50.79357641055168
 20
156.8881783242964
 30
0.0
 10
50.82155384196665
 20
156.7617350276304
 30
0.0
 10
50.84947497531378
 20
156.6292902928097
 30
0.0
 10
50.8772406697266
 20
156.497586913258
 30
0.0
  0
SPLINE
  5
1CD
330
1F
100
AcDbEntity
  8
Standard
  6
Continuous
 62
     7
100
AcDbSpline
210
0.0
220
0.0
230
1.0
 70
     8
 71
     3
 72
    12
 73
     8
 74
     0
 42
0.0000000046194307
 43
0.0000000001
 40
0.0
 40
0.0
 40
0.0
 40
0.0
 40
0.4603140958654178
 40
0.4603140958654178
 40
0.9206281917308355
 40
0.9206281917308355
 40
1.0
 40
1.0
 40
1.0
 40
1.0
 10
26.58886434703744
 20
156.4975838197271
 30
0.0
 10
26.49997545814855
 20
157.0560891803628
 30
0.0
 10
26.41108656925967
 20
157.5844523370617
 30
0.0
 10
26.23330879148189
 20
158.2594676919532
 30
0.0
 10
26.14441990259298
 20
158.4020495806834
 30
0.0
 10
26.04020393180606
 20
158.3069248227683
 30
0.0
 10
26.02487684990804
 20
158.2863728319747
 30
0.0
 10
26.00954976801001
 20
158.2598271472972
 30
0.0
  0
SPLINE
  5
1CE
330
1F
100
AcDbEntity
  8
Standard
  6
Continuous
 62
     7
100
AcDbSpline
210
0.0
220
0.0
230
1.0
 70
     8
 71
     3
 72
    20
 73
    16
 74
     0
 42
0.0000000071772351
 43
0.0000000001
 40
0.0
 40
0.0
 40
0.0
 40
0.0
 40
0.2300690768408609
 40
0.2300690768408609
 40
0.2300690768408609
 40
0.4593326673613047
 40
0.4593326673613047
 40
0.4593326673613047
 40
0.682010232109323
 40
0.682010232109323
 40
0.682010232109323
 40
0.9016681532286694
 40
0.9016681532286694
 40
0.9016681532286694
 40
1.0
 40
1.0
 40
1.0
 40
1.0
 10
26.23664025098249
 20
156.4975838197246
 30
0.0
 10
26.20047630199382
 20
156.6554885181384
 30
0.0
 10
26.16404968025349
 20
156.8137517316881
 30
0.0
 10
26.1272726642317
 20
156.9582120845816
 30
0.0
 10
26.09064130360453
 20
157.1021003021586
 30
0.0
 10
26.05239696457587
 20
157.2362582853813
 30
0.0
 10
26.01412368957101
 20
157.3483804036402
 30
0.0
 10
25.97692548862241
 20
157.4573530767455
 30
0.0
 10
25.93937171599245
 20
157.5489149318911
 30
0.0
 10
25.90207876618372
 20
157.6142110486267
 30
0.0
 10
25.86530348675628
 20
157.678600777806
 30
0.0
 10
25.82732614276695
 20
157.7190912822973
 30
0.0
 10
25.78885694731545
 20
157.7313041137288
 30
0.0
 10
25.77162220495449
 20
157.7367756345326
 30
0.0
 10
25.75410667102479
 20
157.7366737465915
 30
0.0
 10
25.73652566625934
 20
157.7310911243352
 30
0.0
  0
SPLINE
  5
1CF
330
1F
100
AcDbEntity
  8
Standard
  6
Continuous
 62
     7
100
AcDbSpline
210
0.0
220
0.0
230
1.0
 70
     8
 71
     3
 72
    29
 73
    25
 74
     0
 42
0.0000000058490814
 43
0.0000000001
 40
0.0
 40
0.0
 40
0.0
 40
0.0
 40
0.0813165340402288
 40
0.0813165340402288
 40
0.0813165340402288
 40
0.2338983066577821
 40
0.2338983066577821
 40
0.2338983066577821
 40
0.3805215733684815
 40
0.3805215733684815
 40
0.3805215733684815
 40
0.523506813870504
 40
0.523506813870504
 40
0.523506813870504
 40
0.6601970066172537
 40
0.6601970066172537
 40
0.6601970066172537
 40
0.7932097340519649
 40
0.7932097340519649
 40
0.7932097340519649
 40
0.9204526692253353
 40
0.9204526692253353
 40
0.9204526692253353
 40
1.0
 40
1.0
 40
1.0
 40
1.0
 10
24.58857019546867
 20
155.7158046095151
 30
0.0
 10
24.56854133731026
 20
155.7462407672604
 30
0.0
 10
24.54835548440809
 20
155.7810502816621
 30
0.0
 10
24.52807684444947
 20
155.8195025965111
 30
0.0
 10
24.49002185839944
 20
155.8916623817903
 30
0.0
 10
24.45036075998025
 20
155.9787152011059
 30
0.0
 10
24.41043109218852
 20
156.0723882416128
 30
0.0
 10
24.37203128604615
 20
156.1624723017906
 30
0.0
 10
24.33268230962893
 20
156.2613914997765
 30
0.0
 10
24.29317906716261
 20
156.359660920522
 30
0.0
 10
24.2546618281462
 20
156.455477530262
 30
0.0
 10
24.21469799268067
 20
156.5533947525124
 30
0.0
 10
24.17421590666549
 20
156.6433851065595
 30
0.0
 10
24.13548212450531
 20
156.7294890382807
 30
0.0
 10
24.09538175063341
 20
156.8109492308284
 30
0.0
 10
24.05526201456887
 20
156.8795914587909
 30
0.0
 10
24.01622555542365
 20
156.9463802712393
 30
0.0
 10
23.97583299860129
 20
157.0028395040988
 30
0.0
 10
23.93486621192126
 20
157.0426282578807
 30
0.0
 10
23.89564904411212
 20
157.0807177044895
 30
0.0
 10
23.85474977789281
 20
157.1046606600781
 30
0.0
 10
23.813769096729
 20
157.1118216878354
 30
0.0
 10
23.78814634472043
 20
157.1162990472433
 30
0.0
 10
23.76193605627358
 20
157.1142426330897
 30
0.0
 10
23.73537137164233
 20
157.1057762787723
 30
0.0
  0
SPLINE
  5
1D0
330
1F
100
AcDbEntity
  8
Standard
  6
Continuous
 62
     7
100
AcDbSpline
210
0.0
220
0.0
230
1.0
 70
     8
 71
     3
 72
    38
 73
    34
 74
     0
 42
0.0000000036417156
 43
0.0000000001
 40
0.0
 40
0.0
 40
0.0
 40
0.0
 40
0.0132794692209977
 40
0.0132794692209977
 40
0.0132794692209977
 40
0.1462719070963123
 40
0.1462719070963123
 40
0.1462719070963123
 40
0.275086239118212
 40
0.275086239118212
 40
0.275086239118212
 40
0.395448512685962
 40
0.395448512685962
 40
0.395448512685962
 40
0.5092723261398978
 40
0.5092723261398978
 40
0.5092723261398978
 40
0.6172739315544383
 40
0.6172739315544383
 40
0.6172739315544383
 40
0.7168911106778945
 40
0.7168911106778945
 40
0.7168911106778945
 40
0.8119548916672529
 40
0.8119548916672529
 40
0.8119548916672529
 40
0.898499357156591
 40
0.898499357156591
 40
0.898499357156591
 40
0.9800988760569588
 40
0.9800988760569588
 40
0.9800988760569588
 40
0.9999999999999999
 40
0.9999999999999999
 40
0.9999999999999999
 40
0.9999999999999999
 10
25.01372348967113
 20
155.0976146425677
 30
0.0
 10
25.00921754039614
 20
155.1002114972347
 30
0.0
 10
25.00469933212771
 20
155.1030948702309
 30
0.0
 10
25.00016943140903
 20
155.1062660559705
 30
0.0
 10
24.95472419060804
 20
155.1380802851358
 30
0.0
 10
24.90697075015241
 20
155.199530290252
 30
0.0
 10
24.85971603778894
 20
155.2855070173838
 30
0.0
 10
24.8139717393297
 20
155.3687356494029
 30
0.0
 10
24.76665011753015
 20
155.4779606804435
 30
0.0
 10
24.71790883320418
 20
155.603455255408
 30
0.0
 10
24.67232085046642
 20
155.7208309995289
 30
0.0
 10
24.62388513234365
 20
155.8558298731803
 30
0.0
 10
24.57526558790468
 20
155.995623876756
 30
0.0
 10
24.52925627325758
 20
156.1279127817739
 30
0.0
 10
24.48193270984756
 20
156.2686925594333
 30
0.0
 10
24.43334908784017
 20
156.4036328881583
 30
0.0
 10
24.38725147771728
 20
156.5316683537413
 30
0.0
 10
24.33838669664848
 20
156.6581825189876
 30
0.0
 10
24.28838780471043
 20
156.7695020623451
 30
0.0
 10
24.24218948485501
 20
156.8723598592051
 30
0.0
 10
24.19420477809461
 20
156.9657790364033
 30
0.0
 10
24.1452185424201
 20
157.0390663557955
 30
0.0
 10
24.09849670547099
 20
157.108965953916
 30
0.0
 10
24.04912740333998
 20
157.1624080022305
 30
0.0
 10
23.99814010242332
 20
157.1921519447236
 30
0.0
 10
23.95163265619768
 20
157.2192825200075
 30
0.0
 10
23.90259690357466
 20
157.2277689282904
 30
0.0
 10
23.85250770360744
 20
157.2157752261402
 30
0.0
 10
23.80529142823456
 20
157.2044694367918
 30
0.0
 10
23.75539381179542
 20
157.1742935410308
 30
0.0
 10
23.70369994357146
 20
157.1278455718079
 30
0.0
 10
23.6910741855772
 20
157.1165010770181
 30
0.0
 10
23.67823271455482
 20
157.1040944012284
 30
0.0
 10
23.66520552358708
 20
157.0907523382954
 30
0.0
  0
SPLINE
  5
1D1
330
1F
100
AcDbEntity
  8
Standard
  6
Continuous
 62
     7
100
AcDbSpline
210
0.0
220
0.0
230
1.0
 70
     8
 71
     3
 72
    32
 73
    28
 74
     0
 42
0.000000005045281
 43
0.0000000001
 40
0.0
 40
0.0
 40
0.0
 40
0.0
 40
0.0227540449808964
 40
0.0227540449808964
 40
0.0227540449808964
 40
0.1477879745502428
 40
0.1477879745502428
 40
0.1477879745502428
 40
0.2773879793633234
 40
0.2773879793633234
 40
0.2773879793633234
 40
0.4095977460463137
 40
0.4095977460463137
 40
0.4095977460463137
 40
0.5473618060435035
 40
0.5473618060435035
 40
0.5473618060435035
 40
0.6878057431839593
 40
0.6878057431839593
 40
0.6878057431839593
 40
0.8330674110929
 40
0.8330674110929
 40
0.8330674110929
 40
0.9826845337775626
 40
0.9826845337775626
 40
0.9826845337775626
 40
1.0
 40
1.0
 40
1.0
 40
1.0
 10
24.54067271573884
 20
157.1806305458863
 30
0.0
 10
24.54741527882237
 20
157.17119845276
 30
0.0
 10
24.55413435605763
 20
157.1612679814868
 30
0.0
 10
24.56082808658816
 20
157.1508673913958
 30
0.0
 10
24.59759958141244
 20
157.0937325481337
 30
0.0
 10
24.63460819722291
 20
157.0209664550434
 30
0.0
 10
24.67040525710074
 20
156.9387587888193
 30
0.0
 10
24.70748474032278
 20
156.8536060474802
 30
0.0
 10
24.74389069213462
 20
156.7558829105585
 30
0.0
 10
24.77931296020652
 20
156.6544047570342
 30
0.0
 10
24.81545608773122
 20
156.5508614763964
 30
0.0
 10
24.85172272947089
 20
156.4407843397257
 30
0.0
 10
24.88723414710092
 20
156.3332684704938
 30
0.0
 10
24.92420902466369
 20
156.221321768103
 30
0.0
 10
24.96117511666007
 20
156.1091028509373
 30
0.0
 10
24.99654937834839
 20
156.0059276097247
 30
0.0
 10
25.0326170654423
 20
155.9007298716438
 30
0.0
 10
25.06843067507539
 20
155.8022745805272
 30
0.0
 10
25.1036740467086
 20
155.7184364938442
 30
0.0
 10
25.14011264676347
 20
155.6317551586473
 30
0.0
 10
25.17693292694179
 20
155.5583503804774
 30
0.0
 10
25.21249564729366
 20
155.5039663969774
 30
0.0
 10
25.24910616773446
 20
155.4479800742249
 30
0.0
 10
25.28502695913343
 20
155.4107885361655
 30
0.0
 10
25.32016803004344
 20
155.3949263577019
 30
0.0
 10
25.32423555003466
 20
155.3930903371615
 30
0.0
 10
25.32830674692774
 20
155.3915331331705
 30
0.0
 10
25.33238017275266
 20
155.390253315817
 30
0.0
  0
SPLINE
  5
1D2
330
1F
100
AcDbEntity
  8
Standard
  6
Continuous
 62
     7
100
AcDbSpline
210
0.0
220
0.0
230
1.0
 70
     8
 71
     3
 72
    11
 73
     7
 74
     0
 42
0.000000031606878
 43
0.0000000001
 40
0.0
 40
0.0
 40
0.0
 40
0.0
 40
0.2701944366338395
 40
0.2701944366338395
 40
0.2701944366338395
 40
0.9999999999999999
 40
0.9999999999999999
 40
0.9999999999999999
 40
0.9999999999999999
 10
26.46722918607797
 20
157.8305815187085
 30
0.0
 10
26.47831741680856
 20
157.8130026340075
 30
0.0
 10
26.48938019568375
 20
157.7929975348034
 30
0.0
 10
26.50038327709883
 20
157.7706973345821
 30
0.0
 10
26.53022249350373
 20
157.7102215028424
 30
0.0
 10
26.5600755722466
 20
157.6317335953541
 30
0.0
 10
26.58886434703792
 20
157.5396639330078
 30
0.0
  0
LINE
  5
1D3
330
1F
100
AcDbEntity
  8
Standard
  6
Continuous
 62
     7
100
AcDbLine
 10
23.5327939143
 20
155.95260583
 30
0.0
 11
23.5327939143
 21
157.0425618095
 31
0.0
  0
SPLINE
  5
1D4
330
1F
100
AcDbEntity
  8
Standard
  6
Continuous
 62
     7
100
AcDbSpline
210
0.0
220
0.0
230
1.0
 70
     8
 71
     3
 72
    41
 73
    37
 74
     0
 42
0.0000000035300869
 43
0.0000000001
 40
0.0
 40
0.0
 40
0.0
 40
0.0
 40
0.0284146827810683
 40
0.0284146827810683
 40
0.0284146827810683
 40
0.1037711007619699
 40
0.1037711007619699
 40
0.1037711007619699
 40
0.1814648857465159
 40
0.1814648857465159
 40
0.1814648857465159
 40
0.2639554577121924
 40
0.2639554577121924
 40
0.2639554577121924
 40
0.3500327816744179
 40
0.3500327816744179
 40
0.3500327816744179
 40
0.4390454867397058
 40
0.4390454867397058
 40
0.4390454867397058
 40
0.5332003177517769
 40
0.5332003177517769
 40
0.5332003177517769
 40
0.6297389257431357
 40
0.6297389257431357
 40
0.6297389257431357
 40
0.7309644029989891
 40
0.7309644029989891
 40
0.7309644029989891
 40
0.8363114692145841
 40
0.8363114692145841
 40
0.8363114692145841
 40
0.9441514212586669
 40
0.9441514212586669
 40
0.9441514212586669
 40
1.0
 40
1.0
 40
1.0
 40
1.0
 10
24.24052497592902
 20
157.4510951803335
 30
0.0
 10
24.25272338497209
 20
157.4582374932218
 30
0.0
 10
24.26481766167801
 20
157.4626957070113
 30
0.0
 10
24.27675288247888
 20
157.464405652777
 30
0.0
 10
24.30836893339716
 20
157.4689352491119
 30
0.0
 10
24.33945025457357
 20
157.4541281629467
 30
0.0
 10
24.3691073878643
 20
157.421779575919
 30
0.0
 10
24.39969416303589
 20
157.3884169798504
 30
0.0
 10
24.42990166079523
 20
157.3358163617839
 30
0.0
 10
24.45942247304455
 20
157.2689681468862
 30
0.0
 10
24.49074053369635
 20
157.1980501643135
 30
0.0
 10
24.52210339660865
 20
157.1092715767109
 30
0.0
 10
24.55213899945369
 20
157.0098672937104
 30
0.0
 10
24.58346220021376
 20
156.9062016430191
 30
0.0
 10
24.61393522276706
 20
156.7881890246307
 30
0.0
 10
24.64359584113934
 20
156.6659831697035
 30
0.0
 10
24.6742707246545
 20
156.5395984019382
 30
0.0
 10
24.70496184830656
 20
156.4054989546647
 30
0.0
 10
24.73490862723571
 20
156.2740767197483
 30
0.0
 10
24.76655212741016
 20
156.1352083785706
 30
0.0
 10
24.79802065075032
 20
155.9956265360068
 30
0.0
 10
24.8279355302895
 20
155.8664551795076
 30
0.0
 10
24.85861562789832
 20
155.7339796393513
 30
0.0
 10
24.88889430468039
 20
155.6090545606518
 30
0.0
 10
24.91865109201277
 20
155.5008699385789
 30
0.0
 10
24.9498353860414
 20
155.3874954325743
 30
0.0
 10
24.98128139855382
 20
155.2894884529176
 30
0.0
 10
25.01161268976432
 20
155.214102915319
 30
0.0
 10
25.04315623230447
 20
155.1357044424134
 30
0.0
 10
25.07391224357153
 20
155.0799419019939
 30
0.0
 10
25.10377669210556
 20
155.0502755598894
 30
0.0
 10
25.13435623112559
 20
155.0198988708662
 30
0.0
 10
25.16502538606319
 20
155.0158925062316
 30
0.0
 10
25.19515757104157
 20
155.0376243564552
 30
0.0
 10
25.21074804091819
 20
155.0488684715607
 30
0.0
 10
25.22637566111724
 20
155.0671652996953
 30
0.0
 10
25.24182573082745
 20
155.0919903986345
 30
0.0
  0
LINE
  5
1D5
330
1F
100
AcDbEntity
  8
Standard
  6
Continuous
 62
     7
100
AcDbLine
 10
60.5888643171
 20
158.4975838197
 30
0.0
 11
59.5888643171
 21
158.4975838197
 31
0.0
  0
ARC
  5
1D6
330
1F
100
AcDbEntity
  8
Standard
  6
Continuous
 62
     7
100
AcDbCircle
 10
9.4393222163
 20
145.9278346727
 30
0.0
 40
18.03609795326262
100
AcDbArc
 50
31.1442568419
 51
32.8978126189
  0
ARC
  5
1D7
330
1F
100
AcDbEntity
  8
Standard
  6
Continuous
 62
     7
100
AcDbCircle
 10
-12.6399332455
 20
181.1540750607
 30
0.0
 40
44.92136203414244
100
AcDbArc
 50
328.5455635691
 51
329.3598435877
  0
ARC
  5
1D8
330
1F
100
AcDbEntity
  8
Standard
  6
Continuous
 62
     7
100
AcDbCircle
 10
37.9178850551
 20
147.2034506737
 30
0.0
 40
14.92988798324545
100
AcDbArc
 50
146.8641642445
 51
148.1056272087
  0
ARC
  5
1D9
330
1F
100
AcDbEntity
  8
Standard
  6
Continuous
 62
     7
100
AcDbCircle
 10
49.1835173916
 20
172.2726104758
 30
0.0
 40
26.91802262533194
100
AcDbArc
 50
211.3496470668
 51
212.4546384865
  0
ARC
  5
1DA
330
1F
100
AcDbEntity
  8
Standard
  6
Continuous
 62
     7
100
AcDbCircle
 10
30.2549507622
 20
161.3753544273
 30
0.0
 40
7.087202698259262
100
AcDbArc
 50
214.4124607706
 51
216.323255723
  0
LINE
  5
1DB
330
1F
100
AcDbEntity
  8
Standard
  6
Continuous
 62
     7
100
AcDbLine
 10
23.7318679526
 20
157.1047724464
 30
0.0
 11
23.5327939143
 21
157.0425618095
 31
0.0
  0
LINE
  5
1DC
330
1F
100
AcDbEntity
  8
Standard
  6
Continuous
 62
     7
100
AcDbLine
 10
25.7308806909
 20
157.7294639272
 30
0.0
 11
24.4389275661
 21
157.3257285757
 31
0.0
  0
LINE
  5
1DD
330
1F
100
AcDbEntity
  8
Standard
  6
Continuous
 62
     7
100
AcDbLine
 10
26.588864347
 20
157.9975838197
 30
0.0
 11
26.3996917624
 21
157.938467387
 31
0.0
  0
LINE
  5
1DE
330
1F
100
AcDbEntity
  8
Standard
  6
Continuous
 62
     7
100
AcDbLine
 10
25.3306200594
 20
155.3907851596
 30
0.0
 11
26.588864347
 21
154.9975838197
 31
0.0
  0
LINE
  5
1DF
330
1F
100
AcDbEntity
  8
Standard
  6
Continuous
 62
     7
100
AcDbLine
 10
23.5327939143
 20
155.95260583
 30
0.0
 11
24.6617065095
 21
155.599820644
 31
0.0
  0
LINE
  5
1E0
330
1F
100
AcDbEntity
  8
Standard
  6
Continuous
 62
     7
100
AcDbLine
 10
23.5327939143
 20
157.0425618095
 30
0.0
 11
22.588864347
 21
156.4975838197
 31
0.0
  0
LINE
  5
1E1
330
1F
100
AcDbEntity
  8
Standard
  6
Continuous
 62
     7
100
AcDbLine
 10
24.2349368003
 20
157.4479441937
 30
0.0
 11
23.7734433848
 21
157.181500846
 31
0.0
  0
LINE
  5
1E2
330
1F
100
AcDbEntity
  8
Standard
  6
Continuous
 62
     7
100
AcDbLine
 10
25.0119329406
 20
155.098624515
 30
0.0
 11
25.1195384303
 21
155.0364984565
 31
0.0
  0
LINE
  5
1E3
330
1F
100
AcDbEntity
  8
Standard
  6
Continuous
 62
     7
100
AcDbLine
 10
22.588864347
 20
156.4975838197
 30
0.0
 11
23.5327939143
 21
155.95260583
 31
0.0
  0
LINE
  5
1E4
330
1F
100
AcDbEntity
  8
Standard
  6
Continuous
 62
     7
100
AcDbLine
 10
61.5888643601
 20
133.3475838197
 30
0.0
 11
61.5888643601
 21
161.6475838197
 31
0.0
  0
LINE
  5
1E5
330
1F
100
AcDbEntity
  8
Standard
  6
Continuous
 62
     7
100
AcDbLine
 10
63.0488643601
 20
161.6475838197
 30
0.0
 11
61.5888643601
 21
161.6475838197
 31
0.0
  0
LINE
  5
1E6
330
1F
100
AcDbEntity
  8
Standard
  6
Continuous
 62
     7
100
AcDbLine
 10
61.5888643601
 20
133.3475838197
 30
0.0
 11
63.0488643601
 21
133.3475838197
 31
0.0
  0
LINE
  5
1E7
330
1F
100
AcDbEntity
  8
Standard
  6
Continuous
 62
     7
100
AcDbLine
 10
60.5888643171
 20
134.6688175133
 30
0.0
 11
59.5888643171
 21
134.6688175133
 31
0.0
  0
LINE
  5
1E8
330
1F
100
AcDbEntity
  8
Standard
  6
Continuous
 62
     7
100
AcDbLine
 10
59.5888643171
 20
134.3249159719
 30
0.0
 11
59.5888643171
 21
134.2475838197
 31
0.0
  0
LINE
  5
1E9
330
1F
100
AcDbEntity
  8
Standard
  6
Continuous
 62
     7
100
AcDbLine
 10
60.5888643171
 20
140.7475838197
 30
0.0
 11
59.5888643171
 21
140.7475838197
 31
0.0
  0
LINE
  5
1EA
330
1F
100
AcDbEntity
  8
Standard
  6
Continuous
 62
     7
100
AcDbLine
 10
60.5888643601
 20
133.4975838197
 30
0.0
 11
60.5888643601
 21
143.4975838197
 31
0.0
  0
LINE
  5
1EB
330
1F
100
AcDbEntity
  8
Standard
  6
Continuous
 62
     7
100
AcDbLine
 10
46.0888643601
 20
137.4975838197
 30
0.0
 11
46.0888643601
 21
135.4975838197
 31
0.0
  0
LINE
  5
1EC
330
1F
100
AcDbEntity
  8
Standard
  6
Continuous
 62
     7
100
AcDbLine
 10
44.0888643601
 20
137.4975838197
 30
0.0
 11
44.0888643601
 21
135.4975838197
 31
0.0
  0
LINE
  5
1ED
330
1F
100
AcDbEntity
  8
Standard
  6
Continuous
 62
     7
100
AcDbLine
 10
42.0888643601
 20
137.4975838197
 30
0.0
 11
42.0888643601
 21
135.4975838197
 31
0.0
  0
LINE
  5
1EE
330
1F
100
AcDbEntity
  8
Standard
  6
Continuous
 62
     7
100
AcDbLine
 10
40.0888643601
 20
137.4975838197
 30
0.0
 11
40.0888643601
 21
135.4975838197
 31
0.0
  0
LINE
  5
1EF
330
1F
100
AcDbEntity
  8
Standard
  6
Continuous
 62
     7
100
AcDbLine
 10
38.0888643601
 20
137.4975838197
 30
0.0
 11
38.0888643601
 21
135.4975838197
 31
0.0
  0
LINE
  5
1F0
330
1F
100
AcDbEntity
  8
Standard
  6
Continuous
 62
     7
100
AcDbLine
 10
36.0888643601
 20
138.4975838197
 30
0.0
 11
36.0888643601
 21
137.4975838197
 31
0.0
  0
LINE
  5
1F1
330
1F
100
AcDbEntity
  8
Standard
  6
Continuous
 62
     7
100
AcDbLine
 10
28.5888643601
 20
135.4975838197
 30
0.0
 11
28.5888643601
 21
141.4975838197
 31
0.0
  0
LINE
  5
1F2
330
1F
100
AcDbEntity
  8
Standard
  6
Continuous
 62
     7
100
AcDbLine
 10
26.5888643601
 20
135.8502377811
 30
0.0
 11
26.5888643601
 21
141.1449298583
 31
0.0
  0
LINE
  5
1F3
330
1F
100
AcDbEntity
  8
Standard
  6
Continuous
 62
     7
100
AcDbLine
 10
51.0888643601
 20
138.4975838197
 30
0.0
 11
51.0888643601
 21
141.6475838197
 31
0.0
  0
LINE
  5
1F4
330
1F
100
AcDbEntity
  8
Standard
  6
Continuous
 62
     7
100
AcDbLine
 10
36.0888643601
 20
139.4975838197
 30
0.0
 11
33.0888643601
 21
139.4975838197
 31
0.0
  0
LINE
  5
1F5
330
1F
100
AcDbEntity
  8
Standard
  6
Continuous
 62
     7
100
AcDbLine
 10
51.0888643601
 20
139.4975838197
 30
0.0
 11
50.9888643601
 21
139.4975838197
 31
0.0
  0
LINE
  5
1F6
330
1F
100
AcDbEntity
  8
Standard
  6
Continuous
 62
     7
100
AcDbLine
 10
50.9888643601
 20
139.4975838197
 30
0.0
 11
46.0888643601
 21
139.4975838197
 31
0.0
  0
LINE
  5
1F7
330
1F
100
AcDbEntity
  8
Standard
  6
Continuous
 62
     7
100
AcDbLine
 10
46.0888643601
 20
139.4975838197
 30
0.0
 11
44.0888643601
 21
139.4975838197
 31
0.0
  0
LINE
  5
1F8
330
1F
100
AcDbEntity
  8
Standard
  6
Continuous
 62
     7
100
AcDbLine
 10
44.0888643601
 20
139.4975838197
 30
0.0
 11
42.0888643601
 21
139.4975838197
 31
0.0
  0
LINE
  5
1F9
330
1F
100
AcDbEntity
  8
Standard
  6
Continuous
 62
     7
100
AcDbLine
 10
42.0888643601
 20
139.4975838197
 30
0.0
 11
40.0888643601
 21
139.4975838197
 31
0.0
  0
LINE
  5
1FA
330
1F
100
AcDbEntity
  8
Standard
  6
Continuous
 62
     7
100
AcDbLine
 10
40.0888643601
 20
139.4975838197
 30
0.0
 11
38.0888643601
 21
139.4975838197
 31
0.0
  0
LINE
  5
1FB
330
1F
100
AcDbEntity
  8
Standard
  6
Continuous
 62
     7
100
AcDbLine
 10
38.0888643601
 20
139.4975838197
 30
0.0
 11
36.0888643601
 21
139.4975838197
 31
0.0
  0
LINE
  5
1FC
330
1F
100
AcDbEntity
  8
Standard
  6
Continuous
 62
     7
100
AcDbLine
 10
33.0888643601
 20
138.4975838197
 30
0.0
 11
36.0888643601
 21
138.4975838197
 31
0.0
  0
LINE
  5
1FD
330
1F
100
AcDbEntity
  8
Standard
  6
Continuous
 62
     7
100
AcDbLine
 10
48.0888643601
 20
138.4975838197
 30
0.0
 11
49.5888643601
 21
138.4975838197
 31
0.0
  0
LINE
  5
1FE
330
1F
100
AcDbEntity
  8
Standard
  6
Continuous
 62
     7
100
AcDbLine
 10
33.0888643601
 20
138.4975838197
 30
0.0
 11
33.0888643601
 21
139.4975838197
 31
0.0
  0
LINE
  5
1FF
330
1F
100
AcDbEntity
  8
Standard
  6
Continuous
 62
     7
100
AcDbLine
 10
36.0888643601
 20
137.4975838197
 30
0.0
 11
36.0888643601
 21
135.4975838197
 31
0.0
  0
LINE
  5
200
330
1F
100
AcDbEntity
  8
Standard
  6
Continuous
 62
     7
100
AcDbLine
 10
48.0888643601
 20
138.4975838197
 30
0.0
 11
46.0888643601
 21
138.4975838197
 31
0.0
  0
LINE
  5
201
330
1F
100
AcDbEntity
  8
Standard
  6
Continuous
 62
     7
100
AcDbLine
 10
46.0888643601
 20
138.4975838197
 30
0.0
 11
44.0888643601
 21
138.4975838197
 31
0.0
  0
LINE
  5
202
330
1F
100
AcDbEntity
  8
Standard
  6
Continuous
 62
     7
100
AcDbLine
 10
44.0888643601
 20
138.4975838197
 30
0.0
 11
42.0888643601
 21
138.4975838197
 31
0.0
  0
LINE
  5
203
330
1F
100
AcDbEntity
  8
Standard
  6
Continuous
 62
     7
100
AcDbLine
 10
42.0888643601
 20
138.4975838197
 30
0.0
 11
40.0888643601
 21
138.4975838197
 31
0.0
  0
LINE
  5
204
330
1F
100
AcDbEntity
  8
Standard
  6
Continuous
 62
     7
100
AcDbLine
 10
40.0888643601
 20
138.4975838197
 30
0.0
 11
38.0888643601
 21
138.4975838197
 31
0.0
  0
LINE
  5
205
330
1F
100
AcDbEntity
  8
Standard
  6
Continuous
 62
     7
100
AcDbLine
 10
38.0888643601
 20
138.4975838197
 30
0.0
 11
36.0888643601
 21
138.4975838197
 31
0.0
  0
LINE
  5
206
330
1F
100
AcDbEntity
  8
Standard
  6
Continuous
 62
     7
100
AcDbLine
 10
48.0888643601
 20
137.4975838197
 30
0.0
 11
46.0888643601
 21
137.4975838197
 31
0.0
  0
LINE
  5
207
330
1F
100
AcDbEntity
  8
Standard
  6
Continuous
 62
     7
100
AcDbLine
 10
46.0888643601
 20
137.4975838197
 30
0.0
 11
46.0888643601
 21
138.4975838197
 31
0.0
  0
LINE
  5
208
330
1F
100
AcDbEntity
  8
Standard
  6
Continuous
 62
     7
100
AcDbLine
 10
46.0888643601
 20
137.4975838197
 30
0.0
 11
44.0888643601
 21
137.4975838197
 31
0.0
  0
LINE
  5
209
330
1F
100
AcDbEntity
  8
Standard
  6
Continuous
 62
     7
100
AcDbLine
 10
44.0888643601
 20
137.4975838197
 30
0.0
 11
44.0888643601
 21
138.4975838197
 31
0.0
  0
LINE
  5
20A
330
1F
100
AcDbEntity
  8
Standard
  6
Continuous
 62
     7
100
AcDbLine
 10
44.0888643601
 20
137.4975838197
 30
0.0
 11
42.0888643601
 21
137.4975838197
 31
0.0
  0
LINE
  5
20B
330
1F
100
AcDbEntity
  8
Standard
  6
Continuous
 62
     7
100
AcDbLine
 10
42.0888643601
 20
137.4975838197
 30
0.0
 11
42.0888643601
 21
138.4975838197
 31
0.0
  0
LINE
  5
20C
330
1F
100
AcDbEntity
  8
Standard
  6
Continuous
 62
     7
100
AcDbLine
 10
42.0888643601
 20
137.4975838197
 30
0.0
 11
40.0888643601
 21
137.4975838197
 31
0.0
  0
LINE
  5
20D
330
1F
100
AcDbEntity
  8
Standard
  6
Continuous
 62
     7
100
AcDbLine
 10
40.0888643601
 20
137.4975838197
 30
0.0
 11
40.0888643601
 21
138.4975838197
 31
0.0
  0
LINE
  5
20E
330
1F
100
AcDbEntity
  8
Standard
  6
Continuous
 62
     7
100
AcDbLine
 10
40.0888643601
 20
137.4975838197
 30
0.0
 11
38.0888643601
 21
137.4975838197
 31
0.0
  0
LINE
  5
20F
330
1F
100
AcDbEntity
  8
Standard
  6
Continuous
 62
     7
100
AcDbLine
 10
38.0888643601
 20
137.4975838197
 30
0.0
 11
38.0888643601
 21
138.4975838197
 31
0.0
  0
LINE
  5
210
330
1F
100
AcDbEntity
  8
Standard
  6
Continuous
 62
     7
100
AcDbLine
 10
38.0888643601
 20
137.4975838197
 30
0.0
 11
36.0888643601
 21
137.4975838197
 31
0.0
  0
LINE
  5
211
330
1F
100
AcDbEntity
  8
Standard
  6
Continuous
 62
     7
100
AcDbLine
 10
48.0888643601
 20
137.4975838197
 30
0.0
 11
48.0888643601
 21
138.4975838197
 31
0.0
  0
LINE
  5
212
330
1F
100
AcDbEntity
  8
Standard
  6
Continuous
 62
     7
100
AcDbLine
 10
46.0888643601
 20
141.4975838197
 30
0.0
 11
46.0888643601
 21
139.4975838197
 31
0.0
  0
LINE
  5
213
330
1F
100
AcDbEntity
  8
Standard
  6
Continuous
 62
     7
100
AcDbLine
 10
44.0888643601
 20
141.4975838197
 30
0.0
 11
44.0888643601
 21
139.4975838197
 31
0.0
  0
LINE
  5
214
330
1F
100
AcDbEntity
  8
Standard
  6
Continuous
 62
     7
100
AcDbLine
 10
42.0888643601
 20
141.4975838197
 30
0.0
 11
42.0888643601
 21
139.4975838197
 31
0.0
  0
LINE
  5
215
330
1F
100
AcDbEntity
  8
Standard
  6
Continuous
 62
     7
100
AcDbLine
 10
40.0888643601
 20
141.4975838197
 30
0.0
 11
40.0888643601
 21
139.4975838197
 31
0.0
  0
LINE
  5
216
330
1F
100
AcDbEntity
  8
Standard
  6
Continuous
 62
     7
100
AcDbLine
 10
38.0888643601
 20
141.4975838197
 30
0.0
 11
38.0888643601
 21
139.4975838197
 31
0.0
  0
LINE
  5
217
330
1F
100
AcDbEntity
  8
Standard
  6
Continuous
 62
     7
100
AcDbLine
 10
36.0888643601
 20
141.4975838197
 30
0.0
 11
36.0888643601
 21
139.4975838197
 31
0.0
  0
LINE
  5
218
330
1F
100
AcDbEntity
  8
Standard
  6
Continuous
 62
     7
100
AcDbLine
 10
49.5888643601
 20
138.4975838197
 30
0.0
 11
49.5888643601
 21
137.4975838197
 31
0.0
  0
LINE
  5
219
330
1F
100
AcDbEntity
  8
Standard
  6
Continuous
 62
     7
100
AcDbLine
 10
51.0888643601
 20
135.3475838197
 30
0.0
 11
51.0888643601
 21
137.4975838197
 31
0.0
  0
LINE
  5
21A
330
1F
100
AcDbEntity
  8
Standard
  6
Continuous
 62
     7
100
AcDbLine
 10
59.5888643601
 20
138.4975838197
 30
0.0
 11
49.5888643601
 21
138.4975838197
 31
0.0
  0
LINE
  5
21B
330
1F
100
AcDbEntity
  8
Standard
  6
Continuous
 62
     7
100
AcDbLine
 10
53.7291364837
 20
135.2475838197
 30
0.0
 11
59.5888643601
 21
134.3249159651
 31
0.0
  0
LINE
  5
21C
330
1F
100
AcDbEntity
  8
Standard
  6
Continuous
 62
     7
100
AcDbLine
 10
59.5888643601
 20
137.4975838197
 30
0.0
 11
49.5888643601
 21
137.4975838197
 31
0.0
  0
LINE
  5
21D
330
1F
100
AcDbEntity
  8
Standard
  6
Continuous
 62
     7
100
AcDbLine
 10
59.5888643601
 20
142.6702516743
 30
0.0
 11
53.7291364837
 21
141.7475838197
 31
0.0
  0
LINE
  5
21E
330
1F
100
AcDbEntity
  8
Standard
  6
Continuous
 62
     7
100
AcDbLine
 10
59.5888643601
 20
138.4975838197
 30
0.0
 11
59.5888643601
 21
137.4975838197
 31
0.0
  0
LINE
  5
21F
330
1F
100
AcDbEntity
  8
Standard
  6
Continuous
 62
     7
100
AcDbLine
 10
60.5888643601
 20
137.1619016539
 30
0.0
 11
59.5888643601
 21
137.1869021298
 31
0.0
  0
LINE
  5
220
330
1F
100
AcDbEntity
  8
Standard
  6
Continuous
 62
     7
100
AcDbLine
 10
59.5888643601
 20
140.778125004
 30
0.0
 11
60.5888643601
 21
140.821428747
 31
0.0
  0
LINE
  5
221
330
1F
100
AcDbEntity
  8
Standard
  6
Continuous
 62
     7
100
AcDbLine
 10
60.5888643601
 20
141.2977648975
 30
0.0
 11
59.5888643601
 21
141.2977648975
 31
0.0
  0
LINE
  5
222
330
1F
100
AcDbEntity
  8
Standard
  6
Continuous
 62
     7
100
AcDbLine
 10
59.5888643601
 20
136.8868973859
 30
0.0
 11
60.5888643601
 21
136.8868973859
 31
0.0
  0
LINE
  5
223
330
1F
100
AcDbEntity
  8
Standard
  6
Continuous
 62
     7
100
AcDbLine
 10
59.5888643601
 20
136.8868973859
 30
0.0
 11
59.5888643601
 21
137.4975838197
 31
0.0
  0
LINE
  5
224
330
1F
100
AcDbEntity
  8
Standard
  6
Continuous
 62
     7
100
AcDbLine
 10
59.5888643601
 20
138.4975838197
 30
0.0
 11
59.5888643601
 21
141.2977648975
 31
0.0
  0
LINE
  5
225
330
1F
100
AcDbEntity
  8
Standard
  6
Continuous
 62
     7
100
AcDbLine
 10
60.5888643601
 20
135.6688175133
 30
0.0
 11
59.5888643601
 21
135.6688175133
 31
0.0
  0
LINE
  5
226
330
1F
100
AcDbEntity
  8
Standard
  6
Continuous
 62
     7
100
AcDbLine
 10
59.5888643601
 20
135.6688175133
 30
0.0
 11
59.5888643601
 21
135.2475838197
 31
0.0
  0
LINE
  5
227
330
1F
100
AcDbEntity
  8
Standard
  6
Continuous
 62
     7
100
AcDbLine
 10
59.5888643601
 20
135.2475838197
 30
0.0
 11
59.5888643601
 21
134.3249159651
 31
0.0
  0
LINE
  5
228
330
1F
100
AcDbEntity
  8
Standard
  6
Continuous
 62
     7
100
AcDbLine
 10
59.5888643601
 20
142.6702516743
 30
0.0
 11
59.5888643601
 21
141.7475838197
 31
0.0
  0
LINE
  5
229
330
1F
100
AcDbEntity
  8
Standard
  6
Continuous
 62
     7
100
AcDbLine
 10
36.0888643601
 20
141.4975838197
 30
0.0
 11
28.5888643601
 21
141.4975838197
 31
0.0
  0
LINE
  5
22A
330
1F
100
AcDbEntity
  8
Standard
  6
Continuous
 62
     7
100
AcDbLine
 10
28.5888643601
 20
135.4975838197
 30
0.0
 11
36.0888643601
 21
135.4975838197
 31
0.0
  0
LINE
  5
22B
330
1F
100
AcDbEntity
  8
Standard
  6
Continuous
 62
     7
100
AcDbLine
 10
28.5888643601
 20
141.4975838197
 30
0.0
 11
26.5888643601
 21
141.1449298583
 31
0.0
  0
LINE
  5
22C
330
1F
100
AcDbEntity
  8
Standard
  6
Continuous
 62
     7
100
AcDbLine
 10
26.5888643601
 20
135.8502377811
 30
0.0
 11
28.5888643601
 21
135.4975838197
 31
0.0
  0
LINE
  5
22D
330
1F
100
AcDbEntity
  8
Standard
  6
Continuous
 62
     7
100
AcDbLine
 10
61.5888643601
 20
143.4975838197
 30
0.0
 11
60.5888643601
 21
143.4975838197
 31
0.0
  0
LINE
  5
22E
330
1F
100
AcDbEntity
  8
Standard
  6
Continuous
 62
     7
100
AcDbLine
 10
60.5888643601
 20
133.4975838197
 30
0.0
 11
61.5888643601
 21
133.4975838197
 31
0.0
  0
ARC
  5
22F
330
1F
100
AcDbEntity
  8
Standard
  6
Continuous
 62
     7
100
AcDbCircle
 10
50.9888643601
 20
135.3975838197
 30
0.0
 40
0.1000000000000003
100
AcDbArc
 50
0.0
 51
90.0
  0
LINE
  5
230
330
1F
100
AcDbEntity
  8
Standard
  6
Continuous
 62
     7
100
AcDbLine
 10
46.0888643601
 20
135.4975838197
 30
0.0
 11
50.9888643601
 21
135.4975838197
 31
0.0
  0
LINE
  5
231
330
1F
100
AcDbEntity
  8
Standard
  6
Continuous
 62
     7
100
AcDbLine
 10
44.0888643601
 20
135.8502377811
 30
0.0
 11
46.0888643601
 21
135.4975838197
 31
0.0
  0
LINE
  5
232
330
1F
100
AcDbEntity
  8
Standard
  6
Continuous
 62
     7
100
AcDbLine
 10
42.0888643601
 20
135.4975838197
 30
0.0
 11
44.0888643601
 21
135.4975838197
 31
0.0
  0
LINE
  5
233
330
1F
100
AcDbEntity
  8
Standard
  6
Continuous
 62
     7
100
AcDbLine
 10
40.0888643601
 20
135.8502377811
 30
0.0
 11
42.0888643601
 21
135.4975838197
 31
0.0
  0
LINE
  5
234
330
1F
100
AcDbEntity
  8
Standard
  6
Continuous
 62
     7
100
AcDbLine
 10
38.0888643601
 20
135.4975838197
 30
0.0
 11
40.0888643601
 21
135.4975838197
 31
0.0
  0
LINE
  5
235
330
1F
100
AcDbEntity
  8
Standard
  6
Continuous
 62
     7
100
AcDbLine
 10
36.0888643601
 20
135.8502377811
 30
0.0
 11
38.0888643601
 21
135.4975838197
 31
0.0
  0
ARC
  5
236
330
1F
100
AcDbEntity
  8
Standard
  6
Continuous
 62
     7
100
AcDbCircle
 10
50.9888643601
 20
141.5975838197
 30
0.0
 40
0.0999999999999994
100
AcDbArc
 50
270.0
 51
360.0
  0
LINE
  5
237
330
1F
100
AcDbEntity
  8
Standard
  6
Continuous
 62
     7
100
AcDbLine
 10
46.0888643601
 20
141.4975838197
 30
0.0
 11
44.0888643601
 21
141.1449298583
 31
0.0
  0
LINE
  5
238
330
1F
100
AcDbEntity
  8
Standard
  6
Continuous
 62
     7
100
AcDbLine
 10
44.0888643601
 20
141.4975838197
 30
0.0
 11
42.0888643601
 21
141.4975838197
 31
0.0
  0
LINE
  5
239
330
1F
100
AcDbEntity
  8
Standard
  6
Continuous
 62
     7
100
AcDbLine
 10
42.0888643601
 20
141.4975838197
 30
0.0
 11
40.0888643601
 21
141.1449298583
 31
0.0
  0
LINE
  5
23A
330
1F
100
AcDbEntity
  8
Standard
  6
Continuous
 62
     7
100
AcDbLine
 10
40.0888643601
 20
141.4975838197
 30
0.0
 11
38.0888643601
 21
141.4975838197
 31
0.0
  0
LINE
  5
23B
330
1F
100
AcDbEntity
  8
Standard
  6
Continuous
 62
     7
100
AcDbLine
 10
38.0888643601
 20
141.4975838197
 30
0.0
 11
36.0888643601
 21
141.1449298583
 31
0.0
  0
LINE
  5
23C
330
1F
100
AcDbEntity
  8
Standard
  6
Continuous
 62
     7
100
AcDbLine
 10
50.9888643601
 20
141.4975838197
 30
0.0
 11
46.0888643601
 21
141.4975838197
 31
0.0
  0
ARC
  5
23D
330
1F
100
AcDbEntity
  8
Standard
  6
Continuous
 62
     7
100
AcDbCircle
 10
51.1888643601
 20
135.3475838197
 30
0.0
 40
0.1000000000000029
100
AcDbArc
 50
180.0
 51
270.0
  0
LINE
  5
23E
330
1F
100
AcDbEntity
  8
Standard
  6
Continuous
 62
     7
100
AcDbLine
 10
51.1888643601
 20
135.2475838197
 30
0.0
 11
59.5888643601
 21
135.2475838197
 31
0.0
  0
ARC
  5
23F
330
1F
100
AcDbEntity
  8
Standard
  6
Continuous
 62
     7
100
AcDbCircle
 10
51.1888643601
 20
141.6475838197
 30
0.0
 40
0.0999999999999994
100
AcDbArc
 50
90.0
 51
180.0
  0
LINE
  5
240
330
1F
100
AcDbEntity
  8
Standard
  6
Continuous
 62
     7
100
AcDbLine
 10
60.5888643601
 20
141.7475838197
 30
0.0
 11
51.1888643601
 21
141.7475838197
 31
0.0
  0
LINE
  5
241
330
1F
100
AcDbEntity
  8
Standard
  6
Continuous
 62
     7
100
AcDbLine
 10
26.588864347
 20
138.4975838197
 30
0.0
 11
26.236640251
 21
138.4975838197
 31
0.0
  0
SPLINE
  5
242
330
1F
100
AcDbEntity
  8
Standard
  6
Continuous
 62
     7
100
AcDbSpline
210
0.0
220
0.0
230
1.0
 70
     8
 71
     3
 72
     8
 73
     4
 74
     0
 42
0.0000000098633552
 43
0.0000000001
 40
0.0
 40
0.0
 40
0.0
 40
0.0
 40
0.9999999999999999
 40
0.9999999999999999
 40
0.9999999999999999
 40
0.9999999999999999
 10
34.42219731955354
 20
139.4975856516788
 30
0.0
 10
34.47774771822357
 20
139.1953015705234
 30
0.0
 10
34.53329811689363
 20
138.8464611196772
 30
0.0
 10
34.58884851556368
 20
138.4975838814916
 30
0.0
  0
SPLINE
  5
243
330
1F
100
AcDbEntity
  8
Standard
  6
Continuous
 62
     7
100
AcDbSpline
210
0.0
220
0.0
230
1.0
 70
     8
 71
     3
 72
    10
 73
     6
 74
     0
 42
0.0000000098634474
 43
0.0000000001
 40
0.0
 40
0.0
 40
0.0
 40
0.0
 40
0.076975598144451
 40
0.076975598144451
 40
1.0
 40
1.0
 40
1.0
 40
1.0
 10
36.42218949878593
 20
139.4975872441137
 30
0.0
 10
36.42646573025444
 20
139.4743447599705
 30
0.0
 10
36.43074196172292
 20
139.4508209104114
 30
0.0
 10
36.48629504051127
 20
139.1417522292815
 30
0.0
 10
36.53757188783113
 20
138.8196574510876
 30
0.0
 10
36.58884873515098
 20
138.49758387598
 30
0.0
  0
SPLINE
  5
244
330
1F
100
AcDbEntity
  8
Standard
  6
Continuous
 62
     7
100
AcDbSpline
210
0.0
220
0.0
230
1.0
 70
     8
 71
     3
 72
    10
 73
     6
 74
     0
 42
0.0000000098634058
 43
0.0000000001
 40
0.0
 40
0.0
 40
0.0
 40
0.0
 40
0.1610024324334005
 40
0.1610024324334005
 40
0.9999999999999999
 40
0.9999999999999999
 40
0.9999999999999999
 40
0.9999999999999999
 10
38.42216762570786
 20
139.4975963046338
 30
0.0
 10
38.43111315286438
 20
139.4490107283024
 30
0.0
 10
38.44005868002093
 20
139.3992147741575
 30
0.0
 10
38.49562012105839
 20
139.0832718096912
 30
0.0
 10
38.54223603493931
 20
138.7904131966066
 30
0.0
 10
38.58885194882025
 20
138.4975838582504
 30
0.0
  0
SPLINE
  5
245
330
1F
100
AcDbEntity
  8
Standard
  6
Continuous
 62
     7
100
AcDbSpline
210
0.0
220
0.0
230
1.0
 70
     8
 71
     3
 72
    10
 73
     6
 74
     0
 42
0.0000000098632711
 43
0.0000000001
 40
0.0
 40
0.0
 40
0.0
 40
0.0
 40
0.2450261876225159
 40
0.2450261876225159
 40
1.0
 40
1.0
 40
1.0
 40
1.0
 10
40.42213997269731
 20
139.497607635905
 30
0.0
 10
40.43575672218602
 20
139.4236745024716
 30
0.0
 10
40.44937347167477
 20
139.3469757561258
 30
0.0
 10
40.50494610095512
 20
139.0247500138303
 30
0.0
 10
40.54690198074679
 20
138.7611577268501
 30
0.0
 10
40.58885786053843
 20
138.4975816282998
 30
0.0
  0
SPLINE
  5
246
330
1F
100
AcDbEntity
  8
Standard
  6
Continuous
 62
     7
100
AcDbSpline
210
0.0
220
0.0
230
1.0
 70
     8
 71
     3
 72
    10
 73
     6
 74
     0
 42
0.0000000098631538
 43
0.0000000001
 40
0.0
 40
0.0
 40
0.0
 40
0.0
 40
0.329013537723252
 40
0.329013537723252
 40
1.0
 40
1.0
 40
1.0
 40
1.0
 10
42.42211267889143
 20
139.4976187150091
 30
0.0
 10
42.44040053097747
 20
139.3983214201409
 30
0.0
 10
42.45868838306349
 20
139.2940897126584
 30
0.0
 10
42.51427227244564
 20
138.9662003719939
 30
0.0
 10
42.55156830974175
 20
138.7318920958593
 30
0.0
 10
42.58886434703785
 20
138.4975838197247
 30
0.0
  0
SPLINE
  5
247
330
1F
100
AcDbEntity
  8
Standard
  6
Continuous
 62
     7
100
AcDbSpline
210
0.0
220
0.0
230
1.0
 70
     8
 71
     3
 72
    10
 73
     6
 74
     0
 42
0.0000000098630435
 43
0.0000000001
 40
0.0
 40
0.0
 40
0.0
 40
0.0
 40
0.4129501667059861
 40
0.4129501667059861
 40
1.0
 40
1.0
 40
1.0
 40
1.0
 10
44.42209012967041
 20
139.4976278021623
 30
0.0
 10
44.44504750282546
 20
139.3729431769902
 30
0.0
 10
44.46800487598052
 20
139.2405444698346
 30
0.0
 10
44.52359844393614
 20
138.9076317761006
 30
0.0
 10
44.5562346387367
 20
138.702613791279
 30
0.0
 10
44.58887083353727
 20
138.4975860111495
 30
0.0
  0
SPLINE
  5
248
330
1F
100
AcDbEntity
  8
Standard
  6
Continuous
 62
     7
100
AcDbSpline
210
0.0
220
0.0
230
1.0
 70
     8
 71
     3
 72
    10
 73
     6
 74
     0
 42
0.0000000098629186
 43
0.0000000001
 40
0.0
 40
0.0
 40
0.0
 40
0.0
 40
0.4968366108460278
 40
0.4968366108460278
 40
1.0
 40
1.0
 40
1.0
 40
1.0
 10
46.42207509803117
 20
139.4976338368543
 30
0.0
 10
46.44969948639466
 20
139.3475372835457
 30
0.0
 10
46.47732387475811
 20
139.1863302080691
 30
0.0
 10
46.53292442383289
 20
138.84905151796
 30
0.0
 10
46.56090058454418
 20
138.6733229215224
 30
0.0
 10
46.58887674525544
 20
138.4975837811989
 30
0.0
  0
SPLINE
  5
249
330
1F
100
AcDbEntity
  8
Standard
  6
Continuous
 62
     7
100
AcDbSpline
210
0.0
220
0.0
230
1.0
 70
     8
 71
     3
 72
    10
 73
     6
 74
     0
 42
0.0000000098628568
 43
0.0000000001
 40
0.0
 40
0.0
 40
0.0
 40
0.0
 40
0.5806891333251957
 40
0.5806891333251957
 40
1.0
 40
1.0
 40
1.0
 40
1.0
 10
48.42206891877271
 20
139.4976363323245
 30
0.0
 10
48.45435737155101
 20
139.3221063570148
 30
0.0
 10
48.48664582432932
 20
139.1314396692654
 30
0.0
 10
48.54224950438002
 20
138.7904686268996
 30
0.0
 10
48.56556473165236
 20
138.6440283870089
 30
0.0
 10
48.58887995892472
 20
138.4975837634693
 30
0.0
  0
SPLINE
  5
24A
330
1F
100
AcDbEntity
  8
Standard
  6
Continuous
 62
     7
100
AcDbSpline
210
0.0
220
0.0
230
1.0
 70
     8
 71
     3
 72
    10
 73
     6
 74
     0
 42
0.0000000098628402
 43
0.0000000001
 40
0.0
 40
0.0
 40
0.0
 40
0.0
 40
0.6645261472876587
 40
0.6645261472876587
 40
1.0
 40
1.0
 40
1.0
 40
1.0
 10
50.42207168668506
 20
139.4976352743022
 30
0.0
 10
50.45902122148793
 20
139.2966572769211
 30
0.0
 10
50.49597075629081
 20
139.0758682072232
 30
0.0
 10
50.55157358689979
 20
138.7318872261696
 30
0.0
 10
50.5702268827059
 20
138.6147334180807
 30
0.0
 10
50.58888017851201
 20
138.4975837579577
 30
0.0
  0
SPLINE
  5
24B
330
1F
100
AcDbEntity
  8
Standard
  6
Continuous
 62
     7
100
AcDbSpline
210
0.0
220
0.0
230
1.0
 70
     8
 71
     3
 72
    14
 73
    10
 74
     0
 42
0.0000000097076017
 43
0.0000000001
 40
0.0
 40
0.0
 40
0.0
 40
0.0
 40
0.4551450371065981
 40
0.4551450371065981
 40
0.4551450371065981
 40
0.9259566763545067
 40
0.9259566763545067
 40
0.9259566763545067
 40
0.9999999999999999
 40
0.9999999999999999
 40
0.9999999999999999
 40
0.9999999999999999
 10
50.30050978084638
 20
138.4975865309895
 30
0.0
 10
50.26502987646764
 20
138.6636267147342
 30
0.0
 10
50.22924491459113
 20
138.8317705206981
 30
0.0
 10
50.19427790025382
 20
138.9886193312655
 30
0.0
 10
50.15810751188762
 20
139.1508660229124
 30
0.0
 10
50.12126976900799
 20
139.3053817285537
 30
0.0
 10
50.0846038615107
 20
139.4389807514509
 30
0.0
 10
50.07883745330036
 20
139.4599917274533
 30
0.0
 10
50.07305998438164
 20
139.4805784033004
 30
0.0
 10
50.06727685423104
 20
139.5007021938115
 30
0.0
  0
SPLINE
  5
24C
330
1F
100
AcDbEntity
  8
Standard
  6
Continuous
 62
     7
100
AcDbSpline
210
0.0
220
0.0
230
1.0
 70
     8
 71
     3
 72
    14
 73
    10
 74
     0
 42
0.0000000097130143
 43
0.0000000001
 40
0.0
 40
0.0
 40
0.0
 40
0.0
 40
0.3532465625517023
 40
0.3532465625517023
 40
0.3532465625517023
 40
0.824545031757387
 40
0.824545031757387
 40
0.824545031757387
 40
1.0
 40
1.0
 40
1.0
 40
1.0
 10
48.30059206946036
 20
138.4975940159709
 30
0.0
 10
48.27296221934502
 20
138.6269259618036
 30
0.0
 10
48.24508364410543
 20
138.7569148563705
 30
0.0
 10
48.21785923688016
 20
138.8813393784355
 30
0.0
 10
48.18153780975057
 20
139.0473402824743
 30
0.0
 10
48.14501617780095
 20
139.2079249645418
 30
0.0
 10
48.10853484928529
 20
139.3492502563388
 30
0.0
 10
48.09495312548837
 20
139.4018645978884
 30
0.0
 10
48.08123086431437
 20
139.452352503786
 30
0.0
 10
48.06747925851496
 20
139.5001676047215
 30
0.0
  0
SPLINE
  5
24D
330
1F
100
AcDbEntity
  8
Standard
  6
Continuous
 62
     7
100
AcDbSpline
210
0.0
220
0.0
230
1.0
 70
     8
 71
     3
 72
    14
 73
    10
 74
     0
 42
0.0000000097164852
 43
0.0000000001
 40
0.0
 40
0.0
 40
0.0
 40
0.0
 40
0.2517600093243037
 40
0.2517600093243037
 40
0.2517600093243037
 40
0.7232648671605214
 40
0.7232648671605214
 40
0.7232648671605214
 40
1.0
 40
1.0
 40
1.0
 40
1.0
 10
46.30064507964337
 20
138.4975765288332
 30
0.0
 10
46.28096844475679
 20
138.589879366767
 30
0.0
 10
46.26122322466786
 20
138.6822176658783
 30
0.0
 10
46.24165086644869
 20
138.7723162902203
 30
0.0
 10
46.2049960641111
 20
138.9410515662234
 30
0.0
 10
46.16845477144626
 20
139.1066895303478
 30
0.0
 10
46.13219265073288
 20
139.2549173441187
 30
0.0
 10
46.1109092498985
 20
139.341916998668
 30
0.0
 10
46.08929655419436
 20
139.4243163872377
 30
0.0
 10
46.06765809548424
 20
139.4998104277377
 30
0.0
  0
SPLINE
  5
24E
330
1F
100
AcDbEntity
  8
Standard
  6
Continuous
 62
     7
100
AcDbSpline
210
0.0
220
0.0
230
1.0
 70
     8
 71
     3
 72
    14
 73
    10
 74
     0
 42
0.0000000097216344
 43
0.0000000001
 40
0.0
 40
0.0
 40
0.0
 40
0.0
 40
0.1502401246499127
 40
0.1502401246499127
 40
0.1502401246499127
 40
0.6218618718158441
 40
0.6218618718158441
 40
0.6218618718158441
 40
1.0
 40
1.0
 40
1.0
 40
1.0
 10
44.3006991064514
 20
138.4975904099324
 30
0.0
 10
44.28901140201061
 20
138.5525965671626
 30
0.0
 10
44.27731414734781
 20
138.6075073350346
 30
0.0
 10
44.26563491524432
 20
138.66183560178
 30
0.0
 10
44.22897207725352
 20
138.8323800711729
 30
0.0
 10
44.19187704879568
 20
139.0019780023466
 30
0.0
 10
44.15571062982057
 20
139.1562238151212
 30
0.0
 10
44.12671328917359
 20
139.2798942946196
 30
0.0
 10
44.09731088707849
 20
139.396352715248
 30
0.0
 10
44.06790434526625
 20
139.4993081680064
 30
0.0
  0
SPLINE
  5
24F
330
1F
100
AcDbEntity
  8
Standard
  6
Continuous
 62
     7
100
AcDbSpline
210
0.0
220
0.0
230
1.0
 70
     8
 71
     3
 72
    17
 73
    13
 74
     0
 42
0.0000000097342229
 43
0.0000000001
 40
0.0
 40
0.0
 40
0.0
 40
0.0
 40
0.0481795073461168
 40
0.0481795073461168
 40
0.0481795073461168
 40
0.5203539466970213
 40
0.5203539466970213
 40
0.5203539466970213
 40
0.992826012501794
 40
0.992826012501794
 40
0.992826012501794
 40
1.0
 40
1.0
 40
1.0
 40
1.0
 10
42.30073276067522
 20
138.497583158075
 30
0.0
 10
42.29701153586859
 20
138.5151368123113
 30
0.0
 10
42.29329046199554
 20
138.5326697843872
 30
0.0
 10
42.28956980515
 20
138.5501660590419
 30
0.0
 10
42.25310496876303
 20
138.7216408332964
 30
0.0
 10
42.21563319723825
 20
138.8943105246202
 30
0.0
 10
42.17930543593146
 20
139.0536905324767
 30
0.0
 10
42.14295596160866
 20
139.2131658013824
 30
0.0
 10
42.10645288428486
 20
139.3636541313458
 30
0.0
 10
42.06999239292569
 20
139.4921741880819
 30
0.0
 10
42.06943876008384
 20
139.4941256956342
 30
0.0
 10
42.06888488856089
 20
139.4960729601662
 30
0.0
 10
42.06833078586772
 20
139.4980159492774
 30
0.0
  0
SPLINE
  5
250
330
1F
100
AcDbEntity
  8
Standard
  6
Continuous
 62
     7
100
AcDbSpline
210
0.0
220
0.0
230
1.0
 70
     8
 71
     3
 72
    14
 73
    10
 74
     0
 42
0.0000000097226633
 43
0.0000000001
 40
0.0
 40
0.0
 40
0.0
 40
0.0
 40
0.4173962541503154
 40
0.4173962541503154
 40
0.4173962541503154
 40
0.8891843056829482
 40
0.8891843056829482
 40
0.8891843056829482
 40
1.0
 40
1.0
 40
1.0
 40
1.0
 10
40.3007019719214
 20
138.4975993451032
 30
0.0
 10
40.26843978700212
 20
138.6499351179236
 30
0.0
 10
40.2355622470493
 20
138.8036479192659
 30
0.0
 10
40.20311981540014
 20
138.9484730667209
 30
0.0
 10
40.16645063484744
 20
139.1121666991225
 30
0.0
 10
40.12987224778955
 20
139.2691245059487
 30
0.0
 10
40.0936262306184
 20
139.4057915376102
 30
0.0
 10
40.08511243508816
 20
139.4378931381198
 30
0.0
 10
40.07654705410302
 20
139.4690814006382
 30
0.0
 10
40.06794865299867
 20
139.4992247429617
 30
0.0
  0
SPLINE
  5
251
330
1F
100
AcDbEntity
  8
Standard
  6
Continuous
 62
     7
100
AcDbSpline
210
0.0
220
0.0
230
1.0
 70
     8
 71
     3
 72
    14
 73
    10
 74
     0
 42
0.0000000097284203
 43
0.0000000001
 40
0.0
 40
0.0
 40
0.0
 40
0.0
 40
0.3157382833877496
 40
0.3157382833877496
 40
0.3157382833877496
 40
0.7877354515168776
 40
0.7877354515168776
 40
0.7877354515168776
 40
1.0
 40
1.0
 40
1.0
 40
1.0
 10
38.30062953396438
 20
138.4975848797612
 30
0.0
 10
38.27621274806953
 20
138.6131292585154
 30
0.0
 10
38.25162752258981
 20
138.729021776576
 30
0.0
 10
38.22711082454633
 20
138.8407491144033
 30
0.0
 10
38.19046036372264
 20
139.0077723575298
 30
0.0
 10
38.15331292164132
 20
139.1701758260265
 30
0.0
 10
38.11714399399118
 20
139.3141819780712
 30
0.0
 10
38.10087845253243
 20
139.3789430364874
 30
0.0
 10
38.08449323254231
 20
139.440762524145
 30
0.0
 10
38.06805363432655
 20
139.4986354590365
 30
0.0
  0
SPLINE
  5
252
330
1F
100
AcDbEntity
  8
Standard
  6
Continuous
 62
     7
100
AcDbSpline
210
0.0
220
0.0
230
1.0
 70
     8
 71
     3
 72
    14
 73
    10
 74
     0
 42
0.0000000097250984
 43
0.0000000001
 40
0.0
 40
0.0
 40
0.0
 40
0.0
 40
0.213653594494562
 40
0.213653594494562
 40
0.213653594494562
 40
0.6853743732274864
 40
0.6853743732274864
 40
0.6853743732274864
 40
1.0
 40
1.0
 40
1.0
 40
1.0
 10
36.3005511775838
 20
138.4975867919285
 30
0.0
 10
36.2840475901228
 20
138.5758708356605
 30
0.0
 10
36.26753345885919
 20
138.6541032422217
 30
0.0
 10
36.25102790408691
 20
138.7308695584121
 30
0.0
 10
36.21458443304009
 20
138.9003658922253
 30
0.0
 10
36.17711123314643
 20
139.0673802816407
 30
0.0
 10
36.14075347070589
 20
139.2179016926341
 30
0.0
 10
36.11650459414376
 20
139.3182922246726
 30
0.0
 10
36.09220832509219
 20
139.4131617721634
 30
0.0
 10
36.06791021357694
 20
139.4989777864084
 30
0.0
  0
SPLINE
  5
253
330
1F
100
AcDbEntity
  8
Standard
  6
Continuous
 62
     7
100
AcDbSpline
210
0.0
220
0.0
230
1.0
 70
     8
 71
     3
 72
    14
 73
    10
 74
     0
 42
0.0000000097125321
 43
0.0000000001
 40
0.0
 40
0.0
 40
0.0
 40
0.0
 40
0.1116650388909439
 40
0.1116650388909439
 40
0.1116650388909439
 40
0.5826910411118699
 40
0.5826910411118699
 40
0.5826910411118699
 40
1.0
 40
1.0
 40
1.0
 40
1.0
 10
34.30048802434909
 20
138.4975807261912
 30
0.0
 10
34.29186504479775
 20
138.5384828384104
 30
0.0
 10
34.28325705717289
 20
138.5793134476711
 30
0.0
 10
34.27466703108273
 20
138.619870584234
 30
0.0
 10
34.23843180351843
 20
138.790952378083
 30
0.0
 10
34.2012573831344
 20
138.9618249664011
 30
0.0
 10
34.16459031064434
 20
139.1180225596986
 30
0.0
 10
34.13210554756147
 20
139.2564039866248
 30
0.0
 10
34.09966824977334
 20
139.3867260499899
 30
0.0
 10
34.06750646017856
 20
139.5002375222572
 30
0.0
  0
ARC
  5
254
330
1F
100
AcDbEntity
  8
Standard
  6
Continuous
 62
     7
100
AcDbCircle
 10
39.3586216665
 20
141.7707792669
 30
0.0
 40
13.52406021519858
100
AcDbArc
 50
194.0062402113
 51
199.2263345038
  0
SPLINE
  5
255
330
1F
100
AcDbEntity
  8
Standard
  6
Continuous
 62
     7
100
AcDbSpline
210
0.0
220
0.0
230
1.0
 70
     8
 71
     3
 72
    17
 73
    13
 74
     0
 42
0.0000000097165056
 43
0.0000000001
 40
0.0
 40
0.0
 40
0.0
 40
0.0
 40
0.0418043730511265
 40
0.0418043730511265
 40
0.0418043730511265
 40
0.5130778189213896
 40
0.5130778189213896
 40
0.5130778189213896
 40
0.9843760711607749
 40
0.9843760711607749
 40
0.9843760711607749
 40
1.0
 40
1.0
 40
1.0
 40
1.0
 10
34.64424851856446
 20
139.4997814923635
 30
0.0
 10
34.64750568337227
 20
139.4884375295599
 30
0.0
 10
34.65076164710162
 20
139.4769475897823
 30
0.0
 10
34.65401571647553
 20
139.4653184542651
 30
0.0
 10
34.69069988376544
 20
139.3342194813395
 30
0.0
 10
34.7276733324223
 20
139.1817349199388
 30
0.0
 10
34.76384178847589
 20
139.0208259403172
 30
0.0
 10
34.80001204700872
 20
138.8599089416888
 30
0.0
 10
34.83689333279549
 20
138.6862376954132
 30
0.0
 10
34.87357012734027
 20
138.5146541201582
 30
0.0
 10
34.8747860004105
 20
138.5089659499941
 30
0.0
 10
34.87600227746718
 20
138.5032747660114
 30
0.0
 10
34.87721891322931
 20
138.4975811084598
 30
0.0
  0
SPLINE
  5
256
330
1F
100
AcDbEntity
  8
Standard
  6
Continuous
 62
     7
100
AcDbSpline
210
0.0
220
0.0
230
1.0
 70
     8
 71
     3
 72
    14
 73
    10
 74
     0
 42
0.0000000097111648
 43
0.0000000001
 40
0.0
 40
0.0
 40
0.0
 40
0.0
 40
0.4110736852928591
 40
0.4110736852928591
 40
0.4110736852928591
 40
0.882261340202149
 40
0.882261340202149
 40
0.882261340202149
 40
1.0
 40
1.0
 40
1.0
 40
1.0
 10
36.64400872745202
 20
139.5003171298092
 30
0.0
 10
36.67605805844809
 20
139.3885187540897
 30
0.0
 10
36.70861399096553
 20
139.260515189419
 30
0.0
 10
36.74027535153429
 20
139.1244075305533
 30
0.0
 10
36.77656568793419
 20
138.9684005669196
 30
0.0
 10
36.81311291860984
 20
138.7975114372516
 30
0.0
 10
36.84961950023058
 20
138.6264731419552
 30
0.0
 10
36.85874192906729
 20
138.5837333233273
 30
0.0
 10
36.86792545511941
 20
138.5406899802203
 30
0.0
 10
36.87713662461531
 20
138.4975736234783
 30
0.0
  0
SPLINE
  5
257
330
1F
100
AcDbEntity
  8
Standard
  6
Continuous
 62
     7
100
AcDbSpline
210
0.0
220
0.0
230
1.0
 70
     8
 71
     3
 72
    14
 73
    10
 74
     0
 42
0.0000000097089533
 43
0.0000000001
 40
0.0
 40
0.0
 40
0.0
 40
0.0
 40
0.3095948066557895
 40
0.3095948066557895
 40
0.3095948066557895
 40
0.7806829206563137
 40
0.7806829206563137
 40
0.7806829206563137
 40
1.0
 40
1.0
 40
1.0
 40
1.0
 10
38.64389027874782
 20
139.5005710663627
 30
0.0
 10
38.668071110809
 20
139.4161014652386
 30
0.0
 10
38.69243638631789
 20
139.3228679430983
 30
0.0
 10
38.71651170775289
 20
139.2241770439637
 30
0.0
 10
38.75314430208874
 20
139.0740106720464
 30
0.0
 10
38.78964694442871
 20
138.9069591474151
 30
0.0
 10
38.82593025362863
 20
138.737446419862
 30
0.0
 10
38.84282252929678
 20
138.6585270548364
 30
0.0
 10
38.85992700061022
 20
138.5780725625636
 30
0.0
 10
38.87708361443232
 20
138.4975911106161
 30
0.0
  0
SPLINE
  5
258
330
1F
100
AcDbEntity
  8
Standard
  6
Continuous
 62
     7
100
AcDbSpline
210
0.0
220
0.0
230
1.0
 70
     8
 71
     3
 72
    14
 73
    10
 74
     0
 42
0.0000000097216763
 43
0.0000000001
 40
0.0
 40
0.0
 40
0.0
 40
0.0
 40
0.2068814626899075
 40
0.2068814626899075
 40
0.2068814626899075
 40
0.6785364859769883
 40
0.6785364859769883
 40
0.6785364859769883
 40
0.9999999999999999
 40
0.9999999999999999
 40
0.9999999999999999
 40
0.9999999999999999
 10
40.64423499570613
 20
139.4992736704565
 30
0.0
 10
40.66032466381639
 20
139.4428654215213
 30
0.0
 10
40.67645220368293
 20
139.3827218832115
 30
0.0
 10
40.6925391585134
 20
139.3197750852393
 30
0.0
 10
40.7292148940662
 20
139.1762662521099
 30
0.0
 10
40.76624343500362
 20
139.0141499659836
 30
0.0
 10
40.80240971099855
 20
138.8471899343622
 30
0.0
 10
40.82705923526769
 20
138.7333964834687
 30
0.0
 10
40.85202255148037
 20
138.6152685151719
 30
0.0
 10
40.87702958762429
 20
138.4975772295168
 30
0.0
  0
SPLINE
  5
259
330
1F
100
AcDbEntity
  8
Standard
  6
Continuous
 62
     7
100
AcDbSpline
210
0.0
220
0.0
230
1.0
 70
     8
 71
     3
 72
    14
 73
    10
 74
     0
 42
0.000000009701647
 43
0.0000000001
 40
0.0
 40
0.0
 40
0.0
 40
0.0
 40
0.1070880641928796
 40
0.1070880641928796
 40
0.1070880641928796
 40
0.5773960262012684
 40
0.5773960262012684
 40
0.5773960262012684
 40
0.9999999999999999
 40
0.9999999999999999
 40
0.9999999999999999
 40
0.9999999999999999
 10
42.64365656828617
 20
139.5013256455068
 30
0.0
 10
42.65196582526637
 20
139.4721714551115
 30
0.0
 10
42.66027658910387
 20
139.4420401108132
 30
0.0
 10
42.66858522452435
 20
139.4110533141621
 30
0.0
 10
42.70507615910385
 20
139.2749615118142
 30
0.0
 10
42.74253677728751
 20
139.1186457527683
 30
0.0
 10
42.77883129186672
 20
138.9552097075149
 30
0.0
 10
42.81144339182921
 20
138.8083557625846
 30
0.0
 10
42.8442255152035
 20
138.6521681521006
 30
0.0
 10
42.87699593340049
 20
138.4975844813743
 30
0.0
  0
SPLINE
  5
25A
330
1F
100
AcDbEntity
  8
Standard
  6
Continuous
 62
     7
100
AcDbSpline
210
0.0
220
0.0
230
1.0
 70
     8
 71
     3
 72
    17
 73
    13
 74
     0
 42
0.0000000097378105
 43
0.0000000001
 40
0.0
 40
0.0
 40
0.0
 40
0.0
 40
0.0005754901607007
 40
0.0005754901607007
 40
0.0005754901607007
 40
0.4730272300319677
 40
0.4730272300319677
 40
0.4730272300319677
 40
0.9457125964040036
 40
0.9457125964040036
 40
0.9457125964040036
 40
1.0
 40
1.0
 40
1.0
 40
1.0
 10
44.64475740946039
 20
139.497620468934
 30
0.0
 10
44.64480158859651
 20
139.4974646417317
 30
0.0
 10
44.64484576742311
 20
139.4973087872061
 30
0.0
 10
44.64488994593996
 20
139.4971529053742
 30
0.0
 10
44.68115947088525
 20
139.3691775817612
 30
0.0
 10
44.71841098599294
 20
139.2193308347088
 30
0.0
 10
44.75504492524001
 20
139.0603001371745
 30
0.0
 10
44.79169597241211
 20
138.9011951728452
 30
0.0
 10
44.82822944767955
 20
138.7283927690595
 30
0.0
 10
44.86449540867171
 20
138.5568043999693
 30
0.0
 10
44.86866061046421
 20
138.5370972100051
 30
0.0
 10
44.87283848103701
 20
138.5173443556685
 30
0.0
 10
44.8770267221543
 20
138.4975682943461
 30
0.0
  0
SPLINE
  5
25B
330
1F
100
AcDbEntity
  8
Standard
  6
Continuous
 62
     7
100
AcDbSpline
210
0.0
220
0.0
230
1.0
 70
     8
 71
     3
 72
    14
 73
    10
 74
     0
 42
0.0000000097044218
 43
0.0000000001
 40
0.0
 40
0.0
 40
0.0
 40
0.0
 40
0.3734827352799824
 40
0.3734827352799824
 40
0.3734827352799824
 40
0.8441036657045822
 40
0.8441036657045822
 40
0.8441036657045822
 40
0.9999999999999999
 40
0.9999999999999999
 40
0.9999999999999999
 40
0.9999999999999999
 10
46.64385749038213
 20
139.5010565513835
 30
0.0
 10
46.67275258922332
 20
139.3992476619872
 30
0.0
 10
46.70196547961808
 20
139.284257639616
 30
0.0
 10
46.7310627778528
 20
139.1621906425213
 30
0.0
 10
46.76772822156855
 20
139.0083742786986
 30
0.0
 10
46.80481099805952
 20
138.8390021458034
 30
0.0
 10
46.84097714802083
 20
138.6684366147817
 30
0.0
 10
46.85295732508315
 20
138.6119361228974
 30
0.0
 10
46.86500758866874
 20
138.5548021298587
 30
0.0
 10
46.87709916011135
 20
138.497582759688
 30
0.0
  0
SPLINE
  5
25C
330
1F
100
AcDbEntity
  8
Standard
  6
Continuous
 62
     7
100
AcDbSpline
210
0.0
220
0.0
230
1.0
 70
     8
 71
     3
 72
    14
 73
    10
 74
     0
 42
0.0000000097232403
 43
0.0000000001
 40
0.0
 40
0.0
 40
0.0
 40
0.0
 40
0.2700734918120443
 40
0.2700734918120443
 40
0.2700734918120443
 40
0.7416920438652366
 40
0.7416920438652366
 40
0.7416920438652366
 40
1.0
 40
1.0
 40
1.0
 40
1.0
 10
48.64448243878061
 20
139.4991524770937
 30
0.0
 10
48.66534342727599
 20
139.4254591959664
 30
0.0
 10
48.6862403155226
 20
139.3452298896371
 30
0.0
 10
48.70712409466179
 20
139.2606406204648
 30
0.0
 10
48.74359381773164
 20
139.1129208423141
 30
0.0
 10
48.78106427703249
 20
138.9478635207798
 30
0.0
 10
48.81738553551482
 20
138.7793065410791
 30
0.0
 10
48.83727823600417
 20
138.6869899845312
 30
0.0
 10
48.85722016692434
 20
138.5922476604191
 30
0.0
 10
48.8771775164919
 20
138.4975808475209
 30
0.0
  0
SPLINE
  5
25D
330
1F
100
AcDbEntity
  8
Standard
  6
Continuous
 62
     7
100
AcDbSpline
210
0.0
220
0.0
230
1.0
 70
     8
 71
     3
 72
    14
 73
    10
 74
     0
 42
0.0000000097086793
 43
0.0000000001
 40
0.0
 40
0.0
 40
0.0
 40
0.0
 40
0.169825822904156
 40
0.169825822904156
 40
0.169825822904156
 40
0.6406134585290886
 40
0.6406134585290886
 40
0.6406134585290886
 40
1.0
 40
1.0
 40
1.0
 40
1.0
 10
50.6441294562072
 20
139.500648099039
 30
0.0
 10
50.65726700416348
 20
139.4543385322504
 30
0.0
 10
50.67037758480159
 20
139.4055245851467
 30
0.0
 10
50.68345487567039
 20
139.3547131931605
 30
0.0
 10
50.7197083211697
 20
139.2138515996855
 30
0.0
 10
50.75692573967122
 20
139.0538201082904
 30
0.0
 10
50.79357641055168
 20
138.8881783242964
 30
0.0
 10
50.82155384196665
 20
138.7617350276304
 30
0.0
 10
50.84947497531378
 20
138.6292902928097
 30
0.0
 10
50.8772406697266
 20
138.497586913258
 30
0.0
  0
SPLINE
  5
25E
330
1F
100
AcDbEntity
  8
Standard
  6
Continuous
 62
     7
100
AcDbSpline
210
0.0
220
0.0
230
1.0
 70
     8
 71
     3
 72
    12
 73
     8
 74
     0
 42
0.0000000046194307
 43
0.0000000001
 40
0.0
 40
0.0
 40
0.0
 40
0.0
 40
0.4603140958654178
 40
0.4603140958654178
 40
0.9206281917308355
 40
0.9206281917308355
 40
1.0
 40
1.0
 40
1.0
 40
1.0
 10
26.58886434703744
 20
138.4975838197272
 30
0.0
 10
26.49997545814855
 20
139.0560891803628
 30
0.0
 10
26.41108656925967
 20
139.5844523370617
 30
0.0
 10
26.23330879148189
 20
140.2594676919532
 30
0.0
 10
26.14441990259298
 20
140.4020495806834
 30
0.0
 10
26.04020393180606
 20
140.3069248227683
 30
0.0
 10
26.02487684990804
 20
140.2863728319747
 30
0.0
 10
26.00954976801001
 20
140.2598271472972
 30
0.0
  0
SPLINE
  5
25F
330
1F
100
AcDbEntity
  8
Standard
  6
Continuous
 62
     7
100
AcDbSpline
210
0.0
220
0.0
230
1.0
 70
     8
 71
     3
 72
    20
 73
    16
 74
     0
 42
0.0000000071772351
 43
0.0000000001
 40
0.0
 40
0.0
 40
0.0
 40
0.0
 40
0.2300690768408609
 40
0.2300690768408609
 40
0.2300690768408609
 40
0.4593326673613047
 40
0.4593326673613047
 40
0.4593326673613047
 40
0.682010232109323
 40
0.682010232109323
 40
0.682010232109323
 40
0.9016681532286694
 40
0.9016681532286694
 40
0.9016681532286694
 40
1.0
 40
1.0
 40
1.0
 40
1.0
 10
26.23664025098249
 20
138.4975838197246
 30
0.0
 10
26.20047630199382
 20
138.6554885181384
 30
0.0
 10
26.16404968025349
 20
138.8137517316881
 30
0.0
 10
26.1272726642317
 20
138.9582120845816
 30
0.0
 10
26.09064130360453
 20
139.1021003021586
 30
0.0
 10
26.05239696457587
 20
139.2362582853813
 30
0.0
 10
26.01412368957101
 20
139.3483804036402
 30
0.0
 10
25.97692548862241
 20
139.4573530767455
 30
0.0
 10
25.93937171599245
 20
139.5489149318911
 30
0.0
 10
25.90207876618372
 20
139.6142110486267
 30
0.0
 10
25.86530348675628
 20
139.678600777806
 30
0.0
 10
25.82732614276695
 20
139.7190912822973
 30
0.0
 10
25.78885694731545
 20
139.7313041137288
 30
0.0
 10
25.77162220495449
 20
139.7367756345326
 30
0.0
 10
25.75410667102479
 20
139.7366737465916
 30
0.0
 10
25.73652566625934
 20
139.7310911243352
 30
0.0
  0
SPLINE
  5
260
330
1F
100
AcDbEntity
  8
Standard
  6
Continuous
 62
     7
100
AcDbSpline
210
0.0
220
0.0
230
1.0
 70
     8
 71
     3
 72
    29
 73
    25
 74
     0
 42
0.0000000058490814
 43
0.0000000001
 40
0.0
 40
0.0
 40
0.0
 40
0.0
 40
0.0813165340402288
 40
0.0813165340402288
 40
0.0813165340402288
 40
0.2338983066577821
 40
0.2338983066577821
 40
0.2338983066577821
 40
0.3805215733684815
 40
0.3805215733684815
 40
0.3805215733684815
 40
0.523506813870504
 40
0.523506813870504
 40
0.523506813870504
 40
0.6601970066172537
 40
0.6601970066172537
 40
0.6601970066172537
 40
0.7932097340519649
 40
0.7932097340519649
 40
0.7932097340519649
 40
0.9204526692253353
 40
0.9204526692253353
 40
0.9204526692253353
 40
1.0
 40
1.0
 40
1.0
 40
1.0
 10
24.58857019546867
 20
137.7158046095151
 30
0.0
 10
24.56854133731026
 20
137.7462407672604
 30
0.0
 10
24.54835548440809
 20
137.7810502816621
 30
0.0
 10
24.52807684444947
 20
137.8195025965111
 30
0.0
 10
24.49002185839944
 20
137.8916623817903
 30
0.0
 10
24.45036075998025
 20
137.9787152011059
 30
0.0
 10
24.41043109218852
 20
138.0723882416128
 30
0.0
 10
24.37203128604615
 20
138.1624723017906
 30
0.0
 10
24.33268230962893
 20
138.2613914997765
 30
0.0
 10
24.29317906716261
 20
138.359660920522
 30
0.0
 10
24.2546618281462
 20
138.455477530262
 30
0.0
 10
24.21469799268067
 20
138.5533947525124
 30
0.0
 10
24.17421590666549
 20
138.6433851065596
 30
0.0
 10
24.13548212450531
 20
138.7294890382807
 30
0.0
 10
24.09538175063341
 20
138.8109492308284
 30
0.0
 10
24.05526201456887
 20
138.8795914587909
 30
0.0
 10
24.01622555542365
 20
138.9463802712394
 30
0.0
 10
23.97583299860129
 20
139.0028395040988
 30
0.0
 10
23.93486621192126
 20
139.0426282578808
 30
0.0
 10
23.89564904411212
 20
139.0807177044895
 30
0.0
 10
23.85474977789281
 20
139.1046606600781
 30
0.0
 10
23.813769096729
 20
139.1118216878354
 30
0.0
 10
23.78814634472043
 20
139.1162990472433
 30
0.0
 10
23.76193605627358
 20
139.1142426330898
 30
0.0
 10
23.73537137164233
 20
139.1057762787723
 30
0.0
  0
SPLINE
  5
261
330
1F
100
AcDbEntity
  8
Standard
  6
Continuous
 62
     7
100
AcDbSpline
210
0.0
220
0.0
230
1.0
 70
     8
 71
     3
 72
    38
 73
    34
 74
     0
 42
0.0000000036417156
 43
0.0000000001
 40
0.0
 40
0.0
 40
0.0
 40
0.0
 40
0.0132794692209977
 40
0.0132794692209977
 40
0.0132794692209977
 40
0.1462719070963123
 40
0.1462719070963123
 40
0.1462719070963123
 40
0.275086239118212
 40
0.275086239118212
 40
0.275086239118212
 40
0.395448512685962
 40
0.395448512685962
 40
0.395448512685962
 40
0.5092723261398978
 40
0.5092723261398978
 40
0.5092723261398978
 40
0.6172739315544383
 40
0.6172739315544383
 40
0.6172739315544383
 40
0.7168911106778945
 40
0.7168911106778945
 40
0.7168911106778945
 40
0.8119548916672529
 40
0.8119548916672529
 40
0.8119548916672529
 40
0.898499357156591
 40
0.898499357156591
 40
0.898499357156591
 40
0.9800988760569588
 40
0.9800988760569588
 40
0.9800988760569588
 40
0.9999999999999999
 40
0.9999999999999999
 40
0.9999999999999999
 40
0.9999999999999999
 10
25.01372348967113
 20
137.0976146425677
 30
0.0
 10
25.00921754039614
 20
137.1002114972347
 30
0.0
 10
25.00469933212771
 20
137.1030948702309
 30
0.0
 10
25.00016943140903
 20
137.1062660559705
 30
0.0
 10
24.95472419060804
 20
137.1380802851358
 30
0.0
 10
24.90697075015241
 20
137.199530290252
 30
0.0
 10
24.85971603778894
 20
137.2855070173838
 30
0.0
 10
24.8139717393297
 20
137.3687356494029
 30
0.0
 10
24.76665011753015
 20
137.4779606804435
 30
0.0
 10
24.71790883320418
 20
137.603455255408
 30
0.0
 10
24.67232085046642
 20
137.7208309995289
 30
0.0
 10
24.62388513234365
 20
137.8558298731803
 30
0.0
 10
24.57526558790468
 20
137.995623876756
 30
0.0
 10
24.52925627325758
 20
138.1279127817739
 30
0.0
 10
24.48193270984756
 20
138.2686925594333
 30
0.0
 10
24.43334908784017
 20
138.4036328881583
 30
0.0
 10
24.38725147771728
 20
138.5316683537413
 30
0.0
 10
24.33838669664848
 20
138.6581825189876
 30
0.0
 10
24.28838780471043
 20
138.7695020623451
 30
0.0
 10
24.24218948485501
 20
138.8723598592051
 30
0.0
 10
24.19420477809461
 20
138.9657790364033
 30
0.0
 10
24.1452185424201
 20
139.0390663557955
 30
0.0
 10
24.09849670547099
 20
139.108965953916
 30
0.0
 10
24.04912740333998
 20
139.1624080022305
 30
0.0
 10
23.99814010242332
 20
139.1921519447236
 30
0.0
 10
23.95163265619768
 20
139.2192825200075
 30
0.0
 10
23.90259690357466
 20
139.2277689282904
 30
0.0
 10
23.85250770360744
 20
139.2157752261403
 30
0.0
 10
23.80529142823456
 20
139.2044694367918
 30
0.0
 10
23.75539381179542
 20
139.1742935410308
 30
0.0
 10
23.70369994357146
 20
139.1278455718079
 30
0.0
 10
23.6910741855772
 20
139.1165010770181
 30
0.0
 10
23.67823271455482
 20
139.1040944012284
 30
0.0
 10
23.66520552358708
 20
139.0907523382954
 30
0.0
  0
SPLINE
  5
262
330
1F
100
AcDbEntity
  8
Standard
  6
Continuous
 62
     7
100
AcDbSpline
210
0.0
220
0.0
230
1.0
 70
     8
 71
     3
 72
    32
 73
    28
 74
     0
 42
0.000000005045281
 43
0.0000000001
 40
0.0
 40
0.0
 40
0.0
 40
0.0
 40
0.0227540449808964
 40
0.0227540449808964
 40
0.0227540449808964
 40
0.1477879745502428
 40
0.1477879745502428
 40
0.1477879745502428
 40
0.2773879793633234
 40
0.2773879793633234
 40
0.2773879793633234
 40
0.4095977460463137
 40
0.4095977460463137
 40
0.4095977460463137
 40
0.5473618060435035
 40
0.5473618060435035
 40
0.5473618060435035
 40
0.6878057431839593
 40
0.6878057431839593
 40
0.6878057431839593
 40
0.8330674110929
 40
0.8330674110929
 40
0.8330674110929
 40
0.9826845337775626
 40
0.9826845337775626
 40
0.9826845337775626
 40
1.0
 40
1.0
 40
1.0
 40
1.0
 10
24.54067271573884
 20
139.1806305458863
 30
0.0
 10
24.54741527882237
 20
139.17119845276
 30
0.0
 10
24.55413435605763
 20
139.1612679814868
 30
0.0
 10
24.56082808658816
 20
139.1508673913958
 30
0.0
 10
24.59759958141244
 20
139.0937325481338
 30
0.0
 10
24.63460819722291
 20
139.0209664550434
 30
0.0
 10
24.67040525710074
 20
138.9387587888194
 30
0.0
 10
24.70748474032278
 20
138.8536060474802
 30
0.0
 10
24.74389069213462
 20
138.7558829105585
 30
0.0
 10
24.77931296020652
 20
138.6544047570343
 30
0.0
 10
24.81545608773122
 20
138.5508614763964
 30
0.0
 10
24.85172272947089
 20
138.4407843397257
 30
0.0
 10
24.88723414710092
 20
138.3332684704938
 30
0.0
 10
24.92420902466369
 20
138.221321768103
 30
0.0
 10
24.96117511666007
 20
138.1091028509373
 30
0.0
 10
24.99654937834839
 20
138.0059276097248
 30
0.0
 10
25.0326170654423
 20
137.9007298716438
 30
0.0
 10
25.06843067507539
 20
137.8022745805272
 30
0.0
 10
25.1036740467086
 20
137.7184364938442
 30
0.0
 10
25.14011264676347
 20
137.6317551586473
 30
0.0
 10
25.17693292694179
 20
137.5583503804774
 30
0.0
 10
25.21249564729366
 20
137.5039663969775
 30
0.0
 10
25.24910616773446
 20
137.4479800742249
 30
0.0
 10
25.28502695913343
 20
137.4107885361656
 30
0.0
 10
25.32016803004344
 20
137.394926357702
 30
0.0
 10
25.32423555003466
 20
137.3930903371615
 30
0.0
 10
25.32830674692774
 20
137.3915331331705
 30
0.0
 10
25.33238017275266
 20
137.390253315817
 30
0.0
  0
SPLINE
  5
263
330
1F
100
AcDbEntity
  8
Standard
  6
Continuous
 62
     7
100
AcDbSpline
210
0.0
220
0.0
230
1.0
 70
     8
 71
     3
 72
    11
 73
     7
 74
     0
 42
0.000000031606878
 43
0.0000000001
 40
0.0
 40
0.0
 40
0.0
 40
0.0
 40
0.2701944366338395
 40
0.2701944366338395
 40
0.2701944366338395
 40
0.9999999999999999
 40
0.9999999999999999
 40
0.9999999999999999
 40
0.9999999999999999
 10
26.46722918607797
 20
139.8305815187085
 30
0.0
 10
26.47831741680856
 20
139.8130026340075
 30
0.0
 10
26.48938019568375
 20
139.7929975348034
 30
0.0
 10
26.50038327709883
 20
139.7706973345821
 30
0.0
 10
26.53022249350373
 20
139.7102215028424
 30
0.0
 10
26.5600755722466
 20
139.6317335953541
 30
0.0
 10
26.58886434703792
 20
139.5396639330079
 30
0.0
  0
LINE
  5
264
330
1F
100
AcDbEntity
  8
Standard
  6
Continuous
 62
     7
100
AcDbLine
 10
23.5327939143
 20
137.95260583
 30
0.0
 11
23.5327939143
 21
139.0425618095
 31
0.0
  0
SPLINE
  5
265
330
1F
100
AcDbEntity
  8
Standard
  6
Continuous
 62
     7
100
AcDbSpline
210
0.0
220
0.0
230
1.0
 70
     8
 71
     3
 72
    41
 73
    37
 74
     0
 42
0.0000000035300869
 43
0.0000000001
 40
0.0
 40
0.0
 40
0.0
 40
0.0
 40
0.0284146827810683
 40
0.0284146827810683
 40
0.0284146827810683
 40
0.1037711007619699
 40
0.1037711007619699
 40
0.1037711007619699
 40
0.1814648857465159
 40
0.1814648857465159
 40
0.1814648857465159
 40
0.2639554577121924
 40
0.2639554577121924
 40
0.2639554577121924
 40
0.3500327816744179
 40
0.3500327816744179
 40
0.3500327816744179
 40
0.4390454867397058
 40
0.4390454867397058
 40
0.4390454867397058
 40
0.5332003177517769
 40
0.5332003177517769
 40
0.5332003177517769
 40
0.6297389257431357
 40
0.6297389257431357
 40
0.6297389257431357
 40
0.7309644029989891
 40
0.7309644029989891
 40
0.7309644029989891
 40
0.8363114692145841
 40
0.8363114692145841
 40
0.8363114692145841
 40
0.9441514212586669
 40
0.9441514212586669
 40
0.9441514212586669
 40
1.0
 40
1.0
 40
1.0
 40
1.0
 10
24.24052497592902
 20
139.4510951803335
 30
0.0
 10
24.25272338497209
 20
139.4582374932218
 30
0.0
 10
24.26481766167801
 20
139.4626957070113
 30
0.0
 10
24.27675288247888
 20
139.464405652777
 30
0.0
 10
24.30836893339716
 20
139.468935249112
 30
0.0
 10
24.33945025457357
 20
139.4541281629467
 30
0.0
 10
24.3691073878643
 20
139.4217795759191
 30
0.0
 10
24.39969416303589
 20
139.3884169798504
 30
0.0
 10
24.42990166079523
 20
139.3358163617839
 30
0.0
 10
24.45942247304455
 20
139.2689681468862
 30
0.0
 10
24.49074053369635
 20
139.1980501643135
 30
0.0
 10
24.52210339660865
 20
139.1092715767109
 30
0.0
 10
24.55213899945369
 20
139.0098672937104
 30
0.0
 10
24.58346220021376
 20
138.9062016430191
 30
0.0
 10
24.61393522276706
 20
138.7881890246307
 30
0.0
 10
24.64359584113934
 20
138.6659831697035
 30
0.0
 10
24.6742707246545
 20
138.5395984019382
 30
0.0
 10
24.70496184830656
 20
138.4054989546647
 30
0.0
 10
24.73490862723571
 20
138.2740767197483
 30
0.0
 10
24.76655212741016
 20
138.1352083785707
 30
0.0
 10
24.79802065075032
 20
137.9956265360068
 30
0.0
 10
24.8279355302895
 20
137.8664551795076
 30
0.0
 10
24.85861562789832
 20
137.7339796393514
 30
0.0
 10
24.88889430468039
 20
137.6090545606518
 30
0.0
 10
24.91865109201277
 20
137.500869938579
 30
0.0
 10
24.9498353860414
 20
137.3874954325743
 30
0.0
 10
24.98128139855382
 20
137.2894884529176
 30
0.0
 10
25.01161268976432
 20
137.214102915319
 30
0.0
 10
25.04315623230447
 20
137.1357044424134
 30
0.0
 10
25.07391224357153
 20
137.0799419019939
 30
0.0
 10
25.10377669210556
 20
137.0502755598894
 30
0.0
 10
25.13435623112559
 20
137.0198988708662
 30
0.0
 10
25.16502538606319
 20
137.0158925062316
 30
0.0
 10
25.19515757104157
 20
137.0376243564552
 30
0.0
 10
25.21074804091819
 20
137.0488684715607
 30
0.0
 10
25.22637566111724
 20
137.0671652996954
 30
0.0
 10
25.24182573082745
 20
137.0919903986345
 30
0.0
  0
LINE
  5
266
330
1F
100
AcDbEntity
  8
Standard
  6
Continuous
 62
     7
100
AcDbLine
 10
60.5888643171
 20
140.4975838197
 30
0.0
 11
59.5888643171
 21
140.4975838197
 31
0.0
  0
ARC
  5
267
330
1F
100
AcDbEntity
  8
Standard
  6
Continuous
 62
     7
100
AcDbCircle
 10
9.4393222163
 20
127.9278346727
 30
0.0
 40
18.03609795326262
100
AcDbArc
 50
31.1442568419
 51
32.8978126189
  0
ARC
  5
268
330
1F
100
AcDbEntity
  8
Standard
  6
Continuous
 62
     7
100
AcDbCircle
 10
-12.6399332455
 20
163.1540750607
 30
0.0
 40
44.92136203414244
100
AcDbArc
 50
328.5455635691
 51
329.3598435877
  0
ARC
  5
269
330
1F
100
AcDbEntity
  8
Standard
  6
Continuous
 62
     7
100
AcDbCircle
 10
37.9178850551
 20
129.2034506737
 30
0.0
 40
14.92988798324545
100
AcDbArc
 50
146.8641642445
 51
148.1056272087
  0
ARC
  5
26A
330
1F
100
AcDbEntity
  8
Standard
  6
Continuous
 62
     7
100
AcDbCircle
 10
49.1835173916
 20
154.2726104758
 30
0.0
 40
26.91802262533194
100
AcDbArc
 50
211.3496470668
 51
212.4546384865
  0
ARC
  5
26B
330
1F
100
AcDbEntity
  8
Standard
  6
Continuous
 62
     7
100
AcDbCircle
 10
30.2549507622
 20
143.3753544273
 30
0.0
 40
7.087202698259262
100
AcDbArc
 50
214.4124607706
 51
216.323255723
  0
LINE
  5
26C
330
1F
100
AcDbEntity
  8
Standard
  6
Continuous
 62
     7
100
AcDbLine
 10
23.7318679526
 20
139.1047724464
 30
0.0
 11
23.5327939143
 21
139.0425618095
 31
0.0
  0
LINE
  5
26D
330
1F
100
AcDbEntity
  8
Standard
  6
Continuous
 62
     7
100
AcDbLine
 10
25.7308806909
 20
139.7294639272
 30
0.0
 11
24.4389275661
 21
139.3257285757
 31
0.0
  0
LINE
  5
26E
330
1F
100
AcDbEntity
  8
Standard
  6
Continuous
 62
     7
100
AcDbLine
 10
26.588864347
 20
139.9975838197
 30
0.0
 11
26.3996917624
 21
139.938467387
 31
0.0
  0
LINE
  5
26F
330
1F
100
AcDbEntity
  8
Standard
  6
Continuous
 62
     7
100
AcDbLine
 10
25.3306200594
 20
137.3907851596
 30
0.0
 11
26.588864347
 21
136.9975838197
 31
0.0
  0
LINE
  5
270
330
1F
100
AcDbEntity
  8
Standard
  6
Continuous
 62
     7
100
AcDbLine
 10
23.5327939143
 20
137.95260583
 30
0.0
 11
24.6617065095
 21
137.599820644
 31
0.0
  0
LINE
  5
271
330
1F
100
AcDbEntity
  8
Standard
  6
Continuous
 62
     7
100
AcDbLine
 10
23.5327939143
 20
139.0425618095
 30
0.0
 11
22.588864347
 21
138.4975838197
 31
0.0
  0
LINE
  5
272
330
1F
100
AcDbEntity
  8
Standard
  6
Continuous
 62
     7
100
AcDbLine
 10
24.2349368003
 20
139.4479441937
 30
0.0
 11
23.7734433848
 21
139.181500846
 31
0.0
  0
LINE
  5
273
330
1F
100
AcDbEntity
  8
Standard
  6
Continuous
 62
     7
100
AcDbLine
 10
25.0119329406
 20
137.098624515
 30
0.0
 11
25.1195384303
 21
137.0364984565
 31
0.0
  0
LINE
  5
274
330
1F
100
AcDbEntity
  8
Standard
  6
Continuous
 62
     7
100
AcDbLine
 10
22.588864347
 20
138.4975838197
 30
0.0
 11
23.5327939143
 21
137.95260583
 31
0.0
  0
DIMENSION
  5
285
330
1F
100
AcDbEntity
  8
Layer3
  6
Continuous
 62
   136
370
    20
100
AcDbDimension
  2
DMBLK11
 10
18.4234277919
 20
173.4975838197
 30
0.0
 11
18.4234277919
 21
147.4975832833
 31
0.0
 70
   161
  1
\A1;{\Fsemeca1.ttf;q} <>
 71
     5
 42
-1.0
  3
$DDT_AUDIT_GENERATED_(284)
100
AcDbAlignedDimension
 13
59.3988643601
 23
173.4975838197
 33
0.0
 14
59.3988643601
 24
121.4975838197
 34
0.0
  0
DIMENSION
  5
292
330
1F
100
AcDbEntity
  8
Layer3
  6
Continuous
 62
   136
370
    20
100
AcDbDimension
  2
DMBLK12
 10
129.5888643601
 20
189.9373140182
 30
0.0
 11
96.3188657716
 21
189.9373140182
 31
0.0
 70
   160
  1
\A1;<>
 71
     5
 42
-1.0
  3
$DDT_AUDIT_GENERATED_(284)
100
AcDbAlignedDimension
 13
63.0488643601
 23
182.8306154344
 33
0.0
 14
129.5888643601
 24
172.2427454494
 34
0.0
100
AcDbRotatedDimension
  0
DIMENSION
  5
29D
330
1F
100
AcDbEntity
  8
Layer3
  6
Continuous
 62
   136
370
    20
100
AcDbDimension
  2
DMBLK13
 10
109.9823709312
 20
108.3148551386
 30
0.0
 11
86.5156172022
 21
108.3148551386
 31
0.0
 70
   160
  1
\A1;<>
 71
     5
 42
-1.0
  3
$DDT_AUDIT_GENERATED_(284)
100
AcDbAlignedDimension
 13
63.0488643601
 23
112.1645522051
 33
0.0
 14
109.9823709312
 24
128.2475838197
 34
0.0
100
AcDbRotatedDimension
  0
DIMENSION
  5
2A8
330
1F
100
AcDbEntity
  8
Layer3
  6
Continuous
 62
   136
370
    20
100
AcDbDimension
  2
DMBLK14
 10
153.7988643601
 20
190.4578878416
 30
0.0
 11
173.0488642558
 21
190.4578878416
 31
0.0
 70
   161
  1
\A1;{\Fsemeca1.ttf;q} <>
 71
     5
 42
-1.0
  3
$DDT_AUDIT_GENERATED_(284)
100
AcDbAlignedDimension
 13
153.7988643601
 23
166.2475838197
 33
0.0
 14
192.2988643601
 24
166.2475838197
 34
0.0
  0
DIMENSION
  5
2B4
330
1F
100
AcDbEntity
  8
Layer3
  6
Continuous
 62
   136
370
    20
100
AcDbDimension
  2
DMBLK15
 10
41.6751880255
 20
156.4975838197
 30
0.0
 11
41.6751880255
 21
147.4975842071
 31
0.0
 70
   161
  1
\A1;<>
 71
     5
 42
-1.0
  3
$DDT_AUDIT_GENERATED_(284)
100
AcDbAlignedDimension
 13
22.588864347
 23
156.4975838197
 33
0.0
 14
22.588864347
 24
138.4975838197
 34
0.0
  0
LINE
  5
2BF
330
1F
100
AcDbEntity
  8
Standard
  6
Continuous
 62
     7
100
AcDbLine
 10
6.6
 20
291.0
 30
0.0
 11
6.6
 21
5.0
 31
0.0
  0
LINE
  5
2C0
330
1F
100
AcDbEntity
  8
Standard
  6
Continuous
 62
     7
100
AcDbLine
 10
6.6
 20
5.0
 30
0.0
 11
203.0048694642
 21
5.0
 31
0.0
  0
LINE
  5
2C1
330
1F
100
AcDbEntity
  8
Standard
  6
Continuous
 62
     7
100
AcDbLine
 10
203.0048694642
 20
291.0
 30
0.0
 11
6.6
 21
291.0
 31
0.0
  0
HATCH
  5
2C2
330
1F
100
AcDbEntity
  8
Standard
  6
Continuous
 62
   252
100
AcDbHatch
 10
0.0
 20
0.0
 30
0.0
210
0.0
220
0.0
230
1.0
  2
SOLID
 70
     1
 71
     0
 91
        1
 92
        1
 93
      139
 72
     1
 10
172.7172376075405
 20
36.00717426027418
 11
172.7172376075405
 21
38.16056787729543
 72
     1
 10
172.7172376075405
 20
38.16056787729543
 11
171.3135439905194
 21
38.16056787729543
 72
     1
 10
171.3135439905194
 20
38.16056787729543
 11
171.3135439905194
 21
36.61701935882525
 72
     1
 10
171.3135439905194
 20
36.61701935882525
 11
171.1917076643315
 21
36.5611499033753
 72
     1
 10
171.1917076643315
 20
36.5611499033753
 11
171.0666502755375
 21
36.51126995692736
 72
     1
 10
171.0666502755375
 20
36.51126995692736
 11
170.9388185719342
 21
36.46764219434532
 72
     1
 10
170.9388185719342
 20
36.46764219434532
 11
170.8086865832739
 21
36.43048421156423
 72
     1
 10
170.8086865832739
 20
36.43048421156423
 11
170.6767498485449
 21
36.39996513139732
 72
     1
 10
170.6767498485449
 20
36.39996513139732
 11
170.5435191598414
 21
36.37620310823803
 72
     1
 10
170.5435191598414
 20
36.37620310823803
 11
170.4095139875734
 21
36.35926380720596
 72
     1
 10
170.4095139875734
 20
36.35926380720596
 11
170.2752557640552
 21
36.34915989868774
 72
     1
 10
170.2752557640552
 20
36.34915989868774
 11
170.141261206663
 21
36.34585157274731
 72
     1
 10
170.141261206663
 20
36.34585157274731
 11
170.0152684750314
 21
36.34668446771455
 72
     1
 10
170.0152684750314
 20
36.34668446771455
 11
169.8968082340686
 21
36.35706328170605
 72
     1
 10
169.8968082340686
 20
36.35706328170605
 11
169.7858119386887
 21
36.37592624282478
 72
     1
 10
169.7858119386887
 20
36.37592624282478
 11
169.6822110438061
 21
36.40221157917369
 72
     1
 10
169.6822110438061
 20
36.40221157917369
 11
169.5859370043348
 21
36.43485751885568
 72
     1
 10
169.5859370043348
 20
36.43485751885568
 11
169.496921275189
 21
36.47280228997371
 72
     1
 10
169.496921275189
 20
36.47280228997371
 11
169.3768570709555
 21
36.53733212956858
 72
     1
 10
169.3768570709555
 20
36.53733212956858
 11
169.2727384988467
 21
36.60781187297363
 72
     1
 10
169.2727384988467
 20
36.60781187297363
 11
169.1894514104418
 21
36.67647551794381
 72
     1
 10
169.1894514104418
 20
36.67647551794381
 11
169.1173294851355
 21
36.74883793734485
 72
     1
 10
169.1173294851355
 20
36.74883793734485
 11
169.0538819172082
 21
36.82654144600173
 72
     1
 10
169.0538819172082
 20
36.82654144600173
 11
168.9966179009403
 21
36.91122835873944
 72
     1
 10
168.9966179009403
 20
36.91122835873944
 11
168.9430466306121
 21
37.00454099038299
 72
     1
 10
168.9430466306121
 20
37.00454099038299
 11
168.8906773005039
 21
37.10812165575732
 72
     1
 10
168.8906773005039
 20
37.10812165575732
 11
168.836505619997
 21
37.22742444161827
 72
     1
 10
168.836505619997
 20
37.22742444161827
 11
168.7844135449151
 21
37.36353572944269
 72
     1
 10
168.7844135449151
 20
37.36353572944269
 11
168.7525402409839
 21
37.46570111320462
 72
     1
 10
168.7525402409839
 20
37.46570111320462
 11
168.7241403207949
 21
37.57846664513256
 72
     1
 10
168.7241403207949
 20
37.57846664513256
 11
168.7002334302138
 21
37.70308420636606
 72
     1
 10
168.7002334302138
 20
37.70308420636606
 11
168.6818392151061
 21
37.84080567804467
 72
     1
 10
168.6818392151061
 20
37.84080567804467
 11
168.6699773213378
 21
37.99288294130795
 72
     1
 10
168.6699773213378
 20
37.99288294130795
 11
168.6656673947745
 21
38.16056787729547
 72
     1
 10
168.6656673947745
 20
38.16056787729547
 11
168.6712120570559
 21
38.32825281328298
 72
     1
 10
168.6712120570559
 20
38.32825281328298
 11
168.686472223093
 21
38.48033007654627
 72
     1
 10
168.686472223093
 20
38.48033007654627
 11
168.7101361322584
 21
38.61805154822488
 72
     1
 10
168.7101361322584
 20
38.61805154822488
 11
168.740892023925
 21
38.74266910945838
 72
     1
 10
168.740892023925
 20
38.74266910945838
 11
168.7774281374655
 21
38.8554346413863
 72
     1
 10
168.7774281374655
 20
38.8554346413863
 11
168.8184327122526
 21
38.95760002514824
 72
     1
 10
168.8184327122526
 20
38.95760002514824
 11
168.8854484628985
 21
39.09371131297266
 72
     1
 10
168.8854484628985
 20
39.09371131297266
 11
168.955139597821
 21
39.2130140988336
 72
     1
 10
168.955139597821
 20
39.2130140988336
 11
169.0225120333115
 21
39.31659476420789
 72
     1
 10
169.0225120333115
 20
39.31659476420789
 11
169.0914307486526
 21
39.4099073958514
 72
     1
 10
169.0914307486526
 20
39.4099073958514
 11
169.1651001317433
 21
39.4945943085891
 72
     1
 10
169.1651001317433
 20
39.4945943085891
 11
169.2467245704821
 21
39.57229781724597
 72
     1
 10
169.2467245704821
 20
39.57229781724597
 11
169.3395084527681
 21
39.64466023664699
 72
     1
 10
169.3395084527681
 20
39.64466023664699
 11
169.4466561664998
 21
39.71332388161716
 72
     1
 10
169.4466561664998
 20
39.71332388161716
 11
169.5336896386445
 21
39.76079451607121
 72
     1
 10
169.5336896386445
 20
39.76079451607121
 11
169.6297962819564
 21
39.80615163724154
 72
     1
 10
169.6297962819564
 20
39.80615163724154
 11
169.7350642787605
 21
39.84833347569219
 72
     1
 10
169.7350642787605
 20
39.84833347569219
 11
169.849581811382
 21
39.88627826198729
 72
     1
 10
169.849581811382
 20
39.88627826198729
 11
169.9734370621461
 21
39.91892422669089
 72
     1
 10
169.9734370621461
 20
39.91892422669089
 11
170.1067182133778
 21
39.94520960036712
 72
     1
 10
170.1067182133778
 20
39.94520960036712
 11
170.2495134474023
 21
39.96407261358002
 72
     1
 10
170.2495134474023
 20
39.96407261358002
 11
170.4019109465447
 21
39.97445149689372
 72
     1
 10
170.4019109465447
 20
39.97445149689372
 11
170.5639988931302
 21
39.97528448087226
 72
     1
 10
170.5639988931302
 20
39.97528448087226
 11
170.7940677015586
 21
39.96791705452002
 72
     1
 10
170.7940677015586
 20
39.96791705452002
 11
171.0248685653708
 21
39.94564911414763
 72
     1
 10
171.0248685653708
 20
39.94564911414763
 11
171.2549550680946
 21
39.90833871893881
 72
     1
 10
171.2549550680946
 20
39.90833871893881
 11
171.4828592819786
 21
39.8560316822272
 72
     1
 10
171.4828592819786
 20
39.8560316822272
 11
171.7071223381179
 21
39.78896457142685
 72
     1
 10
171.7071223381179
 20
39.78896457142685
 11
171.9263252902625
 21
39.70756173025599
 72
     1
 10
171.9263252902625
 20
39.70756173025599
 11
172.1391189154063
 21
39.6124263667062
 72
     1
 10
172.1391189154063
 20
39.6124263667062
 11
172.3442511450613
 21
39.50432609735185
 72
     1
 10
172.3442511450613
 20
39.50432609735185
 11
172.5405909692427
 21
39.38417365663604
 72
     1
 10
172.5405909692427
 20
39.38417365663604
 11
172.5405909692427
 21
40.41797801232769
 72
     1
 10
172.5405909692427
 20
40.41797801232769
 11
172.3015900069624
 21
40.52611532128243
 72
     1
 10
172.3015900069624
 20
40.52611532128243
 11
172.0564343849309
 21
40.6226451417334
 72
     1
 10
172.0564343849309
 20
40.6226451417334
 11
171.8059791867947
 21
40.70707201125296
 72
     1
 10
171.8059791867947
 20
40.70707201125296
 11
171.5511302914853
 21
40.7789856498396
 72
     1
 10
171.5511302914853
 20
40.7789856498396
 11
171.2928336083978
 21
40.83806719739523
 72
     1
 10
171.2928336083978
 20
40.83806719739523
 11
171.032063435777
 21
40.88409379760048
 72
     1
 10
171.032063435777
 20
40.88409379760048
 11
170.769810241229
 21
40.91694139294221
 72
     1
 10
170.769810241229
 20
40.91694139294221
 11
170.5070681849877
 21
40.93658565755333
 72
     1
 10
170.5070681849877
 20
40.93658565755333
 11
170.2448227139236
 21
40.94310105971638
 72
     1
 10
170.2448227139236
 20
40.94310105971638
 11
169.9860473983418
 21
40.94182396144203
 72
     1
 10
169.9860473983418
 20
40.94182396144203
 11
169.742742996224
 21
40.92591146575024
 72
     1
 10
169.742742996224
 20
40.92591146575024
 11
169.5147687234499
 21
40.89699143578041
 72
     1
 10
169.5147687234499
 20
40.89699143578041
 11
169.3019837958987
 21
40.85669173467197
 72
     1
 10
169.3019837958987
 20
40.85669173467197
 11
169.10424742945
 21
40.80664022556437
 72
     1
 10
169.10424742945
 20
40.80664022556437
 11
168.9214188399832
 21
40.748464771597
 72
     1
 10
168.9214188399832
 20
40.748464771597
 11
168.7533572433777
 21
40.68379323590929
 72
     1
 10
168.7533572433777
 20
40.68379323590929
 11
168.5999218555129
 21
40.6142534816407
 72
     1
 10
168.5999218555129
 20
40.6142534816407
 11
168.4609718922684
 21
40.54147337193057
 72
     1
 10
168.4609718922684
 20
40.54147337193057
 11
168.3441295306047
 21
40.4717975202572
 72
     1
 10
168.3441295306047
 20
40.4717975202572
 11
168.2382370831932
 21
40.39997433318328
 72
     1
 10
168.2382370831932
 20
40.39997433318328
 11
168.1417787446954
 21
40.32525775663572
 72
     1
 10
168.1417787446954
 20
40.32525775663572
 11
168.0532387097728
 21
40.24690173654134
 72
     1
 10
168.0532387097728
 20
40.24690173654134
 11
167.9711011730867
 21
40.16416021882696
 72
     1
 10
167.9711011730867
 20
40.16416021882696
 11
167.8938503292988
 21
40.07628714941943
 72
     1
 10
167.8938503292988
 20
40.07628714941943
 11
167.7838207886228
 21
39.93322389259848
 72
     1
 10
167.7838207886228
 20
39.93322389259848
 11
167.6762599019385
 21
39.77441809030643
 72
     1
 10
167.6762599019385
 20
39.77441809030643
 11
167.601959210119
 21
39.6550213233442
 72
     1
 10
167.601959210119
 20
39.6550213233442
 11
167.5285097454347
 21
39.52513083089987
 72
     1
 10
167.5285097454347
 20
39.52513083089987
 11
167.4580057491749
 21
39.38282727804717
 72
     1
 10
167.4580057491749
 20
39.38282727804717
 11
167.3925414626295
 21
39.22619132985976
 72
     1
 10
167.3925414626295
 20
39.22619132985976
 11
167.334211127088
 21
39.05330365141138
 72
     1
 10
167.334211127088
 20
39.05330365141138
 11
167.2851089838399
 21
38.8622449077757
 72
     1
 10
167.2851089838399
 20
38.8622449077757
 11
167.247329274175
 21
38.65109576402647
 72
     1
 10
167.247329274175
 20
38.65109576402647
 11
167.2229662393827
 21
38.41793688523737
 72
     1
 10
167.2229662393827
 20
38.41793688523737
 11
167.2141141207528
 21
38.16084893648212
 72
     1
 10
167.2141141207528
 20
38.16084893648212
 11
167.2141138140291
 21
38.16056786286189
 72
     1
 10
167.2141138140291
 20
38.16056786286189
 11
167.2141141207528
 21
38.1602868181087
 72
     1
 10
167.2141141207528
 20
38.1602868181087
 11
167.2229662393827
 21
37.90319886935345
 72
     1
 10
167.2229662393827
 20
37.90319886935345
 11
167.247329274175
 21
37.67003999056436
 72
     1
 10
167.247329274175
 20
37.67003999056436
 11
167.2851089838399
 21
37.45889084681512
 72
     1
 10
167.2851089838399
 20
37.45889084681512
 11
167.334211127088
 21
37.26783210317947
 72
     1
 10
167.334211127088
 20
37.26783210317947
 11
167.3925414626295
 21
37.09494442473109
 72
     1
 10
167.3925414626295
 20
37.09494442473109
 11
167.4580057491749
 21
36.9383084765437
 72
     1
 10
167.4580057491749
 20
36.9383084765437
 11
167.5285097454346
 21
36.796004923691
 72
     1
 10
167.5285097454346
 20
36.796004923691
 11
167.601959210119
 21
36.66611443124668
 72
     1
 10
167.601959210119
 20
36.66611443124668
 11
167.6762599019385
 21
36.54671766428446
 72
     1
 10
167.6762599019385
 20
36.54671766428446
 11
167.7838207886228
 21
36.38791186199242
 72
     1
 10
167.7838207886228
 20
36.38791186199242
 11
167.8938503292988
 21
36.24484860517147
 72
     1
 10
167.8938503292988
 20
36.24484860517147
 11
167.9711011730867
 21
36.15697553576395
 72
     1
 10
167.9711011730867
 20
36.15697553576395
 11
168.0532387097727
 21
36.07423401804957
 72
     1
 10
168.0532387097727
 20
36.07423401804957
 11
168.1417787446954
 21
35.99587799795518
 72
     1
 10
168.1417787446954
 20
35.99587799795518
 11
168.2382370831932
 21
35.9211614214076
 72
     1
 10
168.2382370831932
 20
35.9211614214076
 11
168.3441295306047
 21
35.84933823433372
 72
     1
 10
168.3441295306047
 20
35.84933823433372
 11
168.4609718922684
 21
35.77966238266035
 72
     1
 10
168.4609718922684
 20
35.77966238266035
 11
168.5999218555129
 21
35.70688227295025
 72
     1
 10
168.5999218555129
 20
35.70688227295025
 11
168.7533572433776
 21
35.63734251868161
 72
     1
 10
168.7533572433776
 20
35.63734251868161
 11
168.9214188399831
 21
35.57267098299393
 72
     1
 10
168.9214188399831
 20
35.57267098299393
 11
169.10424742945
 21
35.51449552902657
 72
     1
 10
169.10424742945
 20
35.51449552902657
 11
169.3019837958987
 21
35.46444401991895
 72
     1
 10
169.3019837958987
 20
35.46444401991895
 11
169.5147687234499
 21
35.42414431881054
 72
     1
 10
169.5147687234499
 20
35.42414431881054
 11
169.742742996224
 21
35.39522428884071
 72
     1
 10
169.742742996224
 20
35.39522428884071
 11
169.9860473983418
 21
35.37931179314892
 72
     1
 10
169.9860473983418
 20
35.37931179314892
 11
170.2448227139236
 21
35.37803469487456
 72
     1
 10
170.2448227139236
 20
35.37803469487456
 11
170.5290512572761
 21
35.38584952449677
 72
     1
 10
170.5290512572761
 20
35.38584952449677
 11
170.8139423257373
 21
35.40943858022688
 72
     1
 10
170.8139423257373
 20
35.40943858022688
 11
171.0981835120091
 21
35.4489119638496
 72
     1
 10
171.0981835120091
 20
35.4489119638496
 11
171.3804481219209
 21
35.50423387728592
 72
     1
 10
171.3804481219209
 20
35.50423387728592
 11
171.6594155003299
 21
35.57522091739236
 72
     1
 10
171.6594155003299
 20
35.57522091739236
 11
171.9337914998247
 21
35.66154377077486
 72
     1
 10
171.9337914998247
 20
35.66154377077486
 11
172.2023284311315
 21
35.76273229044097
 72
     1
 10
172.2023284311315
 20
35.76273229044097
 11
172.4638438523356
 21
35.87818379069809
 72
     1
 10
172.4638438523356
 20
35.87818379069809
 11
172.7172376075405
 21
36.00717426027418
 97
        0
 75
     0
 76
     1
 98
        0
  0
HATCH
  5
2C3
330
1F
100
AcDbEntity
  8
Standard
  6
Continuous
 62
   252
100
AcDbHatch
 10
0.0
 20
0.0
 30
0.0
210
0.0
220
0.0
230
1.0
  2
SOLID
 70
     1
 71
     0
 91
        1
 92
        1
 93
       81
 72
     1
 10
178.3239249654455
 20
39.14238211211093
 11
178.3183255861878
 21
39.29451473095851
 72
     1
 10
178.3183255861878
 20
39.29451473095851
 11
178.3029148266429
 21
39.43248724584884
 72
     1
 10
178.3029148266429
 20
39.43248724584884
 11
178.2790173924239
 21
39.55743542938495
 72
     1
 10
178.2790173924239
 20
39.55743542938495
 11
178.2479579891439
 21
39.67049505417
 72
     1
 10
178.2479579891439
 20
39.67049505417
 11
178.2110613224162
 21
39.77280189280702
 72
     1
 10
178.2110613224162
 20
39.77280189280702
 11
178.1696520978538
 21
39.86549171789918
 72
     1
 10
178.1696520978538
 20
39.86549171789918
 11
178.1019750085993
 21
39.98897905770999
 72
     1
 10
178.1019750085993
 20
39.98897905770999
 11
178.031596133291
 21
40.09721683793724
 72
     1
 10
178.031596133291
 20
40.09721683793724
 11
177.9635588392812
 21
40.19119068116036
 72
     1
 10
177.9635588392812
 20
40.19119068116036
 11
177.893960006104
 21
40.27584882257234
 72
     1
 10
177.893960006104
 20
40.27584882257234
 11
177.8195636236611
 21
40.35268125680999
 72
     1
 10
177.8195636236611
 20
40.35268125680999
 11
177.7371336818543
 21
40.42317797851011
 72
     1
 10
177.7371336818543
 20
40.42317797851011
 11
177.6434341705854
 21
40.48882898230956
 72
     1
 10
177.6434341705854
 20
40.48882898230956
 11
177.535229079756
 21
40.55112426284511
 72
     1
 10
177.535229079756
 20
40.55112426284511
 11
177.3999600990802
 21
40.61506720493097
 72
     1
 10
177.3999600990802
 20
40.61506720493097
 11
177.2439748392668
 21
40.67361208797514
 72
     1
 10
177.2439748392668
 20
40.67361208797514
 11
177.1283272011856
 21
40.70803759958527
 72
     1
 10
177.1283272011856
 20
40.70803759958527
 11
177.003249696572
 21
40.73765574074933
 72
     1
 10
177.003249696572
 20
40.73765574074933
 11
176.8686532728818
 21
40.76150321822963
 72
     1
 10
176.8686532728818
 20
40.76150321822963
 11
176.724448877571
 21
40.77861673878849
 72
     1
 10
176.724448877571
 20
40.77861673878849
 11
176.5705474580954
 21
40.78803300918823
 72
     1
 10
176.5705474580954
 20
40.78803300918823
 11
176.4068599619111
 21
40.78878873619118
 72
     1
 10
176.4068599619111
 20
40.78878873619118
 11
173.8577386713705
 21
40.7887887361912
 72
     1
 10
173.8577386713705
 20
40.7887887361912
 11
173.8577386713705
 21
35.53234701839971
 72
     1
 10
173.8577386713705
 20
35.53234701839971
 11
175.2534567564767
 21
35.5323470183997
 72
     1
 10
175.2534567564767
 20
35.5323470183997
 11
175.2534567564767
 21
39.78397004924694
 72
     1
 10
175.2534567564767
 20
39.78397004924694
 11
176.1576246130663
 21
39.78397004924695
 72
     1
 10
176.1576246130663
 20
39.78397004924695
 11
176.2589290341562
 21
39.78171486896078
 72
     1
 10
176.2589290341562
 20
39.78171486896078
 11
176.3510526174439
 21
39.77011577462304
 72
     1
 10
176.3510526174439
 20
39.77011577462304
 11
176.4341212530998
 21
39.75082352601168
 72
     1
 10
176.4341212530998
 20
39.75082352601168
 11
176.5082608312942
 21
39.72548888290466
 72
     1
 10
176.5082608312942
 20
39.72548888290466
 11
176.5735972421976
 21
39.69576260507992
 72
     1
 10
176.5735972421976
 20
39.69576260507992
 11
176.6302563759805
 21
39.66329545231538
 72
     1
 10
176.6302563759805
 20
39.66329545231538
 11
176.6892700245421
 21
39.62078010791478
 72
     1
 10
176.6892700245421
 20
39.62078010791478
 11
176.7382853941597
 21
39.57478732787796
 72
     1
 10
176.7382853941597
 20
39.57478732787796
 11
176.7805153891441
 21
39.52352381403737
 72
     1
 10
176.7805153891441
 20
39.52352381403737
 11
176.809667746029
 21
39.48053847866927
 72
     1
 10
176.809667746029
 20
39.48053847866927
 11
176.8381660323639
 21
39.43282307765289
 72
     1
 10
176.8381660323639
 20
39.43282307765289
 11
176.867645119821
 21
39.37786513497936
 72
     1
 10
176.867645119821
 20
39.37786513497936
 11
176.8959925298107
 21
39.31516419887387
 72
     1
 10
176.8959925298107
 20
39.31516419887387
 11
176.9213355767503
 21
39.24277393808777
 72
     1
 10
176.9213355767503
 20
39.24277393808777
 11
176.9418015750573
 21
39.15874802137247
 72
     1
 10
176.9418015750573
 20
39.15874802137247
 11
176.9555178391489
 21
39.06114011747932
 72
     1
 10
176.9555178391489
 20
39.06114011747932
 11
176.9606116834426
 21
38.94800389515972
 72
     1
 10
176.9606116834426
 20
38.94800389515972
 11
176.9555178391489
 21
38.83486767284018
 72
     1
 10
176.9555178391489
 20
38.83486767284018
 11
176.9418015750573
 21
38.7372597689471
 72
     1
 10
176.9418015750573
 20
38.7372597689471
 11
176.9213355767503
 21
38.65323385223184
 72
     1
 10
176.9213355767503
 20
38.65323385223184
 11
176.8959925298107
 21
38.58084359144576
 72
     1
 10
176.8959925298107
 20
38.58084359144576
 11
176.867645119821
 21
38.51814265534028
 72
     1
 10
176.867645119821
 20
38.51814265534028
 11
176.8381660323639
 21
38.46318471266676
 72
     1
 10
176.8381660323639
 20
38.46318471266676
 11
176.8000899037461
 21
38.40065266405635
 72
     1
 10
176.8000899037461
 20
38.40065266405635
 11
176.7600477569616
 21
38.34608129650103
 72
     1
 10
176.7600477569616
 20
38.34608129650103
 11
176.7148266876995
 21
38.29767731183325
 72
     1
 10
176.7148266876995
 20
38.29767731183325
 11
176.6755794551274
 21
38.26434288742347
 72
     1
 10
176.6755794551274
 20
38.26434288742347
 11
176.6302563759805
 21
38.23271233800426
 72
     1
 10
176.6302563759805
 20
38.23271233800426
 11
176.5807801808744
 21
38.20399108997234
 72
     1
 10
176.5807801808744
 20
38.20399108997234
 11
176.5245776008662
 21
38.17724587688336
 72
     1
 10
176.5245776008662
 20
38.17724587688336
 11
176.4615624943485
 21
38.15360624761472
 72
     1
 10
176.4615624943485
 20
38.15360624761472
 11
176.3916487197139
 21
38.1342017510439
 72
     1
 10
176.3916487197139
 20
38.1342017510439
 11
176.3147501353551
 21
38.1201619360483
 72
     1
 10
176.3147501353551
 20
38.1201619360483
 11
176.2307805996647
 21
38.1126163515054
 72
     1
 10
176.2307805996647
 20
38.1126163515054
 11
175.4289184586045
 21
38.11261635147373
 72
     1
 10
175.4289184586045
 20
38.11261635147373
 11
177.3589971820088
 21
35.5323470183997
 72
     1
 10
177.3589971820088
 20
35.5323470183997
 11
179.0897132710516
 21
35.5323470183997
 72
     1
 10
179.0897132710516
 20
35.5323470183997
 11
177.3293117683367
 21
37.64133527362854
 72
     1
 10
177.3293117683367
 20
37.64133527362854
 11
177.4378413884242
 21
37.68626314565116
 72
     1
 10
177.4378413884242
 20
37.68626314565116
 11
177.535229079756
 21
37.73363996137686
 72
     1
 10
177.535229079756
 20
37.73363996137686
 11
177.6434341705854
 21
37.79593524191246
 72
     1
 10
177.6434341705854
 20
37.79593524191246
 11
177.7371336818544
 21
37.86158624571191
 72
     1
 10
177.7371336818544
 20
37.86158624571191
 11
177.8195636236612
 21
37.93208296741202
 72
     1
 10
177.8195636236612
 20
37.93208296741202
 11
177.893960006104
 21
38.00891540164967
 72
     1
 10
177.893960006104
 20
38.00891540164967
 11
177.9635588392812
 21
38.09357354306162
 72
     1
 10
177.9635588392812
 20
38.09357354306162
 11
178.031596133291
 21
38.18754738628473
 72
     1
 10
178.031596133291
 20
38.18754738628473
 11
178.1019750085993
 21
38.29578516651197
 72
     1
 10
178.1019750085993
 20
38.29578516651197
 11
178.1696520978538
 21
38.41927250632281
 72
     1
 10
178.1696520978538
 20
38.41927250632281
 11
178.2110613224162
 21
38.51196233141494
 72
     1
 10
178.2110613224162
 20
38.51196233141494
 11
178.2479579891439
 21
38.61426917005198
 72
     1
 10
178.2479579891439
 20
38.61426917005198
 11
178.2790173924239
 21
38.727328794837
 72
     1
 10
178.2790173924239
 20
38.727328794837
 11
178.3029148266429
 21
38.8522769783731
 72
     1
 10
178.3029148266429
 20
38.8522769783731
 11
178.3183255861878
 21
38.99024949326337
 72
     1
 10
178.3183255861878
 20
38.99024949326337
 11
178.3239249654455
 21
39.14238211211093
 97
        0
 75
     0
 76
     1
 98
        0
  0
HATCH
  5
2C4
330
1F
100
AcDbEntity
  8
Standard
  6
Continuous
 62
   252
100
AcDbHatch
 10
0.0
 20
0.0
 30
0.0
210
0.0
220
0.0
230
1.0
  2
SOLID
 70
     1
 71
     0
 91
        2
 92
        1
 93
        4
 72
     2
 10
182.4154915065637
 20
38.84820993797686
 40
3.546040280182366
 50
230.1970191603569
 51
309.8029746803541
 73
     1
 72
     2
 10
182.9869162298897
 20
38.16243781293264
 40
2.653398346417479
 50
309.8029728303363
 51
410.5588426068978
 73
     1
 72
     2
 10
182.4164995693563
 20
37.53020458050485
 40
3.504250792424207
 50
49.92326879874655
 51
130.3963479626625
 73
     1
 72
     2
 10
181.8793224024342
 20
38.16146713411548
 40
2.67536496177354
 50
130.3963479626626
 51
229.6036520373374
 73
     1
 97
        0
 92
        1
 93
        8
 72
     2
 10
182.7188850629272
 20
38.16282151090785
 40
2.101293158218851
 50
143.9338781609766
 51
217.0345979970568
 73
     1
 72
     2
 10
181.8964309250819
 20
37.54227885885737
 40
1.070999999999976
 50
217.0345979970573
 51
240.1494482366618
 73
     1
 72
     2
 10
182.4148919479661
 20
38.44571359377819
 40
2.112631485944757
 50
240.1494482366606
 51
298.6550551869541
 73
     1
 72
     2
 10
182.91439100011
 20
37.5316584261768
 40
1.071000000000003
 50
298.6550551869533
 51
326.0793919107382
 73
     1
 72
     2
 10
181.973764256272
 20
38.16422457804732
 40
2.20454250370927
 50
326.0793919107389
 51
392.9337797450882
 73
     1
 72
     2
 10
182.9251458907381
 20
38.78049691501871
 40
1.070999999999999
 50
32.93377974508775
 51
59.70433099434491
 73
     1
 72
     2
 10
182.4148919479661
 20
37.90715040035985
 40
2.08248070707313
 50
59.70433099434629
 51
121.5222523772517
 73
     1
 72
     2
 10
181.8860598223169
 20
38.76937415534602
 40
1.07100000000001
 50
121.5222523772514
 51
143.9338781609769
 73
     1
 97
        0
 75
     0
 76
     1
 98
        0
  0
ARC
  5
2C5
330
1F
100
AcDbEntity
  8
Standard
  6
Continuous
 62
     7
100
AcDbCircle
 10
182.4154915066
 20
38.848209938
 30
0.0
 40
3.546040280182366
100
AcDbArc
 50
230.1970191604
 51
309.8029746804
  0
ARC
  5
2C6
330
1F
100
AcDbEntity
  8
Standard
  6
Continuous
 62
     7
100
AcDbCircle
 10
182.9869162299
 20
38.1624378129
 30
0.0
 40
2.653398346417479
100
AcDbArc
 50
309.8029728303
 51
50.5588426069
  0
ARC
  5
2C7
330
1F
100
AcDbEntity
  8
Standard
  6
Continuous
 62
     7
100
AcDbCircle
 10
182.4164995694
 20
37.5302045805
 30
0.0
 40
3.504250792424207
100
AcDbArc
 50
49.9232687987
 51
130.3963479627
  0
ARC
  5
2C8
330
1F
100
AcDbEntity
  8
Standard
  6
Continuous
 62
     7
100
AcDbCircle
 10
181.8793224024
 20
38.1614671341
 30
0.0
 40
2.67536496177354
100
AcDbArc
 50
130.3963479627
 51
229.6036520373
  0
ARC
  5
2C9
330
1F
100
AcDbEntity
  8
Standard
  6
Continuous
 62
     7
100
AcDbCircle
 10
182.7188850629
 20
38.1628215109
 30
0.0
 40
2.101293158218851
100
AcDbArc
 50
143.933878161
 51
217.0345979971
  0
ARC
  5
2CA
330
1F
100
AcDbEntity
  8
Standard
  6
Continuous
 62
     7
100
AcDbCircle
 10
181.8964309251
 20
37.5422788589
 30
0.0
 40
1.070999999999976
100
AcDbArc
 50
217.0345979971
 51
240.1494482367
  0
ARC
  5
2CB
330
1F
100
AcDbEntity
  8
Standard
  6
Continuous
 62
     7
100
AcDbCircle
 10
182.414891948
 20
38.4457135938
 30
0.0
 40
2.112631485944757
100
AcDbArc
 50
240.1494482367
 51
298.655055187
  0
ARC
  5
2CC
330
1F
100
AcDbEntity
  8
Standard
  6
Continuous
 62
     7
100
AcDbCircle
 10
182.9143910001
 20
37.5316584262
 30
0.0
 40
1.071000000000003
100
AcDbArc
 50
298.655055187
 51
326.0793919107
  0
ARC
  5
2CD
330
1F
100
AcDbEntity
  8
Standard
  6
Continuous
 62
     7
100
AcDbCircle
 10
181.9737642563
 20
38.164224578
 30
0.0
 40
2.20454250370927
100
AcDbArc
 50
326.0793919107
 51
32.9337797451
  0
ARC
  5
2CE
330
1F
100
AcDbEntity
  8
Standard
  6
Continuous
 62
     7
100
AcDbCircle
 10
182.9251458907
 20
38.780496915
 30
0.0
 40
1.070999999999999
100
AcDbArc
 50
32.9337797451
 51
59.7043309943
  0
ARC
  5
2CF
330
1F
100
AcDbEntity
  8
Standard
  6
Continuous
 62
     7
100
AcDbCircle
 10
182.414891948
 20
37.9071504004
 30
0.0
 40
2.08248070707313
100
AcDbArc
 50
59.7043309943
 51
121.5222523773
  0
ARC
  5
2D0
330
1F
100
AcDbEntity
  8
Standard
  6
Continuous
 62
     7
100
AcDbCircle
 10
181.8860598223
 20
38.7693741553
 30
0.0
 40
1.07100000000001
100
AcDbArc
 50
121.5222523773
 51
143.933878161
  0
SPLINE
  5
2D1
330
1F
100
AcDbEntity
  8
Standard
  6
Continuous
 62
     7
100
AcDbSpline
210
0.0
220
0.0
230
1.0
 70
    11
 71
     1
 72
   142
 73
   140
 74
     0
 42
0.0000000003407341
 43
0.0000000001
 40
0.0
 40
0.0
 40
0.0071942446043165
 40
0.0143884892086331
 40
0.0215827338129496
 40
0.0287769784172662
 40
0.0359712230215827
 40
0.0431654676258993
 40
0.0503597122302158
 40
0.0575539568345324
 40
0.0647482014388489
 40
0.0719424460431655
 40
0.079136690647482
 40
0.0863309352517986
 40
0.0935251798561151
 40
0.1007194244604317
 40
0.1079136690647482
 40
0.1151079136690648
 40
0.1223021582733813
 40
0.1294964028776978
 40
0.1366906474820144
 40
0.1438848920863309
 40
0.1510791366906475
 40
0.158273381294964
 40
0.1654676258992806
 40
0.1726618705035971
 40
0.1798561151079137
 40
0.1870503597122302
 40
0.1942446043165468
 40
0.2014388489208633
 40
0.2086330935251799
 40
0.2158273381294964
 40
0.223021582733813
 40
0.2302158273381295
 40
0.2374100719424461
 40
0.2446043165467626
 40
0.2517985611510791
 40
0.2589928057553957
 40
0.2661870503597122
 40
0.2733812949640288
 40
0.2805755395683454
 40
0.2877697841726619
 40
0.2949640287769784
 40
0.302158273381295
 40
0.3093525179856115
 40
0.3165467625899281
 40
0.3237410071942446
 40
0.3309352517985611
 40
0.3381294964028777
 40
0.3453237410071943
 40
0.3525179856115108
 40
0.3597122302158274
 40
0.3669064748201439
 40
0.3741007194244604
 40
0.381294964028777
 40
0.3884892086330936
 40
0.3956834532374101
 40
0.4028776978417267
 40
0.4100719424460432
 40
0.4172661870503597
 40
0.4244604316546763
 40
0.4316546762589928
 40
0.4388489208633094
 40
0.4460431654676259
 40
0.4532374100719425
 40
0.460431654676259
 40
0.4676258992805756
 40
0.4748201438848921
 40
0.4820143884892086
 40
0.4892086330935252
 40
0.4964028776978417
 40
0.5035971223021583
 40
0.5107913669064749
 40
0.5179856115107914
 40
0.525179856115108
 40
0.5323741007194245
 40
0.539568345323741
 40
0.5467625899280576
 40
0.5539568345323741
 40
0.5611510791366907
 40
0.5683453237410072
 40
0.5755395683453237
 40
0.5827338129496403
 40
0.5899280575539568
 40
0.5971223021582734
 40
0.60431654676259
 40
0.6115107913669066
 40
0.6187050359712231
 40
0.6258992805755396
 40
0.6330935251798562
 40
0.6402877697841727
 40
0.6474820143884893
 40
0.6546762589928058
 40
0.6618705035971223
 40
0.6690647482014389
 40
0.6762589928057554
 40
0.683453237410072
 40
0.6906474820143885
 40
0.697841726618705
 40
0.7050359712230216
 40
0.7122302158273381
 40
0.7194244604316548
 40
0.7266187050359713
 40
0.7338129496402878
 40
0.7410071942446044
 40
0.7482014388489209
 40
0.7553956834532375
 40
0.762589928057554
 40
0.7697841726618705
 40
0.7769784172661871
 40
0.7841726618705036
 40
0.7913669064748202
 40
0.7985611510791367
 40
0.8057553956834533
 40
0.8129496402877698
 40
0.8201438848920863
 40
0.827338129496403
 40
0.8345323741007195
 40
0.8417266187050361
 40
0.8489208633093526
 40
0.8561151079136691
 40
0.8633093525179857
 40
0.8705035971223022
 40
0.8776978417266188
 40
0.8848920863309353
 40
0.8920863309352518
 40
0.8992805755395684
 40
0.9064748201438849
 40
0.9136690647482015
 40
0.920863309352518
 40
0.9280575539568345
 40
0.9352517985611511
 40
0.9424460431654677
 40
0.9496402877697843
 40
0.9568345323741008
 40
0.9640287769784173
 40
0.9712230215827339
 40
0.9784172661870504
 40
0.985611510791367
 40
0.9928057553956835
 40
1.0
 40
1.0
 10
172.7172376075405
 20
36.00717426027418
 30
0.0
 10
172.7172376075405
 20
38.16056787729543
 30
0.0
 10
171.3135439905194
 20
38.16056787729543
 30
0.0
 10
171.3135439905194
 20
36.61701935882525
 30
0.0
 10
171.1917076643315
 20
36.5611499033753
 30
0.0
 10
171.0666502755375
 20
36.51126995692736
 30
0.0
 10
170.9388185719342
 20
36.46764219434532
 30
0.0
 10
170.8086865832739
 20
36.43048421156423
 30
0.0
 10
170.6767498485449
 20
36.39996513139732
 30
0.0
 10
170.5435191598414
 20
36.37620310823803
 30
0.0
 10
170.4095139875734
 20
36.35926380720596
 30
0.0
 10
170.2752557640552
 20
36.34915989868774
 30
0.0
 10
170.141261206663
 20
36.34585157274731
 30
0.0
 10
170.0152684750314
 20
36.34668446771455
 30
0.0
 10
169.8968082340686
 20
36.35706328170605
 30
0.0
 10
169.7858119386887
 20
36.37592624282478
 30
0.0
 10
169.6822110438061
 20
36.40221157917369
 30
0.0
 10
169.5859370043348
 20
36.43485751885568
 30
0.0
 10
169.496921275189
 20
36.47280228997371
 30
0.0
 10
169.3768570709555
 20
36.53733212956858
 30
0.0
 10
169.2727384988467
 20
36.60781187297363
 30
0.0
 10
169.1894514104418
 20
36.67647551794381
 30
0.0
 10
169.1173294851355
 20
36.74883793734485
 30
0.0
 10
169.0538819172082
 20
36.82654144600173
 30
0.0
 10
168.9966179009403
 20
36.91122835873944
 30
0.0
 10
168.9430466306121
 20
37.00454099038299
 30
0.0
 10
168.8906773005039
 20
37.10812165575732
 30
0.0
 10
168.836505619997
 20
37.22742444161827
 30
0.0
 10
168.7844135449151
 20
37.36353572944269
 30
0.0
 10
168.7525402409839
 20
37.46570111320462
 30
0.0
 10
168.7241403207949
 20
37.57846664513256
 30
0.0
 10
168.7002334302138
 20
37.70308420636606
 30
0.0
 10
168.6818392151061
 20
37.84080567804467
 30
0.0
 10
168.6699773213378
 20
37.99288294130795
 30
0.0
 10
168.6656673947745
 20
38.16056787729547
 30
0.0
 10
168.6712120570559
 20
38.32825281328298
 30
0.0
 10
168.686472223093
 20
38.48033007654627
 30
0.0
 10
168.7101361322584
 20
38.61805154822488
 30
0.0
 10
168.740892023925
 20
38.74266910945838
 30
0.0
 10
168.7774281374655
 20
38.8554346413863
 30
0.0
 10
168.8184327122526
 20
38.95760002514824
 30
0.0
 10
168.8854484628985
 20
39.09371131297266
 30
0.0
 10
168.955139597821
 20
39.2130140988336
 30
0.0
 10
169.0225120333115
 20
39.31659476420789
 30
0.0
 10
169.0914307486526
 20
39.4099073958514
 30
0.0
 10
169.1651001317433
 20
39.4945943085891
 30
0.0
 10
169.2467245704821
 20
39.57229781724597
 30
0.0
 10
169.3395084527681
 20
39.64466023664699
 30
0.0
 10
169.4466561664998
 20
39.71332388161716
 30
0.0
 10
169.5336896386445
 20
39.76079451607121
 30
0.0
 10
169.6297962819564
 20
39.80615163724154
 30
0.0
 10
169.7350642787605
 20
39.84833347569219
 30
0.0
 10
169.849581811382
 20
39.88627826198729
 30
0.0
 10
169.9734370621461
 20
39.91892422669089
 30
0.0
 10
170.1067182133778
 20
39.94520960036712
 30
0.0
 10
170.2495134474023
 20
39.96407261358002
 30
0.0
 10
170.4019109465447
 20
39.97445149689372
 30
0.0
 10
170.5639988931302
 20
39.97528448087226
 30
0.0
 10
170.7940677015586
 20
39.96791705452002
 30
0.0
 10
171.0248685653708
 20
39.94564911414763
 30
0.0
 10
171.2549550680946
 20
39.90833871893881
 30
0.0
 10
171.4828592819786
 20
39.8560316822272
 30
0.0
 10
171.7071223381179
 20
39.78896457142685
 30
0.0
 10
171.9263252902625
 20
39.70756173025599
 30
0.0
 10
172.1391189154063
 20
39.6124263667062
 30
0.0
 10
172.3442511450613
 20
39.50432609735185
 30
0.0
 10
172.5405909692427
 20
39.38417365663604
 30
0.0
 10
172.5405909692427
 20
40.41797801232769
 30
0.0
 10
172.3015900069624
 20
40.52611532128243
 30
0.0
 10
172.0564343849309
 20
40.6226451417334
 30
0.0
 10
171.8059791867947
 20
40.70707201125296
 30
0.0
 10
171.5511302914853
 20
40.7789856498396
 30
0.0
 10
171.2928336083978
 20
40.83806719739523
 30
0.0
 10
171.032063435777
 20
40.88409379760048
 30
0.0
 10
170.769810241229
 20
40.91694139294221
 30
0.0
 10
170.5070681849877
 20
40.93658565755333
 30
0.0
 10
170.2448227139236
 20
40.94310105971638
 30
0.0
 10
169.9860473983418
 20
40.94182396144203
 30
0.0
 10
169.742742996224
 20
40.92591146575024
 30
0.0
 10
169.5147687234499
 20
40.89699143578041
 30
0.0
 10
169.3019837958987
 20
40.85669173467197
 30
0.0
 10
169.10424742945
 20
40.80664022556437
 30
0.0
 10
168.9214188399832
 20
40.748464771597
 30
0.0
 10
168.7533572433777
 20
40.68379323590929
 30
0.0
 10
168.5999218555129
 20
40.6142534816407
 30
0.0
 10
168.4609718922684
 20
40.54147337193057
 30
0.0
 10
168.3441295306047
 20
40.4717975202572
 30
0.0
 10
168.2382370831932
 20
40.39997433318328
 30
0.0
 10
168.1417787446954
 20
40.32525775663572
 30
0.0
 10
168.0532387097728
 20
40.24690173654134
 30
0.0
 10
167.9711011730867
 20
40.16416021882696
 30
0.0
 10
167.8938503292988
 20
40.07628714941943
 30
0.0
 10
167.7838207886228
 20
39.93322389259848
 30
0.0
 10
167.6762599019385
 20
39.77441809030643
 30
0.0
 10
167.601959210119
 20
39.6550213233442
 30
0.0
 10
167.5285097454347
 20
39.52513083089987
 30
0.0
 10
167.4580057491749
 20
39.38282727804717
 30
0.0
 10
167.3925414626295
 20
39.22619132985976
 30
0.0
 10
167.334211127088
 20
39.05330365141138
 30
0.0
 10
167.2851089838399
 20
38.8622449077757
 30
0.0
 10
167.247329274175
 20
38.65109576402647
 30
0.0
 10
167.2229662393827
 20
38.41793688523737
 30
0.0
 10
167.2141141207528
 20
38.16084893648212
 30
0.0
 10
167.2141138140291
 20
38.16056786286189
 30
0.0
 10
167.2141141207528
 20
38.1602868181087
 30
0.0
 10
167.2229662393827
 20
37.90319886935345
 30
0.0
 10
167.247329274175
 20
37.67003999056436
 30
0.0
 10
167.2851089838399
 20
37.45889084681512
 30
0.0
 10
167.334211127088
 20
37.26783210317947
 30
0.0
 10
167.3925414626295
 20
37.09494442473109
 30
0.0
 10
167.4580057491749
 20
36.9383084765437
 30
0.0
 10
167.5285097454346
 20
36.796004923691
 30
0.0
 10
167.601959210119
 20
36.66611443124668
 30
0.0
 10
167.6762599019385
 20
36.54671766428446
 30
0.0
 10
167.7838207886228
 20
36.38791186199242
 30
0.0
 10
167.8938503292988
 20
36.24484860517147
 30
0.0
 10
167.9711011730867
 20
36.15697553576395
 30
0.0
 10
168.0532387097727
 20
36.07423401804957
 30
0.0
 10
168.1417787446954
 20
35.99587799795518
 30
0.0
 10
168.2382370831932
 20
35.9211614214076
 30
0.0
 10
168.3441295306047
 20
35.84933823433372
 30
0.0
 10
168.4609718922684
 20
35.77966238266035
 30
0.0
 10
168.5999218555129
 20
35.70688227295025
 30
0.0
 10
168.7533572433776
 20
35.63734251868161
 30
0.0
 10
168.9214188399831
 20
35.57267098299393
 30
0.0
 10
169.10424742945
 20
35.51449552902657
 30
0.0
 10
169.3019837958987
 20
35.46444401991895
 30
0.0
 10
169.5147687234499
 20
35.42414431881054
 30
0.0
 10
169.742742996224
 20
35.39522428884071
 30
0.0
 10
169.9860473983418
 20
35.37931179314892
 30
0.0
 10
170.2448227139236
 20
35.37803469487456
 30
0.0
 10
170.5290512572761
 20
35.38584952449677
 30
0.0
 10
170.8139423257373
 20
35.40943858022688
 30
0.0
 10
171.0981835120091
 20
35.4489119638496
 30
0.0
 10
171.3804481219209
 20
35.50423387728592
 30
0.0
 10
171.6594155003299
 20
35.57522091739236
 30
0.0
 10
171.9337914998247
 20
35.66154377077486
 30
0.0
 10
172.2023284311315
 20
35.76273229044097
 30
0.0
 10
172.4638438523356
 20
35.87818379069809
 30
0.0
 10
172.7172376075405
 20
36.00717426027418
 30
0.0
  0
SPLINE
  5
2D2
330
1F
100
AcDbEntity
  8
Standard
  6
Continuous
 62
     7
100
AcDbSpline
210
0.0
220
0.0
230
1.0
 70
    11
 71
     1
 72
    84
 73
    82
 74
     0
 42
0.0000000003311379
 43
0.0000000001
 40
0.0
 40
0.0
 40
0.0123456790123457
 40
0.0246913580246914
 40
0.037037037037037
 40
0.0493827160493827
 40
0.0617283950617284
 40
0.0740740740740741
 40
0.0864197530864197
 40
0.0987654320987654
 40
0.1111111111111111
 40
0.1234567901234568
 40
0.1358024691358025
 40
0.1481481481481481
 40
0.1604938271604938
 40
0.1728395061728395
 40
0.1851851851851852
 40
0.1975308641975309
 40
0.2098765432098765
 40
0.2222222222222222
 40
0.2345679012345679
 40
0.2469135802469136
 40
0.2592592592592592
 40
0.2716049382716049
 40
0.2839506172839506
 40
0.2962962962962963
 40
0.308641975308642
 40
0.3209876543209876
 40
0.3333333333333333
 40
0.345679012345679
 40
0.3580246913580247
 40
0.3703703703703703
 40
0.382716049382716
 40
0.3950617283950617
 40
0.4074074074074074
 40
0.4197530864197531
 40
0.4320987654320987
 40
0.4444444444444444
 40
0.4567901234567901
 40
0.4691358024691358
 40
0.4814814814814815
 40
0.4938271604938271
 40
0.5061728395061729
 40
0.5185185185185185
 40
0.5308641975308641
 40
0.5432098765432098
 40
0.5555555555555556
 40
0.5679012345679012
 40
0.5802469135802468
 40
0.5925925925925926
 40
0.6049382716049383
 40
0.6172839506172839
 40
0.6296296296296295
 40
0.6419753086419753
 40
0.654320987654321
 40
0.6666666666666666
 40
0.6790123456790123
 40
0.691358024691358
 40
0.7037037037037037
 40
0.7160493827160493
 40
0.728395061728395
 40
0.7407407407407407
 40
0.7530864197530864
 40
0.7654320987654321
 40
0.7777777777777777
 40
0.7901234567901234
 40
0.8024691358024691
 40
0.8148148148148148
 40
0.8271604938271604
 40
0.8395061728395061
 40
0.8518518518518519
 40
0.8641975308641975
 40
0.8765432098765431
 40
0.8888888888888888
 40
0.9012345679012346
 40
0.9135802469135802
 40
0.9259259259259258
 40
0.9382716049382716
 40
0.9506172839506173
 40
0.9629629629629629
 40
0.9753086419753085
 40
0.9876543209876543
 40
1.0
 40
1.0
 10
178.3239249654455
 20
39.14238211211093
 30
0.0
 10
178.3183255861878
 20
39.29451473095851
 30
0.0
 10
178.3029148266429
 20
39.43248724584884
 30
0.0
 10
178.2790173924239
 20
39.55743542938495
 30
0.0
 10
178.2479579891439
 20
39.67049505417
 30
0.0
 10
178.2110613224162
 20
39.77280189280702
 30
0.0
 10
178.1696520978538
 20
39.86549171789918
 30
0.0
 10
178.1019750085993
 20
39.98897905770999
 30
0.0
 10
178.031596133291
 20
40.09721683793724
 30
0.0
 10
177.9635588392812
 20
40.19119068116036
 30
0.0
 10
177.893960006104
 20
40.27584882257234
 30
0.0
 10
177.8195636236611
 20
40.35268125680999
 30
0.0
 10
177.7371336818543
 20
40.42317797851011
 30
0.0
 10
177.6434341705854
 20
40.48882898230956
 30
0.0
 10
177.535229079756
 20
40.55112426284511
 30
0.0
 10
177.3999600990802
 20
40.61506720493097
 30
0.0
 10
177.2439748392668
 20
40.67361208797514
 30
0.0
 10
177.1283272011856
 20
40.70803759958527
 30
0.0
 10
177.003249696572
 20
40.73765574074933
 30
0.0
 10
176.8686532728818
 20
40.76150321822963
 30
0.0
 10
176.724448877571
 20
40.77861673878849
 30
0.0
 10
176.5705474580954
 20
40.78803300918823
 30
0.0
 10
176.4068599619111
 20
40.78878873619118
 30
0.0
 10
173.8577386713705
 20
40.7887887361912
 30
0.0
 10
173.8577386713705
 20
35.53234701839971
 30
0.0
 10
175.2534567564767
 20
35.5323470183997
 30
0.0
 10
175.2534567564767
 20
39.78397004924694
 30
0.0
 10
176.1576246130663
 20
39.78397004924695
 30
0.0
 10
176.2589290341562
 20
39.78171486896078
 30
0.0
 10
176.3510526174439
 20
39.77011577462304
 30
0.0
 10
176.4341212530998
 20
39.75082352601168
 30
0.0
 10
176.5082608312942
 20
39.72548888290466
 30
0.0
 10
176.5735972421976
 20
39.69576260507992
 30
0.0
 10
176.6302563759805
 20
39.66329545231538
 30
0.0
 10
176.6892700245421
 20
39.62078010791478
 30
0.0
 10
176.7382853941597
 20
39.57478732787796
 30
0.0
 10
176.7805153891441
 20
39.52352381403737
 30
0.0
 10
176.809667746029
 20
39.48053847866927
 30
0.0
 10
176.8381660323639
 20
39.43282307765289
 30
0.0
 10
176.867645119821
 20
39.37786513497936
 30
0.0
 10
176.8959925298107
 20
39.31516419887387
 30
0.0
 10
176.9213355767503
 20
39.24277393808777
 30
0.0
 10
176.9418015750573
 20
39.15874802137247
 30
0.0
 10
176.9555178391489
 20
39.06114011747932
 30
0.0
 10
176.9606116834426
 20
38.94800389515972
 30
0.0
 10
176.9555178391489
 20
38.83486767284018
 30
0.0
 10
176.9418015750573
 20
38.7372597689471
 30
0.0
 10
176.9213355767503
 20
38.65323385223184
 30
0.0
 10
176.8959925298107
 20
38.58084359144576
 30
0.0
 10
176.867645119821
 20
38.51814265534028
 30
0.0
 10
176.8381660323639
 20
38.46318471266676
 30
0.0
 10
176.8000899037461
 20
38.40065266405635
 30
0.0
 10
176.7600477569616
 20
38.34608129650103
 30
0.0
 10
176.7148266876995
 20
38.29767731183325
 30
0.0
 10
176.6755794551274
 20
38.26434288742347
 30
0.0
 10
176.6302563759805
 20
38.23271233800426
 30
0.0
 10
176.5807801808744
 20
38.20399108997234
 30
0.0
 10
176.5245776008662
 20
38.17724587688336
 30
0.0
 10
176.4615624943485
 20
38.15360624761472
 30
0.0
 10
176.3916487197139
 20
38.1342017510439
 30
0.0
 10
176.3147501353551
 20
38.1201619360483
 30
0.0
 10
176.2307805996647
 20
38.1126163515054
 30
0.0
 10
175.4289184586045
 20
38.11261635147373
 30
0.0
 10
177.3589971820088
 20
35.5323470183997
 30
0.0
 10
179.0897132710516
 20
35.5323470183997
 30
0.0
 10
177.3293117683367
 20
37.64133527362854
 30
0.0
 10
177.4378413884242
 20
37.68626314565116
 30
0.0
 10
177.535229079756
 20
37.73363996137686
 30
0.0
 10
177.6434341705854
 20
37.79593524191246
 30
0.0
 10
177.7371336818544
 20
37.86158624571191
 30
0.0
 10
177.8195636236612
 20
37.93208296741202
 30
0.0
 10
177.893960006104
 20
38.00891540164967
 30
0.0
 10
177.9635588392812
 20
38.09357354306162
 30
0.0
 10
178.031596133291
 20
38.18754738628473
 30
0.0
 10
178.1019750085993
 20
38.29578516651197
 30
0.0
 10
178.1696520978538
 20
38.41927250632281
 30
0.0
 10
178.2110613224162
 20
38.51196233141494
 30
0.0
 10
178.2479579891439
 20
38.61426917005198
 30
0.0
 10
178.2790173924239
 20
38.727328794837
 30
0.0
 10
178.3029148266429
 20
38.8522769783731
 30
0.0
 10
178.3183255861878
 20
38.99024949326337
 30
0.0
 10
178.3239249654455
 20
39.14238211211093
 30
0.0
  0
SPLINE
  5
2D3
330
1F
100
AcDbEntity
  8
Standard
  6
Continuous
 62
     7
100
AcDbSpline
210
0.0
220
0.0
230
1.0
 70
    11
 71
     1
 72
    89
 73
    87
 74
     0
 42
0.000000000255312
 43
0.0000000001
 40
0.0
 40
0.0
 40
0.0116279069767442
 40
0.0232558139534884
 40
0.0348837209302326
 40
0.0465116279069767
 40
0.0581395348837209
 40
0.0697674418604651
 40
0.0813953488372093
 40
0.0930232558139535
 40
0.1046511627906977
 40
0.1162790697674419
 40
0.1279069767441861
 40
0.1395348837209302
 40
0.1511627906976744
 40
0.1627906976744186
 40
0.1744186046511628
 40
0.186046511627907
 40
0.1976744186046512
 40
0.2093023255813953
 40
0.2209302325581395
 40
0.2325581395348837
 40
0.2441860465116279
 40
0.2558139534883721
 40
0.2674418604651163
 40
0.2790697674418605
 40
0.2906976744186047
 40
0.3023255813953488
 40
0.313953488372093
 40
0.3255813953488372
 40
0.3372093023255814
 40
0.3488372093023256
 40
0.3604651162790697
 40
0.3720930232558139
 40
0.3837209302325582
 40
0.3953488372093023
 40
0.4069767441860465
 40
0.4186046511627907
 40
0.4302325581395349
 40
0.4418604651162791
 40
0.4534883720930232
 40
0.4651162790697674
 40
0.4767441860465116
 40
0.4883720930232558
 40
0.5
 40
0.5116279069767442
 40
0.5232558139534884
 40
0.5348837209302325
 40
0.5465116279069767
 40
0.5581395348837209
 40
0.5697674418604651
 40
0.5813953488372093
 40
0.5930232558139534
 40
0.6046511627906976
 40
0.6162790697674418
 40
0.627906976744186
 40
0.6395348837209303
 40
0.6511627906976745
 40
0.6627906976744186
 40
0.6744186046511628
 40
0.686046511627907
 40
0.6976744186046512
 40
0.7093023255813954
 40
0.7209302325581395
 40
0.7325581395348837
 40
0.7441860465116279
 40
0.7558139534883721
 40
0.7674418604651163
 40
0.7790697674418604
 40
0.7906976744186046
 40
0.8023255813953488
 40
0.813953488372093
 40
0.8255813953488372
 40
0.8372093023255813
 40
0.8488372093023255
 40
0.8604651162790697
 40
0.872093023255814
 40
0.8837209302325582
 40
0.8953488372093024
 40
0.9069767441860465
 40
0.9186046511627907
 40
0.9302325581395349
 40
0.9418604651162791
 40
0.9534883720930233
 40
0.9651162790697674
 40
0.9767441860465116
 40
0.9883720930232558
 40
1.0
 40
1.0
 10
182.423459947966
 20
28.25293596718546
 30
0.0
 10
182.8539625981961
 20
28.27503684142309
 30
0.0
 10
183.2844646292467
 20
28.3302547538267
 30
0.0
 10
183.7149654779771
 20
28.41345757346127
 30
0.0
 10
184.1454645812468
 20
28.51951316939178
 30
0.0
 10
184.5759613759153
 20
28.64328941068323
 30
0.0
 10
185.2934493739534
 20
28.87502323702411
 30
0.0
 10
186.0109267877985
 20
29.11796529355262
 30
0.0
 10
186.7283910103185
 20
29.34835571482897
 30
0.0
 10
187.1588621274273
 20
29.47068107865071
 30
0.0
 10
187.5893269939509
 20
29.57480217128829
 30
0.0
 10
188.0197850467487
 20
29.6555868618067
 30
0.0
 10
188.45023572268
 20
29.7079030192709
 30
0.0
 10
188.8806784586044
 20
29.7266185127459
 30
0.0
 10
189.1366338681093
 20
29.7200716233551
 30
0.0
 10
189.3925868629529
 20
29.70090570054506
 30
0.0
 10
189.6485380351785
 20
29.67019758805393
 30
0.0
 10
189.9044879768289
 20
29.62902412961984
 30
0.0
 10
190.1604372799475
 20
29.57846216898094
 30
0.0
 10
190.4163865365774
 20
29.51958854987537
 30
0.0
 10
190.8003116294502
 20
29.41804935726918
 30
0.0
 10
191.1842399479659
 20
29.30386617914003
 30
0.0
 10
191.9125199479662
 20
29.66473885236154
 30
0.0
 10
191.4143414984801
 20
29.82941892453889
 30
0.0
 10
190.9161734823822
 20
29.98191597883798
 30
0.0
 10
190.5840651125878
 20
30.072892015286
 30
0.0
 10
190.2519581467708
 20
30.152572892393
 30
0.0
 10
189.9198512916976
 20
30.21860641626755
 30
0.0
 10
189.5877432541345
 20
30.26864039301828
 30
0.0
 10
189.2556327408481
 20
30.30032262875378
 30
0.0
 10
188.9235184586045
 20
30.31130092958268
 30
0.0
 10
188.490220093844
 20
30.29234564294898
 30
0.0
 10
188.0569136871629
 20
30.23938090540868
 30
0.0
 10
187.6235998129844
 20
30.15764105077553
 30
0.0
 10
187.1902790457312
 20
30.05236041286331
 30
0.0
 10
186.7569519598263
 20
29.92877332548577
 30
0.0
 10
186.0347276686974
 20
29.69633055683516
 30
0.0
 10
185.3124900807424
 20
29.45180938273463
 30
0.0
 10
184.5902418553266
 20
29.21944283009975
 30
0.0
 10
184.1568889203918
 20
29.0959380560192
 30
0.0
 10
183.7235336877655
 20
28.99076716916963
 30
0.0
 10
183.2901767318705
 20
28.90916450336482
 30
0.0
 10
182.8568186271297
 20
28.8563643924185
 30
0.0
 10
182.4234599479661
 20
28.83760117014445
 30
0.0
 10
181.9901012688025
 20
28.8563643924185
 30
0.0
 10
181.5567431640617
 20
28.90916450336482
 30
0.0
 10
181.1233862081667
 20
28.99076716916963
 30
0.0
 10
180.6900309755404
 20
29.0959380560192
 30
0.0
 10
180.2566780406056
 20
29.21944283009976
 30
0.0
 10
179.5344298151898
 20
29.45180938273463
 30
0.0
 10
178.8121922272349
 20
29.69633055683516
 30
0.0
 10
178.089967936106
 20
29.92877332548578
 30
0.0
 10
177.6566408502011
 20
30.05236041286334
 30
0.0
 10
177.2233200829479
 20
30.15764105077556
 30
0.0
 10
176.7900062087694
 20
30.2393809054087
 30
0.0
 10
176.3566998020884
 20
30.29234564294901
 30
0.0
 10
175.9234014373278
 20
30.31130092958271
 30
0.0
 10
175.5912871550605
 20
30.30032262874577
 30
0.0
 10
175.2591766416072
 20
30.26864039295397
 30
0.0
 10
174.9270686035914
 20
30.21860641605047
 30
0.0
 10
174.5949617476365
 20
30.15257289187836
 30
0.0
 10
174.2628547803659
 20
30.07289201428083
 30
0.0
 10
173.930746408403
 20
29.981915977101
 30
0.0
 10
173.4325783873993
 20
29.82941892114634
 30
0.0
 10
172.9343999305946
 20
29.66473884649919
 30
0.0
 10
173.6626799479662
 20
29.30386617914019
 30
0.0
 10
174.046608266482
 20
29.4180493572693
 30
0.0
 10
174.4305333593549
 20
29.51958854987545
 30
0.0
 10
174.6864826159848
 20
29.578462168981
 30
0.0
 10
174.9424319191034
 20
29.62902412961988
 30
0.0
 10
175.1983818607539
 20
29.67019758805398
 30
0.0
 10
175.4543330329794
 20
29.70090570054511
 30
0.0
 10
175.710286027823
 20
29.72007162335515
 30
0.0
 10
175.9662414373279
 20
29.72661851274596
 30
0.0
 10
176.3966841732523
 20
29.70790301927095
 30
0.0
 10
176.8271348491837
 20
29.65558686180674
 30
0.0
 10
177.2575929019814
 20
29.57480217128832
 30
0.0
 10
177.688057768505
 20
29.47068107865074
 30
0.0
 10
178.1185288856139
 20
29.34835571482901
 30
0.0
 10
178.8359931081338
 20
29.11796529355265
 30
0.0
 10
179.553470521979
 20
28.87502323702412
 30
0.0
 10
180.270958520017
 20
28.64328941068324
 30
0.0
 10
180.7014553146854
 20
28.5195131693918
 30
0.0
 10
181.1319544179551
 20
28.41345757346128
 30
0.0
 10
181.5624552666855
 20
28.3302547538267
 30
0.0
 10
181.992957297736
 20
28.27503684142309
 30
0.0
 10
182.423459947966
 20
28.25293596718546
 30
0.0
  0
HATCH
  5
2D4
330
1F
100
AcDbEntity
  8
Standard
  6
Continuous
 62
   252
100
AcDbHatch
 10
0.0
 20
0.0
 30
0.0
210
0.0
220
0.0
230
1.0
  2
SOLID
 70
     1
 71
     0
 91
        1
 92
        1
 93
       86
 72
     1
 10
182.423459947966
 20
28.25293596718546
 11
182.8539625981961
 21
28.27503684142309
 72
     1
 10
182.8539625981961
 20
28.27503684142309
 11
183.2844646292467
 21
28.3302547538267
 72
     1
 10
183.2844646292467
 20
28.3302547538267
 11
183.7149654779771
 21
28.41345757346127
 72
     1
 10
183.7149654779771
 20
28.41345757346127
 11
184.1454645812468
 21
28.51951316939178
 72
     1
 10
184.1454645812468
 20
28.51951316939178
 11
184.5759613759153
 21
28.64328941068323
 72
     1
 10
184.5759613759153
 20
28.64328941068323
 11
185.2934493739534
 21
28.87502323702411
 72
     1
 10
185.2934493739534
 20
28.87502323702411
 11
186.0109267877985
 21
29.11796529355262
 72
     1
 10
186.0109267877985
 20
29.11796529355262
 11
186.7283910103185
 21
29.34835571482897
 72
     1
 10
186.7283910103185
 20
29.34835571482897
 11
187.1588621274273
 21
29.47068107865071
 72
     1
 10
187.1588621274273
 20
29.47068107865071
 11
187.5893269939509
 21
29.57480217128829
 72
     1
 10
187.5893269939509
 20
29.57480217128829
 11
188.0197850467487
 21
29.6555868618067
 72
     1
 10
188.0197850467487
 20
29.6555868618067
 11
188.45023572268
 21
29.7079030192709
 72
     1
 10
188.45023572268
 20
29.7079030192709
 11
188.8806784586044
 21
29.7266185127459
 72
     1
 10
188.8806784586044
 20
29.7266185127459
 11
189.1366338681093
 21
29.7200716233551
 72
     1
 10
189.1366338681093
 20
29.7200716233551
 11
189.3925868629529
 21
29.70090570054506
 72
     1
 10
189.3925868629529
 20
29.70090570054506
 11
189.6485380351785
 21
29.67019758805393
 72
     1
 10
189.6485380351785
 20
29.67019758805393
 11
189.9044879768289
 21
29.62902412961984
 72
     1
 10
189.9044879768289
 20
29.62902412961984
 11
190.1604372799475
 21
29.57846216898094
 72
     1
 10
190.1604372799475
 20
29.57846216898094
 11
190.4163865365774
 21
29.51958854987537
 72
     1
 10
190.4163865365774
 20
29.51958854987537
 11
190.8003116294502
 21
29.41804935726918
 72
     1
 10
190.8003116294502
 20
29.41804935726918
 11
191.1842399479659
 21
29.30386617914003
 72
     1
 10
191.1842399479659
 20
29.30386617914003
 11
191.9125199479662
 21
29.66473885236154
 72
     1
 10
191.9125199479662
 20
29.66473885236154
 11
191.4143414984801
 21
29.82941892453889
 72
     1
 10
191.4143414984801
 20
29.82941892453889
 11
190.9161734823822
 21
29.98191597883798
 72
     1
 10
190.9161734823822
 20
29.98191597883798
 11
190.5840651125878
 21
30.072892015286
 72
     1
 10
190.5840651125878
 20
30.072892015286
 11
190.2519581467708
 21
30.152572892393
 72
     1
 10
190.2519581467708
 20
30.152572892393
 11
189.9198512916976
 21
30.21860641626755
 72
     1
 10
189.9198512916976
 20
30.21860641626755
 11
189.5877432541345
 21
30.26864039301828
 72
     1
 10
189.5877432541345
 20
30.26864039301828
 11
189.2556327408481
 21
30.30032262875378
 72
     1
 10
189.2556327408481
 20
30.30032262875378
 11
188.9235184586045
 21
30.31130092958268
 72
     1
 10
188.9235184586045
 20
30.31130092958268
 11
188.490220093844
 21
30.29234564294898
 72
     1
 10
188.490220093844
 20
30.29234564294898
 11
188.0569136871629
 21
30.23938090540868
 72
     1
 10
188.0569136871629
 20
30.23938090540868
 11
187.6235998129844
 21
30.15764105077553
 72
     1
 10
187.6235998129844
 20
30.15764105077553
 11
187.1902790457312
 21
30.05236041286331
 72
     1
 10
187.1902790457312
 20
30.05236041286331
 11
186.7569519598263
 21
29.92877332548577
 72
     1
 10
186.7569519598263
 20
29.92877332548577
 11
186.0347276686974
 21
29.69633055683516
 72
     1
 10
186.0347276686974
 20
29.69633055683516
 11
185.3124900807424
 21
29.45180938273463
 72
     1
 10
185.3124900807424
 20
29.45180938273463
 11
184.5902418553266
 21
29.21944283009975
 72
     1
 10
184.5902418553266
 20
29.21944283009975
 11
184.1568889203918
 21
29.0959380560192
 72
     1
 10
184.1568889203918
 20
29.0959380560192
 11
183.7235336877655
 21
28.99076716916963
 72
     1
 10
183.7235336877655
 20
28.99076716916963
 11
183.2901767318705
 21
28.90916450336482
 72
     1
 10
183.2901767318705
 20
28.90916450336482
 11
182.8568186271297
 21
28.8563643924185
 72
     1
 10
182.8568186271297
 20
28.8563643924185
 11
182.4234599479661
 21
28.83760117014445
 72
     1
 10
182.4234599479661
 20
28.83760117014445
 11
181.9901012688025
 21
28.8563643924185
 72
     1
 10
181.9901012688025
 20
28.8563643924185
 11
181.5567431640617
 21
28.90916450336482
 72
     1
 10
181.5567431640617
 20
28.90916450336482
 11
181.1233862081667
 21
28.99076716916963
 72
     1
 10
181.1233862081667
 20
28.99076716916963
 11
180.6900309755404
 21
29.0959380560192
 72
     1
 10
180.6900309755404
 20
29.0959380560192
 11
180.2566780406056
 21
29.21944283009976
 72
     1
 10
180.2566780406056
 20
29.21944283009976
 11
179.5344298151898
 21
29.45180938273463
 72
     1
 10
179.5344298151898
 20
29.45180938273463
 11
178.8121922272349
 21
29.69633055683516
 72
     1
 10
178.8121922272349
 20
29.69633055683516
 11
178.089967936106
 21
29.92877332548578
 72
     1
 10
178.089967936106
 20
29.92877332548578
 11
177.6566408502011
 21
30.05236041286334
 72
     1
 10
177.6566408502011
 20
30.05236041286334
 11
177.2233200829479
 21
30.15764105077556
 72
     1
 10
177.2233200829479
 20
30.15764105077556
 11
176.7900062087694
 21
30.2393809054087
 72
     1
 10
176.7900062087694
 20
30.2393809054087
 11
176.3566998020884
 21
30.29234564294901
 72
     1
 10
176.3566998020884
 20
30.29234564294901
 11
175.9234014373278
 21
30.31130092958271
 72
     1
 10
175.9234014373278
 20
30.31130092958271
 11
175.5912871550605
 21
30.30032262874577
 72
     1
 10
175.5912871550605
 20
30.30032262874577
 11
175.2591766416072
 21
30.26864039295397
 72
     1
 10
175.2591766416072
 20
30.26864039295397
 11
174.9270686035914
 21
30.21860641605047
 72
     1
 10
174.9270686035914
 20
30.21860641605047
 11
174.5949617476365
 21
30.15257289187836
 72
     1
 10
174.5949617476365
 20
30.15257289187836
 11
174.2628547803659
 21
30.07289201428083
 72
     1
 10
174.2628547803659
 20
30.07289201428083
 11
173.930746408403
 21
29.981915977101
 72
     1
 10
173.930746408403
 20
29.981915977101
 11
173.4325783873993
 21
29.82941892114634
 72
     1
 10
173.4325783873993
 20
29.82941892114634
 11
172.9343999305946
 21
29.66473884649919
 72
     1
 10
172.9343999305946
 20
29.66473884649919
 11
173.6626799479662
 21
29.30386617914019
 72
     1
 10
173.6626799479662
 20
29.30386617914019
 11
174.046608266482
 21
29.4180493572693
 72
     1
 10
174.046608266482
 20
29.4180493572693
 11
174.4305333593549
 21
29.51958854987545
 72
     1
 10
174.4305333593549
 20
29.51958854987545
 11
174.6864826159848
 21
29.578462168981
 72
     1
 10
174.6864826159848
 20
29.578462168981
 11
174.9424319191034
 21
29.62902412961988
 72
     1
 10
174.9424319191034
 20
29.62902412961988
 11
175.1983818607539
 21
29.67019758805398
 72
     1
 10
175.1983818607539
 20
29.67019758805398
 11
175.4543330329794
 21
29.70090570054511
 72
     1
 10
175.4543330329794
 20
29.70090570054511
 11
175.710286027823
 21
29.72007162335515
 72
     1
 10
175.710286027823
 20
29.72007162335515
 11
175.9662414373279
 21
29.72661851274596
 72
     1
 10
175.9662414373279
 20
29.72661851274596
 11
176.3966841732523
 21
29.70790301927095
 72
     1
 10
176.3966841732523
 20
29.70790301927095
 11
176.8271348491837
 21
29.65558686180674
 72
     1
 10
176.8271348491837
 20
29.65558686180674
 11
177.2575929019814
 21
29.57480217128832
 72
     1
 10
177.2575929019814
 20
29.57480217128832
 11
177.688057768505
 21
29.47068107865074
 72
     1
 10
177.688057768505
 20
29.47068107865074
 11
178.1185288856139
 21
29.34835571482901
 72
     1
 10
178.1185288856139
 20
29.34835571482901
 11
178.8359931081338
 21
29.11796529355265
 72
     1
 10
178.8359931081338
 20
29.11796529355265
 11
179.553470521979
 21
28.87502323702412
 72
     1
 10
179.553470521979
 20
28.87502323702412
 11
180.270958520017
 21
28.64328941068324
 72
     1
 10
180.270958520017
 20
28.64328941068324
 11
180.7014553146854
 21
28.5195131693918
 72
     1
 10
180.7014553146854
 20
28.5195131693918
 11
181.1319544179551
 21
28.41345757346128
 72
     1
 10
181.1319544179551
 20
28.41345757346128
 11
181.5624552666855
 21
28.3302547538267
 72
     1
 10
181.5624552666855
 20
28.3302547538267
 11
181.992957297736
 21
28.27503684142309
 72
     1
 10
181.992957297736
 20
28.27503684142309
 11
182.423459947966
 21
28.25293596718546
 97
        0
 75
     0
 76
     1
 98
        0
  0
SPLINE
  5
2D5
330
1F
100
AcDbEntity
  8
Standard
  6
Continuous
 62
     7
100
AcDbSpline
210
0.0
220
0.0
230
1.0
 70
    11
 71
     1
 72
    99
 73
    97
 74
     0
 42
0.0000000002036869
 43
0.0000000001
 40
0.0
 40
0.0
 40
0.0104166666666667
 40
0.0208333333333333
 40
0.03125
 40
0.0416666666666667
 40
0.0520833333333333
 40
0.0625
 40
0.0729166666666667
 40
0.0833333333333333
 40
0.09375
 40
0.1041666666666667
 40
0.1145833333333333
 40
0.125
 40
0.1354166666666667
 40
0.1458333333333333
 40
0.15625
 40
0.1666666666666667
 40
0.1770833333333333
 40
0.1875
 40
0.1979166666666667
 40
0.2083333333333333
 40
0.21875
 40
0.2291666666666667
 40
0.2395833333333333
 40
0.25
 40
0.2604166666666666
 40
0.2708333333333333
 40
0.28125
 40
0.2916666666666666
 40
0.3020833333333333
 40
0.3125
 40
0.3229166666666666
 40
0.3333333333333333
 40
0.34375
 40
0.3541666666666666
 40
0.3645833333333333
 40
0.375
 40
0.3854166666666666
 40
0.3958333333333333
 40
0.40625
 40
0.4166666666666666
 40
0.4270833333333333
 40
0.4375
 40
0.4479166666666666
 40
0.4583333333333333
 40
0.46875
 40
0.4791666666666666
 40
0.4895833333333333
 40
0.5
 40
0.5104166666666666
 40
0.5208333333333333
 40
0.53125
 40
0.5416666666666666
 40
0.5520833333333333
 40
0.5625
 40
0.5729166666666666
 40
0.5833333333333333
 40
0.59375
 40
0.6041666666666666
 40
0.6145833333333333
 40
0.625
 40
0.6354166666666666
 40
0.6458333333333333
 40
0.65625
 40
0.6666666666666666
 40
0.6770833333333333
 40
0.6875
 40
0.6979166666666666
 40
0.7083333333333333
 40
0.71875
 40
0.7291666666666666
 40
0.7395833333333333
 40
0.75
 40
0.7604166666666666
 40
0.7708333333333333
 40
0.78125
 40
0.7916666666666666
 40
0.8020833333333333
 40
0.8125
 40
0.8229166666666666
 40
0.8333333333333333
 40
0.84375
 40
0.8541666666666666
 40
0.8645833333333333
 40
0.875
 40
0.8854166666666666
 40
0.8958333333333333
 40
0.90625
 40
0.9166666666666666
 40
0.9270833333333333
 40
0.9375
 40
0.9479166666666666
 40
0.9583333333333333
 40
0.96875
 40
0.9791666666666666
 40
0.9895833333333333
 40
1.0
 40
1.0
 10
182.423459947966
 20
30.31062320122798
 30
0.0
 10
182.8539625981961
 20
30.33272407546561
 30
0.0
 10
183.2844646292467
 20
30.3879419878692
 30
0.0
 10
183.7149654779771
 20
30.47114480750378
 30
0.0
 10
184.1454645812468
 20
30.57720040343427
 30
0.0
 10
184.5759613759152
 20
30.70097664472572
 30
0.0
 10
185.2934493739533
 20
30.93271047106657
 30
0.0
 10
186.0109267877985
 20
31.17565252759512
 30
0.0
 10
186.7283910103184
 20
31.40604294887146
 30
0.0
 10
187.1588621274273
 20
31.52836831269319
 30
0.0
 10
187.5893269939509
 20
31.63248940533079
 30
0.0
 10
188.0197850467487
 20
31.71327409584917
 30
0.0
 10
188.45023572268
 20
31.7655902533134
 30
0.0
 10
188.8806784586045
 20
31.7843057467884
 30
0.0
 10
189.1186825108234
 20
31.77864203141938
 30
0.0
 10
189.3566844393055
 20
31.76200198124325
 30
0.0
 10
189.5946847200574
 20
31.73525138579977
 30
0.0
 10
189.8326838290856
 20
31.69925603462866
 30
0.0
 10
190.0706822423969
 20
31.65488171726969
 30
0.0
 10
190.3086804359978
 20
31.60299422326261
 30
0.0
 10
190.6656783557067
 20
31.51296969065495
 30
0.0
 10
191.0226784586044
 20
31.4109105767501
 30
0.0
 10
193.7332199479662
 20
30.59773391431092
 30
0.0
 10
193.9134027517615
 20
30.7385815601617
 30
0.0
 10
194.0850648096406
 20
30.89000228723946
 30
0.0
 10
194.1674135499361
 20
30.96943185794425
 30
0.0
 10
194.247299947966
 20
31.05119677231163
 30
0.0
 10
191.0226784586044
 20
32.00842131150859
 30
0.0
 10
190.672818642646
 20
32.10727516492544
 30
0.0
 10
190.3229607691327
 20
32.19429176937082
 30
0.0
 10
190.0897225192373
 20
32.24436862577464
 30
0.0
 10
189.8564840126164
 20
32.28714753693884
 30
0.0
 10
189.6232448012564
 20
32.32181372458469
 30
0.0
 10
189.3900044371436
 20
32.34755241043352
 30
0.0
 10
189.1567624722642
 20
32.36354881620657
 30
0.0
 10
188.9235184586045
 20
32.36898816362518
 30
0.0
 10
188.4902200938439
 20
32.35003287699149
 30
0.0
 10
188.0569136871629
 20
32.29706813945118
 30
0.0
 10
187.6235998129843
 20
32.21532828481804
 30
0.0
 10
187.1902790457312
 20
32.11004764690581
 30
0.0
 10
186.7569519598263
 20
31.98646055952827
 30
0.0
 10
186.0347276686974
 20
31.75401779087763
 30
0.0
 10
185.3124900807424
 20
31.50949661677712
 30
0.0
 10
184.5902418553266
 20
31.27713006414223
 30
0.0
 10
184.1568889203918
 20
31.15362529006169
 30
0.0
 10
183.7235336877655
 20
31.04845440321211
 30
0.0
 10
183.2901767318705
 20
30.96685173740729
 30
0.0
 10
182.8568186271297
 20
30.91405162646099
 30
0.0
 10
182.4234599479661
 20
30.89528840418694
 30
0.0
 10
181.9901012688025
 20
30.91405162646099
 30
0.0
 10
181.5567431640617
 20
30.96685173740731
 30
0.0
 10
181.1233862081667
 20
31.04845440321215
 30
0.0
 10
180.6900309755404
 20
31.15362529006171
 30
0.0
 10
180.2566780406056
 20
31.27713006414227
 30
0.0
 10
179.5344298151898
 20
31.50949661677716
 30
0.0
 10
178.8121922272349
 20
31.75401779087771
 30
0.0
 10
178.089967936106
 20
31.98646055952832
 30
0.0
 10
177.6566408502011
 20
32.11004764690586
 30
0.0
 10
177.2233200829479
 20
32.21532828481809
 30
0.0
 10
176.7900062087694
 20
32.29706813945124
 30
0.0
 10
176.3566998020884
 20
32.35003287699154
 30
0.0
 10
175.9234014373279
 20
32.36898816362524
 30
0.0
 10
175.6901574236682
 20
32.36354881620662
 30
0.0
 10
175.4569154587888
 20
32.34755241043356
 30
0.0
 10
175.2236750946759
 20
32.32181372458474
 30
0.0
 10
174.990435883316
 20
32.28714753693889
 30
0.0
 10
174.7571973766951
 20
32.2443686257747
 30
0.0
 10
174.5239591267996
 20
32.19429176937087
 30
0.0
 10
174.1741012532864
 20
32.10727516492549
 30
0.0
 10
173.8242414373279
 20
32.00842131150865
 30
0.0
 10
170.5996199479661
 20
31.05119677231171
 30
0.0
 10
170.7618550862918
 20
30.89000228723954
 30
0.0
 10
170.9335171441709
 20
30.73858156016177
 30
0.0
 10
171.0226036689285
 20
30.6667904546038
 30
0.0
 10
171.1136999479661
 20
30.59773391431098
 30
0.0
 10
173.8242414373279
 20
31.41091057675016
 30
0.0
 10
174.1812415402257
 20
31.51296969065499
 30
0.0
 10
174.5382394599345
 20
31.60299422326264
 30
0.0
 10
174.7762376535354
 20
31.65488171726974
 30
0.0
 10
175.0142360668466
 20
31.69925603462869
 30
0.0
 10
175.2522351758749
 20
31.7352513857998
 30
0.0
 10
175.4902354566268
 20
31.76200198124328
 30
0.0
 10
175.7282373851089
 20
31.77864203141941
 30
0.0
 10
175.9662414373279
 20
31.78430574678842
 30
0.0
 10
176.3966841732523
 20
31.76559025331342
 30
0.0
 10
176.8271348491837
 20
31.7132740958492
 30
0.0
 10
177.2575929019814
 20
31.6324894053308
 30
0.0
 10
177.688057768505
 20
31.52836831269321
 30
0.0
 10
178.1185288856139
 20
31.40604294887146
 30
0.0
 10
178.8359931081339
 20
31.17565252759513
 30
0.0
 10
179.553470521979
 20
30.9327104710666
 30
0.0
 10
180.270958520017
 20
30.70097664472574
 30
0.0
 10
180.7014553146854
 20
30.57720040343429
 30
0.0
 10
181.1319544179551
 20
30.47114480750379
 30
0.0
 10
181.5624552666855
 20
30.38794198786921
 30
0.0
 10
181.992957297736
 20
30.33272407546561
 30
0.0
 10
182.423459947966
 20
30.31062320122798
 30
0.0
  0
HATCH
  5
2D6
330
1F
100
AcDbEntity
  8
Standard
  6
Continuous
 62
   252
100
AcDbHatch
 10
0.0
 20
0.0
 30
0.0
210
0.0
220
0.0
230
1.0
  2
SOLID
 70
     1
 71
     0
 91
        1
 92
        1
 93
       96
 72
     1
 10
182.423459947966
 20
30.31062320122798
 11
182.8539625981961
 21
30.33272407546561
 72
     1
 10
182.8539625981961
 20
30.33272407546561
 11
183.2844646292467
 21
30.3879419878692
 72
     1
 10
183.2844646292467
 20
30.3879419878692
 11
183.7149654779771
 21
30.47114480750378
 72
     1
 10
183.7149654779771
 20
30.47114480750378
 11
184.1454645812468
 21
30.57720040343427
 72
     1
 10
184.1454645812468
 20
30.57720040343427
 11
184.5759613759152
 21
30.70097664472572
 72
     1
 10
184.5759613759152
 20
30.70097664472572
 11
185.2934493739533
 21
30.93271047106657
 72
     1
 10
185.2934493739533
 20
30.93271047106657
 11
186.0109267877985
 21
31.17565252759512
 72
     1
 10
186.0109267877985
 20
31.17565252759512
 11
186.7283910103184
 21
31.40604294887146
 72
     1
 10
186.7283910103184
 20
31.40604294887146
 11
187.1588621274273
 21
31.52836831269319
 72
     1
 10
187.1588621274273
 20
31.52836831269319
 11
187.5893269939509
 21
31.63248940533079
 72
     1
 10
187.5893269939509
 20
31.63248940533079
 11
188.0197850467487
 21
31.71327409584917
 72
     1
 10
188.0197850467487
 20
31.71327409584917
 11
188.45023572268
 21
31.7655902533134
 72
     1
 10
188.45023572268
 20
31.7655902533134
 11
188.8806784586045
 21
31.7843057467884
 72
     1
 10
188.8806784586045
 20
31.7843057467884
 11
189.1186825108234
 21
31.77864203141938
 72
     1
 10
189.1186825108234
 20
31.77864203141938
 11
189.3566844393055
 21
31.76200198124325
 72
     1
 10
189.3566844393055
 20
31.76200198124325
 11
189.5946847200574
 21
31.73525138579977
 72
     1
 10
189.5946847200574
 20
31.73525138579977
 11
189.8326838290856
 21
31.69925603462866
 72
     1
 10
189.8326838290856
 20
31.69925603462866
 11
190.0706822423969
 21
31.65488171726969
 72
     1
 10
190.0706822423969
 20
31.65488171726969
 11
190.3086804359978
 21
31.60299422326261
 72
     1
 10
190.3086804359978
 20
31.60299422326261
 11
190.6656783557067
 21
31.51296969065495
 72
     1
 10
190.6656783557067
 20
31.51296969065495
 11
191.0226784586044
 21
31.4109105767501
 72
     1
 10
191.0226784586044
 20
31.4109105767501
 11
193.7332199479662
 21
30.59773391431092
 72
     1
 10
193.7332199479662
 20
30.59773391431092
 11
193.9134027517615
 21
30.7385815601617
 72
     1
 10
193.9134027517615
 20
30.7385815601617
 11
194.0850648096406
 21
30.89000228723946
 72
     1
 10
194.0850648096406
 20
30.89000228723946
 11
194.1674135499361
 21
30.96943185794425
 72
     1
 10
194.1674135499361
 20
30.96943185794425
 11
194.247299947966
 21
31.05119677231163
 72
     1
 10
194.247299947966
 20
31.05119677231163
 11
191.0226784586044
 21
32.00842131150859
 72
     1
 10
191.0226784586044
 20
32.00842131150859
 11
190.672818642646
 21
32.10727516492544
 72
     1
 10
190.672818642646
 20
32.10727516492544
 11
190.3229607691327
 21
32.19429176937082
 72
     1
 10
190.3229607691327
 20
32.19429176937082
 11
190.0897225192373
 21
32.24436862577464
 72
     1
 10
190.0897225192373
 20
32.24436862577464
 11
189.8564840126164
 21
32.28714753693884
 72
     1
 10
189.8564840126164
 20
32.28714753693884
 11
189.6232448012564
 21
32.32181372458469
 72
     1
 10
189.6232448012564
 20
32.32181372458469
 11
189.3900044371436
 21
32.34755241043352
 72
     1
 10
189.3900044371436
 20
32.34755241043352
 11
189.1567624722642
 21
32.36354881620657
 72
     1
 10
189.1567624722642
 20
32.36354881620657
 11
188.9235184586045
 21
32.36898816362518
 72
     1
 10
188.9235184586045
 20
32.36898816362518
 11
188.4902200938439
 21
32.35003287699149
 72
     1
 10
188.4902200938439
 20
32.35003287699149
 11
188.0569136871629
 21
32.29706813945118
 72
     1
 10
188.0569136871629
 20
32.29706813945118
 11
187.6235998129843
 21
32.21532828481804
 72
     1
 10
187.6235998129843
 20
32.21532828481804
 11
187.1902790457312
 21
32.11004764690581
 72
     1
 10
187.1902790457312
 20
32.11004764690581
 11
186.7569519598263
 21
31.98646055952827
 72
     1
 10
186.7569519598263
 20
31.98646055952827
 11
186.0347276686974
 21
31.75401779087763
 72
     1
 10
186.0347276686974
 20
31.75401779087763
 11
185.3124900807424
 21
31.50949661677712
 72
     1
 10
185.3124900807424
 20
31.50949661677712
 11
184.5902418553266
 21
31.27713006414223
 72
     1
 10
184.5902418553266
 20
31.27713006414223
 11
184.1568889203918
 21
31.15362529006169
 72
     1
 10
184.1568889203918
 20
31.15362529006169
 11
183.7235336877655
 21
31.04845440321211
 72
     1
 10
183.7235336877655
 20
31.04845440321211
 11
183.2901767318705
 21
30.96685173740729
 72
     1
 10
183.2901767318705
 20
30.96685173740729
 11
182.8568186271297
 21
30.91405162646099
 72
     1
 10
182.8568186271297
 20
30.91405162646099
 11
182.4234599479661
 21
30.89528840418694
 72
     1
 10
182.4234599479661
 20
30.89528840418694
 11
181.9901012688025
 21
30.91405162646099
 72
     1
 10
181.9901012688025
 20
30.91405162646099
 11
181.5567431640617
 21
30.96685173740731
 72
     1
 10
181.5567431640617
 20
30.96685173740731
 11
181.1233862081667
 21
31.04845440321215
 72
     1
 10
181.1233862081667
 20
31.04845440321215
 11
180.6900309755404
 21
31.15362529006171
 72
     1
 10
180.6900309755404
 20
31.15362529006171
 11
180.2566780406056
 21
31.27713006414227
 72
     1
 10
180.2566780406056
 20
31.27713006414227
 11
179.5344298151898
 21
31.50949661677716
 72
     1
 10
179.5344298151898
 20
31.50949661677716
 11
178.8121922272349
 21
31.75401779087771
 72
     1
 10
178.8121922272349
 20
31.75401779087771
 11
178.089967936106
 21
31.98646055952832
 72
     1
 10
178.089967936106
 20
31.98646055952832
 11
177.6566408502011
 21
32.11004764690586
 72
     1
 10
177.6566408502011
 20
32.11004764690586
 11
177.2233200829479
 21
32.21532828481809
 72
     1
 10
177.2233200829479
 20
32.21532828481809
 11
176.7900062087694
 21
32.29706813945124
 72
     1
 10
176.7900062087694
 20
32.29706813945124
 11
176.3566998020884
 21
32.35003287699154
 72
     1
 10
176.3566998020884
 20
32.35003287699154
 11
175.9234014373279
 21
32.36898816362524
 72
     1
 10
175.9234014373279
 20
32.36898816362524
 11
175.6901574236682
 21
32.36354881620662
 72
     1
 10
175.6901574236682
 20
32.36354881620662
 11
175.4569154587888
 21
32.34755241043356
 72
     1
 10
175.4569154587888
 20
32.34755241043356
 11
175.2236750946759
 21
32.32181372458474
 72
     1
 10
175.2236750946759
 20
32.32181372458474
 11
174.990435883316
 21
32.28714753693889
 72
     1
 10
174.990435883316
 20
32.28714753693889
 11
174.7571973766951
 21
32.2443686257747
 72
     1
 10
174.7571973766951
 20
32.2443686257747
 11
174.5239591267996
 21
32.19429176937087
 72
     1
 10
174.5239591267996
 20
32.19429176937087
 11
174.1741012532864
 21
32.10727516492549
 72
     1
 10
174.1741012532864
 20
32.10727516492549
 11
173.8242414373279
 21
32.00842131150865
 72
     1
 10
173.8242414373279
 20
32.00842131150865
 11
170.5996199479661
 21
31.05119677231171
 72
     1
 10
170.5996199479661
 20
31.05119677231171
 11
170.7618550862918
 21
30.89000228723954
 72
     1
 10
170.7618550862918
 20
30.89000228723954
 11
170.9335171441709
 21
30.73858156016177
 72
     1
 10
170.9335171441709
 20
30.73858156016177
 11
171.0226036689285
 21
30.6667904546038
 72
     1
 10
171.0226036689285
 20
30.6667904546038
 11
171.1136999479661
 21
30.59773391431098
 72
     1
 10
171.1136999479661
 20
30.59773391431098
 11
173.8242414373279
 21
31.41091057675016
 72
     1
 10
173.8242414373279
 20
31.41091057675016
 11
174.1812415402257
 21
31.51296969065499
 72
     1
 10
174.1812415402257
 20
31.51296969065499
 11
174.5382394599345
 21
31.60299422326264
 72
     1
 10
174.5382394599345
 20
31.60299422326264
 11
174.7762376535354
 21
31.65488171726974
 72
     1
 10
174.7762376535354
 20
31.65488171726974
 11
175.0142360668466
 21
31.69925603462869
 72
     1
 10
175.0142360668466
 20
31.69925603462869
 11
175.2522351758749
 21
31.7352513857998
 72
     1
 10
175.2522351758749
 20
31.7352513857998
 11
175.4902354566268
 21
31.76200198124328
 72
     1
 10
175.4902354566268
 20
31.76200198124328
 11
175.7282373851089
 21
31.77864203141941
 72
     1
 10
175.7282373851089
 20
31.77864203141941
 11
175.9662414373279
 21
31.78430574678842
 72
     1
 10
175.9662414373279
 20
31.78430574678842
 11
176.3966841732523
 21
31.76559025331342
 72
     1
 10
176.3966841732523
 20
31.76559025331342
 11
176.8271348491837
 21
31.7132740958492
 72
     1
 10
176.8271348491837
 20
31.7132740958492
 11
177.2575929019814
 21
31.6324894053308
 72
     1
 10
177.2575929019814
 20
31.6324894053308
 11
177.688057768505
 21
31.52836831269321
 72
     1
 10
177.688057768505
 20
31.52836831269321
 11
178.1185288856139
 21
31.40604294887146
 72
     1
 10
178.1185288856139
 20
31.40604294887146
 11
178.8359931081339
 21
31.17565252759513
 72
     1
 10
178.8359931081339
 20
31.17565252759513
 11
179.553470521979
 21
30.9327104710666
 72
     1
 10
179.553470521979
 20
30.9327104710666
 11
180.270958520017
 21
30.70097664472574
 72
     1
 10
180.270958520017
 20
30.70097664472574
 11
180.7014553146854
 21
30.57720040343429
 72
     1
 10
180.7014553146854
 20
30.57720040343429
 11
181.1319544179551
 21
30.47114480750379
 72
     1
 10
181.1319544179551
 20
30.47114480750379
 11
181.5624552666855
 21
30.38794198786921
 72
     1
 10
181.5624552666855
 20
30.38794198786921
 11
181.992957297736
 21
30.33272407546561
 72
     1
 10
181.992957297736
 20
30.33272407546561
 11
182.423459947966
 21
30.31062320122798
 97
        0
 75
     0
 76
     1
 98
        0
  0
HATCH
  5
2D7
330
1F
100
AcDbEntity
  8
Standard
  6
Continuous
 62
   252
100
AcDbHatch
 10
0.0
 20
0.0
 30
0.0
210
0.0
220
0.0
230
1.0
  2
SOLID
 70
     1
 71
     0
 91
        1
 92
        1
 93
      130
 72
     1
 10
195.943763947996
 20
32.39814532300313
 11
196.0283332547601
 21
32.49838474015061
 72
     1
 10
196.0283332547601
 20
32.49838474015061
 11
196.1095365653352
 21
32.60156356987058
 72
     1
 10
196.1095365653352
 20
32.60156356987058
 11
196.2123136419326
 21
32.74340889913487
 72
     1
 10
196.2123136419326
 20
32.74340889913487
 11
196.3085180849766
 21
32.88973765533247
 72
     1
 10
196.3085180849766
 20
32.88973765533247
 11
196.3978679479661
 21
33.04008744503379
 72
     1
 10
196.3978679479661
 20
33.04008744503379
 11
196.2354792869609
 21
33.01434715218897
 72
     1
 10
196.2354792869609
 20
33.01434715218897
 11
196.0730925936986
 21
32.99273259903379
 72
     1
 10
196.0730925936986
 20
32.99273259903379
 11
195.8565810549507
 21
32.97080146871989
 72
     1
 10
195.8565810549507
 20
32.97080146871989
 11
195.6400753936169
 21
32.95733408257838
 72
     1
 10
195.6400753936169
 20
32.95733408257838
 11
195.4235769692428
 21
32.95297563822946
 72
     1
 10
195.4235769692428
 20
32.95297563822946
 11
194.9901057031935
 21
32.97248150936083
 72
     1
 10
194.9901057031935
 20
32.97248150936083
 11
194.5566660304029
 21
33.02587061767675
 72
     1
 10
194.5566660304029
 20
33.02587061767675
 11
194.1232550787566
 21
33.10791960446969
 72
     1
 10
194.1232550787566
 20
33.10791960446969
 11
193.6898699761402
 21
33.21340511103223
 72
     1
 10
193.6898699761402
 20
33.21340511103223
 11
193.2565078504393
 21
33.33710377865683
 72
     1
 10
193.2565078504393
 20
33.33710377865683
 11
192.5342808999452
 21
33.56955501575364
 72
     1
 10
192.5342808999452
 20
33.56955501575364
 11
191.8120964992945
 21
33.81390682093032
 72
     1
 10
191.8120964992945
 20
33.81390682093032
 11
191.0899413516612
 21
34.04597697794846
 72
     1
 10
191.0899413516612
 20
34.04597697794846
 11
190.6566567730499
 21
34.16926407908807
 72
     1
 10
190.6566567730499
 20
34.16926407908807
 11
190.2233750665529
 21
34.27420083033731
 72
     1
 10
190.2233750665529
 20
34.27420083033731
 11
189.790093360056
 21
34.35556387298867
 72
     1
 10
189.790093360056
 20
34.35556387298867
 11
189.3568087814447
 21
34.40812984833464
 72
     1
 10
189.3568087814447
 20
34.40812984833464
 11
188.9235184586045
 21
34.42667539766776
 72
     1
 10
188.9235184586045
 20
34.42667539766776
 11
188.4902200938439
 21
34.40772011103405
 72
     1
 10
188.4902200938439
 20
34.40772011103405
 11
188.0569136871629
 21
34.35475537349375
 72
     1
 10
188.0569136871629
 20
34.35475537349375
 11
187.6235998129844
 21
34.2730155188606
 72
     1
 10
187.6235998129844
 20
34.2730155188606
 11
187.1902790457312
 21
34.16773488094837
 72
     1
 10
187.1902790457312
 20
34.16773488094837
 11
186.7569519598263
 21
34.04414779357082
 72
     1
 10
186.7569519598263
 20
34.04414779357082
 11
186.0347276686974
 21
33.81170502492019
 72
     1
 10
186.0347276686974
 20
33.81170502492019
 11
185.3124900807424
 21
33.56718385081967
 72
     1
 10
185.3124900807424
 20
33.56718385081967
 11
184.5902418553266
 21
33.33481729818478
 72
     1
 10
184.5902418553266
 20
33.33481729818478
 11
184.1568889203918
 21
33.21131252410422
 72
     1
 10
184.1568889203918
 20
33.21131252410422
 11
183.7235336877655
 21
33.10614163725464
 72
     1
 10
183.7235336877655
 20
33.10614163725464
 11
183.2901767318705
 21
33.02453897144982
 72
     1
 10
183.2901767318705
 20
33.02453897144982
 11
182.8568186271297
 21
32.97173886050351
 72
     1
 10
182.8568186271297
 20
32.97173886050351
 11
182.4234599479661
 21
32.95297563822946
 72
     1
 10
182.4234599479661
 20
32.95297563822946
 11
181.9901012688025
 21
32.97173886050351
 72
     1
 10
181.9901012688025
 20
32.97173886050351
 11
181.5567431640617
 21
33.02453897144984
 72
     1
 10
181.5567431640617
 20
33.02453897144984
 11
181.1233862081667
 21
33.10614163725466
 72
     1
 10
181.1233862081667
 20
33.10614163725466
 11
180.6900309755404
 21
33.21131252410422
 72
     1
 10
180.6900309755404
 20
33.21131252410422
 11
180.2566780406056
 21
33.33481729818479
 72
     1
 10
180.2566780406056
 20
33.33481729818479
 11
179.5344298151899
 21
33.56718385081968
 72
     1
 10
179.5344298151899
 20
33.56718385081968
 11
178.8121922272349
 21
33.81170502492023
 72
     1
 10
178.8121922272349
 20
33.81170502492023
 11
178.089967936106
 21
34.04414779357084
 72
     1
 10
178.089967936106
 20
34.04414779357084
 11
177.6566408502011
 21
34.16773488094841
 72
     1
 10
177.6566408502011
 20
34.16773488094841
 11
177.2233200829479
 21
34.27301551886063
 72
     1
 10
177.2233200829479
 20
34.27301551886063
 11
176.7900062087694
 21
34.35475537349379
 72
     1
 10
176.7900062087694
 20
34.35475537349379
 11
176.3566998020884
 21
34.40772011103407
 72
     1
 10
176.3566998020884
 20
34.40772011103407
 11
175.9234014373278
 21
34.4266753976678
 72
     1
 10
175.9234014373278
 20
34.4266753976678
 11
175.4901111144876
 21
34.40812984833468
 72
     1
 10
175.4901111144876
 20
34.40812984833468
 11
175.0568265358763
 21
34.3555638729887
 72
     1
 10
175.0568265358763
 20
34.3555638729887
 11
174.6235448293794
 21
34.27420083033735
 72
     1
 10
174.6235448293794
 20
34.27420083033735
 11
174.1902631228824
 21
34.16926407908812
 72
     1
 10
174.1902631228824
 20
34.16926407908812
 11
173.7569785442711
 21
34.04597697794849
 72
     1
 10
173.7569785442711
 20
34.04597697794849
 11
173.0348233966377
 21
33.81390682093036
 72
     1
 10
173.0348233966377
 20
33.81390682093036
 11
172.312638995987
 21
33.56955501575368
 72
     1
 10
172.312638995987
 20
33.56955501575368
 11
171.5904120454929
 21
33.33710377865685
 72
     1
 10
171.5904120454929
 20
33.33710377865685
 11
171.157049919792
 21
33.21340511103227
 72
     1
 10
171.157049919792
 20
33.21340511103227
 11
170.7236648171756
 21
33.10791960446978
 72
     1
 10
170.7236648171756
 20
33.10791960446978
 11
170.2902538655293
 21
33.0258706176768
 72
     1
 10
170.2902538655293
 20
33.0258706176768
 11
169.8568141927388
 21
32.9724815093609
 72
     1
 10
169.8568141927388
 20
32.9724815093609
 11
169.4233429266895
 21
32.95297563822953
 72
     1
 10
169.4233429266895
 20
32.95297563822953
 11
169.2609698399812
 21
32.95536530516614
 72
     1
 10
169.2609698399812
 20
32.95536530516614
 11
169.0985924912969
 21
32.9629694827764
 72
     1
 10
169.0985924912969
 20
32.9629694827764
 11
168.8820837213129
 21
32.98074939070661
 72
     1
 10
168.8820837213129
 20
32.98074939070661
 11
168.6655697536875
 21
33.00667044399911
 72
     1
 10
168.6655697536875
 20
33.00667044399911
 11
168.4490519479663
 21
33.04008744503376
 72
     1
 10
168.4490519479663
 20
33.04008744503376
 11
168.5154116562073
 21
32.92696672402679
 72
     1
 10
168.5154116562073
 20
32.92696672402679
 11
168.5856638368062
 21
32.8160411648753
 72
     1
 10
168.5856638368062
 20
32.8160411648753
 11
168.6851924704777
 21
32.67189791672561
 72
     1
 10
168.6851924704777
 20
32.67189791672561
 11
168.7911372160355
 21
32.53245936166769
 72
     1
 10
168.7911372160355
 20
32.53245936166769
 11
168.9031559479066
 21
32.39814532300638
 72
     1
 10
168.9031559479066
 20
32.39814532300638
 11
169.0908365911667
 21
32.38150684614995
 72
     1
 10
169.0908365911667
 20
32.38150684614995
 11
169.2785125459489
 21
32.37135809082082
 72
     1
 10
169.2785125459489
 20
32.37135809082082
 11
169.4661829266895
 21
32.36811936736319
 72
     1
 10
169.4661829266895
 20
32.36811936736319
 11
169.8996541927388
 21
32.38762753962426
 72
     1
 10
169.8996541927388
 20
32.38762753962426
 11
170.3330938655294
 21
32.44102294631375
 72
     1
 10
170.3330938655294
 20
32.44102294631375
 11
170.7665048171756
 21
32.5230816125186
 72
     1
 10
170.7665048171756
 20
32.5230816125186
 11
171.199889919792
 21
32.62857956332578
 72
     1
 10
171.199889919792
 20
32.62857956332578
 11
171.633252045493
 21
32.75229282382227
 72
     1
 10
171.633252045493
 20
32.75229282382227
 11
172.3554789959871
 21
32.98477148345477
 72
     1
 10
172.3554789959871
 20
32.98477148345477
 11
173.0776633966378
 21
33.22915211509063
 72
     1
 10
173.0776633966378
 20
33.22915211509063
 11
173.7998185442711
 21
33.46124964968801
 72
     1
 10
173.7998185442711
 20
33.46124964968801
 11
174.2331031228825
 21
33.58455129514658
 72
     1
 10
174.2331031228825
 20
33.58455129514658
 11
174.6663848293794
 21
33.68950042590319
 72
     1
 10
174.6663848293794
 20
33.68950042590319
 11
175.0996665358763
 21
33.77087306704484
 72
     1
 10
175.0996665358763
 20
33.77087306704484
 11
175.5329511144877
 21
33.82344524365846
 72
     1
 10
175.5329511144877
 20
33.82344524365846
 11
175.9662414373279
 21
33.84199298083104
 72
     1
 10
175.9662414373279
 20
33.84199298083104
 11
176.3966841732523
 21
33.82327748735603
 72
     1
 10
176.3966841732523
 20
33.82327748735603
 11
176.8271348491837
 21
33.77096132989182
 72
     1
 10
176.8271348491837
 20
33.77096132989182
 11
177.2575929019814
 21
33.69017663937343
 72
     1
 10
177.2575929019814
 20
33.69017663937343
 11
177.688057768505
 21
33.58605554673584
 72
     1
 10
177.688057768505
 20
33.58605554673584
 11
178.1185288856139
 21
33.4637301829141
 72
     1
 10
178.1185288856139
 20
33.4637301829141
 11
178.8359931081339
 21
33.23333976163777
 72
     1
 10
178.8359931081339
 20
33.23333976163777
 11
179.553470521979
 21
32.99039770510925
 72
     1
 10
179.553470521979
 20
32.99039770510925
 11
180.270958520017
 21
32.75866387876839
 72
     1
 10
180.270958520017
 20
32.75866387876839
 11
180.7014553146854
 21
32.63488763747694
 72
     1
 10
180.7014553146854
 20
32.63488763747694
 11
181.1319544179551
 21
32.52883204154644
 72
     1
 10
181.1319544179551
 20
32.52883204154644
 11
181.5624552666855
 21
32.44562922191187
 72
     1
 10
181.5624552666855
 20
32.44562922191187
 11
181.992957297736
 21
32.39041130950827
 72
     1
 10
181.992957297736
 20
32.39041130950827
 11
182.4234599479661
 21
32.36831043527062
 72
     1
 10
182.4234599479661
 20
32.36831043527062
 11
182.8539625981962
 21
32.39041130950825
 72
     1
 10
182.8539625981962
 20
32.39041130950825
 11
183.2844646292467
 21
32.44562922191184
 72
     1
 10
183.2844646292467
 20
32.44562922191184
 11
183.7149654779771
 21
32.52883204154642
 72
     1
 10
183.7149654779771
 20
32.52883204154642
 11
184.1454645812468
 21
32.63488763747692
 72
     1
 10
184.1454645812468
 20
32.63488763747692
 11
184.5759613759153
 21
32.75866387876836
 72
     1
 10
184.5759613759153
 20
32.75866387876836
 11
185.2934493739533
 21
32.99039770510921
 72
     1
 10
185.2934493739533
 20
32.99039770510921
 11
186.0109267877985
 21
33.23333976163773
 72
     1
 10
186.0109267877985
 20
33.23333976163773
 11
186.7283910103185
 21
33.46373018291405
 72
     1
 10
186.7283910103185
 20
33.46373018291405
 11
187.1588621274273
 21
33.5860555467358
 72
     1
 10
187.1588621274273
 20
33.5860555467358
 11
187.5893269939509
 21
33.69017663937338
 72
     1
 10
187.5893269939509
 20
33.69017663937338
 11
188.0197850467487
 21
33.77096132989178
 72
     1
 10
188.0197850467487
 20
33.77096132989178
 11
188.4502357226801
 21
33.82327748735599
 72
     1
 10
188.4502357226801
 20
33.82327748735599
 11
188.8806784586045
 21
33.84199298083099
 72
     1
 10
188.8806784586045
 20
33.84199298083099
 11
189.3139687814447
 21
33.82344524365841
 72
     1
 10
189.3139687814447
 20
33.82344524365841
 11
189.747253360056
 21
33.77087306704479
 72
     1
 10
189.747253360056
 20
33.77087306704479
 11
190.1805350665529
 21
33.68950042590315
 72
     1
 10
190.1805350665529
 20
33.68950042590315
 11
190.6138167730499
 21
33.58455129514653
 72
     1
 10
190.6138167730499
 20
33.58455129514653
 11
191.0471013516612
 21
33.46124964968796
 72
     1
 10
191.0471013516612
 20
33.46124964968796
 11
191.7692564992946
 21
33.22915211509058
 72
     1
 10
191.7692564992946
 20
33.22915211509058
 11
192.4914408999453
 21
32.98477148345472
 72
     1
 10
192.4914408999453
 20
32.98477148345472
 11
193.2136678504394
 21
32.75229282382221
 72
     1
 10
193.2136678504394
 20
32.75229282382221
 11
193.6470299761404
 21
32.62857956332573
 72
     1
 10
193.6470299761404
 20
32.62857956332573
 11
194.0804150787567
 21
32.52308161251853
 72
     1
 10
194.0804150787567
 20
32.52308161251853
 11
194.513826030403
 21
32.44102294631368
 72
     1
 10
194.513826030403
 20
32.44102294631368
 11
194.9472657031936
 21
32.38762753962421
 72
     1
 10
194.9472657031936
 20
32.38762753962421
 11
195.3807369692428
 21
32.36811936736313
 72
     1
 10
195.3807369692428
 20
32.36811936736313
 11
195.5684073499824
 21
32.37135809082063
 72
     1
 10
195.5684073499824
 20
32.37135809082063
 11
195.7560833047569
 21
32.38150684614894
 72
     1
 10
195.7560833047569
 20
32.38150684614894
 11
195.943763947996
 21
32.39814532300313
 97
        0
 75
     0
 76
     1
 98
        0
  0
SPLINE
  5
2D8
330
1F
100
AcDbEntity
  8
Standard
  6
Continuous
 62
     7
100
AcDbSpline
210
0.0
220
0.0
230
1.0
 70
    11
 71
     1
 72
   133
 73
   131
 74
     0
 42
0.0000000001719983
 43
0.0000000001
 40
0.0
 40
0.0
 40
0.0076923076923077
 40
0.0153846153846154
 40
0.0230769230769231
 40
0.0307692307692308
 40
0.0384615384615385
 40
0.0461538461538462
 40
0.0538461538461538
 40
0.0615384615384615
 40
0.0692307692307692
 40
0.0769230769230769
 40
0.0846153846153846
 40
0.0923076923076923
 40
0.1
 40
0.1076923076923077
 40
0.1153846153846154
 40
0.1230769230769231
 40
0.1307692307692308
 40
0.1384615384615385
 40
0.1461538461538462
 40
0.1538461538461539
 40
0.1615384615384615
 40
0.1692307692307692
 40
0.1769230769230769
 40
0.1846153846153846
 40
0.1923076923076923
 40
0.2
 40
0.2076923076923077
 40
0.2153846153846154
 40
0.2230769230769231
 40
0.2307692307692308
 40
0.2384615384615385
 40
0.2461538461538462
 40
0.2538461538461538
 40
0.2615384615384616
 40
0.2692307692307693
 40
0.2769230769230769
 40
0.2846153846153846
 40
0.2923076923076923
 40
0.3
 40
0.3076923076923077
 40
0.3153846153846154
 40
0.3230769230769231
 40
0.3307692307692308
 40
0.3384615384615385
 40
0.3461538461538461
 40
0.3538461538461539
 40
0.3615384615384616
 40
0.3692307692307693
 40
0.3769230769230769
 40
0.3846153846153846
 40
0.3923076923076924
 40
0.4
 40
0.4076923076923077
 40
0.4153846153846154
 40
0.4230769230769231
 40
0.4307692307692308
 40
0.4384615384615385
 40
0.4461538461538462
 40
0.4538461538461539
 40
0.4615384615384616
 40
0.4692307692307692
 40
0.4769230769230769
 40
0.4846153846153847
 40
0.4923076923076923
 40
0.5
 40
0.5076923076923077
 40
0.5153846153846154
 40
0.5230769230769231
 40
0.5307692307692308
 40
0.5384615384615385
 40
0.5461538461538462
 40
0.5538461538461539
 40
0.5615384615384615
 40
0.5692307692307692
 40
0.576923076923077
 40
0.5846153846153846
 40
0.5923076923076923
 40
0.6000000000000001
 40
0.6076923076923078
 40
0.6153846153846154
 40
0.6230769230769231
 40
0.6307692307692307
 40
0.6384615384615385
 40
0.6461538461538462
 40
0.6538461538461539
 40
0.6615384615384616
 40
0.6692307692307693
 40
0.676923076923077
 40
0.6846153846153846
 40
0.6923076923076923
 40
0.7000000000000001
 40
0.7076923076923077
 40
0.7153846153846154
 40
0.7230769230769232
 40
0.7307692307692308
 40
0.7384615384615385
 40
0.7461538461538462
 40
0.7538461538461538
 40
0.7615384615384616
 40
0.7692307692307693
 40
0.7769230769230769
 40
0.7846153846153847
 40
0.7923076923076924
 40
0.8
 40
0.8076923076923077
 40
0.8153846153846154
 40
0.8230769230769232
 40
0.8307692307692308
 40
0.8384615384615385
 40
0.8461538461538463
 40
0.8538461538461539
 40
0.8615384615384616
 40
0.8692307692307693
 40
0.8769230769230769
 40
0.8846153846153847
 40
0.8923076923076924
 40
0.9
 40
0.9076923076923078
 40
0.9153846153846155
 40
0.9230769230769231
 40
0.9307692307692308
 40
0.9384615384615385
 40
0.9461538461538462
 40
0.9538461538461539
 40
0.9615384615384616
 40
0.9692307692307693
 40
0.976923076923077
 40
0.9846153846153847
 40
0.9923076923076923
 40
1.0
 40
1.0
 10
195.943763947996
 20
32.39814532300313
 30
0.0
 10
195.7560833047569
 20
32.38150684614894
 30
0.0
 10
195.5684073499824
 20
32.37135809082063
 30
0.0
 10
195.3807369692428
 20
32.36811936736313
 30
0.0
 10
194.9472657031936
 20
32.38762753962421
 30
0.0
 10
194.513826030403
 20
32.44102294631368
 30
0.0
 10
194.0804150787567
 20
32.52308161251853
 30
0.0
 10
193.6470299761404
 20
32.62857956332573
 30
0.0
 10
193.2136678504394
 20
32.75229282382221
 30
0.0
 10
192.4914408999453
 20
32.98477148345472
 30
0.0
 10
191.7692564992946
 20
33.22915211509058
 30
0.0
 10
191.0471013516612
 20
33.46124964968796
 30
0.0
 10
190.6138167730499
 20
33.58455129514653
 30
0.0
 10
190.1805350665529
 20
33.68950042590315
 30
0.0
 10
189.747253360056
 20
33.77087306704479
 30
0.0
 10
189.3139687814447
 20
33.82344524365841
 30
0.0
 10
188.8806784586045
 20
33.84199298083099
 30
0.0
 10
188.4502357226801
 20
33.82327748735599
 30
0.0
 10
188.0197850467487
 20
33.77096132989178
 30
0.0
 10
187.5893269939509
 20
33.69017663937338
 30
0.0
 10
187.1588621274273
 20
33.5860555467358
 30
0.0
 10
186.7283910103185
 20
33.46373018291405
 30
0.0
 10
186.0109267877985
 20
33.23333976163773
 30
0.0
 10
185.2934493739533
 20
32.99039770510921
 30
0.0
 10
184.5759613759153
 20
32.75866387876836
 30
0.0
 10
184.1454645812468
 20
32.63488763747692
 30
0.0
 10
183.7149654779771
 20
32.52883204154642
 30
0.0
 10
183.2844646292467
 20
32.44562922191184
 30
0.0
 10
182.8539625981962
 20
32.39041130950825
 30
0.0
 10
182.4234599479661
 20
32.36831043527062
 30
0.0
 10
181.992957297736
 20
32.39041130950827
 30
0.0
 10
181.5624552666855
 20
32.44562922191187
 30
0.0
 10
181.1319544179551
 20
32.52883204154644
 30
0.0
 10
180.7014553146854
 20
32.63488763747694
 30
0.0
 10
180.270958520017
 20
32.75866387876839
 30
0.0
 10
179.553470521979
 20
32.99039770510925
 30
0.0
 10
178.8359931081339
 20
33.23333976163777
 30
0.0
 10
178.1185288856139
 20
33.4637301829141
 30
0.0
 10
177.688057768505
 20
33.58605554673584
 30
0.0
 10
177.2575929019814
 20
33.69017663937343
 30
0.0
 10
176.8271348491837
 20
33.77096132989182
 30
0.0
 10
176.3966841732523
 20
33.82327748735603
 30
0.0
 10
175.9662414373279
 20
33.84199298083104
 30
0.0
 10
175.5329511144877
 20
33.82344524365846
 30
0.0
 10
175.0996665358763
 20
33.77087306704484
 30
0.0
 10
174.6663848293794
 20
33.68950042590319
 30
0.0
 10
174.2331031228825
 20
33.58455129514658
 30
0.0
 10
173.7998185442711
 20
33.46124964968801
 30
0.0
 10
173.0776633966378
 20
33.22915211509063
 30
0.0
 10
172.3554789959871
 20
32.98477148345477
 30
0.0
 10
171.633252045493
 20
32.75229282382227
 30
0.0
 10
171.199889919792
 20
32.62857956332578
 30
0.0
 10
170.7665048171756
 20
32.5230816125186
 30
0.0
 10
170.3330938655294
 20
32.44102294631375
 30
0.0
 10
169.8996541927388
 20
32.38762753962426
 30
0.0
 10
169.4661829266895
 20
32.36811936736319
 30
0.0
 10
169.2785125459489
 20
32.37135809082082
 30
0.0
 10
169.0908365911667
 20
32.38150684614995
 30
0.0
 10
168.9031559479066
 20
32.39814532300638
 30
0.0
 10
168.7911372160355
 20
32.53245936166769
 30
0.0
 10
168.6851924704777
 20
32.67189791672561
 30
0.0
 10
168.5856638368062
 20
32.8160411648753
 30
0.0
 10
168.5154116562073
 20
32.92696672402679
 30
0.0
 10
168.4490519479663
 20
33.04008744503376
 30
0.0
 10
168.6655697536875
 20
33.00667044399911
 30
0.0
 10
168.8820837213129
 20
32.98074939070661
 30
0.0
 10
169.0985924912969
 20
32.9629694827764
 30
0.0
 10
169.2609698399812
 20
32.95536530516614
 30
0.0
 10
169.4233429266895
 20
32.95297563822953
 30
0.0
 10
169.8568141927388
 20
32.9724815093609
 30
0.0
 10
170.2902538655293
 20
33.0258706176768
 30
0.0
 10
170.7236648171756
 20
33.10791960446978
 30
0.0
 10
171.157049919792
 20
33.21340511103227
 30
0.0
 10
171.5904120454929
 20
33.33710377865685
 30
0.0
 10
172.312638995987
 20
33.56955501575368
 30
0.0
 10
173.0348233966377
 20
33.81390682093036
 30
0.0
 10
173.7569785442711
 20
34.04597697794849
 30
0.0
 10
174.1902631228824
 20
34.16926407908812
 30
0.0
 10
174.6235448293794
 20
34.27420083033735
 30
0.0
 10
175.0568265358763
 20
34.3555638729887
 30
0.0
 10
175.4901111144876
 20
34.40812984833468
 30
0.0
 10
175.9234014373278
 20
34.4266753976678
 30
0.0
 10
176.3566998020884
 20
34.40772011103407
 30
0.0
 10
176.7900062087694
 20
34.35475537349379
 30
0.0
 10
177.2233200829479
 20
34.27301551886063
 30
0.0
 10
177.6566408502011
 20
34.16773488094841
 30
0.0
 10
178.089967936106
 20
34.04414779357084
 30
0.0
 10
178.8121922272349
 20
33.81170502492023
 30
0.0
 10
179.5344298151899
 20
33.56718385081968
 30
0.0
 10
180.2566780406056
 20
33.33481729818479
 30
0.0
 10
180.6900309755404
 20
33.21131252410422
 30
0.0
 10
181.1233862081667
 20
33.10614163725466
 30
0.0
 10
181.5567431640617
 20
33.02453897144984
 30
0.0
 10
181.9901012688025
 20
32.97173886050351
 30
0.0
 10
182.4234599479661
 20
32.95297563822946
 30
0.0
 10
182.8568186271297
 20
32.97173886050351
 30
0.0
 10
183.2901767318705
 20
33.02453897144982
 30
0.0
 10
183.7235336877655
 20
33.10614163725464
 30
0.0
 10
184.1568889203918
 20
33.21131252410422
 30
0.0
 10
184.5902418553266
 20
33.33481729818478
 30
0.0
 10
185.3124900807424
 20
33.56718385081967
 30
0.0
 10
186.0347276686974
 20
33.81170502492019
 30
0.0
 10
186.7569519598263
 20
34.04414779357082
 30
0.0
 10
187.1902790457312
 20
34.16773488094837
 30
0.0
 10
187.6235998129844
 20
34.2730155188606
 30
0.0
 10
188.0569136871629
 20
34.35475537349375
 30
0.0
 10
188.4902200938439
 20
34.40772011103405
 30
0.0
 10
188.9235184586045
 20
34.42667539766776
 30
0.0
 10
189.3568087814447
 20
34.40812984833464
 30
0.0
 10
189.790093360056
 20
34.35556387298867
 30
0.0
 10
190.2233750665529
 20
34.27420083033731
 30
0.0
 10
190.6566567730499
 20
34.16926407908807
 30
0.0
 10
191.0899413516612
 20
34.04597697794846
 30
0.0
 10
191.8120964992945
 20
33.81390682093032
 30
0.0
 10
192.5342808999452
 20
33.56955501575364
 30
0.0
 10
193.2565078504393
 20
33.33710377865683
 30
0.0
 10
193.6898699761402
 20
33.21340511103223
 30
0.0
 10
194.1232550787566
 20
33.10791960446969
 30
0.0
 10
194.5566660304029
 20
33.02587061767675
 30
0.0
 10
194.9901057031935
 20
32.97248150936083
 30
0.0
 10
195.4235769692428
 20
32.95297563822946
 30
0.0
 10
195.6400753936169
 20
32.95733408257838
 30
0.0
 10
195.8565810549507
 20
32.97080146871989
 30
0.0
 10
196.0730925936986
 20
32.99273259903379
 30
0.0
 10
196.2354792869609
 20
33.01434715218897
 30
0.0
 10
196.3978679479661
 20
33.04008744503379
 30
0.0
 10
196.3085180849766
 20
32.88973765533247
 30
0.0
 10
196.2123136419326
 20
32.74340889913487
 30
0.0
 10
196.1095365653352
 20
32.60156356987058
 30
0.0
 10
196.0283332547601
 20
32.49838474015061
 30
0.0
 10
195.943763947996
 20
32.39814532300313
 30
0.0
  0
HATCH
  5
2D9
330
1F
100
AcDbEntity
  8
Standard
  6
Continuous
 62
   252
100
AcDbHatch
 10
0.0
 20
0.0
 30
0.0
210
0.0
220
0.0
230
1.0
  2
SOLID
 70
     1
 71
     0
 91
        1
 92
        1
 93
       12
 72
     1
 10
191.7769814798811
 20
40.78878873619113
 11
190.4096107139236
 21
40.78878873619114
 72
     1
 10
190.4096107139236
 20
40.78878873619114
 11
190.4096107139236
 21
38.8501682949955
 72
     1
 10
190.4096107139236
 20
38.8501682949955
 11
187.986233947966
 21
38.85016829499551
 72
     1
 10
187.986233947966
 20
38.85016829499551
 11
187.986233947966
 21
40.78878873619115
 72
     1
 10
187.986233947966
 20
40.78878873619115
 11
186.6274311820089
 21
40.78878873619115
 72
     1
 10
186.6274311820089
 20
40.78878873619115
 11
186.6274311820088
 21
35.53234701839965
 72
     1
 10
186.6274311820088
 20
35.53234701839965
 11
187.986233947966
 21
35.53234701839965
 72
     1
 10
187.986233947966
 20
35.53234701839965
 11
187.986233947966
 21
37.76549595456993
 72
     1
 10
187.986233947966
 20
37.76549595456993
 11
190.4096107139236
 21
37.76549595456992
 72
     1
 10
190.4096107139236
 20
37.76549595456992
 11
190.4096107139236
 21
35.53234701839965
 72
     1
 10
190.4096107139236
 20
35.53234701839965
 11
191.7769814798811
 21
35.53234701839964
 72
     1
 10
191.7769814798811
 20
35.53234701839964
 11
191.7769814798811
 21
40.78878873619113
 97
        0
 75
     0
 76
     1
 98
        0
  0
SPLINE
  5
2DA
330
1F
100
AcDbEntity
  8
Standard
  6
Continuous
 62
     7
100
AcDbSpline
210
0.0
220
0.0
230
1.0
 70
    11
 71
     1
 72
    15
 73
    13
 74
     0
 42
0.0000000003429882
 43
0.0000000001
 40
0.0
 40
0.0
 40
0.0833333333333333
 40
0.1666666666666667
 40
0.25
 40
0.3333333333333333
 40
0.4166666666666666
 40
0.5
 40
0.5833333333333333
 40
0.6666666666666666
 40
0.75
 40
0.8333333333333333
 40
0.9166666666666666
 40
1.0
 40
1.0
 10
191.7769814798811
 20
40.78878873619113
 30
0.0
 10
190.4096107139236
 20
40.78878873619114
 30
0.0
 10
190.4096107139236
 20
38.8501682949955
 30
0.0
 10
187.986233947966
 20
38.85016829499551
 30
0.0
 10
187.986233947966
 20
40.78878873619115
 30
0.0
 10
186.6274311820089
 20
40.78878873619115
 30
0.0
 10
186.6274311820088
 20
35.53234701839965
 30
0.0
 10
187.986233947966
 20
35.53234701839965
 30
0.0
 10
187.986233947966
 20
37.76549595456993
 30
0.0
 10
190.4096107139236
 20
37.76549595456992
 30
0.0
 10
190.4096107139236
 20
35.53234701839965
 30
0.0
 10
191.7769814798811
 20
35.53234701839964
 30
0.0
 10
191.7769814798811
 20
40.78878873619113
 30
0.0
  0
HATCH
  5
2DB
330
1F
100
AcDbEntity
  8
Standard
  6
Continuous
 62
   252
100
AcDbHatch
 10
0.0
 20
0.0
 30
0.0
210
0.0
220
0.0
230
1.0
  2
SOLID
 70
     1
 71
     0
 91
        1
 92
        1
 93
       12
 72
     1
 10
197.2021205862642
 20
35.53234701839963
 11
197.2021205862642
 21
36.53726403967632
 72
     1
 10
197.2021205862642
 20
36.53726403967632
 11
194.6210105862641
 21
36.53726403967633
 72
     1
 10
194.6210105862641
 20
36.53726403967633
 11
194.6210105862641
 21
37.82930020988904
 72
     1
 10
194.6210105862641
 20
37.82930020988904
 11
196.4922982458385
 21
37.82930020988903
 72
     1
 10
196.4922982458385
 20
37.82930020988903
 11
196.4922982458385
 21
38.8023151035061
 72
     1
 10
196.4922982458385
 20
38.8023151035061
 11
194.6210105862641
 21
38.8023151035061
 72
     1
 10
194.6210105862641
 20
38.8023151035061
 11
194.6210105862641
 21
39.78387171491456
 72
     1
 10
194.6210105862641
 20
39.78387171491456
 11
196.8511971820087
 21
39.78387171491455
 72
     1
 10
196.8511971820087
 20
39.78387171491455
 11
196.8511971820087
 21
40.78878873619112
 72
     1
 10
196.8511971820087
 20
40.78878873619112
 11
193.2622078203067
 21
40.78878873619113
 72
     1
 10
193.2622078203067
 20
40.78878873619113
 11
193.2622078203067
 21
35.53234701839964
 72
     1
 10
193.2622078203067
 20
35.53234701839964
 11
197.2021205862642
 21
35.53234701839963
 97
        0
 75
     0
 76
     1
 98
        0
  0
SPLINE
  5
2DC
330
1F
100
AcDbEntity
  8
Standard
  6
Continuous
 62
     7
100
AcDbSpline
210
0.0
220
0.0
230
1.0
 70
    11
 71
     1
 72
    15
 73
    13
 74
     0
 42
0.0000000003760012
 43
0.0000000001
 40
0.0
 40
0.0
 40
0.0833333333333333
 40
0.1666666666666667
 40
0.25
 40
0.3333333333333333
 40
0.4166666666666666
 40
0.5
 40
0.5833333333333333
 40
0.6666666666666666
 40
0.75
 40
0.8333333333333333
 40
0.9166666666666666
 40
1.0
 40
1.0
 10
197.2021205862642
 20
35.53234701839963
 30
0.0
 10
193.2622078203067
 20
35.53234701839964
 30
0.0
 10
193.2622078203067
 20
40.78878873619113
 30
0.0
 10
196.8511971820087
 20
40.78878873619112
 30
0.0
 10
196.8511971820087
 20
39.78387171491455
 30
0.0
 10
194.6210105862641
 20
39.78387171491456
 30
0.0
 10
194.6210105862641
 20
38.8023151035061
 30
0.0
 10
196.4922982458385
 20
38.8023151035061
 30
0.0
 10
196.4922982458385
 20
37.82930020988903
 30
0.0
 10
194.6210105862641
 20
37.82930020988904
 30
0.0
 10
194.6210105862641
 20
36.53726403967633
 30
0.0
 10
197.2021205862642
 20
36.53726403967632
 30
0.0
 10
197.2021205862642
 20
35.53234701839963
 30
0.0
  0
LINE
  5
2DD
330
1F
100
AcDbEntity
  8
Default
  6
Continuous
 62
     7
100
AcDbLine
 10
6.6
 20
45.0
 30
0.0
 11
203.0048694642
 21
45.0
 31
0.0
  0
LINE
  5
2DE
330
1F
100
AcDbEntity
  8
Default
  6
Continuous
 62
     7
100
AcDbLine
 10
6.6
 20
25.0
 30
0.0
 11
203.0048694642
 21
25.0
 31
0.0
  0
LINE
  5
2DF
330
1F
100
AcDbEntity
  8
Default
  6
Continuous
 62
     7
100
AcDbLine
 10
6.6
 20
40.0
 30
0.0
 11
105.0
 21
40.0
 31
0.0
  0
LINE
  5
2E0
330
1F
100
AcDbEntity
  8
Default
  6
Continuous
 62
     7
100
AcDbLine
 10
25.0
 20
35.0
 30
0.0
 11
105.0
 21
35.0
 31
0.0
  0
LINE
  5
2E1
330
1F
100
AcDbEntity
  8
Default
  6
Continuous
 62
     7
100
AcDbLine
 10
25.0
 20
30.0
 30
0.0
 11
85.0
 21
30.0
 31
0.0
  0
LINE
  5
2E2
330
1F
100
AcDbEntity
  8
Default
  6
Continuous
 62
     7
100
AcDbLine
 10
25.0
 20
45.0
 30
0.0
 11
25.0
 21
5.0
 31
0.0
  0
LINE
  5
2E3
330
1F
100
AcDbEntity
  8
Default
  6
Continuous
 62
     7
100
AcDbLine
 10
45.0
 20
45.0
 30
0.0
 11
45.0
 21
5.0
 31
0.0
  0
LINE
  5
2E4
330
1F
100
AcDbEntity
  8
Default
  6
Continuous
 62
     7
100
AcDbLine
 10
65.0
 20
45.0
 30
0.0
 11
65.0
 21
25.0
 31
0.0
  0
LINE
  5
2E5
330
1F
100
AcDbEntity
  8
Default
  6
Continuous
 62
     7
100
AcDbLine
 10
85.0
 20
45.0
 30
0.0
 11
85.0
 21
25.0
 31
0.0
  0
LINE
  5
2E6
330
1F
100
AcDbEntity
  8
Default
  6
Continuous
 62
     7
100
AcDbLine
 10
105.0
 20
45.0
 30
0.0
 11
105.0
 21
25.0
 31
0.0
  0
LINE
  5
2E7
330
1F
100
AcDbEntity
  8
Default
  6
Continuous
 62
     7
100
AcDbLine
 10
25.0
 20
12.0
 30
0.0
 11
203.0048694642
 21
12.0
 31
0.0
  0
LINE
  5
2E8
330
1F
100
AcDbEntity
  8
Default
  6
Continuous
 62
     7
100
AcDbLine
 10
6.6
 20
20.0
 30
0.0
 11
25.0
 21
20.0
 31
0.0
  0
LINE
  5
2E9
330
1F
100
AcDbEntity
  8
Default
  6
Continuous
 62
     7
100
AcDbLine
 10
163.0
 20
25.0
 30
0.0
 11
163.0
 21
5.0
 31
0.0
  0
TEXT
  5
2EA
330
1F
100
AcDbEntity
  8
Default
  6
Continuous
 62
     7
100
AcDbText
 10
6.9540142599
 20
41.7920376842
 30
0.0
 40
2.0
  1
Masstab / Scale
 41
0.9
  7
SEACAD_arial_ttf
 11
6.9540142599
 21
43.7920376842
 31
0.0
100
AcDbText
 73
     3
  0
TEXT
  5
2EB
330
1F
100
AcDbEntity
  8
Default
  6
Continuous
 62
     7
100
AcDbText
 10
26.9540142599
 20
41.7920376842
 30
0.0
 40
2.0
  1
AM-Nr. / ECN
 41
0.9
  7
SEACAD_arial_ttf
 11
26.9540142599
 21
43.7920376842
 31
0.0
100
AcDbText
 73
     3
  0
TEXT
  5
2EC
330
1F
100
AcDbEntity
  8
Default
  6
Continuous
 62
     7
100
AcDbText
 10
26.9540142599
 20
36.7920376842
 30
0.0
 40
2.0
  1
Datum / Date
 41
0.9
  7
SEACAD_arial_ttf
 11
26.9540142599
 21
38.7920376842
 31
0.0
100
AcDbText
 73
     3
  0
TEXT
  5
2ED
330
1F
100
AcDbEntity
  8
Default
  6
Continuous
 62
     7
100
AcDbText
 10
25.5253978501
 20
31.6729863168
 30
0.0
 40
2.0
  1
Verantw. / Respons.
 41
0.8
  7
SEACAD_arial_ttf
 11
25.5253978501
 21
33.6729863168
 31
0.0
100
AcDbText
 73
     3
  0
TEXT
  5
2EE
330
1F
100
AcDbEntity
  8
Default
  6
Continuous
 62
     7
100
AcDbText
 10
25.6444492176
 20
26.7920376842
 30
0.0
 40
2.0
  1
Gepruft / Approved
 41
0.8
  7
SEACAD_arial_ttf
 11
25.6444492176
 21
28.7920376842
 31
0.0
100
AcDbText
 73
     3
  0
TEXT
  5
2EF
330
1F
100
AcDbEntity
  8
Default
  6
Continuous
 62
     7
100
AcDbText
 10
11.7260289
 20
21.6899061944
 30
0.0
 40
2.0
  1
Status
  7
SEACAD_arial_ttf
 11
11.7260289
 21
23.6899061944
 31
0.0
100
AcDbText
 73
     3
  0
TEXT
  5
2F0
330
1F
100
AcDbEntity
  8
Default
  6
Continuous
 62
     7
100
AcDbText
 10
26.0592381086
 20
18.1421194157
 30
0.0
 40
2.0
  1
Benennung /
  7
SEACAD_arial_ttf
 11
26.0592381086
 21
20.1421194157
 31
0.0
100
AcDbText
 73
     3
  0
TEXT
  5
2F1
330
1F
100
AcDbEntity
  8
Default
  6
Continuous
 62
     7
100
AcDbText
 10
26.0592381086
 20
15.0116846331
 30
0.0
 40
2.0
  1
Title
  7
SEACAD_arial_ttf
 11
26.0592381086
 21
17.0116846331
 31
0.0
100
AcDbText
 73
     3
  0
TEXT
  5
2F2
330
1F
100
AcDbEntity
  8
Default
  6
Continuous
 62
     7
100
AcDbText
 10
26.0022330564
 20
8.7308567533
 30
0.0
 40
2.0
  1
Prod.-No. +
  7
SEACAD_arial_ttf
 11
26.0022330564
 21
10.7308567533
 31
0.0
100
AcDbText
 73
     3
  0
TEXT
  5
2F3
330
1F
100
AcDbEntity
  8
Default
  6
Continuous
 62
     7
100
AcDbText
 10
26.0022330564
 20
5.6004219707
 30
0.0
 40
2.0
  1
variants:
  7
SEACAD_arial_ttf
 11
26.0022330564
 21
7.6004219707
 31
0.0
100
AcDbText
 73
     3
  0
TEXT
  5
2F4
330
1F
100
AcDbEntity
  8
Default
  6
Continuous
 62
     7
100
AcDbText
 10
89.0181404555
 20
30.6686887902
 30
0.0
 40
2.0
  1
Copyright
  7
SEACAD_arial_ttf
 11
89.0181404555
 21
32.6686887902
 31
0.0
100
AcDbText
 73
     3
  0
TEXT
  5
2F5
330
1F
100
AcDbEntity
  8
Default
  6
Continuous
 62
     7
100
AcDbText
 10
89.5181404555
 20
27.5382540076
 30
0.0
 40
2.0
  1
reserved
  7
SEACAD_arial_ttf
 11
89.5181404555
 21
29.5382540076
 31
0.0
100
AcDbText
 73
     3
  0
TEXT
  5
2F6
330
1F
100
AcDbEntity
  8
Default
  6
Continuous
 62
     7
100
AcDbText
 10
108.0569338806
 20
40.3608143983
 30
0.0
 40
2.0
  1
Grohe Water Technology
  7
SEACAD_arial_ttf
 11
108.0569338806
 21
42.3608143983
 31
0.0
100
AcDbText
 73
     3
  0
TEXT
  5
2F7
330
1F
100
AcDbEntity
  8
Default
  6
Continuous
 62
     7
100
AcDbText
 10
108.0569338806
 20
37.2303796157
 30
0.0
 40
2.0
  1
AG & Co. KG
  7
SEACAD_arial_ttf
 11
108.0569338806
 21
39.2303796157
 31
0.0
100
AcDbText
 73
     3
  0
TEXT
  5
2F8
330
1F
100
AcDbEntity
  8
Default
  6
Continuous
 62
     7
100
AcDbText
 10
108.0569338806
 20
34.099944833
 30
0.0
 40
2.0
  1
Hauptstras137
  7
SEACAD_arial_ttf
 11
108.0569338806
 21
36.099944833
 31
0.0
100
AcDbText
 73
     3
  0
TEXT
  5
2F9
330
1F
100
AcDbEntity
  8
Default
  6
Continuous
 62
     7
100
AcDbText
 10
108.0569338806
 20
30.9695100504
 30
0.0
 40
2.0
  1
D-58675 Hemer
  7
SEACAD_arial_ttf
 11
108.0569338806
 21
32.9695100504
 31
0.0
100
AcDbText
 73
     3
  0
TEXT
  5
2FA
330
1F
100
AcDbEntity
  8
Default
  6
Continuous
 62
     7
100
AcDbText
 10
108.0569338806
 20
27.8390752678
 30
0.0
 40
2.0
  1
Tel. 02372 / 93-0
  7
SEACAD_arial_ttf
 11
108.0569338806
 21
29.8390752678
 31
0.0
100
AcDbText
 73
     3
  0
TEXT
  5
2FB
330
1F
100
AcDbEntity
  8
Default
  6
Continuous
 62
     7
100
AcDbText
 10
163.9513570171
 20
22.2273824007
 30
0.0
 40
2.0
  1
Zeichnung Nr. / Drawing No.:
  7
SEACAD_arial_ttf
 11
163.9513570171
 21
24.2273824007
 31
0.0
100
AcDbText
 73
     3
  0
TEXT
  5
2FC
330
1F
100
AcDbEntity
  8
Default
  6
Continuous
 62
     7
100
AcDbText
 10
163.8580166214
 20
9.52675378
 30
0.0
 40
1.5
  1
TPI-Referenz / TPI-Reference:
  7
SEACAD_arial_ttf
 11
163.8580166214
 21
11.02675378
 31
0.0
100
AcDbText
 73
     3
  0
LINE
  5
2FD
330
1F
100
AcDbEntity
  8
Default
  6
Continuous
 62
     7
100
AcDbLine
 10
203.0048694642
 20
5.0
 30
0.0
 11
203.0048694642
 21
291.0
 31
0.0
  0
ENDSEC
  0
SECTION
  2
OBJECTS
  0
DICTIONARY
  5
C
330
0
100
AcDbDictionary
281
     1
  3
ACAD_GROUP
350
D
  3
ACAD_LAYOUT
350
1A
  3
ACAD_MLINESTYLE
350
17
  3
ACAD_PLOTSETTINGS
350
19
  3
ACAD_PLOTSTYLENAME
350
E
  0
DICTIONARY
  5
D
102
{ACAD_REACTORS
330
C
102
}
330
C
100
AcDbDictionary
281
     1
  0
DICTIONARY
  5
1A
102
{ACAD_REACTORS
330
C
102
}
330
C
100
AcDbDictionary
281
     1
  3
Layout1
350
1E
  3
Model
350
22
  0
DICTIONARY
  5
17
102
{ACAD_REACTORS
330
C
102
}
330
C
100
AcDbDictionary
281
     1
  3
Standard
350
18
  0
DICTIONARY
  5
19
102
{ACAD_REACTORS
330
C
102
}
330
C
100
AcDbDictionary
281
     1
  0
ACDBDICTIONARYWDFLT
  5
E
102
{ACAD_REACTORS
330
C
102
}
330
C
100
AcDbDictionary
281
     1
  3
Normal
350
F
100
AcDbDictionaryWithDefault
340
F
  0
LAYOUT
  5
1E
102
{ACAD_REACTORS
330
1A
102
}
330
1A
100
AcDbPlotSettings
  1

  2
none_device
  4

  6

 40
0.0
 41
0.0
 42
0.0
 43
0.0
 44
0.0
 45
0.0
 46
0.0
 47
0.0
 48
0.0
 49
0.0
140
0.0
141
0.0
142
1.0
143
1.0
 70
   688
 72
     0
 73
     0
 74
     5
  7

 75
    16
147
1.0
148
0.0
149
0.0
100
AcDbLayout
  1
Layout1
 70
     1
 71
     1
 10
0.0
 20
0.0
 11
210.0
 21
297.0
 12
0.0
 22
0.0
 32
0.0
 14
0.0
 24
0.0
 34
0.0
 15
210.0
 25
297.0
 35
0.0
146
0.0
 13
0.0
 23
0.0
 33
0.0
 16
1.0
 26
0.0
 36
0.0
 17
0.0
 27
1.0
 37
0.0
 76
     0
330
1B
  0
LAYOUT
  5
22
102
{ACAD_REACTORS
330
1A
102
}
330
1A
100
AcDbPlotSettings
  1

  2
none_device
  4

  6

 40
0.0
 41
0.0
 42
0.0
 43
0.0
 44
0.0
 45
0.0
 46
0.0
 47
0.0
 48
0.0
 49
0.0
140
0.0
141
0.0
142
1.0
143
1.0
 70
  1712
 72
     0
 73
     0
 74
     0
  7

 75
     0
147
1.0
148
0.0
149
0.0
100
AcDbLayout
  1
Model
 70
     1
 71
     0
 10
0.0
 20
0.0
 11
210.0
 21
297.0
 12
0.0
 22
0.0
 32
0.0
 14
0.0
 24
0.0
 34
0.0
 15
210.0
 25
297.0
 35
0.0
146
0.0
 13
0.0
 23
0.0
 33
0.0
 16
1.0
 26
0.0
 36
0.0
 17
0.0
 27
1.0
 37
0.0
 76
     0
330
1F
  0
MLINESTYLE
  5
18
102
{ACAD_REACTORS
330
17
102
}
330
17
100
AcDbMlineStyle
  2
Standard
 70
     0
  3

 62
   256
 51
90.0
 52
90.0
 71
     2
 49
0.5
 62
   256
  6
BYLAYER
 49
-0.5
 62
   256
  6
BYLAYER
  0
ACDBPLACEHOLDER
  5
F
102
{ACAD_REACTORS
330
E
102
}
330
E
  0
ENDSEC
  0
EOF
