  0
SECTION
  2
HEADER
  9
$ACADVER
  1
AC1015
  9
$ACADMAINTVER
 70
     6
  9
$DWGCODEPAGE
  3
ANSI_932
  9
$INSBASE
 10
0.0
 20
0.0
 30
0.0
  9
$EXTMIN
 10
0.0
 20
0.0
 30
0.0
  9
$EXTMAX
 10
209.0
 20
296.0
 30
0.0
  9
$LIMMIN
 10
0.0
 20
0.0
  9
$LIMMAX
 10
209.0
 20
296.0
  9
$ORTHOMODE
 70
     0
  9
$REGENMODE
 70
     1
  9
$FILLMODE
 70
     1
  9
$QTEXTMODE
 70
     0
  9
$MIRRTEXT
 70
     1
  9
$LTSCALE
 40
1.0
  9
$ATTMODE
 70
     1
  9
$TEXTSIZE
 40
2.5
  9
$TRACEWID
 40
1.0
  9
$TEXTSTYLE
  7
Standard
  9
$CLAYER
  8
0
  9
$CELTYPE
  6
ByLayer
  9
$CECOLOR
 62
   256
  9
$CELTSCALE
 40
1.0
  9
$DISPSILH
 70
     0
  9
$DIMSCALE
 40
1.0
  9
$DIMASZ
 40
2.5
  9
$DIMEXO
 40
0.625
  9
$DIMDLI
 40
3.75
  9
$DIMRND
 40
0.0
  9
$DIMDLE
 40
0.0
  9
$DIMEXE
 40
1.25
  9
$DIMTP
 40
0.0
  9
$DIMTM
 40
0.0
  9
$DIMTXT
 40
2.5
  9
$DIMCEN
 40
2.5
  9
$DIMTSZ
 40
0.0
  9
$DIMTOL
 70
     0
  9
$DIMLIM
 70
     0
  9
$DIMTIH
 70
     0
  9
$DIMTOH
 70
     0
  9
$DIMSE1
 70
     0
  9
$DIMSE2
 70
     0
  9
$DIMTAD
 70
     1
  9
$DIMZIN
 70
     8
  9
$DIMBLK
  1

  9
$DIMASO
 70
     1
  9
$DIMSHO
 70
     1
  9
$DIMPOST
  1

  9
$DIMAPOST
  1

  9
$DIMALT
 70
     0
  9
$DIMALTD
 70
     3
  9
$DIMALTF
 40
0.0393700787
  9
$DIMLFAC
 40
1.0
  9
$DIMTOFL
 70
     1
  9
$DIMTVP
 40
0.0
  9
$DIMTIX
 70
     0
  9
$DIMSOXD
 70
     0
  9
$DIMSAH
 70
     0
  9
$DIMBLK1
  1

  9
$DIMBLK2
  1

  9
$DIMSTYLE
  2
ISO-25
  9
$DIMCLRD
 70
     0
  9
$DIMCLRE
 70
     0
  9
$DIMCLRT
 70
     0
  9
$DIMTFAC
 40
1.0
  9
$DIMGAP
 40
0.625
  9
$DIMJUST
 70
     0
  9
$DIMSD1
 70
     0
  9
$DIMSD2
 70
     0
  9
$DIMTOLJ
 70
     0
  9
$DIMTZIN
 70
     8
  9
$DIMALTZ
 70
     0
  9
$DIMALTTZ
 70
     0
  9
$DIMUPT
 70
     0
  9
$DIMDEC
 70
     2
  9
$DIMTDEC
 70
     2
  9
$DIMALTU
 70
     2
  9
$DIMALTTD
 70
     3
  9
$DIMTXSTY
  7
Standard
  9
$DIMAUNIT
 70
     0
  9
$DIMADEC
 70
     0
  9
$DIMALTRND
 40
0.0
  9
$DIMAZIN
 70
     0
  9
$DIMDSEP
 70
    44
  9
$DIMATFIT
 70
     3
  9
$DIMFRAC
 70
     0
  9
$DIMLDRBLK
  1

  9
$DIMLUNIT
 70
     2
  9
$DIMLWD
 70
    -2
  9
$DIMLWE
 70
    -2
  9
$DIMTMOVE
 70
     0
  9
$LUNITS
 70
     2
  9
$LUPREC
 70
     4
  9
$SKETCHINC
 40
1.0
  9
$FILLETRAD
 40
10.0
  9
$AUNITS
 70
     0
  9
$AUPREC
 70
     0
  9
$MENU
  1
.
  9
$ELEVATION
 40
0.0
  9
$PELEVATION
 40
0.0
  9
$THICKNESS
 40
0.0
  9
$LIMCHECK
 70
     0
  9
$CHAMFERA
 40
0.0
  9
$CHAMFERB
 40
0.0
  9
$CHAMFERC
 40
0.0
  9
$CHAMFERD
 40
0.0
  9
$SKPOLY
 70
     0
  9
$TDCREATE
 40
2458108.550123993
  9
$TDUCREATE
 40
2458108.175123993
  9
$TDUPDATE
 40
2458108.550125069
  9
$TDUUPDATE
 40
2458108.175125069
  9
$TDINDWG
 40
0.0000000116
  9
$TDUSRTIMER
 40
0.0000000116
  9
$USRTIMER
 70
     1
  9
$ANGBASE
 50
0.0
  9
$ANGDIR
 70
     0
  9
$PDMODE
 70
     0
  9
$PDSIZE
 40
0.0
  9
$PLINEWID
 40
0.0
  9
$SPLFRAME
 70
     0
  9
$SPLINETYPE
 70
     6
  9
$SPLINESEGS
 70
     8
  9
$HANDSEED
  5
292
  9
$SURFTAB1
 70
     6
  9
$SURFTAB2
 70
     6
  9
$SURFTYPE
 70
     6
  9
$SURFU
 70
     6
  9
$SURFV
 70
     6
  9
$UCSBASE
  2

  9
$UCSNAME
  2

  9
$UCSORG
 10
0.0
 20
0.0
 30
0.0
  9
$UCSXDIR
 10
1.0
 20
0.0
 30
0.0
  9
$UCSYDIR
 10
0.0
 20
1.0
 30
0.0
  9
$UCSORTHOREF
  2

  9
$UCSORTHOVIEW
 70
     0
  9
$UCSORGTOP
 10
0.0
 20
0.0
 30
0.0
  9
$UCSORGBOTTOM
 10
0.0
 20
0.0
 30
0.0
  9
$UCSORGLEFT
 10
0.0
 20
0.0
 30
0.0
  9
$UCSORGRIGHT
 10
0.0
 20
0.0
 30
0.0
  9
$UCSORGFRONT
 10
0.0
 20
0.0
 30
0.0
  9
$UCSORGBACK
 10
0.0
 20
0.0
 30
0.0
  9
$PUCSBASE
  2

  9
$PUCSNAME
  2

  9
$PUCSORG
 10
0.0
 20
0.0
 30
0.0
  9
$PUCSXDIR
 10
1.0
 20
0.0
 30
0.0
  9
$PUCSYDIR
 10
0.0
 20
1.0
 30
0.0
  9
$PUCSORTHOREF
  2

  9
$PUCSORTHOVIEW
 70
     0
  9
$PUCSORGTOP
 10
0.0
 20
0.0
 30
0.0
  9
$PUCSORGBOTTOM
 10
0.0
 20
0.0
 30
0.0
  9
$PUCSORGLEFT
 10
0.0
 20
0.0
 30
0.0
  9
$PUCSORGRIGHT
 10
0.0
 20
0.0
 30
0.0
  9
$PUCSORGFRONT
 10
0.0
 20
0.0
 30
0.0
  9
$PUCSORGBACK
 10
0.0
 20
0.0
 30
0.0
  9
$USERI1
 70
     0
  9
$USERI2
 70
     0
  9
$USERI3
 70
     0
  9
$USERI4
 70
     0
  9
$USERI5
 70
     0
  9
$USERR1
 40
0.0
  9
$USERR2
 40
0.0
  9
$USERR3
 40
0.0
  9
$USERR4
 40
0.0
  9
$USERR5
 40
0.0
  9
$WORLDVIEW
 70
     1
  9
$SHADEDGE
 70
     3
  9
$SHADEDIF
 70
    70
  9
$TILEMODE
 70
     1
  9
$MAXACTVP
 70
    64
  9
$PINSBASE
 10
0.0
 20
0.0
 30
0.0
  9
$PLIMCHECK
 70
     0
  9
$PEXTMIN
 10
0.0
 20
0.0
 30
0.0
  9
$PEXTMAX
 10
209.0
 20
296.0
 30
0.0
  9
$PLIMMIN
 10
0.0
 20
0.0
  9
$PLIMMAX
 10
209.0
 20
296.0
  9
$UNITMODE
 70
     0
  9
$VISRETAIN
 70
     1
  9
$PLINEGEN
 70
     0
  9
$PSLTSCALE
 70
     1
  9
$TREEDEPTH
 70
  3020
  9
$CMLSTYLE
  2
Standard
  9
$CMLJUST
 70
     0
  9
$CMLSCALE
 40
20.0
  9
$PROXYGRAPHICS
 70
     1
  9
$MEASUREMENT
 70
     1
  9
$CELWEIGHT
370
    -1
  9
$ENDCAPS
280
     0
  9
$JOINSTYLE
280
     0
  9
$LWDISPLAY
290
     0
  9
$INSUNITS
 70
     4
  9
$HYPERLINKBASE
  1

  9
$STYLESHEET
  1

  9
$XEDIT
290
     1
  9
$CEPSNTYPE
380
     0
  9
$PSTYLEMODE
290
     1
  9
$FINGERPRINTGUID
  2
{0931DDE5-403A-44C9-922D-F93864C2FB87}
  9
$VERSIONGUID
  2
{FAEB1C32-E019-11D5-929B-00C0DF256EC4}
  9
$EXTNAMES
290
     1
  9
$PSVPSCALE
 40
0.0
  9
$OLESTARTUP
290
     0
  0
ENDSEC
  0
SECTION
  2
CLASSES
  0
CLASS
  1
ACDBDICTIONARYWDFLT
  2
AcDbDictionaryWithDefault
  3
ObjectDBX Classes
 90
        0
280
     0
281
     0
  0
CLASS
  1
VISUALSTYLE
  2
AcDbVisualStyle
  3
ObjectDBX Classes
 90
     4095
280
     0
281
     0
  0
CLASS
  1
MATERIAL
  2
AcDbMaterial
  3
ObjectDBX Classes
 90
     1153
280
     0
281
     0
  0
CLASS
  1
SCALE
  2
AcDbScale
  3
ObjectDBX Classes
 90
     1153
280
     0
281
     0
  0
CLASS
  1
SUN
  2
AcDbSun
  3
SCENEOE
 90
     1153
280
     0
281
     0
  0
CLASS
  1
DICTIONARYVAR
  2
AcDbDictionaryVar
  3
ObjectDBX Classes
 90
        0
280
     0
281
     0
  0
CLASS
  1
ACDBPLACEHOLDER
  2
AcDbPlaceHolder
  3
ObjectDBX Classes
 90
        0
280
     0
281
     0
  0
CLASS
  1
LAYOUT
  2
AcDbLayout
  3
ObjectDBX Classes
 90
        0
280
     0
281
     0
  0
ENDSEC
  0
SECTION
  2
TABLES
  0
TABLE
  2
VPORT
  5
8
330
0
100
AcDbSymbolTable
 70
     1
  0
VPORT
  5
29
330
8
100
AcDbSymbolTableRecord
100
AcDbViewportTableRecord
  2
*Active
 70
     0
 10
0.0
 20
0.0
 11
1.0
 21
1.0
 12
344.1869158879
 22
148.5
 13
0.0
 23
0.0
 14
10.0
 24
10.0
 15
10.0
 25
10.0
 16
0.0
 26
0.0
 36
1.0
 17
0.0
 27
0.0
 37
0.0
 40
297.0
 41
1.9729729729
 42
50.0
 43
0.0
 44
0.0
 50
0.0
 51
0.0
 71
     0
 72
   100
 73
     1
 74
     3
 75
     0
 76
     0
 77
     0
 78
     0
281
     0
 65
     1
110
0.0
120
0.0
130
0.0
111
1.0
121
0.0
131
0.0
112
0.0
122
1.0
132
0.0
 79
     0
146
0.0
  0
ENDTAB
  0
TABLE
  2
LTYPE
  5
5
330
0
100
AcDbSymbolTable
 70
     2
  0
LTYPE
  5
14
330
5
100
AcDbSymbolTableRecord
100
AcDbLinetypeTableRecord
  2
ByBlock
 70
     0
  3

 72
    65
 73
     0
 40
0.0
  0
LTYPE
  5
15
330
5
100
AcDbSymbolTableRecord
100
AcDbLinetypeTableRecord
  2
ByLayer
 70
     0
  3

 72
    65
 73
     0
 40
0.0
  0
LTYPE
  5
16
330
5
100
AcDbSymbolTableRecord
100
AcDbLinetypeTableRecord
  2
Continuous
 70
     0
  3
Solid line
 72
    65
 73
     0
 40
0.0
  0
LTYPE
  5
FB
330
5
100
AcDbSymbolTableRecord
100
AcDbLinetypeTableRecord
  2
CENTER2
 70
     0
  3
Center (.5x) ___ _ ___ _ ___ _ ___ _ ___ _ ___
 72
    65
 73
     4
 40
28.575
 49
19.05
 74
     4
 75
     0
340
0
 46
0.0
 50
0.0
 44
0.0
 45
0.0
 49
-3.175
 74
     4
 75
     0
340
0
 46
0.0
 50
0.0
 44
0.0
 45
0.0
 49
3.175
 74
     4
 75
     0
340
0
 46
0.0
 50
0.0
 44
0.0
 45
0.0
 49
-3.175
 74
     4
 75
     0
340
0
 46
0.0
 50
0.0
 44
0.0
 45
0.0
  0
ENDTAB
  0
TABLE
  2
LAYER
  5
2
330
0
100
AcDbSymbolTable
 70
     9
  0
LAYER
  5
10
330
2
100
AcDbSymbolTableRecord
100
AcDbLayerTableRecord
  2
0
 70
     0
 62
     7
  6
Continuous
370
    -3
390
F
  0
LAYER
  5
6A
330
2
100
AcDbSymbolTableRecord
100
AcDbLayerTableRecord
  2
Default
 70
     0
 62
     7
  6
Continuous
370
    -3
390
F
  0
LAYER
  5
75
330
2
100
AcDbSymbolTableRecord
100
AcDbLayerTableRecord
  2
MDS_Layer_2
 70
     0
 62
     7
  6
Continuous
370
    -3
390
F
  0
LAYER
  5
7E
330
2
100
AcDbSymbolTableRecord
100
AcDbLayerTableRecord
  2
MDS_Layer_3
 70
     0
 62
     7
  6
Continuous
370
    -3
390
F
  0
LAYER
  5
81
330
2
100
AcDbSymbolTableRecord
100
AcDbLayerTableRecord
  2
MDS_Layer_1
 70
     0
 62
     7
  6
Continuous
370
    -3
390
F
  0
LAYER
  5
FA
330
2
100
AcDbSymbolTableRecord
100
AcDbLayerTableRecord
  2
MDS_Layer_4
 70
     0
 62
     7
  6
Continuous
370
    -3
390
F
  0
LAYER
  5
14B
330
2
100
AcDbSymbolTableRecord
100
AcDbLayerTableRecord
  2
Layer3
 70
     0
 62
     7
  6
Continuous
370
    -3
390
F
  0
LAYER
  5
1F1
330
2
100
AcDbSymbolTableRecord
100
AcDbLayerTableRecord
  2
Standard
 70
     0
 62
     7
  6
Continuous
370
    -3
390
F
  0
LAYER
  5
20F
330
2
100
AcDbSymbolTableRecord
100
AcDbLayerTableRecord
  2
Layer1
 70
     0
 62
     7
  6
Continuous
370
    -3
390
F
  0
ENDTAB
  0
TABLE
  2
STYLE
  5
3
330
0
100
AcDbSymbolTable
 70
     2
  0
STYLE
  5
11
330
3
100
AcDbSymbolTableRecord
100
AcDbTextStyleTableRecord
  2
Standard
 70
     0
 40
0.0
 41
1.0
 50
0.0
 71
     0
 42
2.5
  3
txt
  4

  0
STYLE
  5
15E
330
3
100
AcDbSymbolTableRecord
100
AcDbTextStyleTableRecord
  2
SEACAD_Arial
 70
     0
 40
0.0
 41
1.0
 50
0.0
 71
     0
 42
2.5
  3
arial.ttf
  4

1001
ACAD
1000
Arial
1071
        0
  0
ENDTAB
  0
TABLE
  2
VIEW
  5
6
330
0
100
AcDbSymbolTable
 70
     0
  0
ENDTAB
  0
TABLE
  2
UCS
  5
7
330
0
100
AcDbSymbolTable
 70
     0
  0
ENDTAB
  0
TABLE
  2
APPID
  5
9
330
0
100
AcDbSymbolTable
 70
     1
  0
APPID
  5
12
330
9
100
AcDbSymbolTableRecord
100
AcDbRegAppTableRecord
  2
ACAD
 70
     0
  0
ENDTAB
  0
TABLE
  2
DIMSTYLE
  5
A
330
0
100
AcDbSymbolTable
 70
     2
100
AcDbDimStyleTable
  0
DIMSTYLE
105
27
330
A
100
AcDbSymbolTableRecord
100
AcDbDimStyleTableRecord
  2
ISO-25
 70
     0
 41
2.5
 42
0.625
 43
3.75
 44
1.25
 73
     0
 74
     0
 77
     1
 78
     8
140
2.5
141
2.5
143
0.0393700787
147
0.625
171
     3
172
     1
178
     0
271
     2
272
     2
274
     3
278
    44
283
     0
284
     8
340
11
  0
DIMSTYLE
105
14C
102
{ACAD_REACTORS
330
15F
330
16A
330
175
330
181
330
18C
330
198
330
1A3
330
1AE
330
1B9
330
1C4
330
1D0
330
1DB
330
1E6
102
}
330
A
100
AcDbSymbolTableRecord
100
AcDbDimStyleTableRecord
  2
Standard
 70
     0
178
     0
340
11
  0
ENDTAB
  0
TABLE
  2
BLOCK_RECORD
  5
1
330
0
100
AcDbSymbolTable
 70
    18
  0
BLOCK_RECORD
  5
1F
330
1
100
AcDbSymbolTableRecord
100
AcDbBlockTableRecord
  2
*Model_Space
340
22
  0
BLOCK_RECORD
  5
1B
330
1
100
AcDbSymbolTableRecord
100
AcDbBlockTableRecord
  2
*Paper_Space
340
1E
  0
BLOCK_RECORD
  5
14D
330
1
100
AcDbSymbolTableRecord
100
AcDbBlockTableRecord
  2
_OBLIQUE
340
0
  0
BLOCK_RECORD
  5
151
330
1
100
AcDbSymbolTableRecord
100
AcDbBlockTableRecord
  2
_DOT
340
0
  0
BLOCK_RECORD
  5
159
330
1
100
AcDbSymbolTableRecord
100
AcDbBlockTableRecord
  2
_SE_FILLED
340
0
  0
BLOCK_RECORD
  5
160
330
1
100
AcDbSymbolTableRecord
100
AcDbBlockTableRecord
  2
DMBLK45
340
0
  0
BLOCK_RECORD
  5
16B
330
1
100
AcDbSymbolTableRecord
100
AcDbBlockTableRecord
  2
DMBLK46
340
0
  0
BLOCK_RECORD
  5
176
330
1
100
AcDbSymbolTableRecord
100
AcDbBlockTableRecord
  2
DMBLK47
340
0
  0
BLOCK_RECORD
  5
182
330
1
100
AcDbSymbolTableRecord
100
AcDbBlockTableRecord
  2
DMBLK48
340
0
  0
BLOCK_RECORD
  5
18D
330
1
100
AcDbSymbolTableRecord
100
AcDbBlockTableRecord
  2
DMBLK49
340
0
  0
BLOCK_RECORD
  5
199
330
1
100
AcDbSymbolTableRecord
100
AcDbBlockTableRecord
  2
DMBLK50
340
0
  0
BLOCK_RECORD
  5
1A4
330
1
100
AcDbSymbolTableRecord
100
AcDbBlockTableRecord
  2
DMBLK51
340
0
  0
BLOCK_RECORD
  5
1AF
330
1
100
AcDbSymbolTableRecord
100
AcDbBlockTableRecord
  2
DMBLK52
340
0
  0
BLOCK_RECORD
  5
1BA
330
1
100
AcDbSymbolTableRecord
100
AcDbBlockTableRecord
  2
DMBLK53
340
0
  0
BLOCK_RECORD
  5
1C5
330
1
100
AcDbSymbolTableRecord
100
AcDbBlockTableRecord
  2
DMBLK54
340
0
  0
BLOCK_RECORD
  5
1D1
330
1
100
AcDbSymbolTableRecord
100
AcDbBlockTableRecord
  2
DMBLK55
340
0
  0
BLOCK_RECORD
  5
1DC
330
1
100
AcDbSymbolTableRecord
100
AcDbBlockTableRecord
  2
DMBLK56
340
0
  0
BLOCK_RECORD
  5
1E7
330
1
100
AcDbSymbolTableRecord
100
AcDbBlockTableRecord
  2
DMBLK57
340
0
  0
BLOCK_RECORD
  5
210
330
1
100
AcDbSymbolTableRecord
100
AcDbBlockTableRecord
  2
symb_tb_GroheLogo2013_ori
340
0
102
{BLKREFS
331
250
102
}
  0
ENDTAB
  0
ENDSEC
  0
SECTION
  2
BLOCKS
  0
BLOCK
  5
20
330
1F
100
AcDbEntity
  8
0
100
AcDbBlockBegin
  2
*Model_Space
 70
     0
 10
0.0
 20
0.0
 30
0.0
  3
*Model_Space
  1
*Model_Space
  0
ENDBLK
  5
21
330
1F
100
AcDbEntity
  8
0
100
AcDbBlockEnd
  0
BLOCK
  5
1C
330
1B
100
AcDbEntity
 67
     1
  8
0
100
AcDbBlockBegin
  2
*Paper_Space
 70
     0
 10
0.0
 20
0.0
 30
0.0
  3
*Paper_Space
  1
*Paper_Space
  0
ENDBLK
  5
1D
330
1B
100
AcDbEntity
 67
     1
  8
0
100
AcDbBlockEnd
  0
BLOCK
  5
14E
330
14D
100
AcDbEntity
  8
0
100
AcDbBlockBegin
  2
_OBLIQUE
 70
     0
 10
0.0
 20
0.0
 30
0.0
  3
_OBLIQUE
  1
_OBLIQUE
  0
LINE
  5
150
330
14D
100
AcDbEntity
  8
0
  6
ByBlock
 62
     0
370
    -2
100
AcDbLine
 10
-0.5
 20
-0.5
 30
0.0
 11
0.5
 21
0.5
 31
0.0
  0
ENDBLK
  5
14F
330
14D
100
AcDbEntity
  8
0
100
AcDbBlockEnd
  0
BLOCK
  5
152
330
151
100
AcDbEntity
  8
0
100
AcDbBlockBegin
  2
_DOT
 70
     0
 10
0.0
 20
0.0
 30
0.0
  3
_DOT
  1
_DOT
  0
POLYLINE
  5
154
330
151
100
AcDbEntity
  8
0
  6
ByBlock
 62
     0
100
AcDb2dPolyline
 66
     1
 10
0.0
 20
0.0
 30
0.0
 70
     1
 40
0.5
 41
0.5
  0
VERTEX
  5
156
330
154
100
AcDbEntity
  8
0
  6
ByBlock
 62
     0
100
AcDbVertex
100
AcDb2dVertex
 10
-0.25
 20
0.0
 30
0.0
 42
1.0
  0
VERTEX
  5
157
330
154
100
AcDbEntity
  8
0
  6
ByBlock
 62
     0
100
AcDbVertex
100
AcDb2dVertex
 10
0.25
 20
0.0
 30
0.0
 42
1.0
  0
SEQEND
  5
158
330
154
100
AcDbEntity
  8
0
  6
ByBlock
 62
     0
  0
LINE
  5
155
330
151
100
AcDbEntity
  8
0
  6
ByBlock
 62
     0
370
    -2
100
AcDbLine
 10
-0.5
 20
0.0
 30
0.0
 11
-1.0
 21
0.0
 31
0.0
  0
ENDBLK
  5
153
330
151
100
AcDbEntity
  8
0
100
AcDbBlockEnd
  0
BLOCK
  5
15C
330
159
100
AcDbEntity
  8
0
100
AcDbBlockBegin
  2
_SE_FILLED
 70
     0
 10
0.0
 20
0.0
 30
0.0
  3
_SE_FILLED
  1
_SE_FILLED
  0
SOLID
  5
15A
330
159
100
AcDbEntity
  8
0
 62
     0
100
AcDbTrace
 10
0.0
 20
0.0
 30
0.0
 11
-1.0
 21
-0.1665
 31
0.0
 12
-1.0
 22
0.1665
 32
0.0
 13
0.0
 23
0.0
 33
0.0
  0
LINE
  5
15B
330
159
100
AcDbEntity
  8
0
 62
     0
100
AcDbLine
 10
0.0
 20
0.0
 30
0.0
 11
-1.0
 21
0.0
 31
0.0
  0
ENDBLK
  5
15D
330
159
100
AcDbEntity
  8
0
100
AcDbBlockEnd
  0
BLOCK
  5
168
330
160
100
AcDbEntity
  8
0
100
AcDbBlockBegin
  2
DMBLK45
 70
     0
 10
0.0
 20
0.0
 30
0.0
  3
DMBLK45
  1
DMBLK45
  0
HATCH
  5
161
330
160
100
AcDbEntity
  8
Layer3
  6
Continuous
 62
     7
100
AcDbHatch
 10
0.0
 20
0.0
 30
0.0
210
0.0
220
0.0
230
1.0
  2
SOLID
 70
     1
 71
     0
 91
        1
 92
        1
 93
        3
 72
     1
 10
146.8442564806673
 20
82.36386766672304
 11
144.8442564632826
 21
82.36386766672304
 72
     1
 10
144.8442564632826
 20
82.36386766672304
 11
145.8442564719749
 21
76.36386761456897
 72
     1
 10
145.8442564719749
 20
76.36386761456897
 11
146.8442564806673
 21
82.36386766672304
 97
        0
 75
     0
 76
     1
 98
        0
  0
HATCH
  5
162
330
160
100
AcDbEntity
  8
Layer3
  6
Continuous
 62
     7
100
AcDbHatch
 10
0.0
 20
0.0
 30
0.0
210
0.0
220
0.0
230
1.0
  2
SOLID
 70
     1
 71
     0
 91
        1
 92
        1
 93
        3
 72
     1
 10
146.8442564806673
 20
104.1542241316765
 11
145.8442564719749
 21
110.1542241838305
 72
     1
 10
145.8442564719749
 20
110.1542241838305
 11
144.8442564632826
 21
104.1542241316765
 72
     1
 10
144.8442564632826
 20
104.1542241316765
 11
146.8442564806673
 21
104.1542241316765
 97
        0
 75
     0
 76
     1
 98
        0
  0
LINE
  5
163
330
160
100
AcDbEntity
  8
Layer3
  6
Continuous
 62
     7
100
AcDbLine
 10
115.1938493961
 20
76.3638676146
 30
0.0
 11
148.8442564981
 21
76.3638676146
 31
0.0
  0
LINE
  5
164
330
160
100
AcDbEntity
  8
Layer3
  6
Continuous
 62
     7
100
AcDbLine
 10
101.5438493007
 20
110.1542241838
 30
0.0
 11
148.8442564981
 21
110.1542241838
 31
0.0
  0
LINE
  5
165
330
160
100
AcDbEntity
  8
Layer3
  6
Continuous
 62
     7
100
AcDbLine
 10
145.844256472
 20
76.3638676146
 30
0.0
 11
145.844256472
 21
88.1590466017
 31
0.0
  0
LINE
  5
166
330
160
100
AcDbEntity
  8
Layer3
  6
Continuous
 62
     7
100
AcDbLine
 10
145.844256472
 20
98.3590461281
 30
0.0
 11
145.844256472
 21
110.1542241838
 31
0.0
  0
TEXT
  5
167
330
160
100
AcDbEntity
  8
Layer3
  6
Continuous
 62
     7
100
AcDbText
 10
141.1486042981
 20
90.25904632
 30
0.0
 40
6.0
  1
34
  7
SEACAD_Arial
 11
141.1486042981
 21
96.25904632
 31
0.0
100
AcDbText
 73
     3
  0
ENDBLK
  5
169
330
160
100
AcDbEntity
  8
0
100
AcDbBlockEnd
  0
BLOCK
  5
173
330
16B
100
AcDbEntity
  8
0
100
AcDbBlockBegin
  2
DMBLK46
 70
     0
 10
0.0
 20
0.0
 30
0.0
  3
DMBLK46
  1
DMBLK46
  0
HATCH
  5
16C
330
16B
100
AcDbEntity
  8
Layer3
  6
Continuous
 62
     7
100
AcDbHatch
 10
0.0
 20
0.0
 30
0.0
210
0.0
220
0.0
230
1.0
  2
SOLID
 70
     1
 71
     0
 91
        1
 92
        1
 93
        3
 72
     1
 10
82.67290424453488
 20
158.6817561536481
 11
82.67290424453488
 21
156.6817561362633
 72
     1
 10
82.67290424453488
 20
156.6817561362633
 11
88.67290429668894
 21
157.6817561449557
 72
     1
 10
88.67290429668894
 20
157.6817561449557
 11
82.67290424453488
 21
158.6817561536481
 97
        0
 75
     0
 76
     1
 98
        0
  0
HATCH
  5
16D
330
16B
100
AcDbEntity
  8
Layer3
  6
Continuous
 62
     7
100
AcDbHatch
 10
0.0
 20
0.0
 30
0.0
210
0.0
220
0.0
230
1.0
  2
SOLID
 70
     1
 71
     0
 91
        1
 92
        1
 93
        3
 72
     1
 10
120.672904348843
 20
158.6817561536481
 11
114.6729042966889
 21
157.6817561449557
 72
     1
 10
114.6729042966889
 20
157.6817561449557
 11
120.672904348843
 21
156.6817561362633
 72
     1
 10
120.672904348843
 20
156.6817561362633
 11
120.672904348843
 21
158.6817561536481
 97
        0
 75
     0
 76
     1
 98
        0
  0
LINE
  5
16E
330
16B
100
AcDbEntity
  8
Layer3
  6
Continuous
 62
     7
100
AcDbLine
 10
88.6729042967
 20
148.5825054856
 30
0.0
 11
88.6729042967
 21
160.681756171
 31
0.0
  0
LINE
  5
16F
330
16B
100
AcDbEntity
  8
Layer3
  6
Continuous
 62
     7
100
AcDbLine
 10
114.6729042967
 20
148.5825054856
 30
0.0
 11
114.6729042967
 21
160.681756171
 31
0.0
  0
LINE
  5
170
330
16B
100
AcDbEntity
  8
Layer3
  6
Continuous
 62
     7
100
AcDbLine
 10
76.6729041924
 20
157.681756145
 30
0.0
 11
88.6729042967
 21
157.681756145
 31
0.0
  0
LINE
  5
171
330
16B
100
AcDbEntity
  8
Layer3
  6
Continuous
 62
     7
100
AcDbLine
 10
114.6729042967
 20
157.681756145
 30
0.0
 11
126.672904401
 21
157.681756145
 31
0.0
  0
TEXT
  5
172
330
16B
100
AcDbEntity
  8
Layer3
  6
Continuous
 62
     7
100
AcDbText
 10
96.977252391
 20
154.681756145
 30
0.0
 40
6.0
  1
26
  7
SEACAD_Arial
 11
96.977252391
 21
160.681756145
 31
0.0
100
AcDbText
 73
     3
  0
ENDBLK
  5
174
330
16B
100
AcDbEntity
  8
0
100
AcDbBlockEnd
  0
BLOCK
  5
17F
330
176
100
AcDbEntity
  8
0
100
AcDbBlockBegin
  2
DMBLK47
 70
     0
 10
0.0
 20
0.0
 30
0.0
  3
DMBLK47
  1
DMBLK47
  0
HATCH
  5
177
330
176
100
AcDbEntity
  8
Layer3
  6
Continuous
 62
     7
100
AcDbHatch
 10
0.0
 20
0.0
 30
0.0
210
0.0
220
0.0
230
1.0
  2
SOLID
 70
     1
 71
     0
 91
        1
 92
        1
 93
        3
 72
     1
 10
86.7959097875625
 20
183.0806117915495
 11
92.79590983971656
 21
184.0806118002418
 72
     1
 10
92.79590983971656
 20
184.0806118002418
 11
86.7959097875625
 21
185.0806118089342
 72
     1
 10
86.7959097875625
 20
185.0806118089342
 11
86.7959097875625
 21
183.0806117915495
 97
        0
 75
     0
 76
     1
 98
        0
  0
HATCH
  5
178
330
176
100
AcDbEntity
  8
Layer3
  6
Continuous
 62
     7
100
AcDbHatch
 10
0.0
 20
0.0
 30
0.0
210
0.0
220
0.0
230
1.0
  2
SOLID
 70
     1
 71
     0
 91
        1
 92
        1
 93
        3
 72
     1
 10
116.7959098918706
 20
183.0806117915495
 11
116.7959098918706
 21
185.0806118089342
 72
     1
 10
116.7959098918706
 20
185.0806118089342
 11
110.7959098397166
 21
184.0806118002418
 72
     1
 10
110.7959098397166
 20
184.0806118002418
 11
116.7959098918706
 21
183.0806117915495
 97
        0
 75
     0
 76
     1
 98
        0
  0
LINE
  5
179
330
176
100
AcDbEntity
  8
Layer3
  6
Continuous
 62
     7
100
AcDbLine
 10
92.7959098397
 20
196.8719743913
 30
0.0
 11
92.7959098397
 21
181.0806117742
 31
0.0
  0
LINE
  5
17A
330
176
100
AcDbEntity
  8
Layer3
  6
Continuous
 62
     7
100
AcDbLine
 10
110.7959098397
 20
198.6219743913
 30
0.0
 11
110.7959098397
 21
181.0806117742
 31
0.0
  0
LINE
  5
17B
330
176
100
AcDbEntity
  8
Layer3
  6
Continuous
 62
     7
100
AcDbLine
 10
80.7959097354
 20
184.0806118002
 30
0.0
 11
92.7959098397
 21
184.0806118002
 31
0.0
  0
LINE
  5
17C
330
176
100
AcDbEntity
  8
Layer3
  6
Continuous
 62
     7
100
AcDbLine
 10
110.7959098397
 20
184.0806118002
 30
0.0
 11
122.795909944
 21
184.0806118002
 31
0.0
  0
TEXT
  5
17D
330
176
100
AcDbEntity
  8
Layer3
  6
Continuous
 62
     7
100
AcDbText
 10
101.1567790175
 20
181.0806118002
 30
0.0
 40
6.0
  1
18
  7
SEACAD_Arial
 11
101.1567790175
 21
187.0806118002
 31
0.0
100
AcDbText
 73
     3
  0
TEXT
  5
17E
330
176
100
AcDbEntity
  8
Layer3
  6
Continuous
 62
     7
100
AcDbText
 10
93.0437355392
 20
181.0806118002
 30
0.0
 40
6.0
  1
M
  7
SEACAD_Arial
 11
93.0437355392
 21
187.0806118002
 31
0.0
100
AcDbText
 73
     3
  0
ENDBLK
  5
180
330
176
100
AcDbEntity
  8
0
100
AcDbBlockEnd
  0
BLOCK
  5
18A
330
182
100
AcDbEntity
  8
0
100
AcDbBlockBegin
  2
DMBLK48
 70
     0
 10
0.0
 20
0.0
 30
0.0
  3
DMBLK48
  1
DMBLK48
  0
HATCH
  5
183
330
182
100
AcDbEntity
  8
Layer3
  6
Continuous
 62
     7
100
AcDbHatch
 10
0.0
 20
0.0
 30
0.0
210
0.0
220
0.0
230
1.0
  2
SOLID
 70
     1
 71
     0
 91
        1
 92
        1
 93
        3
 72
     1
 10
133.7513835247328
 20
190.3719743391756
 11
132.7513835160404
 21
196.3719743913296
 72
     1
 10
132.7513835160404
 20
196.3719743913296
 11
131.7513835073481
 21
190.3719743391756
 72
     1
 10
131.7513835073481
 20
190.3719743391756
 11
133.7513835247328
 21
190.3719743391756
 97
        0
 75
     0
 76
     1
 98
        0
  0
HATCH
  5
184
330
182
100
AcDbEntity
  8
Layer3
  6
Continuous
 62
     7
100
AcDbHatch
 10
0.0
 20
0.0
 30
0.0
210
0.0
220
0.0
230
1.0
  2
SOLID
 70
     1
 71
     0
 91
        1
 92
        1
 93
        3
 72
     1
 10
133.7513835247328
 20
208.8719744434837
 11
131.7513835073481
 21
208.8719744434837
 72
     1
 10
131.7513835073481
 20
208.8719744434837
 11
132.7513835160404
 21
202.8719743913297
 72
     1
 10
132.7513835160404
 20
202.8719743913297
 11
133.7513835247328
 21
208.8719744434837
 97
        0
 75
     0
 76
     1
 98
        0
  0
LINE
  5
185
330
182
100
AcDbEntity
  8
Layer3
  6
Continuous
 62
     7
100
AcDbLine
 10
108.7959098397
 20
196.3719743913
 30
0.0
 11
135.7513835421
 21
196.3719743913
 31
0.0
  0
LINE
  5
186
330
182
100
AcDbEntity
  8
Layer3
  6
Continuous
 62
     7
100
AcDbLine
 10
110.2959098397
 20
202.8719743913
 30
0.0
 11
135.7513835421
 21
202.8719743913
 31
0.0
  0
LINE
  5
187
330
182
100
AcDbEntity
  8
Layer3
  6
Continuous
 62
     7
100
AcDbLine
 10
132.751383516
 20
184.371974287
 30
0.0
 11
132.751383516
 21
196.3719743913
 31
0.0
  0
LINE
  5
188
330
182
100
AcDbEntity
  8
Layer3
  6
Continuous
 62
     7
100
AcDbLine
 10
132.751383516
 20
202.8719743913
 30
0.0
 11
132.751383516
 21
214.8719744956
 31
0.0
  0
TEXT
  5
189
330
182
100
AcDbEntity
  8
Layer3
  6
Continuous
 62
     7
100
AcDbText
 10
130.4035574291
 20
196.6219744584
 30
0.0
 40
6.0
  1
7
  7
SEACAD_Arial
 11
130.4035574291
 21
202.6219744584
 31
0.0
100
AcDbText
 73
     3
  0
ENDBLK
  5
18B
330
182
100
AcDbEntity
  8
0
100
AcDbBlockEnd
  0
BLOCK
  5
196
330
18D
100
AcDbEntity
  8
0
100
AcDbBlockBegin
  2
DMBLK49
 70
     0
 10
0.0
 20
0.0
 30
0.0
  3
DMBLK49
  1
DMBLK49
  0
HATCH
  5
18E
330
18D
100
AcDbEntity
  8
Layer3
  6
Continuous
 62
     7
100
AcDbHatch
 10
0.0
 20
0.0
 30
0.0
210
0.0
220
0.0
230
1.0
  2
SOLID
 70
     1
 71
     0
 91
        1
 92
        1
 93
        3
 72
     1
 10
93.79590978756248
 20
212.2594399879705
 11
99.79590983971654
 21
213.2594399966628
 72
     1
 10
99.79590983971654
 20
213.2594399966628
 11
93.79590978756248
 21
214.2594400053552
 72
     1
 10
93.79590978756248
 20
214.2594400053552
 11
93.79590978756248
 21
212.2594399879705
 97
        0
 75
     0
 76
     1
 98
        0
  0
HATCH
  5
18F
330
18D
100
AcDbEntity
  8
Layer3
  6
Continuous
 62
     7
100
AcDbHatch
 10
0.0
 20
0.0
 30
0.0
210
0.0
220
0.0
230
1.0
  2
SOLID
 70
     1
 71
     0
 91
        1
 92
        1
 93
        3
 72
     1
 10
109.7959098918706
 20
212.2594399879705
 11
109.7959098918706
 21
214.2594400053552
 72
     1
 10
109.7959098918706
 20
214.2594400053552
 11
103.7959098397166
 21
213.2594399966628
 72
     1
 10
103.7959098397166
 20
213.2594399966628
 11
109.7959098918706
 21
212.2594399879705
 97
        0
 75
     0
 76
     1
 98
        0
  0
LINE
  5
190
330
18D
100
AcDbEntity
  8
Layer3
  6
Continuous
 62
     7
100
AcDbLine
 10
99.7959098397
 20
224.6369580619
 30
0.0
 11
99.7959098397
 21
210.2594399706
 31
0.0
  0
LINE
  5
191
330
18D
100
AcDbEntity
  8
Layer3
  6
Continuous
 62
     7
100
AcDbLine
 10
103.7959098397
 20
224.6369580619
 30
0.0
 11
103.7959098397
 21
210.2594399706
 31
0.0
  0
LINE
  5
192
330
18D
100
AcDbEntity
  8
Layer3
  6
Continuous
 62
     7
100
AcDbLine
 10
87.7959097354
 20
213.2594399967
 30
0.0
 11
99.7959098397
 21
213.2594399967
 31
0.0
  0
LINE
  5
193
330
18D
100
AcDbEntity
  8
Layer3
  6
Continuous
 62
     7
100
AcDbLine
 10
103.7959098397
 20
213.2594399967
 30
0.0
 11
126.2845038949
 21
213.2594399967
 31
0.0
  0
TEXT
  5
194
330
18D
100
AcDbEntity
  8
Layer3
  6
Continuous
 62
     7
100
AcDbText
 10
119.4888522774
 20
214.7594399967
 30
0.0
 40
6.0
  1
4
  7
SEACAD_Arial
 11
119.4888522774
 21
220.7594399967
 31
0.0
100
AcDbText
 73
     3
  0
TEXT
  5
195
330
18D
100
AcDbEntity
  8
Layer3
  6
Continuous
 62
     7
100
AcDbText
 10
111.3758087991
 20
214.7594399967
 30
0.0
 40
6.0
  1
M
  7
SEACAD_Arial
 11
111.3758087991
 21
220.7594399967
 31
0.0
100
AcDbText
 73
     3
  0
ENDBLK
  5
197
330
18D
100
AcDbEntity
  8
0
100
AcDbBlockEnd
  0
BLOCK
  5
1A1
330
199
100
AcDbEntity
  8
0
100
AcDbBlockBegin
  2
DMBLK50
 70
     0
 10
0.0
 20
0.0
 30
0.0
  3
DMBLK50
  1
DMBLK50
  0
HATCH
  5
19A
330
199
100
AcDbEntity
  8
Layer3
  6
Continuous
 62
     7
100
AcDbHatch
 10
0.0
 20
0.0
 30
0.0
210
0.0
220
0.0
230
1.0
  2
SOLID
 70
     1
 71
     0
 91
        1
 92
        1
 93
        3
 72
     1
 10
90.89590978756249
 20
250.4810245340398
 11
90.89590978756249
 21
248.4810245166551
 72
     1
 10
90.89590978756249
 20
248.4810245166551
 11
96.89590983971655
 21
249.4810245253475
 72
     1
 10
96.89590983971655
 20
249.4810245253475
 11
90.89590978756249
 21
250.4810245340398
 97
        0
 75
     0
 76
     1
 98
        0
  0
HATCH
  5
19B
330
199
100
AcDbEntity
  8
Layer3
  6
Continuous
 62
     7
100
AcDbHatch
 10
0.0
 20
0.0
 30
0.0
210
0.0
220
0.0
230
1.0
  2
SOLID
 70
     1
 71
     0
 91
        1
 92
        1
 93
        3
 72
     1
 10
112.6959098918706
 20
250.4810245340398
 11
106.6959098397166
 21
249.4810245253475
 72
     1
 10
106.6959098397166
 20
249.4810245253475
 11
112.6959098918706
 21
248.4810245166551
 72
     1
 10
112.6959098918706
 20
248.4810245166551
 11
112.6959098918706
 21
250.4810245340398
 97
        0
 75
     0
 76
     1
 98
        0
  0
LINE
  5
19C
330
199
100
AcDbEntity
  8
Layer3
  6
Continuous
 62
     7
100
AcDbLine
 10
96.8959098397
 20
234.6369580619
 30
0.0
 11
96.8959098397
 21
252.4810245514
 31
0.0
  0
LINE
  5
19D
330
199
100
AcDbEntity
  8
Layer3
  6
Continuous
 62
     7
100
AcDbLine
 10
106.6959098397
 20
234.6369580619
 30
0.0
 11
106.6959098397
 21
252.4810245514
 31
0.0
  0
LINE
  5
19E
330
199
100
AcDbEntity
  8
Layer3
  6
Continuous
 62
     7
100
AcDbLine
 10
84.8959097354
 20
249.4810245253
 30
0.0
 11
96.8959098397
 21
249.4810245253
 31
0.0
  0
LINE
  5
19F
330
199
100
AcDbEntity
  8
Layer3
  6
Continuous
 62
     7
100
AcDbLine
 10
106.6959098397
 20
249.4810245253
 30
0.0
 11
118.695909944
 21
249.4810245253
 31
0.0
  0
TEXT
  5
1A0
330
199
100
AcDbEntity
  8
Layer3
  6
Continuous
 62
     7
100
AcDbText
 10
97.1002577239
 20
246.4810245253
 30
0.0
 40
6.0
  1
10
  7
SEACAD_Arial
 11
97.1002577239
 21
252.4810245253
 31
0.0
100
AcDbText
 73
     3
  0
ENDBLK
  5
1A2
330
199
100
AcDbEntity
  8
0
100
AcDbBlockEnd
  0
BLOCK
  5
1AC
330
1A4
100
AcDbEntity
  8
0
100
AcDbBlockBegin
  2
DMBLK51
 70
     0
 10
0.0
 20
0.0
 30
0.0
  3
DMBLK51
  1
DMBLK51
  0
HATCH
  5
1A5
330
1A4
100
AcDbEntity
  8
Layer3
  6
Continuous
 62
     7
100
AcDbHatch
 10
0.0
 20
0.0
 30
0.0
210
0.0
220
0.0
230
1.0
  2
SOLID
 70
     1
 71
     0
 91
        1
 92
        1
 93
        3
 72
     1
 10
78.52783247242073
 20
218.1369580097825
 11
80.5278324898054
 21
218.1369580097825
 72
     1
 10
80.5278324898054
 20
218.1369580097825
 11
79.52783248111307
 21
224.1369580619366
 72
     1
 10
79.52783248111307
 20
224.1369580619366
 11
78.52783247242073
 21
218.1369580097825
 97
        0
 75
     0
 76
     1
 98
        0
  0
HATCH
  5
1A6
330
1A4
100
AcDbEntity
  8
Layer3
  6
Continuous
 62
     7
100
AcDbHatch
 10
0.0
 20
0.0
 30
0.0
210
0.0
220
0.0
230
1.0
  2
SOLID
 70
     1
 71
     0
 91
        1
 92
        1
 93
        3
 72
     1
 10
78.52783247242073
 20
240.1369581140907
 11
79.52783248111307
 21
234.1369580619366
 72
     1
 10
79.52783248111307
 20
234.1369580619366
 11
80.5278324898054
 21
240.1369581140907
 72
     1
 10
80.5278324898054
 20
240.1369581140907
 11
78.52783247242073
 21
240.1369581140907
 97
        0
 75
     0
 76
     1
 98
        0
  0
LINE
  5
1A7
330
1A4
100
AcDbEntity
  8
Layer3
  6
Continuous
 62
     7
100
AcDbLine
 10
100.2959098267
 20
224.1369580619
 30
0.0
 11
76.527832455
 21
224.1369580619
 31
0.0
  0
LINE
  5
1A8
330
1A4
100
AcDbEntity
  8
Layer3
  6
Continuous
 62
     7
100
AcDbLine
 10
96.8959098397
 20
234.1369580619
 30
0.0
 11
76.527832455
 21
234.1369580619
 31
0.0
  0
LINE
  5
1A9
330
1A4
100
AcDbEntity
  8
Layer3
  6
Continuous
 62
     7
100
AcDbLine
 10
79.5278324811
 20
212.1369579576
 30
0.0
 11
79.5278324811
 21
224.1369580619
 31
0.0
  0
LINE
  5
1AA
330
1A4
100
AcDbEntity
  8
Layer3
  6
Continuous
 62
     7
100
AcDbLine
 10
79.5278324811
 20
234.1369580619
 30
0.0
 11
79.5278324811
 21
246.1369581662
 31
0.0
  0
TEXT
  5
1AB
330
1A4
100
AcDbEntity
  8
Layer3
  6
Continuous
 62
     7
100
AcDbText
 10
74.8321803072
 20
226.1369579502
 30
0.0
 40
6.0
  1
10
  7
SEACAD_Arial
 11
74.8321803072
 21
232.1369579502
 31
0.0
100
AcDbText
 73
     3
  0
ENDBLK
  5
1AD
330
1A4
100
AcDbEntity
  8
0
100
AcDbBlockEnd
  0
BLOCK
  5
1B7
330
1AF
100
AcDbEntity
  8
0
100
AcDbBlockBegin
  2
DMBLK52
 70
     0
 10
0.0
 20
0.0
 30
0.0
  3
DMBLK52
  1
DMBLK52
  0
HATCH
  5
1B0
330
1AF
100
AcDbEntity
  8
Layer3
  6
Continuous
 62
     7
100
AcDbHatch
 10
0.0
 20
0.0
 30
0.0
210
0.0
220
0.0
230
1.0
  2
SOLID
 70
     1
 71
     0
 91
        1
 92
        1
 93
        3
 72
     1
 10
87.5459103954366
 20
277.2625026673134
 11
87.54591031375362
 21
275.2625026499287
 72
     1
 10
87.54591031375362
 20
275.2625026499287
 11
93.54591040674917
 21
276.2625024135722
 72
     1
 10
93.54591040674917
 20
276.2625024135721
 11
87.5459103954366
 21
277.2625026673133
 97
        0
 75
     0
 76
     1
 98
        0
  0
HATCH
  5
1B1
330
1AF
100
AcDbEntity
  8
Layer3
  6
Continuous
 62
     7
100
AcDbHatch
 10
0.0
 20
0.0
 30
0.0
210
0.0
220
0.0
230
1.0
  2
SOLID
 70
     1
 71
     0
 91
        1
 92
        1
 93
        3
 72
     1
 10
116.0459104997447
 20
277.2625015033311
 11
110.0459104067492
 21
276.2625017396877
 72
     1
 10
110.0459104067492
 20
276.2625017396877
 11
116.0459104180618
 21
275.2625014859465
 72
     1
 10
116.0459104180618
 20
275.2625014859465
 11
116.0459104997447
 21
277.2625015033311
 97
        0
 75
     0
 76
     1
 98
        0
  0
LINE
  5
1B2
330
1AF
100
AcDbEntity
  8
Layer3
  6
Continuous
 62
     7
100
AcDbLine
 10
93.5459098397
 20
262.3787599098
 30
0.0
 11
93.5459105293
 21
279.2625024396
 31
0.0
  0
LINE
  5
1B3
330
1AF
100
AcDbEntity
  8
Layer3
  6
Continuous
 62
     7
100
AcDbLine
 10
110.0459098397
 20
262.3787592359
 30
0.0
 11
110.0459105293
 21
279.2625017658
 31
0.0
  0
LINE
  5
1B4
330
1AF
100
AcDbEntity
  8
Layer3
  6
Continuous
 62
     7
100
AcDbLine
 10
81.5459103024
 20
276.2625029037
 30
0.0
 11
93.5459104067
 21
276.2625024136
 31
0.0
  0
LINE
  5
1B5
330
1AF
100
AcDbEntity
  8
Layer3
  6
Continuous
 62
     7
100
AcDbLine
 10
110.0459104067
 20
276.2625017397
 30
0.0
 11
122.0459105111
 21
276.2625012496
 31
0.0
  0
TEXT
  5
1B6
330
1AF
100
AcDbEntity
  8
Layer3
  6
Continuous
 62
     7
100
AcDbText
 10
97.1002581881
 20
273.2625020766
 30
0.0
 40
6.0
  1
17
  7
SEACAD_Arial
 11
97.1002581881
 21
279.2625020766
 31
0.0
100
AcDbText
 73
     3
  0
ENDBLK
  5
1B8
330
1AF
100
AcDbEntity
  8
0
100
AcDbBlockEnd
  0
BLOCK
  5
1C2
330
1BA
100
AcDbEntity
  8
0
100
AcDbBlockBegin
  2
DMBLK53
 70
     0
 10
0.0
 20
0.0
 30
0.0
  3
DMBLK53
  1
DMBLK53
  0
HATCH
  5
1BB
330
1BA
100
AcDbEntity
  8
Layer3
  6
Continuous
 62
     7
100
AcDbHatch
 10
0.0
 20
0.0
 30
0.0
210
0.0
220
0.0
230
1.0
  2
SOLID
 70
     1
 71
     0
 91
        1
 92
        1
 93
        3
 72
     1
 10
80.0438492467798
 20
89.78071426898182
 11
80.0438492467798
 21
87.78071425159715
 72
     1
 10
80.0438492467798
 20
87.78071425159715
 11
86.04384929893386
 21
88.78071426028949
 72
     1
 10
86.04384929893386
 20
88.78071426028949
 11
80.0438492467798
 21
89.78071426898182
 97
        0
 75
     0
 76
     1
 98
        0
  0
HATCH
  5
1BC
330
1BA
100
AcDbEntity
  8
Layer3
  6
Continuous
 62
     7
100
AcDbHatch
 10
0.0
 20
0.0
 30
0.0
210
0.0
220
0.0
230
1.0
  2
SOLID
 70
     1
 71
     0
 91
        1
 92
        1
 93
        3
 72
     1
 10
123.0438493546712
 20
89.78071426898182
 11
117.0438493025171
 21
88.78071426028949
 72
     1
 10
117.0438493025171
 20
88.78071426028949
 11
123.0438493546712
 21
87.78071425159715
 72
     1
 10
123.0438493546712
 20
87.78071425159715
 11
123.0438493546712
 21
89.78071426898182
 97
        0
 75
     0
 76
     1
 98
        0
  0
LINE
  5
1BD
330
1BA
100
AcDbEntity
  8
Layer3
  6
Continuous
 62
     7
100
AcDbLine
 10
86.0438492989
 20
79.7179695832
 30
0.0
 11
86.0438492989
 21
91.7807142864
 31
0.0
  0
LINE
  5
1BE
330
1BA
100
AcDbEntity
  8
Layer3
  6
Continuous
 62
     7
100
AcDbLine
 10
117.0438493025
 20
79.7179695832
 30
0.0
 11
117.0438493025
 21
91.7807142864
 31
0.0
  0
LINE
  5
1BF
330
1BA
100
AcDbEntity
  8
Layer3
  6
Continuous
 62
     7
100
AcDbLine
 10
66.8222752309
 20
88.7807142603
 30
0.0
 11
86.0438492989
 21
88.7807142603
 31
0.0
  0
LINE
  5
1C0
330
1BA
100
AcDbEntity
  8
Layer3
  6
Continuous
 62
     7
100
AcDbLine
 10
117.0438493025
 20
88.7807142603
 30
0.0
 11
129.0438494068
 21
88.7807142603
 31
0.0
  0
TEXT
  5
1C1
330
1BA
100
AcDbEntity
  8
Layer3
  6
Continuous
 62
     7
100
AcDbText
 10
68.9222743731
 20
90.2807142603
 30
0.0
 40
6.0
  1
31
  7
SEACAD_Arial
 11
68.9222743731
 21
96.2807142603
 31
0.0
100
AcDbText
 73
     3
  0
ENDBLK
  5
1C3
330
1BA
100
AcDbEntity
  8
0
100
AcDbBlockEnd
  0
BLOCK
  5
1CE
330
1C5
100
AcDbEntity
  8
0
100
AcDbBlockBegin
  2
DMBLK54
 70
     0
 10
0.0
 20
0.0
 30
0.0
  3
DMBLK54
  1
DMBLK54
  0
HATCH
  5
1C6
330
1C5
100
AcDbEntity
  8
Layer3
  6
Continuous
 62
     7
100
AcDbHatch
 10
0.0
 20
0.0
 30
0.0
210
0.0
220
0.0
230
1.0
  2
SOLID
 70
     1
 71
     0
 91
        1
 92
        1
 93
        3
 72
     1
 10
83.54384924857146
 20
63.95432570094971
 11
89.54384930072553
 21
64.95432570964205
 72
     1
 10
89.54384930072553
 20
64.95432570964205
 11
83.54384924857146
 21
65.95432571833439
 72
     1
 10
83.54384924857146
 20
65.95432571833439
 11
83.54384924857146
 21
63.95432570094971
 97
        0
 75
     0
 76
     1
 98
        0
  0
HATCH
  5
1C7
330
1C5
100
AcDbEntity
  8
Layer3
  6
Continuous
 62
     7
100
AcDbHatch
 10
0.0
 20
0.0
 30
0.0
210
0.0
220
0.0
230
1.0
  2
SOLID
 70
     1
 71
     0
 91
        1
 92
        1
 93
        3
 72
     1
 10
119.5438493528796
 20
63.95432570094971
 11
119.5438493528796
 21
65.95432571833439
 72
     1
 10
119.5438493528796
 20
65.95432571833439
 11
113.5438493007255
 21
64.95432570964205
 72
     1
 10
113.5438493007255
 20
64.95432570964205
 11
119.5438493528796
 21
63.95432570094971
 97
        0
 75
     0
 76
     1
 98
        0
  0
LINE
  5
1C8
330
1C5
100
AcDbEntity
  8
Layer3
  6
Continuous
 62
     7
100
AcDbLine
 10
89.5438493007
 20
81.1138676146
 30
0.0
 11
89.5438493007
 21
61.9543256836
 31
0.0
  0
LINE
  5
1C9
330
1C5
100
AcDbEntity
  8
Layer3
  6
Continuous
 62
     7
100
AcDbLine
 10
113.5438493007
 20
81.1138676146
 30
0.0
 11
113.5438493007
 21
61.9543256836
 31
0.0
  0
LINE
  5
1CA
330
1C5
100
AcDbEntity
  8
Layer3
  6
Continuous
 62
     7
100
AcDbLine
 10
77.5438491964
 20
64.9543257096
 30
0.0
 11
89.5438493007
 21
64.9543257096
 31
0.0
  0
LINE
  5
1CB
330
1C5
100
AcDbEntity
  8
Layer3
  6
Continuous
 62
     7
100
AcDbLine
 10
113.5438493007
 20
64.9543257096
 30
0.0
 11
125.543849405
 21
64.9543257096
 31
0.0
  0
TEXT
  5
1CC
330
1C5
100
AcDbEntity
  8
Layer3
  6
Continuous
 62
     7
100
AcDbText
 10
100.9047189703
 20
61.9543257096
 30
0.0
 40
6.0
  1
24
  7
SEACAD_Arial
 11
100.9047189703
 21
67.9543257096
 31
0.0
100
AcDbText
 73
     3
  0
TEXT
  5
1CD
330
1C5
100
AcDbEntity
  8
Layer3
  6
Continuous
 62
     7
100
AcDbText
 10
92.791675492
 20
61.9543257096
 30
0.0
 40
6.0
  1
M
  7
SEACAD_Arial
 11
92.791675492
 21
67.9543257096
 31
0.0
100
AcDbText
 73
     3
  0
ENDBLK
  5
1CF
330
1C5
100
AcDbEntity
  8
0
100
AcDbBlockEnd
  0
BLOCK
  5
1D9
330
1D1
100
AcDbEntity
  8
0
100
AcDbBlockBegin
  2
DMBLK55
 70
     0
 10
0.0
 20
0.0
 30
0.0
  3
DMBLK55
  1
DMBLK55
  0
HATCH
  5
1D2
330
1D1
100
AcDbEntity
  8
Layer3
  6
Continuous
 62
     7
100
AcDbHatch
 10
0.0
 20
0.0
 30
0.0
210
0.0
220
0.0
230
1.0
  2
SOLID
 70
     1
 71
     0
 91
        1
 92
        1
 93
        3
 72
     1
 10
75.42290434884296
 20
170.5555782615593
 11
69.4229042966889
 21
169.5555782528669
 72
     1
 10
69.4229042966889
 20
169.5555782528669
 11
75.42290434884296
 21
168.5555782441746
 72
     1
 10
75.42290434884296
 20
168.5555782441746
 11
75.42290434884296
 21
170.5555782615593
 97
        0
 75
     0
 76
     1
 98
        0
  0
HATCH
  5
1D3
330
1D1
100
AcDbEntity
  8
Layer3
  6
Continuous
 62
     7
100
AcDbHatch
 10
0.0
 20
0.0
 30
0.0
210
0.0
220
0.0
230
1.0
  2
SOLID
 70
     1
 71
     0
 91
        1
 92
        1
 93
        3
 72
     1
 10
127.9229042445347
 20
170.5555782615593
 11
127.9229042445347
 21
168.5555782441746
 72
     1
 10
127.9229042445347
 20
168.5555782441746
 11
133.9229042966887
 21
169.5555782528669
 72
     1
 10
133.9229042966887
 20
169.5555782528669
 11
127.9229042445347
 21
170.5555782615593
 97
        0
 75
     0
 76
     1
 98
        0
  0
LINE
  5
1D4
330
1D1
100
AcDbEntity
  8
Layer3
  6
Continuous
 62
     7
100
AcDbLine
 10
69.4229042967
 20
140.5825054856
 30
0.0
 11
69.4229042967
 21
172.5555782789
 31
0.0
  0
LINE
  5
1D5
330
1D1
100
AcDbEntity
  8
Layer3
  6
Continuous
 62
     7
100
AcDbLine
 10
133.9229042967
 20
140.5825054856
 30
0.0
 11
133.9229042967
 21
172.5555782789
 31
0.0
  0
LINE
  5
1D6
330
1D1
100
AcDbEntity
  8
Layer3
  6
Continuous
 62
     7
100
AcDbLine
 10
69.4229042967
 20
169.5555782529
 30
0.0
 11
94.8772503872
 21
169.5555782529
 31
0.0
  0
LINE
  5
1D7
330
1D1
100
AcDbEntity
  8
Layer3
  6
Continuous
 62
     7
100
AcDbLine
 10
108.4685544808
 20
169.5555782529
 30
0.0
 11
133.9229042967
 21
169.5555782529
 31
0.0
  0
TEXT
  5
1D8
330
1D1
100
AcDbEntity
  8
Layer3
  6
Continuous
 62
     7
100
AcDbText
 10
96.977250424
 20
166.5555782529
 30
0.0
 40
6.0
  1
65
  7
SEACAD_Arial
 11
96.977250424
 21
172.5555782529
 31
0.0
100
AcDbText
 73
     3
  0
ENDBLK
  5
1DA
330
1D1
100
AcDbEntity
  8
0
100
AcDbBlockEnd
  0
BLOCK
  5
1E4
330
1DC
100
AcDbEntity
  8
0
100
AcDbBlockBegin
  2
DMBLK56
 70
     0
 10
0.0
 20
0.0
 30
0.0
  3
DMBLK56
  1
DMBLK56
  0
HATCH
  5
1DD
330
1DC
100
AcDbEntity
  8
Layer3
  6
Continuous
 62
     7
100
AcDbHatch
 10
0.0
 20
0.0
 30
0.0
210
0.0
220
0.0
230
1.0
  2
SOLID
 70
     1
 71
     0
 91
        1
 92
        1
 93
        3
 72
     1
 10
146.388915769977
 20
143.5825054334551
 11
145.3889157612846
 21
149.5825054856092
 72
     1
 10
145.3889157612846
 20
149.5825054856092
 11
144.3889157525923
 21
143.5825054334551
 72
     1
 10
144.3889157525923
 20
143.5825054334551
 11
146.388915769977
 21
143.5825054334551
 97
        0
 75
     0
 76
     1
 98
        0
  0
HATCH
  5
1DE
330
1DC
100
AcDbEntity
  8
Layer3
  6
Continuous
 62
     7
100
AcDbHatch
 10
0.0
 20
0.0
 30
0.0
210
0.0
220
0.0
230
1.0
  2
SOLID
 70
     1
 71
     0
 91
        1
 92
        1
 93
        3
 72
     1
 10
146.388915769977
 20
126.5825055377632
 11
144.3889157525923
 21
126.5825055377632
 72
     1
 10
144.3889157525923
 20
126.5825055377632
 11
145.3889157612846
 21
120.5825054856092
 72
     1
 10
145.3889157612846
 20
120.5825054856092
 11
146.388915769977
 21
126.5825055377632
 97
        0
 75
     0
 76
     1
 98
        0
  0
LINE
  5
1DF
330
1DC
100
AcDbEntity
  8
Layer3
  6
Continuous
 62
     7
100
AcDbLine
 10
113.6729042967
 20
149.5825054856
 30
0.0
 11
148.3889157874
 21
149.5825054856
 31
0.0
  0
LINE
  5
1E0
330
1DC
100
AcDbEntity
  8
Layer3
  6
Continuous
 62
     7
100
AcDbLine
 10
108.4229042967
 20
120.5825054856
 30
0.0
 11
148.3889157874
 21
120.5825054856
 31
0.0
  0
LINE
  5
1E1
330
1DC
100
AcDbEntity
  8
Layer3
  6
Continuous
 62
     7
100
AcDbLine
 10
145.3889157613
 20
149.5825054856
 30
0.0
 11
145.3889157613
 21
140.1825056212
 31
0.0
  0
LINE
  5
1E2
330
1DC
100
AcDbEntity
  8
Layer3
  6
Continuous
 62
     7
100
AcDbLine
 10
145.3889157613
 20
129.9825062813
 30
0.0
 11
145.3889157613
 21
120.5825054856
 31
0.0
  0
TEXT
  5
1E3
330
1DC
100
AcDbEntity
  8
Layer3
  6
Continuous
 62
     7
100
AcDbText
 10
140.6932635874
 20
132.0825059028
 30
0.0
 40
6.0
  1
29
  7
SEACAD_Arial
 11
140.6932635874
 21
138.0825059028
 31
0.0
100
AcDbText
 73
     3
  0
ENDBLK
  5
1E5
330
1DC
100
AcDbEntity
  8
0
100
AcDbBlockEnd
  0
BLOCK
  5
1EF
330
1E7
100
AcDbEntity
  8
0
100
AcDbBlockBegin
  2
DMBLK57
 70
     0
 10
0.0
 20
0.0
 30
0.0
  3
DMBLK57
  1
DMBLK57
  0
HATCH
  5
1E8
330
1E7
100
AcDbEntity
  8
Layer3
  6
Continuous
 62
     7
100
AcDbHatch
 10
0.0
 20
0.0
 30
0.0
210
0.0
220
0.0
230
1.0
  2
SOLID
 70
     1
 71
     0
 91
        1
 92
        1
 93
        3
 72
     1
 10
133.3686539347936
 20
270.3258640348963
 11
131.3686539174089
 21
270.3258640348963
 72
     1
 10
131.3686539174089
 20
270.3258640348963
 11
132.3686539261012
 21
264.3258639827422
 72
     1
 10
132.3686539261012
 20
264.3258639827422
 11
133.3686539347936
 21
270.3258640348963
 97
        0
 75
     0
 76
     1
 98
        0
  0
HATCH
  5
1E9
330
1E7
100
AcDbEntity
  8
Layer3
  6
Continuous
 62
     7
100
AcDbHatch
 10
0.0
 20
0.0
 30
0.0
210
0.0
220
0.0
230
1.0
  2
SOLID
 70
     1
 71
     0
 91
        1
 92
        1
 93
        3
 72
     1
 10
133.3686539347936
 20
252.3258639305883
 11
132.3686539261012
 21
258.3258639827424
 72
     1
 10
132.3686539261012
 20
258.3258639827423
 11
131.3686539174089
 21
252.3258639305882
 72
     1
 10
131.3686539174089
 20
252.3258639305883
 11
133.3686539347936
 21
252.3258639305883
 97
        0
 75
     0
 76
     1
 98
        0
  0
LINE
  5
1EA
330
1E7
100
AcDbEntity
  8
Layer3
  6
Continuous
 62
     7
100
AcDbLine
 10
101.7959098397
 20
264.3258639827
 30
0.0
 11
135.3686539522
 21
264.3258639827
 31
0.0
  0
LINE
  5
1EB
330
1E7
100
AcDbEntity
  8
Layer3
  6
Continuous
 62
     7
100
AcDbLine
 10
106.7959098397
 20
258.3258639827
 30
0.0
 11
135.3686539522
 21
258.3258639827
 31
0.0
  0
LINE
  5
1EC
330
1E7
100
AcDbEntity
  8
Layer3
  6
Continuous
 62
     7
100
AcDbLine
 10
132.3686539261
 20
276.3258640871
 30
0.0
 11
132.3686539261
 21
264.3258639827
 31
0.0
  0
LINE
  5
1ED
330
1E7
100
AcDbEntity
  8
Layer3
  6
Continuous
 62
     7
100
AcDbLine
 10
132.3686539261
 20
258.3258639827
 30
0.0
 11
132.3686539261
 21
246.3258638784
 31
0.0
  0
TEXT
  5
1EE
330
1E7
100
AcDbEntity
  8
Layer3
  6
Continuous
 62
     7
100
AcDbText
 10
130.0208278391
 20
258.3258639567
 30
0.0
 40
6.0
  1
6
  7
SEACAD_Arial
 11
130.0208278391
 21
264.3258639567
 31
0.0
100
AcDbText
 73
     3
  0
ENDBLK
  5
1F0
330
1E7
100
AcDbEntity
  8
0
100
AcDbBlockEnd
  0
BLOCK
  5
24E
330
210
100
AcDbEntity
  8
0
100
AcDbBlockBegin
  2
symb_tb_GroheLogo2013_ori
 70
     0
 10
0.0
 20
0.0
 30
0.0
  3
symb_tb_GroheLogo2013_ori
  1
symb_tb_GroheLogo2013_ori
  0
HATCH
  5
211
330
210
100
AcDbEntity
  8
Standard
  6
Continuous
 62
     7
100
AcDbHatch
 10
0.0
 20
0.0
 30
0.0
210
0.0
220
0.0
230
1.0
  2
SOLID
 70
     1
 71
     0
 91
        9
 92
        1
 93
        4
 72
     1
 10
20.1320023102195
 20
15.45781230744146
 11
0.0
 21
15.45781230744146
 72
     1
 10
0.0
 20
15.45781230744146
 11
0.0
 21
0.0000000000000373
 72
     1
 10
0.0
 20
0.0000000000000284
 11
20.1320023102195
 21
0.0000000000000007
 72
     1
 10
20.1320023102195
 20
0.0
 11
20.1320023102195
 21
15.45781230744145
 97
        0
 92
        1
 93
        1
 72
     4
 94
        3
 73
     1
 74
     0
 95
       19
 96
       15
 40
0.0
 40
0.0
 40
0.0
 40
0.0
 40
0.576972079187426
 40
0.576972079187426
 40
0.8087884250258078
 40
0.8087884250258078
 40
0.8087884250258078
 40
0.8585481612372913
 40
0.8585481612372913
 40
0.8585481612372913
 40
0.9292740806186457
 40
0.9292740806186457
 40
0.9292740806186457
 40
1.0
 40
1.0
 40
1.0
 40
1.0
 10
11.46799090897963
 20
10.53350423551331
 42
1.08047789209601
 10
11.15134096082077
 20
10.87514302682462
 42
0.986882803952448
 10
10.69711027311541
 20
11.07146344343644
 42
0.960056839920445
 10
9.990877002577506
 20
11.07146344343644
 42
1.01604804301204
 10
9.801985283517666
 20
11.04147310806695
 42
1.04287400704405
 10
9.623784716721097
 20
10.9846336521683
 42
1.08047789209601
 10
8.940730305162269
 20
10.76673253851368
 42
0.949278918900485
 10
8.523147123926407
 20
10.23914070703063
 42
0.949278918900485
 10
8.523147123926407
 20
9.594067440522593
 42
1.08047789209601
 10
8.523147123926407
 20
8.470493468490844
 42
0.77464325294993
 10
9.556926438753003
 20
7.823976345336916
 42
0.77464325294993
 10
10.74664227133307
 20
8.203501228876803
 42
1.08047789209601
 10
11.93634708210673
 20
8.583037134223133
 42
0.77464325294993
 10
12.27172963078638
 20
9.666337425461052
 42
0.77464325294993
 10
11.46799090897963
 20
10.53350423551331
 42
1.08047789209601
 97
        0
 92
        1
 93
       12
 72
     1
 10
12.35280603908395
 20
10.94643207098838
 11
12.35280603908395
 21
8.241702810056726
 72
     1
 10
12.35280603908395
 20
8.241702810056722
 11
13.05198535348936
 21
8.24170281005675
 72
     1
 10
13.05198535348936
 20
8.24170281005675
 11
13.05198535348936
 21
9.390781242229906
 72
     1
 10
13.05198535348936
 20
9.390781242229906
 11
14.29894844880703
 21
9.390781242229878
 72
     1
 10
14.29894844880703
 20
9.390781242229878
 11
14.29894844880708
 21
8.241702810056722
 72
     1
 10
14.29894844880708
 20
8.241702810056722
 11
15.00253648579529
 21
8.24170281005675
 72
     1
 10
15.00253648579529
 20
8.24170281005675
 11
15.00253648579528
 21
10.9464320709884
 72
     1
 10
15.00253648579528
 20
10.94643207098841
 11
14.29894844880707
 21
10.94643207098838
 72
     1
 10
14.29894844880707
 20
10.94643207098838
 11
14.29894844880708
 21
9.948903477598794
 72
     1
 10
14.29894844880708
 20
9.948903477598805
 11
13.05198535348941
 21
9.948903477598805
 72
     1
 10
13.05198535348941
 20
9.948903477598805
 11
13.05198535348937
 21
10.94643207098839
 72
     1
 10
13.05198535348936
 20
10.94643207098838
 11
12.35280603908394
 21
10.94643207098838
 97
        0
 92
        1
 93
       11
 72
     1
 10
7.093740066326241
 20
10.94643207098838
 11
5.782067945299608
 21
10.94643207098838
 72
     1
 10
5.782067945299609
 20
10.94643207098838
 11
5.782067945299623
 21
8.241702810056726
 72
     1
 10
5.782067945299623
 20
8.241702810056722
 11
6.500248854036888
 21
8.24170281005675
 72
     1
 10
6.500248854036883
 20
8.24170281005675
 11
6.500248854036855
 21
10.42939913009116
 72
     1
 10
6.500248854036855
 20
10.42939913009116
 11
6.965490326392723
 21
10.42939913009116
 72
     4
 94
        3
 73
     0
 74
     0
 95
       15
 96
       11
 40
0.0
 40
0.0
 40
0.0
 40
0.0
 40
0.1729865553416529
 40
0.3342463836783639
 40
0.4999999999999963
 40
0.4999999999999963
 40
0.4999999999999963
 40
0.6728584706586043
 40
0.8410305318392429
 40
1.0
 40
1.0
 40
1.0
 40
1.0
 10
6.965490326392711
 20
10.42939913009116
 10
7.074507014058817
 20
10.43245217047976
 10
7.229649961747356
 20
10.37276908851513
 10
7.314264369917616
 20
10.26467823259148
 10
7.378510479755413
 20
10.12433757097466
 10
7.378675806852257
 20
9.99925108949435
 10
7.378510479755413
 20
9.874164608013984
 10
7.314264369917616
 20
9.733812924590694
 10
7.233121830781286
 20
9.630174878475657
 10
7.093211019616326
 20
9.57343461883508
 10
7.00312979544335
 20
9.56938961586539
 72
     1
 10
7.00312979544335
 20
9.56938961586539
 11
6.590528470726049
 21
9.56938961586539
 72
     1
 10
6.590528470726049
 20
9.56938961586539
 11
7.583670385145745
 21
8.241702810056754
 72
     1
 10
7.583670385145744
 20
8.24170281005675
 11
8.474221325063843
 21
8.24170281005675
 72
     1
 10
8.474221325063844
 20
8.24170281005675
 11
7.568394161396378
 21
9.326887830198766
 72
     4
 94
        3
 73
     0
 74
     0
 95
       18
 96
       14
 40
0.0
 40
0.0
 40
0.0
 40
0.0
 40
0.010760420324004
 40
0.010760420324004
 40
0.010760420324004
 40
0.057351634176115
 40
0.2756344009928203
 40
0.4999999999999988
 40
0.4999999999999988
 40
0.4999999999999988
 40
0.6657536163216358
 40
0.8270134446583466
 40
1.0
 40
1.0
 40
1.0
 40
1.0
 10
7.568394161396377
 20
9.326887830198757
 10
7.575734684496737
 20
9.32967634723235
 10
7.582942945919577
 20
9.332508951491775
 10
7.590018945664994
 20
9.335374621170615
 10
7.620659567615405
 20
9.347807218854086
 10
7.780365543177155
 20
9.422623241084125
 10
7.926404478732223
 20
9.57649868103016
 10
8.079783937387653
 20
9.852914565164895
 10
8.080180722420089
 20
10.09926296128498
 10
8.079783937387653
 20
10.34562237921159
 10
7.926404478732223
 20
10.62202724153994
 10
7.724385788182104
 20
10.8348913896437
 10
7.354020025807955
 20
10.95244997731388
 10
7.093740066326241
 20
10.94643207098838
 97
        0
 92
        1
 93
        6
 72
     4
 94
        3
 73
     1
 74
     0
 95
       24
 96
       20
 40
0.0
 40
0.0
 40
0.0
 40
0.0
 40
0.2499999999999994
 40
0.2499999999999994
 40
0.2499999999999994
 40
0.3364932776708256
 40
0.4171231918391822
 40
0.4999999999999989
 40
0.4999999999999989
 40
0.4999999999999989
 40
0.5000191898804309
 40
0.5000191898804309
 40
0.5000191898804309
 40
0.582889636457092
 40
0.6635133615118
 40
0.7500000000000008
 40
0.7500000000000008
 40
0.7500000000000008
 40
1.0
 40
1.0
 40
1.0
 40
1.0
 10
5.104326044453018
 20
10.75563357941147
 42
1.0
 10
4.734346045304903
 20
10.93423093124051
 42
0.983215874790017
 10
4.333846664077356
 20
11.02583316470455
 42
0.983215874790017
 10
3.923019850199637
 20
11.02583316470455
 42
1.0
 10
3.511542749740947
 20
11.03599527025787
 42
1.0
 10
2.926020303519991
 20
10.83734925248359
 42
1.0
 10
2.606652439622302
 20
10.47763055514693
 42
1.0
 10
2.364161675762148
 20
10.01052639749983
 42
1.0
 10
2.363544454600579
 20
9.59421072400653
 42
1.0
 10
2.363544618007474
 20
9.594100506063086
 42
1.0
 10
2.363544781414291
 20
9.593990288119642
 42
1.0
 10
2.363544944821193
 20
9.593880070176226
 42
1.0
 10
2.364161675762148
 20
9.177608483545328
 42
1.0
 10
2.606652439622302
 20
8.7105043258982
 42
1.0
 10
2.926020303519991
 20
8.35078562856151
 42
1.0
 10
3.511542749740947
 20
8.152128588980815
 42
1.0
 10
3.923019850199637
 20
8.162290694534107
 42
1.0
 10
4.369799796740047
 20
8.162290694534107
 42
0.979410758195494
 10
4.802780441596298
 20
8.272475693684612
 42
0.979410758195494
 10
5.195211860497345
 20
8.486023193788782
 42
1.0
 72
     1
 10
5.195211860497345
 20
8.486023193788782
 11
5.195211860497345
 21
9.594067440522585
 72
     1
 10
5.195211860497345
 20
9.594067440522565
 11
4.472941861564536
 21
9.594067440522593
 72
     1
 10
4.472941861564536
 20
9.594067440522593
 11
4.472941861564522
 21
8.799825045425665
 72
     4
 94
        3
 73
     1
 74
     0
 95
       21
 96
       17
 40
0.0
 40
0.0
 40
0.0
 40
0.0
 40
0.2499999999999987
 40
0.2499999999999987
 40
0.2499999999999987
 40
0.3364932776708245
 40
0.4171231918391831
 40
0.5000000000000027
 40
0.5000000000000027
 40
0.5000000000000027
 40
0.5828768081608185
 40
0.6635067223291754
 40
0.7500000000000012
 40
0.7500000000000012
 40
0.7500000000000012
 40
1.0
 40
1.0
 40
1.0
 40
1.0
 10
4.472941861564522
 20
8.799825045425592
 42
1.0
 10
4.284314665859632
 20
8.707517416348338
 42
0.982778304235208
 10
4.07972789440506
 20
8.660189779422069
 42
0.982778304235208
 10
3.869729415980075
 20
8.660288975680203
 42
1.0
 10
3.669386040011439
 20
8.653664869999517
 42
1.0
 10
3.384318037807951
 20
8.783237226707854
 42
1.0
 10
3.228811370506321
 20
9.017858420757733
 42
1.0
 10
3.11075680154552
 20
9.322523194841807
 42
1.0
 10
3.110459212771204
 20
9.594067440522593
 42
1.0
 10
3.11083395419071
 20
9.865611686203351
 42
1.0
 10
3.262725468974466
 20
10.17027646028737
 42
1.0
 10
3.462771256168786
 20
10.40489765433728
 42
1.0
 10
3.829521866024976
 20
10.53447001104561
 42
1.0
 10
4.087255788215202
 20
10.52784590536498
 42
1.0
 10
4.45128401187656
 20
10.52782386175204
 42
0.972058195946033
 10
4.800047033594993
 20
10.4235245072496
 42
0.972058195946033
 10
5.104326044453018
 20
10.22367711257149
 42
1.0
 72
     1
 10
5.104326044453018
 20
10.22367711257149
 11
5.104326044453018
 21
10.7556335794115
 97
        0
 92
        1
 93
       12
 72
     1
 10
15.76676650190979
 20
8.24170281005675
 11
17.79408451618858
 21
8.24170281005675
 72
     1
 10
17.79408451618858
 20
8.24170281005675
 11
17.79408451618858
 21
8.758779838179787
 72
     1
 10
17.79408451618858
 20
8.758779838179805
 11
16.46595683812166
 21
8.758779838179805
 72
     1
 10
16.46595683812166
 20
8.758779838179805
 11
16.46595683812166
 21
9.423615203665284
 72
     1
 10
16.46595683812166
 20
9.423615203665264
 11
17.42883287201053
 21
9.423615203665264
 72
     1
 10
17.42883287201052
 20
9.423615203665264
 11
17.42883287201052
 21
9.924280761973897
 72
     1
 10
17.42883287201052
 20
9.924280761973904
 11
16.46595683812166
 21
9.924280761973904
 72
     1
 10
16.46595683812166
 20
9.924280761973904
 11
16.46595683812166
 21
10.42934402105888
 72
     1
 10
16.46595683812166
 20
10.42934402105888
 11
17.6135142610038
 21
10.42934402105888
 72
     1
 10
17.6135142610038
 20
10.42934402105888
 11
17.6135142610038
 21
10.94643207098838
 72
     1
 10
17.6135142610038
 20
10.94643207098838
 11
15.76676650190981
 21
10.94643207098838
 72
     1
 10
15.76676650190981
 20
10.94643207098838
 11
15.76676650190981
 21
8.241702810056752
 97
        0
 92
        1
 93
        4
 72
     4
 94
        3
 73
     1
 74
     0
 95
        8
 96
        4
 40
0.0
 40
0.0
 40
0.0
 40
0.0
 40
1.0
 40
1.0
 40
1.0
 40
1.0
 10
2.998995684071666
 20
6.959293585173413
 42
1.0
 10
3.065479220620205
 20
6.841404343309449
 42
0.996524898131218
 10
3.143634850206745
 20
6.730921755384628
 42
0.996524898131218
 10
3.232657980959814
 20
6.628970045657496
 42
1.0
 72
     4
 94
        3
 73
     0
 74
     0
 95
       15
 96
       11
 40
0.0
 40
0.0
 40
0.0
 40
0.0
 40
0.0208137023656323
 40
0.2611989665798511
 40
0.5000000000000027
 40
0.5000000000000027
 40
0.5000000000000027
 40
0.7388010334201498
 40
0.9791862976343679
 40
1.0
 40
1.0
 40
1.0
 40
1.0
 10
3.232657980959814
 20
6.628970045657496
 10
3.329231049135934
 20
6.61881896191062
 10
4.541122756307416
 20
6.550109020457768
 10
6.85950463550239
 20
8.124254440451125
 10
9.082029863940804
 20
6.623481186041943
 10
10.18962221660991
 20
6.61361666926291
 10
11.29721456927896
 20
6.623481186041943
 10
13.51973979771746
 20
8.124254440451125
 10
15.83811065510588
 20
6.550109020457768
 10
17.05001338408385
 20
6.61881896191062
 10
17.14658645225997
 20
6.628970045657496
 72
     4
 94
        3
 73
     1
 74
     0
 95
        8
 96
        4
 40
0.0
 40
0.0
 40
0.0
 40
0.0
 40
1.0
 40
1.0
 40
1.0
 40
1.0
 10
17.14658645225997
 20
6.628970045657496
 42
1.0
 10
17.2355985612066
 20
6.730921755384628
 42
0.996524898131218
 10
17.31376521259956
 20
6.841404343309449
 42
0.996524898131218
 10
17.38024874914812
 20
6.959293585173413
 42
1.0
 72
     4
 94
        3
 73
     0
 74
     0
 95
       13
 96
        9
 40
0.0
 40
0.0
 40
0.0
 40
0.0
 40
0.0348463403164052
 40
0.2674231701582032
 40
0.4999999999999981
 40
0.7325768298417971
 40
0.965153659683592
 40
1.0
 40
1.0
 40
1.0
 40
1.0
 10
17.38024874914812
 20
6.959293585173413
 10
17.21312509784082
 20
6.93076915006273
 10
15.93064974211877
 20
6.803202762129558
 10
13.53443186572459
 20
8.430010373374358
 10
10.18961670570665
 20
6.156696660782046
 10
6.844801545688732
 20
8.430010373374358
 10
4.448594691101043
 20
6.803202762129558
 10
3.166108313572508
 20
6.93076915006273
 10
2.998995684071666
 20
6.959293585173413
 97
        0
 92
        1
 93
        4
 72
     4
 94
        3
 73
     1
 74
     0
 95
        8
 96
        4
 40
0.0
 40
0.0
 40
0.0
 40
0.0
 40
1.0
 40
1.0
 40
1.0
 40
1.0
 10
4.105585052353177
 20
5.935896812029256
 42
1.0
 10
4.186705547876564
 20
5.850356572116567
 42
0.997360588447966
 10
4.275111457468064
 20
5.772377291433401
 42
0.997360588447966
 10
4.370108407320828
 20
5.702554147528417
 42
1.0
 72
     4
 94
        3
 73
     0
 74
     0
 95
       19
 96
       15
 40
0.0
 40
0.0
 40
0.0
 40
0.0
 40
0.2499999999999999
 40
0.2499999999999999
 40
0.2499999999999999
 40
0.3122787705541569
 40
0.5
 40
0.5
 40
0.5
 40
0.6877212294458419
 40
0.75
 40
0.75
 40
0.75
 40
1.0
 40
1.0
 40
1.0
 40
1.0
 10
4.370108407320828
 20
5.702554147528417
 10
4.835019225483016
 20
5.842035108241561
 10
5.299919021838711
 20
5.981505047148289
 10
5.764829840000878
 20
6.120986007861433
 10
6.132230736438039
 20
6.231204072431296
 10
7.606981505802302
 20
6.560723020075841
 10
9.082029863940804
 20
5.564682370557932
 10
10.18962221660991
 20
5.5548288755854
 10
11.29721456927896
 20
5.564682370557932
 10
12.77225190561104
 20
6.560723020075841
 10
14.24701369678172
 20
6.231204072431296
 10
14.61440357141247
 20
6.120986007861433
 10
15.07931438957463
 20
5.981505047148289
 10
15.54422520773677
 20
5.842035108241561
 10
16.00913602589896
 20
5.702554147528417
 72
     4
 94
        3
 73
     1
 74
     0
 95
        8
 96
        4
 40
0.0
 40
0.0
 40
0.0
 40
0.0
 40
1.0
 40
1.0
 40
1.0
 40
1.0
 10
16.00913602589896
 20
5.702554147528417
 42
1.0
 10
16.10412195394523
 20
5.772377291433401
 42
0.997360588447966
 10
16.19252786353676
 20
5.850356572116567
 42
0.997360588447966
 10
16.27365938086661
 20
5.935896812029256
 42
1.0
 72
     4
 94
        3
 73
     0
 74
     0
 95
       18
 96
       14
 40
0.0
 40
0.0
 40
0.0
 40
0.0
 40
0.25
 40
0.25
 40
0.25
 40
0.311033251196408
 40
0.5000000000000001
 40
0.5000000000000001
 40
0.6889667488035931
 40
0.7500000000000001
 40
0.7500000000000001
 40
0.7500000000000001
 40
1.0
 40
1.0
 40
1.0
 40
1.0
 10
16.27365938086661
 20
5.935896812029256
 10
15.72057411104858
 20
6.100077641012518
 10
15.16748884123051
 20
6.264258469995809
 10
14.61440357141247
 20
6.4284392989791
 10
14.25435421988208
 20
6.535317756192484
 10
12.77960345051785
 20
6.858190554543455
 10
11.3045550923793
 20
5.855669082828825
 10
9.074678319034028
 20
5.855669082828825
 10
7.599629960895477
 20
6.858190554543455
 10
6.124879191531264
 20
6.535317756192484
 10
5.764829840000878
 20
6.4284392989791
 10
5.21174457018278
 20
6.264258469995809
 10
4.658670322171183
 20
6.100077641012518
 10
4.105585052353177
 20
5.935896812029256
 97
        0
 92
        1
 93
        4
 72
     1
 10
5.306961956164734
 20
5.222477323681375
 11
5.681703375702289
 21
5.036792950300529
 72
     4
 94
        3
 73
     0
 74
     0
 95
       13
 96
        9
 40
0.0
 40
0.0
 40
0.0
 40
0.0
 40
0.131481813034251
 40
0.5
 40
0.5
 40
0.5
 40
0.8685181869657492
 40
1.0
 40
1.0
 40
1.0
 40
1.0
 10
5.681703375702263
 20
5.036792950300537
 10
6.076813093572333
 20
5.159553830618449
 10
7.579272684369421
 20
5.520639231955812
 10
9.082029863940804
 20
4.505883555073979
 10
10.18962221660991
 20
4.496030060101418
 10
11.29721456927896
 20
4.505883555073979
 10
12.79997174885037
 20
5.520639231955812
 10
14.30243133964746
 20
5.159553830618449
 10
14.69754105751753
 20
5.036792950300537
 72
     1
 10
14.69754105751753
 20
5.036792950300537
 11
15.07228247705508
 21
5.222477323681383
 72
     4
 94
        3
 73
     0
 74
     0
 95
       12
 96
        8
 40
0.0
 40
0.0
 40
0.0
 40
0.0
 40
0.157509693652257
 40
0.5
 40
0.5
 40
0.842490306347743
 40
1.0
 40
1.0
 40
1.0
 40
1.0
 10
15.07228247705505
 20
5.222477323681375
 10
14.55959212790187
 20
5.3954976414432
 10
12.93225546994714
 20
5.903140003239059
 10
11.3045550923793
 20
4.796870267344843
 10
9.074678319034028
 20
4.796870267344843
 10
7.446988963272702
 20
5.903140003239059
 10
5.819652305317923
 20
5.3954976414432
 10
5.306961956164734
 20
5.222477323681375
 97
        0
 75
     0
 76
     1
 98
        0
  0
HATCH
  5
212
330
210
100
AcDbEntity
  8
Standard
  6
Continuous
 62
     7
100
AcDbHatch
 10
0.0
 20
0.0
 30
0.0
210
0.0
220
0.0
230
1.0
  2
SOLID
 70
     1
 71
     0
 91
        1
 92
        1
 93
        1
 72
     4
 94
        3
 73
     0
 74
     0
 95
       25
 96
       21
 40
0.0
 40
0.0
 40
0.0
 40
0.0
 40
0.086493277670826
 40
0.167123191839183
 40
0.2499999999999999
 40
0.2499999999999999
 40
0.2499999999999999
 40
0.3328768081608169
 40
0.4135067223291728
 40
0.4999999999999999
 40
0.4999999999999999
 40
0.4999999999999999
 40
0.586493277670826
 40
0.6671231918391831
 40
0.75
 40
0.75
 40
0.75
 40
0.832876808160817
 40
0.913506722329174
 40
1.0
 40
1.0
 40
1.0
 40
1.0
 10
10.1852134940271
 20
10.53350009207739
 10
9.941576462295409
 20
10.54016828498388
 10
9.594885540190894
 20
10.40981338001708
 10
9.405784406808365
 20
10.17375935112779
 10
9.262203334093194
 20
9.867253935365426
 10
9.261839614480131
 20
9.594067440522593
 10
9.262203334093194
 20
9.320880945679676
 10
9.405784406808365
 20
9.014364508110873
 10
9.594885540190894
 20
8.778321501028046
 10
9.941576462295409
 20
8.647966596061252
 10
10.1852134940271
 20
8.65463478896774
 10
10.42885052575882
 20
8.647966596061252
 10
10.77553042605687
 20
8.778321501028046
 10
10.96464258124583
 20
9.014364508110873
 10
11.10821263215459
 20
9.320880945679676
 10
11.1085763517676
 20
9.594067440522593
 10
11.10821263215459
 20
9.867253935365426
 10
10.96464258124583
 20
10.17375935112779
 10
10.71903264615831
 20
10.39242096942795
 10
10.42885052575882
 20
10.54016828498388
 10
10.1852134940271
 20
10.53350009207739
 97
        0
 75
     0
 76
     1
 98
        0
  0
LINE
  5
213
330
210
100
AcDbEntity
  8
Layer1
  6
Continuous
 62
     7
100
AcDbLine
 10
13.0519853535
 20
9.3907812422
 30
0.0
 11
14.2989484488
 21
9.3907812422
 31
0.0
  0
LINE
  5
214
330
210
100
AcDbEntity
  8
Layer1
  6
Continuous
 62
     7
100
AcDbLine
 10
7.5836703851
 20
8.2417028101
 30
0.0
 11
8.4742213251
 21
8.2417028101
 31
0.0
  0
LINE
  5
215
330
210
100
AcDbEntity
  8
Layer1
  6
Continuous
 62
     7
100
AcDbLine
 10
17.428832872
 20
9.4236152037
 30
0.0
 11
16.4659568381
 21
9.4236152037
 31
0.0
  0
LINE
  5
216
330
210
100
AcDbEntity
  8
Layer1
  6
Continuous
 62
     7
100
AcDbLine
 10
5.1952118605
 20
8.4860231938
 30
0.0
 11
5.1952118605
 21
9.5940674405
 31
0.0
  0
LINE
  5
217
330
210
100
AcDbEntity
  8
Layer1
  6
Continuous
 62
     7
100
AcDbLine
 10
16.4659568381
 20
9.4236152037
 30
0.0
 11
16.4659568381
 21
8.7587798382
 31
0.0
  0
SPLINE
  5
218
330
210
100
AcDbEntity
  8
Layer1
  6
Continuous
 62
     7
100
AcDbSpline
210
0.0
220
0.0
230
1.0
 70
     8
 71
     3
 72
    18
 73
    14
 74
     0
 42
0.000000001
 43
0.0000000001
 40
0.0
 40
0.0
 40
0.0
 40
0.0
 40
0.25
 40
0.25
 40
0.25
 40
0.311033251196408
 40
0.5000000000000001
 40
0.5000000000000001
 40
0.6889667488035931
 40
0.7500000000000001
 40
0.7500000000000001
 40
0.7500000000000001
 40
1.0
 40
1.0
 40
1.0
 40
1.0
 10
16.27365938086661
 20
5.935896812029256
 30
0.0
 10
15.72057411104858
 20
6.100077641012518
 30
0.0
 10
15.16748884123051
 20
6.264258469995809
 30
0.0
 10
14.61440357141247
 20
6.4284392989791
 30
0.0
 10
14.25435421988208
 20
6.535317756192484
 30
0.0
 10
12.77960345051785
 20
6.858190554543455
 30
0.0
 10
11.3045550923793
 20
5.855669082828825
 30
0.0
 10
9.074678319034028
 20
5.855669082828825
 30
0.0
 10
7.599629960895477
 20
6.858190554543455
 30
0.0
 10
6.124879191531264
 20
6.535317756192484
 30
0.0
 10
5.764829840000878
 20
6.4284392989791
 30
0.0
 10
5.21174457018278
 20
6.264258469995809
 30
0.0
 10
4.658670322171183
 20
6.100077641012518
 30
0.0
 10
4.105585052353177
 20
5.935896812029256
 30
0.0
  0
LINE
  5
219
330
210
100
AcDbEntity
  8
Layer1
  6
Continuous
 62
     7
100
AcDbLine
 10
15.7667665019
 20
10.946432071
 30
0.0
 11
17.613514261
 21
10.946432071
 31
0.0
  0
SPLINE
  5
21A
330
210
100
AcDbEntity
  8
Layer1
  6
Continuous
 62
     7
100
AcDbSpline
210
0.0
220
0.0
230
1.0
 70
    12
 71
     3
 72
     8
 73
     4
 74
     0
 42
0.000000001
 43
0.0000000001
 40
0.0
 40
0.0
 40
0.0
 40
0.0
 40
1.0
 40
1.0
 40
1.0
 40
1.0
 10
3.232657980959814
 20
6.628970045657496
 30
0.0
 41
1.0
 10
3.143634850206745
 20
6.730921755384628
 30
0.0
 41
0.996524898131218
 10
3.065479220620205
 20
6.841404343309449
 30
0.0
 41
0.996524898131218
 10
2.998995684071666
 20
6.959293585173413
 30
0.0
 41
1.0
  0
LINE
  5
21B
330
210
100
AcDbEntity
  8
Layer1
  6
Continuous
 62
     7
100
AcDbLine
 10
7.0031297954
 20
9.5693896159
 30
0.0
 11
6.5905284707
 21
9.5693896159
 31
0.0
  0
SPLINE
  5
21C
330
210
100
AcDbEntity
  8
Layer1
  6
Continuous
 62
     7
100
AcDbSpline
210
0.0
220
0.0
230
1.0
 70
    12
 71
     3
 72
     8
 73
     4
 74
     0
 42
0.000000001
 43
0.0000000001
 40
0.0
 40
0.0
 40
0.0
 40
0.0
 40
1.0
 40
1.0
 40
1.0
 40
1.0
 10
16.00913602589896
 20
5.702554147528417
 30
0.0
 41
1.0
 10
16.10412195394523
 20
5.772377291433401
 30
0.0
 41
0.997360588447966
 10
16.19252786353676
 20
5.850356572116567
 30
0.0
 41
0.997360588447966
 10
16.27365938086661
 20
5.935896812029256
 30
0.0
 41
1.0
  0
LINE
  5
21D
330
210
100
AcDbEntity
  8
Layer1
  6
Continuous
 62
     7
100
AcDbLine
 10
12.3528060391
 20
8.2417028101
 30
0.0
 11
13.0519853535
 21
8.2417028101
 31
0.0
  0
LINE
  5
21E
330
210
100
AcDbEntity
  8
Layer1
  6
Continuous
 62
     7
100
AcDbLine
 10
12.3528060391
 20
10.946432071
 30
0.0
 11
12.3528060391
 21
8.2417028101
 31
0.0
  0
LINE
  5
21F
330
210
100
AcDbEntity
  8
Layer1
  6
Continuous
 62
     7
100
AcDbLine
 10
16.4659568381
 20
9.924280762
 30
0.0
 11
17.428832872
 21
9.924280762
 31
0.0
  0
SPLINE
  5
220
330
210
100
AcDbEntity
  8
Layer1
  6
Continuous
 62
     7
100
AcDbSpline
210
0.0
220
0.0
230
1.0
 70
     8
 71
     3
 72
    18
 73
    14
 74
     0
 42
0.000000001
 43
0.0000000001
 40
0.0
 40
0.0
 40
0.0
 40
0.0
 40
0.010760420324004
 40
0.010760420324004
 40
0.010760420324004
 40
0.057351634176115
 40
0.2756344009928203
 40
0.4999999999999988
 40
0.4999999999999988
 40
0.4999999999999988
 40
0.6657536163216358
 40
0.8270134446583466
 40
1.0
 40
1.0
 40
1.0
 40
1.0
 10
7.568394161396377
 20
9.326887830198757
 30
0.0
 10
7.575734684496737
 20
9.32967634723235
 30
0.0
 10
7.582942945919577
 20
9.332508951491775
 30
0.0
 10
7.590018945664994
 20
9.335374621170615
 30
0.0
 10
7.620659567615405
 20
9.347807218854086
 30
0.0
 10
7.780365543177155
 20
9.422623241084125
 30
0.0
 10
7.926404478732223
 20
9.57649868103016
 30
0.0
 10
8.079783937387653
 20
9.852914565164895
 30
0.0
 10
8.080180722420089
 20
10.09926296128498
 30
0.0
 10
8.079783937387653
 20
10.34562237921159
 30
0.0
 10
7.926404478732223
 20
10.62202724153994
 30
0.0
 10
7.724385788182104
 20
10.8348913896437
 30
0.0
 10
7.354020025807955
 20
10.95244997731388
 30
0.0
 10
7.093740066326241
 20
10.94643207098838
 30
0.0
  0
LINE
  5
221
330
210
100
AcDbEntity
  8
Layer1
  6
Continuous
 62
     7
100
AcDbLine
 10
14.2989484488
 20
8.2417028101
 30
0.0
 11
15.0025364858
 21
8.2417028101
 31
0.0
  0
LINE
  5
222
330
210
100
AcDbEntity
  8
Layer1
  6
Continuous
 62
     7
100
AcDbLine
 10
17.7940845162
 20
8.2417028101
 30
0.0
 11
15.7667665019
 21
8.2417028101
 31
0.0
  0
LINE
  5
223
330
210
100
AcDbEntity
  8
Layer1
  6
Continuous
 62
     7
100
AcDbLine
 10
16.4659568381
 20
8.7587798382
 30
0.0
 11
17.7940845162
 21
8.7587798382
 31
0.0
  0
SPLINE
  5
224
330
210
100
AcDbEntity
  8
Layer1
  6
Continuous
 62
     7
100
AcDbSpline
210
0.0
220
0.0
230
1.0
 70
     8
 71
     3
 72
    12
 73
     8
 74
     0
 42
0.000000001
 43
0.0000000001
 40
0.0
 40
0.0
 40
0.0
 40
0.0
 40
0.157509693652257
 40
0.5
 40
0.5
 40
0.842490306347743
 40
1.0
 40
1.0
 40
1.0
 40
1.0
 10
15.07228247705505
 20
5.222477323681375
 30
0.0
 10
14.55959212790187
 20
5.3954976414432
 30
0.0
 10
12.93225546994714
 20
5.903140003239059
 30
0.0
 10
11.3045550923793
 20
4.796870267344843
 30
0.0
 10
9.074678319034028
 20
4.796870267344843
 30
0.0
 10
7.446988963272702
 20
5.903140003239059
 30
0.0
 10
5.819652305317923
 20
5.3954976414432
 30
0.0
 10
5.306961956164734
 20
5.222477323681375
 30
0.0
  0
LINE
  5
225
330
210
100
AcDbEntity
  8
Layer1
  6
Continuous
 62
     7
100
AcDbLine
 10
14.2989484488
 20
9.9489034776
 30
0.0
 11
13.0519853535
 21
9.9489034776
 31
0.0
  0
LINE
  5
226
330
210
100
AcDbEntity
  8
Layer1
  6
Continuous
 62
     7
100
AcDbLine
 10
17.613514261
 20
10.946432071
 30
0.0
 11
17.613514261
 21
10.4293440211
 31
0.0
  0
SPLINE
  5
227
330
210
100
AcDbEntity
  8
Layer1
  6
Continuous
 62
     7
100
AcDbSpline
210
0.0
220
0.0
230
1.0
 70
     8
 71
     3
 72
    13
 73
     9
 74
     0
 42
0.000000001
 43
0.0000000001
 40
0.0
 40
0.0
 40
0.0
 40
0.0
 40
0.0348463403164079
 40
0.2674231701582029
 40
0.5000000000000019
 40
0.7325768298417968
 40
0.9651536596835948
 40
1.0
 40
1.0
 40
1.0
 40
1.0
 10
2.998995684071666
 20
6.959293585173413
 30
0.0
 10
3.166108313572508
 20
6.93076915006273
 30
0.0
 10
4.448594691101043
 20
6.803202762129558
 30
0.0
 10
6.844801545688732
 20
8.430010373374358
 30
0.0
 10
10.18961670570665
 20
6.156696660782046
 30
0.0
 10
13.53443186572459
 20
8.430010373374358
 30
0.0
 10
15.93064974211877
 20
6.803202762129558
 30
0.0
 10
17.21312509784082
 20
6.93076915006273
 30
0.0
 10
17.38024874914812
 20
6.959293585173413
 30
0.0
  0
SPLINE
  5
228
330
210
100
AcDbEntity
  8
Layer1
  6
Continuous
 62
     7
100
AcDbSpline
210
0.0
220
0.0
230
1.0
 70
    12
 71
     3
 72
    24
 73
    20
 74
     0
 42
0.000000001
 43
0.0000000001
 40
0.0
 40
0.0
 40
0.0
 40
0.0
 40
0.2499999999999994
 40
0.2499999999999994
 40
0.2499999999999994
 40
0.3364932776708256
 40
0.4171231918391822
 40
0.4999999999999988
 40
0.4999999999999988
 40
0.4999999999999988
 40
0.5000191898804309
 40
0.5000191898804309
 40
0.5000191898804309
 40
0.582889636457092
 40
0.6635133615118
 40
0.7500000000000008
 40
0.7500000000000008
 40
0.7500000000000008
 40
1.0
 40
1.0
 40
1.0
 40
1.0
 10
5.104326044453018
 20
10.75563357941147
 30
0.0
 41
1.0
 10
4.734346045304903
 20
10.93423093124051
 30
0.0
 41
0.983215874790017
 10
4.333846664077356
 20
11.02583316470455
 30
0.0
 41
0.983215874790017
 10
3.923019850199637
 20
11.02583316470455
 30
0.0
 41
1.0
 10
3.511542749740947
 20
11.03599527025787
 30
0.0
 41
1.0
 10
2.926020303519991
 20
10.83734925248359
 30
0.0
 41
1.0
 10
2.606652439622302
 20
10.47763055514693
 30
0.0
 41
1.0
 10
2.364161675762148
 20
10.01052639749983
 30
0.0
 41
1.0
 10
2.363544454600579
 20
9.59421072400653
 30
0.0
 41
1.0
 10
2.363544618007474
 20
9.594100506063086
 30
0.0
 41
1.0
 10
2.363544781414291
 20
9.593990288119642
 30
0.0
 41
1.0
 10
2.363544944821193
 20
9.593880070176226
 30
0.0
 41
1.0
 10
2.364161675762148
 20
9.177608483545328
 30
0.0
 41
1.0
 10
2.606652439622302
 20
8.7105043258982
 30
0.0
 41
1.0
 10
2.926020303519991
 20
8.35078562856151
 30
0.0
 41
1.0
 10
3.511542749740947
 20
8.152128588980815
 30
0.0
 41
1.0
 10
3.923019850199637
 20
8.162290694534107
 30
0.0
 41
1.0
 10
4.369799796740047
 20
8.162290694534107
 30
0.0
 41
0.979410758195494
 10
4.802780441596298
 20
8.272475693684612
 30
0.0
 41
0.979410758195494
 10
5.195211860497345
 20
8.486023193788782
 30
0.0
 41
1.0
  0
LINE
  5
229
330
210
100
AcDbEntity
  8
Layer1
  6
Continuous
 62
     7
100
AcDbLine
 10
15.7667665019
 20
8.2417028101
 30
0.0
 11
15.7667665019
 21
10.946432071
 31
0.0
  0
LINE
  5
22A
330
210
100
AcDbEntity
  8
Layer1
  6
Continuous
 62
     7
100
AcDbLine
 10
5.7820679453
 20
8.2417028101
 30
0.0
 11
6.500248854
 21
8.2417028101
 31
0.0
  0
LINE
  5
22B
330
210
100
AcDbEntity
  8
Layer1
  6
Continuous
 62
     7
100
AcDbLine
 10
5.3069619562
 20
5.2224773237
 30
0.0
 11
5.6817033757
 21
5.0367929503
 31
0.0
  0
LINE
  5
22C
330
210
100
AcDbEntity
  8
Layer1
  6
Continuous
 62
     7
100
AcDbLine
 10
13.0519853535
 20
10.946432071
 30
0.0
 11
12.3528060391
 21
10.946432071
 31
0.0
  0
LINE
  5
22D
330
210
100
AcDbEntity
  8
Layer1
  6
Continuous
 62
     7
100
AcDbLine
 10
16.4659568381
 20
10.4293440211
 30
0.0
 11
16.4659568381
 21
9.924280762
 31
0.0
  0
SPLINE
  5
22E
330
210
100
AcDbEntity
  8
Layer1
  6
Continuous
 62
     7
100
AcDbSpline
210
0.0
220
0.0
230
1.0
 70
     8
 71
     3
 72
    19
 73
    15
 74
     0
 42
0.000000001
 43
0.0000000001
 40
0.0
 40
0.0
 40
0.0
 40
0.0
 40
0.2499999999999999
 40
0.2499999999999999
 40
0.2499999999999999
 40
0.3122787705541569
 40
0.5
 40
0.5
 40
0.5
 40
0.6877212294458419
 40
0.75
 40
0.75
 40
0.75
 40
1.0
 40
1.0
 40
1.0
 40
1.0
 10
4.370108407320828
 20
5.702554147528417
 30
0.0
 10
4.835019225483016
 20
5.842035108241561
 30
0.0
 10
5.299919021838711
 20
5.981505047148289
 30
0.0
 10
5.764829840000878
 20
6.120986007861433
 30
0.0
 10
6.132230736438039
 20
6.231204072431296
 30
0.0
 10
7.606981505802302
 20
6.560723020075841
 30
0.0
 10
9.082029863940804
 20
5.564682370557932
 30
0.0
 10
10.18962221660991
 20
5.5548288755854
 30
0.0
 10
11.29721456927896
 20
5.564682370557932
 30
0.0
 10
12.77225190561104
 20
6.560723020075841
 30
0.0
 10
14.24701369678172
 20
6.231204072431296
 30
0.0
 10
14.61440357141247
 20
6.120986007861433
 30
0.0
 10
15.07931438957463
 20
5.981505047148289
 30
0.0
 10
15.54422520773677
 20
5.842035108241561
 30
0.0
 10
16.00913602589896
 20
5.702554147528417
 30
0.0
  0
SPLINE
  5
22F
330
210
100
AcDbEntity
  8
Layer1
  6
Continuous
 62
     7
100
AcDbSpline
210
0.0
220
0.0
230
1.0
 70
    11
 71
     3
 72
    25
 73
    21
 74
     0
 42
0.000000001
 43
0.0000000001
 40
0.0
 40
0.0
 40
0.0
 40
0.0
 40
0.086493277670826
 40
0.167123191839183
 40
0.2499999999999999
 40
0.2499999999999999
 40
0.2499999999999999
 40
0.3328768081608169
 40
0.413506722329174
 40
0.5000000000000001
 40
0.5000000000000001
 40
0.5000000000000001
 40
0.5864932776708272
 40
0.6671231918391831
 40
0.7500000000000001
 40
0.7500000000000001
 40
0.7500000000000001
 40
0.832876808160817
 40
0.913506722329174
 40
1.0
 40
1.0
 40
1.0
 40
1.0
 10
10.1852134940271
 20
10.53350009207739
 30
0.0
 10
10.42885052575882
 20
10.54016828498388
 30
0.0
 10
10.71903264615831
 20
10.39242096942795
 30
0.0
 10
10.96464258124583
 20
10.17375935112779
 30
0.0
 10
11.10821263215459
 20
9.867253935365426
 30
0.0
 10
11.1085763517676
 20
9.594067440522593
 30
0.0
 10
11.10821263215459
 20
9.320880945679676
 30
0.0
 10
10.96464258124583
 20
9.014364508110873
 30
0.0
 10
10.77553042605687
 20
8.778321501028046
 30
0.0
 10
10.42885052575882
 20
8.647966596061252
 30
0.0
 10
10.1852134940271
 20
8.65463478896774
 30
0.0
 10
9.941576462295409
 20
8.647966596061252
 30
0.0
 10
9.594885540190894
 20
8.778321501028046
 30
0.0
 10
9.405784406808365
 20
9.014364508110873
 30
0.0
 10
9.262203334093194
 20
9.320880945679676
 30
0.0
 10
9.261839614480131
 20
9.594067440522593
 30
0.0
 10
9.262203334093194
 20
9.867253935365426
 30
0.0
 10
9.405784406808365
 20
10.17375935112779
 30
0.0
 10
9.594885540190894
 20
10.40981338001708
 30
0.0
 10
9.941576462295409
 20
10.54016828498388
 30
0.0
 10
10.1852134940271
 20
10.53350009207739
 30
0.0
  0
LINE
  5
230
330
210
100
AcDbEntity
  8
Layer1
  6
Continuous
 62
     7
100
AcDbLine
 10
13.0519853535
 20
8.2417028101
 30
0.0
 11
13.0519853535
 21
9.3907812422
 31
0.0
  0
LINE
  5
231
330
210
100
AcDbEntity
  8
Layer1
  6
Continuous
 62
     7
100
AcDbLine
 10
5.7820679453
 20
10.946432071
 30
0.0
 11
5.7820679453
 21
8.2417028101
 31
0.0
  0
LINE
  5
232
330
210
100
AcDbEntity
  8
Layer1
  6
Continuous
 62
     7
100
AcDbLine
 10
15.0025364858
 20
8.2417028101
 30
0.0
 11
15.0025364858
 21
10.946432071
 31
0.0
  0
SPLINE
  5
233
330
210
100
AcDbEntity
  8
Layer1
  6
Continuous
 62
     7
100
AcDbSpline
210
0.0
220
0.0
230
1.0
 70
    12
 71
     3
 72
    21
 73
    17
 74
     0
 42
0.000000001
 43
0.0000000001
 40
0.0
 40
0.0
 40
0.0
 40
0.0
 40
0.2499999999999987
 40
0.2499999999999987
 40
0.2499999999999987
 40
0.3364932776708245
 40
0.4171231918391832
 40
0.5000000000000027
 40
0.5000000000000027
 40
0.5000000000000027
 40
0.5828768081608185
 40
0.6635067223291754
 40
0.7500000000000012
 40
0.7500000000000012
 40
0.7500000000000012
 40
1.0
 40
1.0
 40
1.0
 40
1.0
 10
4.472941861564522
 20
8.799825045425592
 30
0.0
 41
1.0
 10
4.284314665859632
 20
8.707517416348338
 30
0.0
 41
0.982778304235208
 10
4.07972789440506
 20
8.660189779422069
 30
0.0
 41
0.982778304235208
 10
3.869729415980075
 20
8.660288975680203
 30
0.0
 41
1.0
 10
3.669386040011439
 20
8.653664869999517
 30
0.0
 41
1.0
 10
3.384318037807951
 20
8.783237226707854
 30
0.0
 41
1.0
 10
3.228811370506321
 20
9.017858420757733
 30
0.0
 41
1.0
 10
3.11075680154552
 20
9.322523194841807
 30
0.0
 41
1.0
 10
3.110459212771204
 20
9.594067440522593
 30
0.0
 41
1.0
 10
3.11083395419071
 20
9.865611686203351
 30
0.0
 41
1.0
 10
3.262725468974466
 20
10.17027646028737
 30
0.0
 41
1.0
 10
3.462771256168786
 20
10.40489765433728
 30
0.0
 41
1.0
 10
3.829521866024976
 20
10.53447001104561
 30
0.0
 41
1.0
 10
4.087255788215202
 20
10.52784590536498
 30
0.0
 41
1.0
 10
4.45128401187656
 20
10.52782386175204
 30
0.0
 41
0.972058195946033
 10
4.800047033594993
 20
10.4235245072496
 30
0.0
 41
0.972058195946033
 10
5.104326044453018
 20
10.22367711257149
 30
0.0
 41
1.0
  0
LINE
  5
234
330
210
100
AcDbEntity
  8
Layer1
  6
Continuous
 62
     7
100
AcDbLine
 10
6.500248854
 20
8.2417028101
 30
0.0
 11
6.500248854
 21
10.4293991301
 31
0.0
  0
SPLINE
  5
235
330
210
100
AcDbEntity
  8
Layer1
  6
Continuous
 62
     7
100
AcDbSpline
210
0.0
220
0.0
230
1.0
 70
     8
 71
     3
 72
    13
 73
     9
 74
     0
 42
0.000000001
 43
0.0000000001
 40
0.0
 40
0.0
 40
0.0
 40
0.0
 40
0.131481813034251
 40
0.5
 40
0.5
 40
0.5
 40
0.8685181869657492
 40
1.0
 40
1.0
 40
1.0
 40
1.0
 10
5.681703375702263
 20
5.036792950300537
 30
0.0
 10
6.076813093572333
 20
5.159553830618449
 30
0.0
 10
7.579272684369421
 20
5.520639231955812
 30
0.0
 10
9.082029863940804
 20
4.505883555073979
 30
0.0
 10
10.18962221660991
 20
4.496030060101418
 30
0.0
 10
11.29721456927896
 20
4.505883555073979
 30
0.0
 10
12.79997174885037
 20
5.520639231955812
 30
0.0
 10
14.30243133964746
 20
5.159553830618449
 30
0.0
 10
14.69754105751753
 20
5.036792950300537
 30
0.0
  0
LINE
  5
236
330
210
100
AcDbEntity
  8
Layer1
  6
Continuous
 62
     7
100
AcDbLine
 10
8.4742213251
 20
8.2417028101
 30
0.0
 11
7.5683941614
 21
9.3268878302
 31
0.0
  0
SPLINE
  5
237
330
210
100
AcDbEntity
  8
Layer1
  6
Continuous
 62
     7
100
AcDbSpline
210
0.0
220
0.0
230
1.0
 70
    12
 71
     3
 72
     8
 73
     4
 74
     0
 42
0.000000001
 43
0.0000000001
 40
0.0
 40
0.0
 40
0.0
 40
0.0
 40
1.0
 40
1.0
 40
1.0
 40
1.0
 10
4.105585052353177
 20
5.935896812029256
 30
0.0
 41
1.0
 10
4.186705547876564
 20
5.850356572116567
 30
0.0
 41
0.997360588447966
 10
4.275111457468064
 20
5.772377291433401
 30
0.0
 41
0.997360588447966
 10
4.370108407320828
 20
5.702554147528417
 30
0.0
 41
1.0
  0
LINE
  5
238
330
210
100
AcDbEntity
  8
Layer1
  6
Continuous
 62
     7
100
AcDbLine
 10
14.2989484488
 20
10.946432071
 30
0.0
 11
14.2989484488
 21
9.9489034776
 31
0.0
  0
LINE
  5
239
330
210
100
AcDbEntity
  8
Layer1
  6
Continuous
 62
     7
100
AcDbLine
 10
14.6975410575
 20
5.0367929503
 30
0.0
 11
15.0722824771
 21
5.2224773237
 31
0.0
  0
LINE
  5
23A
330
210
100
AcDbEntity
  8
Layer1
  6
Continuous
 62
     7
100
AcDbLine
 10
14.2989484488
 20
9.3907812422
 30
0.0
 11
14.2989484488
 21
8.2417028101
 31
0.0
  0
SPLINE
  5
23B
330
210
100
AcDbEntity
  8
Layer1
  6
Continuous
 62
     7
100
AcDbSpline
210
0.0
220
0.0
230
1.0
 70
     8
 71
     3
 72
    15
 73
    11
 74
     0
 42
0.000000001
 43
0.0000000001
 40
0.0
 40
0.0
 40
0.0
 40
0.0
 40
0.1729865553416529
 40
0.3342463836783639
 40
0.4999999999999963
 40
0.4999999999999963
 40
0.4999999999999963
 40
0.6728584706586043
 40
0.8410305318392429
 40
1.0
 40
1.0
 40
1.0
 40
1.0
 10
6.965490326392711
 20
10.42939913009116
 30
0.0
 10
7.074507014058817
 20
10.43245217047976
 30
0.0
 10
7.229649961747356
 20
10.37276908851513
 30
0.0
 10
7.314264369917616
 20
10.26467823259148
 30
0.0
 10
7.378510479755413
 20
10.12433757097466
 30
0.0
 10
7.378675806852257
 20
9.99925108949435
 30
0.0
 10
7.378510479755413
 20
9.874164608013984
 30
0.0
 10
7.314264369917616
 20
9.733812924590694
 30
0.0
 10
7.233121830781286
 20
9.630174878475657
 30
0.0
 10
7.093211019616326
 20
9.57343461883508
 30
0.0
 10
7.00312979544335
 20
9.56938961586539
 30
0.0
  0
LINE
  5
23C
330
210
100
AcDbEntity
  8
Layer1
  6
Continuous
 62
     7
100
AcDbLine
 10
17.7940845162
 20
8.7587798382
 30
0.0
 11
17.7940845162
 21
8.2417028101
 31
0.0
  0
LINE
  5
23D
330
210
100
AcDbEntity
  8
Layer1
  6
Continuous
 62
     7
100
AcDbLine
 10
5.1952118605
 20
9.5940674405
 30
0.0
 11
4.4729418616
 21
9.5940674405
 31
0.0
  0
LINE
  5
23E
330
210
100
AcDbEntity
  8
Layer1
  6
Continuous
 62
     7
100
AcDbLine
 10
17.428832872
 20
9.924280762
 30
0.0
 11
17.428832872
 21
9.4236152037
 31
0.0
  0
LINE
  5
23F
330
210
100
AcDbEntity
  8
Layer1
  6
Continuous
 62
     7
100
AcDbLine
 10
13.0519853535
 20
9.9489034776
 30
0.0
 11
13.0519853535
 21
10.946432071
 31
0.0
  0
LINE
  5
240
330
210
100
AcDbEntity
  8
Layer1
  6
Continuous
 62
     7
100
AcDbLine
 10
17.613514261
 20
10.4293440211
 30
0.0
 11
16.4659568381
 21
10.4293440211
 31
0.0
  0
LINE
  5
241
330
210
100
AcDbEntity
  8
Layer1
  6
Continuous
 62
     7
100
AcDbLine
 10
15.0025364858
 20
10.946432071
 30
0.0
 11
14.2989484488
 21
10.946432071
 31
0.0
  0
SPLINE
  5
242
330
210
100
AcDbEntity
  8
Layer1
  6
Continuous
 62
     7
100
AcDbSpline
210
0.0
220
0.0
230
1.0
 70
    12
 71
     3
 72
     8
 73
     4
 74
     0
 42
0.000000001
 43
0.0000000001
 40
0.0
 40
0.0
 40
0.0
 40
0.0
 40
1.0
 40
1.0
 40
1.0
 40
1.0
 10
17.38024874914812
 20
6.959293585173413
 30
0.0
 41
1.0
 10
17.31376521259956
 20
6.841404343309449
 30
0.0
 41
0.996524898131218
 10
17.2355985612066
 20
6.730921755384628
 30
0.0
 41
0.996524898131218
 10
17.14658645225997
 20
6.628970045657496
 30
0.0
 41
1.0
  0
LINE
  5
243
330
210
100
AcDbEntity
  8
Layer1
  6
Continuous
 62
     7
100
AcDbLine
 10
6.5905284707
 20
9.5693896159
 30
0.0
 11
7.5836703851
 21
8.2417028101
 31
0.0
  0
LINE
  5
244
330
210
100
AcDbEntity
  8
Layer1
  6
Continuous
 62
     7
100
AcDbLine
 10
7.0937400663
 20
10.946432071
 30
0.0
 11
5.7820679453
 21
10.946432071
 31
0.0
  0
LINE
  5
245
330
210
100
AcDbEntity
  8
Layer1
  6
Continuous
 62
     7
100
AcDbLine
 10
5.1043260445
 20
10.2236771126
 30
0.0
 11
5.1043260445
 21
10.7556335794
 31
0.0
  0
SPLINE
  5
246
330
210
100
AcDbEntity
  8
Layer1
  6
Continuous
 62
     7
100
AcDbSpline
210
0.0
220
0.0
230
1.0
 70
     8
 71
     3
 72
    15
 73
    11
 74
     0
 42
0.000000001
 43
0.0000000001
 40
0.0
 40
0.0
 40
0.0
 40
0.0
 40
0.020813702365632
 40
0.2611989665798501
 40
0.4999999999999973
 40
0.4999999999999973
 40
0.4999999999999973
 40
0.7388010334201489
 40
0.9791862976343677
 40
1.0
 40
1.0
 40
1.0
 40
1.0
 10
17.14658645225997
 20
6.628970045657496
 30
0.0
 10
17.05001338408385
 20
6.61881896191062
 30
0.0
 10
15.83811065510588
 20
6.550109020457768
 30
0.0
 10
13.51973979771746
 20
8.124254440451125
 30
0.0
 10
11.29721456927896
 20
6.623481186041943
 30
0.0
 10
10.18962221660991
 20
6.61361666926291
 30
0.0
 10
9.082029863940804
 20
6.623481186041943
 30
0.0
 10
6.85950463550239
 20
8.124254440451125
 30
0.0
 10
4.541122756307416
 20
6.550109020457768
 30
0.0
 10
3.329231049135934
 20
6.61881896191062
 30
0.0
 10
3.232657980959814
 20
6.628970045657496
 30
0.0
  0
LINE
  5
247
330
210
100
AcDbEntity
  8
Layer1
  6
Continuous
 62
     7
100
AcDbLine
 10
6.500248854
 20
10.4293991301
 30
0.0
 11
6.9654903264
 21
10.4293991301
 31
0.0
  0
LINE
  5
248
330
210
100
AcDbEntity
  8
Layer1
  6
Continuous
 62
     7
100
AcDbLine
 10
4.4729418616
 20
9.5940674405
 30
0.0
 11
4.4729418616
 21
8.7998250454
 31
0.0
  0
SPLINE
  5
249
330
210
100
AcDbEntity
  8
Layer1
  6
Continuous
 62
     7
100
AcDbSpline
210
0.0
220
0.0
230
1.0
 70
    15
 71
     3
 72
    19
 73
    15
 74
     0
 42
0.000000001
 43
0.0000000001
 40
0.0
 40
0.0
 40
0.0
 40
0.0
 40
0.0707259193813543
 40
0.0707259193813543
 40
0.0707259193813543
 40
0.1414518387627087
 40
0.1414518387627087
 40
0.1414518387627087
 40
0.1912115749741922
 40
0.1912115749741922
 40
0.1912115749741922
 40
0.423027920812574
 40
0.423027920812574
 40
1.0
 40
1.0
 40
1.0
 40
1.0
 10
11.46799090897963
 20
10.53350423551331
 30
0.0
 41
1.08047789209601
 10
12.27172963078638
 20
9.666337425461052
 30
0.0
 41
0.77464325294993
 10
11.93634708210673
 20
8.583037134223133
 30
0.0
 41
0.77464325294993
 10
10.74664227133307
 20
8.203501228876803
 30
0.0
 41
1.08047789209601
 10
9.556926438753003
 20
7.823976345336916
 30
0.0
 41
0.77464325294993
 10
8.523147123926407
 20
8.470493468490844
 30
0.0
 41
0.77464325294993
 10
8.523147123926407
 20
9.594067440522593
 30
0.0
 41
1.08047789209601
 10
8.523147123926407
 20
10.23914070703063
 30
0.0
 41
0.949278918900485
 10
8.940730305162269
 20
10.76673253851368
 30
0.0
 41
0.949278918900485
 10
9.623784716721097
 20
10.9846336521683
 30
0.0
 41
1.08047789209601
 10
9.801985283517666
 20
11.04147310806695
 30
0.0
 41
1.04287400704405
 10
9.990877002577506
 20
11.07146344343644
 30
0.0
 41
1.01604804301204
 10
10.69711027311541
 20
11.07146344343644
 30
0.0
 41
0.960056839920445
 10
11.15134096082077
 20
10.87514302682462
 30
0.0
 41
0.986882803952448
 10
11.46799090897963
 20
10.53350423551331
 30
0.0
 41
1.08047789209601
  0
LINE
  5
24A
330
210
100
AcDbEntity
  8
Standard
  6
Continuous
 62
     7
100
AcDbLine
 10
0.0
 20
0.0
 30
0.0
 11
0.0
 21
15.4578123074
 31
0.0
  0
LINE
  5
24B
330
210
100
AcDbEntity
  8
Standard
  6
Continuous
 62
     7
100
AcDbLine
 10
0.0
 20
15.4578123074
 30
0.0
 11
20.1320023102
 21
15.4578123074
 31
0.0
  0
LINE
  5
24C
330
210
100
AcDbEntity
  8
Standard
  6
Continuous
 62
     7
100
AcDbLine
 10
20.1320023102
 20
15.4578123074
 30
0.0
 11
20.1320023102
 21
0.0
 31
0.0
  0
LINE
  5
24D
330
210
100
AcDbEntity
  8
Standard
  6
Continuous
 62
     7
100
AcDbLine
 10
20.1320023102
 20
0.0
 30
0.0
 11
0.0
 21
0.0
 31
0.0
  0
ENDBLK
  5
24F
330
210
100
AcDbEntity
  8
0
100
AcDbBlockEnd
  0
ENDSEC
  0
SECTION
  2
ENTITIES
  0
MTEXT
  5
6B
330
1F
100
AcDbEntity
  8
Default
100
AcDbMText
 10
104.0
 20
21.95
 30
0.0
 40
2.5
 41
78.0
 71
     5
 72
     1
  1
{\fSolid Edge ISO|b0||i0||c0|p34;\C7;\H3.8;\W1.;Kreuzgriff, cpl.}
 73
     1
 44
1.0
1001
ACAD
1000
ACAD_MTEXT_DEFINED_HEIGHT_BEGIN
1070
    46
1040
6.3
1000
ACAD_MTEXT_DEFINED_HEIGHT_END
  0
MTEXT
  5
6C
330
1F
100
AcDbEntity
  8
Default
100
AcDbMText
 10
104.0
 20
15.95
 30
0.0
 40
2.5
 41
78.0
 71
     5
 72
     1
  1
{\fSolid Edge ISO|b0||i0||c0|p34;\C7;\H3.8;\W1.;Handle}
 73
     1
 44
1.0
1001
ACAD
1000
ACAD_MTEXT_DEFINED_HEIGHT_BEGIN
1070
    46
1040
6.3
1000
ACAD_MTEXT_DEFINED_HEIGHT_END
  0
MTEXT
  5
6D
330
1F
100
AcDbEntity
  8
Default
100
AcDbMText
 10
104.0
 20
8.5
 30
0.0
 40
2.5
 41
112.0
 71
     5
 72
     1
  1
{\fSolid Edge ISO|b0||i0||c0|p34;\C7;\H3.;\W1.;45277000}
 73
     1
 44
1.0
1001
ACAD
1000
ACAD_MTEXT_DEFINED_HEIGHT_BEGIN
1070
    46
1040
5.0
1000
ACAD_MTEXT_DEFINED_HEIGHT_END
  0
MTEXT
  5
6E
330
1F
100
AcDbEntity
  8
Default
100
AcDbMText
 10
182.75
 20
17.1
 30
0.0
 40
2.5
 41
39.5
 71
     5
 72
     1
  1
{\fSolid Edge ISO|b0||i0||c0|p34;\C7;\H5.;\W1.;45277000}
 73
     1
 44
1.0
1001
ACAD
1000
ACAD_MTEXT_DEFINED_HEIGHT_BEGIN
1070
    46
1040
8.2
1000
ACAD_MTEXT_DEFINED_HEIGHT_END
  0
MTEXT
  5
6F
330
1F
100
AcDbEntity
  8
Default
100
AcDbMText
 10
54.85
 20
42.6
 30
0.0
 40
2.5
 41
18.9
 71
     5
 72
     1
  1
{\fSolid Edge ISO|b0||i0||c0|p34;\C7;\H2.2;\W1.;LTS}
 73
     1
 44
1.0
1001
ACAD
1000
ACAD_MTEXT_DEFINED_HEIGHT_BEGIN
1070
    46
1040
4.0
1000
ACAD_MTEXT_DEFINED_HEIGHT_END
  0
MTEXT
  5
70
330
1F
100
AcDbEntity
  8
Default
100
AcDbMText
 10
54.85
 20
37.6
 30
0.0
 40
2.5
 41
18.9
 71
     5
 72
     1
  1
{\fSolid Edge ISO|b0||i0||c0|p34;\C7;\H2.2;\W1.;20.12.2017}
 73
     1
 44
1.0
1001
ACAD
1000
ACAD_MTEXT_DEFINED_HEIGHT_BEGIN
1070
    46
1040
4.0
1000
ACAD_MTEXT_DEFINED_HEIGHT_END
  0
MTEXT
  5
71
330
1F
100
AcDbEntity
  8
Default
100
AcDbMText
 10
54.85
 20
32.4
 30
0.0
 40
2.5
 41
18.9
 71
     5
 72
     1
  1
{\fSolid Edge ISO|b0||i0||c0|p34;\C7;\H2.2;\W1.;Matsumoto}
 73
     1
 44
1.0
1001
ACAD
1000
ACAD_MTEXT_DEFINED_HEIGHT_BEGIN
1070
    46
1040
4.0
1000
ACAD_MTEXT_DEFINED_HEIGHT_END
  0
MTEXT
  5
72
330
1F
100
AcDbEntity
  8
Default
100
AcDbMText
 10
54.85
 20
27.6
 30
0.0
 40
2.5
 41
18.9
 71
     5
 72
     1
  1
{\fSolid Edge ISO|b0||i0||c0|p34;\C7;\H2.2;\W1.;Rikukawa}
 73
     1
 44
1.0
1001
ACAD
1000
ACAD_MTEXT_DEFINED_HEIGHT_BEGIN
1070
    46
1040
4.0
1000
ACAD_MTEXT_DEFINED_HEIGHT_END
  0
MTEXT
  5
73
330
1F
100
AcDbEntity
  8
Default
100
AcDbMText
 10
15.8
 20
32.9
 30
0.0
 40
2.5
 41
16.8
 71
     5
 72
     1
  1
{\fSolid Edge ISO|b0||i0||c0|p34;\C7;\H5.;\W1.;1:1}
 73
     1
 44
1.0
1001
ACAD
1000
ACAD_MTEXT_DEFINED_HEIGHT_BEGIN
1070
    46
1040
8.2
1000
ACAD_MTEXT_DEFINED_HEIGHT_END
  0
MTEXT
  5
74
330
1F
100
AcDbEntity
  8
Default
100
AcDbMText
 10
183.25
 20
6.9
 30
0.0
 40
2.5
 41
37.5
 71
     5
 72
     1
  1
{\fArial|b0||i0||c0|p34;\C7;\H3.;\W1.;m45277}
 73
     1
 44
1.0
1001
ACAD
1000
ACAD_MTEXT_DEFINED_HEIGHT_BEGIN
1070
    46
1040
5.0
1000
ACAD_MTEXT_DEFINED_HEIGHT_END
  0
ARC
  5
76
330
1F
100
AcDbEntity
  8
MDS_Layer_2
  6
Continuous
 62
     7
100
AcDbCircle
 10
113.1729042967
 20
132.5825054856
 30
0.0
 40
3.000000000000044
100
AcDbArc
 50
90.0
 51
180.0
  0
ARC
  5
77
330
1F
100
AcDbEntity
  8
MDS_Layer_2
  6
Continuous
 62
     7
100
AcDbCircle
 10
113.1729042967
 20
137.0825054856
 30
0.0
 40
1.500000000000085
100
AcDbArc
 50
270.0
 51
0.0
  0
LINE
  5
78
330
1F
100
AcDbEntity
  8
MDS_Layer_2
  6
Continuous
 62
     7
100
AcDbLine
 10
114.6729042967
 20
137.0825054856
 30
0.0
 11
114.6729042967
 21
148.5825054856
 31
0.0
  0
ARC
  5
79
330
1F
100
AcDbEntity
  8
MDS_Layer_2
  6
Continuous
 62
     7
100
AcDbCircle
 10
113.6729042967
 20
148.5825054856
 30
0.0
 40
0.9999999999999454
100
AcDbArc
 50
0.0
 51
90.0
  0
LINE
  5
7A
330
1F
100
AcDbEntity
  8
MDS_Layer_2
  6
Continuous
 62
     7
100
AcDbLine
 10
108.4229042967
 20
120.5825054856
 30
0.0
 11
108.4229042967
 21
128.4825984447
 31
0.0
  0
LINE
  5
7B
330
1F
100
AcDbEntity
  8
MDS_Layer_2
  6
Continuous
 62
     7
100
AcDbLine
 10
108.4229042967
 20
128.4825984447
 30
0.0
 11
108.4229042967
 21
131.0825054856
 31
0.0
  0
LINE
  5
7C
330
1F
100
AcDbEntity
  8
MDS_Layer_2
  6
Continuous
 62
     7
100
AcDbLine
 10
108.4229042967
 20
131.0825054856
 30
0.0
 11
108.6729042967
 21
131.0825054856
 31
0.0
  0
ARC
  5
7D
330
1F
100
AcDbEntity
  8
MDS_Layer_2
  6
Continuous
 62
     7
100
AcDbCircle
 10
108.6729042967
 20
132.5825054856
 30
0.0
 40
1.500000000000057
100
AcDbArc
 50
270.0
 51
0.0
  0
ARC
  5
7F
330
1F
100
AcDbEntity
  8
MDS_Layer_3
  6
Continuous
 62
     7
100
AcDbCircle
 10
108.680230479
 20
108.1544737254
 30
0.0
 40
0.7500000000000007
100
AcDbArc
 50
90.0
 51
270.0
  0
ARC
  5
80
330
1F
100
AcDbEntity
  8
MDS_Layer_3
  6
Continuous
 62
     7
100
AcDbCircle
 10
108.680230479
 20
108.1544737254
 30
0.0
 40
0.7500000000000007
100
AcDbArc
 50
270.0
 51
90.0
  0
LINE
  5
82
330
1F
100
AcDbEntity
  8
MDS_Layer_1
  6
Continuous
 62
     7
100
AcDbLine
 10
110.2959098397
 20
202.8719743913
 30
0.0
 11
112.7959098397
 21
202.1719743913
 31
0.0
  0
LINE
  5
83
330
1F
100
AcDbEntity
  8
MDS_Layer_1
  6
Continuous
 62
     7
100
AcDbLine
 10
112.7959098397
 20
202.1719743913
 30
0.0
 11
112.7959098397
 21
200.3719743913
 31
0.0
  0
LINE
  5
84
330
1F
100
AcDbEntity
  8
MDS_Layer_1
  6
Continuous
 62
     7
100
AcDbLine
 10
112.7959098397
 20
200.3719743913
 30
0.0
 11
101.7959098397
 21
200.3719743913
 31
0.0
  0
LINE
  5
85
330
1F
100
AcDbEntity
  8
MDS_Layer_1
  6
Continuous
 62
     7
100
AcDbLine
 10
110.7959098397
 20
200.3719743913
 30
0.0
 11
110.7959098397
 21
196.8719743913
 31
0.0
  0
LINE
  5
86
330
1F
100
AcDbEntity
  8
MDS_Layer_1
  6
Continuous
 62
     7
100
AcDbLine
 10
110.7959098397
 20
196.8719743913
 30
0.0
 11
110.2959098397
 21
196.3719743913
 31
0.0
  0
LINE
  5
87
330
1F
100
AcDbEntity
  8
MDS_Layer_1
  6
Continuous
 62
     7
100
AcDbLine
 10
110.2959098397
 20
196.3719743913
 30
0.0
 11
107.2959098397
 21
196.3719743913
 31
0.0
  0
LINE
  5
88
330
1F
100
AcDbEntity
  8
MDS_Layer_1
  6
Continuous
 62
     7
100
AcDbLine
 10
90.7959098397
 20
202.1719743913
 30
0.0
 11
93.2959098397
 21
202.8719743913
 31
0.0
  0
LINE
  5
89
330
1F
100
AcDbEntity
  8
MDS_Layer_1
  6
Continuous
 62
     7
100
AcDbLine
 10
96.2959098397
 20
196.3719743913
 30
0.0
 11
93.2959098397
 21
196.3719743913
 31
0.0
  0
LINE
  5
8A
330
1F
100
AcDbEntity
  8
MDS_Layer_1
  6
Continuous
 62
     7
100
AcDbLine
 10
93.2959098397
 20
196.3719743913
 30
0.0
 11
92.7959098397
 21
196.8719743913
 31
0.0
  0
LINE
  5
8B
330
1F
100
AcDbEntity
  8
MDS_Layer_1
  6
Continuous
 62
     7
100
AcDbLine
 10
92.7959098397
 20
196.8719743913
 30
0.0
 11
92.7959098397
 21
200.3719743913
 31
0.0
  0
LINE
  5
8C
330
1F
100
AcDbEntity
  8
MDS_Layer_1
  6
Continuous
 62
     7
100
AcDbLine
 10
90.7959098397
 20
200.3719743913
 30
0.0
 11
90.7959098397
 21
202.1719743913
 31
0.0
  0
ARC
  5
8D
330
1F
100
AcDbEntity
  8
MDS_Layer_2
  6
Continuous
 62
     7
100
AcDbCircle
 10
90.5438493007
 20
79.7179695832
 30
0.0
 40
4.500000001791718
100
AcDbArc
 50
150.4820147435
 51
228.1896851246
  0
LINE
  5
8E
330
1F
100
AcDbEntity
  8
MDS_Layer_2
  6
Continuous
 62
     7
100
AcDbLine
 10
101.5438493007
 20
76.3638676146
 30
0.0
 11
87.8938493007
 21
76.3638676146
 31
0.0
  0
ARC
  5
8F
330
1F
100
AcDbEntity
  8
MDS_Layer_2
  6
Continuous
 62
     7
100
AcDbCircle
 10
101.5438493007
 20
91.3638676146
 30
0.0
 40
19.99999999998472
100
AcDbArc
 50
63.1216700999
 51
69.9707390286
  0
ARC
  5
90
330
1F
100
AcDbEntity
  8
MDS_Layer_2
  6
Continuous
 62
     7
100
AcDbCircle
 10
101.5438493007
 20
91.3638676146
 30
0.0
 40
19.99999999996249
100
AcDbArc
 50
63.1216690852
 51
69.9707390286
  0
LINE
  5
91
330
1F
100
AcDbEntity
  8
MDS_Layer_2
  6
Continuous
 62
     7
100
AcDbLine
 10
108.3938493007
 20
109.2012182223
 30
0.0
 11
108.3938493007
 21
110.1542241838
 31
0.0
  0
ARC
  5
92
330
1F
100
AcDbEntity
  8
MDS_Layer_2
  6
Continuous
 62
     7
100
AcDbCircle
 10
109.1938493007
 20
108.8140524557
 30
0.0
 40
0.2499999999999516
100
AcDbArc
 50
0.0
 51
87.0
  0
LINE
  5
93
330
1F
100
AcDbEntity
  8
MDS_Layer_2
  6
Continuous
 62
     7
100
AcDbLine
 10
108.4886157051
 20
109.1013552688
 30
0.0
 11
109.2069332898
 21
109.0637098394
 31
0.0
  0
ARC
  5
94
330
1F
100
AcDbEntity
  8
MDS_Layer_2
  6
Continuous
 62
     7
100
AcDbCircle
 10
108.4938493007
 20
109.2012182223
 30
0.0
 40
0.1000000000000445
100
AcDbArc
 50
180.0
 51
266.9999999999
  0
LWPOLYLINE
  5
95
330
1F
100
AcDbEntity
  8
MDS_Layer_2
  6
Continuous
 62
     7
100
AcDbPolyline
 90
        2
 70
     0
 43
0.0
 10
110.5834924227
 20
109.2044071868
 10
109.4438493007
 20
108.0647640658
  0
LINE
  5
96
330
1F
100
AcDbEntity
  8
MDS_Layer_2
  6
Continuous
 62
     7
100
AcDbLine
 10
109.4438493007
 20
107.4985910755
 30
0.0
 11
109.4438493007
 21
108.8140524557
 31
0.0
  0
ARC
  5
97
330
1F
100
AcDbEntity
  8
MDS_Layer_2
  6
Continuous
 62
     7
100
AcDbCircle
 10
109.1938493007
 20
107.4985910755
 30
0.0
 40
0.2500000000000449
100
AcDbArc
 50
273.0
 51
0.0
  0
LINE
  5
98
330
1F
100
AcDbEntity
  8
MDS_Layer_2
  6
Continuous
 62
     7
100
AcDbLine
 10
108.4886157051
 20
107.2112882624
 30
0.0
 11
109.2069332898
 21
107.2489336918
 31
0.0
  0
ARC
  5
99
330
1F
100
AcDbEntity
  8
MDS_Layer_2
  6
Continuous
 62
     7
100
AcDbCircle
 10
108.4938493007
 20
107.1114253089
 30
0.0
 40
0.0999999999999751
100
AcDbArc
 50
93.0
 51
180.0
  0
ARC
  5
9A
330
1F
100
AcDbEntity
  8
MDS_Layer_2
  6
Continuous
 62
     7
100
AcDbCircle
 10
108.777407883
 20
105.635365744
 30
0.0
 40
3.99999910557717
100
AcDbArc
 50
6.0000129629
 51
63.1216650265
  0
LINE
  5
9B
330
1F
100
AcDbEntity
  8
MDS_Layer_2
  6
Continuous
 62
     7
100
AcDbLine
 10
108.3938493007
 20
106.1584193474
 30
0.0
 11
108.3938493007
 21
107.1114253089
 31
0.0
  0
LWPOLYLINE
  5
9C
330
1F
100
AcDbEntity
  8
MDS_Layer_2
  6
Continuous
 62
     7
100
AcDbPolyline
 90
        2
 70
     0
 43
0.0
 10
110.5406749197
 20
104.9189489984
 10
112.5594512826
 20
106.9377253597
  0
LINE
  5
9D
330
1F
100
AcDbEntity
  8
MDS_Layer_2
  6
Continuous
 62
     7
100
AcDbLine
 10
94.6938493007
 20
110.1542241838
 30
0.0
 11
108.3938493007
 21
110.1542241838
 31
0.0
  0
LINE
  5
9E
330
1F
100
AcDbEntity
  8
MDS_Layer_2
  6
Continuous
 62
     7
100
AcDbLine
 10
111.4938493007
 20
104.3686335129
 30
0.0
 11
108.3938493007
 21
106.1584193474
 31
0.0
  0
LINE
  5
9F
330
1F
100
AcDbEntity
  8
MDS_Layer_2
  6
Continuous
 62
     7
100
AcDbLine
 10
93.1729042967
 20
132.5825054856
 30
0.0
 11
93.1729042967
 21
132.5825054856
 31
0.0
  0
LINE
  5
A0
330
1F
100
AcDbEntity
  8
MDS_Layer_2
  6
Continuous
 62
     7
100
AcDbLine
 10
101.5438493007
 20
104.3686335129
 30
0.0
 11
91.5938493007
 21
104.3686335129
 31
0.0
  0
LINE
  5
A1
330
1F
100
AcDbEntity
  8
MDS_Layer_2
  6
Continuous
 62
     7
100
AcDbLine
 10
94.6729042967
 20
131.0825054856
 30
0.0
 11
94.9229042967
 21
131.0825054856
 31
0.0
  0
LINE
  5
A2
330
1F
100
AcDbEntity
  8
MDS_Layer_2
  6
Continuous
 62
     7
100
AcDbLine
 10
101.5438493007
 20
106.1584193474
 30
0.0
 11
108.3938493007
 21
106.1584193474
 31
0.0
  0
ARC
  5
A3
330
1F
100
AcDbEntity
  8
MDS_Layer_2
  6
Continuous
 62
     7
100
AcDbCircle
 10
101.5438493007
 20
91.3638676146
 30
0.0
 40
20.00000000001071
100
AcDbArc
 50
110.0292609714
 51
116.8783326341
  0
LINE
  5
A4
330
1F
100
AcDbEntity
  8
MDS_Layer_2
  6
Continuous
 62
     7
100
AcDbLine
 10
94.6938493007
 20
109.2012182223
 30
0.0
 11
94.6938493007
 21
110.1542241838
 31
0.0
  0
ARC
  5
A5
330
1F
100
AcDbEntity
  8
MDS_Layer_2
  6
Continuous
 62
     7
100
AcDbCircle
 10
94.5938493007
 20
109.2012182223
 30
0.0
 40
0.100000000000046
100
AcDbArc
 50
273.0
 51
0.0
  0
LINE
  5
A6
330
1F
100
AcDbEntity
  8
MDS_Layer_2
  6
Continuous
 62
     7
100
AcDbLine
 10
94.5990828963
 20
109.1013552688
 30
0.0
 11
93.8807653117
 21
109.0637098394
 31
0.0
  0
LINE
  5
A7
330
1F
100
AcDbEntity
  8
MDS_Layer_2
  6
Continuous
 62
     7
100
AcDbLine
 10
90.1729042967
 20
135.5825054856
 30
0.0
 11
90.1729042967
 21
135.5825054856
 31
0.0
  0
ARC
  5
A8
330
1F
100
AcDbEntity
  8
MDS_Layer_2
  6
Continuous
 62
     7
100
AcDbCircle
 10
93.8938493007
 20
108.8140524557
 30
0.0
 40
0.2499999999998655
100
AcDbArc
 50
93.0
 51
180.0
  0
LINE
  5
A9
330
1F
100
AcDbEntity
  8
MDS_Layer_2
  6
Continuous
 62
     7
100
AcDbLine
 10
93.6438493007
 20
107.4985910755
 30
0.0
 11
93.6438493007
 21
108.8140524557
 31
0.0
  0
LINE
  5
AA
330
1F
100
AcDbEntity
  8
MDS_Layer_1
  6
Continuous
 62
     7
100
AcDbLine
 10
101.4435302804
 20
261.8258639827
 30
0.0
 11
101.2392455935
 21
258.8258639827
 31
0.0
  0
ARC
  5
AB
330
1F
100
AcDbEntity
  8
MDS_Layer_2
  6
Continuous
 62
     7
100
AcDbCircle
 10
93.8938493007
 20
107.4985910755
 30
0.0
 40
0.2499999999999725
100
AcDbArc
 50
180.0
 51
267.0
  0
LINE
  5
AC
330
1F
100
AcDbEntity
  8
MDS_Layer_2
  6
Continuous
 62
     7
100
AcDbLine
 10
94.5990828963
 20
107.2112882624
 30
0.0
 11
93.8807653117
 21
107.2489336918
 31
0.0
  0
ARC
  5
AD
330
1F
100
AcDbEntity
  8
MDS_Layer_2
  6
Continuous
 62
     7
100
AcDbCircle
 10
94.5938493007
 20
107.1114253089
 30
0.0
 40
0.1000000000000161
100
AcDbArc
 50
0.0
 51
87.0
  0
LINE
  5
AE
330
1F
100
AcDbEntity
  8
MDS_Layer_2
  6
Continuous
 62
     7
100
AcDbLine
 10
94.6938493007
 20
106.1584193474
 30
0.0
 11
94.6938493007
 21
107.1114253089
 31
0.0
  0
LINE
  5
AF
330
1F
100
AcDbEntity
  8
MDS_Layer_2
  6
Continuous
 62
     7
100
AcDbLine
 10
91.5938493007
 20
104.3686335129
 30
0.0
 11
94.6938493007
 21
106.1584193474
 31
0.0
  0
LINE
  5
B0
330
1F
100
AcDbEntity
  8
MDS_Layer_2
  6
Continuous
 62
     7
100
AcDbLine
 10
88.6729042967
 20
137.0825054856
 30
0.0
 11
88.6729042967
 21
148.5825054856
 31
0.0
  0
LINE
  5
B1
330
1F
100
AcDbEntity
  8
MDS_Layer_2
  6
Continuous
 62
     7
100
AcDbLine
 10
101.5438493007
 20
106.1584193474
 30
0.0
 11
94.6938493007
 21
106.1584193474
 31
0.0
  0
LINE
  5
B2
330
1F
100
AcDbEntity
  8
MDS_Layer_2
  6
Continuous
 62
     7
100
AcDbLine
 10
101.5438493007
 20
104.3686335129
 30
0.0
 11
111.4938493007
 21
104.3686335129
 31
0.0
  0
LWPOLYLINE
  5
B3
330
1F
100
AcDbEntity
  8
MDS_Layer_2
  6
Continuous
 62
     7
100
AcDbPolyline
 90
        2
 70
     0
 43
0.0
 10
113.4597694915
 20
99.352762197
 10
111.4938493007
 20
97.3868420078
  0
LINE
  5
B4
330
1F
100
AcDbEntity
  8
MDS_Layer_1
  6
Continuous
 62
     7
100
AcDbLine
 10
97.281321776
 20
258.3258639827
 30
0.0
 11
96.781321776
 21
258.8258639827
 31
0.0
  0
LWPOLYLINE
  5
B5
330
1F
100
AcDbEntity
  8
MDS_Layer_2
  6
Continuous
 62
     7
100
AcDbPolyline
 90
        2
 70
     0
 43
0.0
 10
113.8632784914
 20
95.5136305112
 10
111.4938493007
 20
93.1442013224
  0
LINE
  5
B6
330
1F
100
AcDbEntity
  8
MDS_Layer_1
  6
Continuous
 62
     7
100
AcDbLine
 10
96.781321776
 20
258.8258639827
 30
0.0
 11
101.2392455935
 21
258.8258639827
 31
0.0
  0
LINE
  5
B7
330
1F
100
AcDbEntity
  8
MDS_Layer_2
  6
Continuous
 62
     7
100
AcDbLine
 10
111.4938493007
 20
92.8638676146
 30
0.0
 11
111.4938493007
 21
104.3686335129
 31
0.0
  0
LWPOLYLINE
  5
B8
330
1F
100
AcDbEntity
  8
MDS_Layer_2
  6
Continuous
 62
     7
100
AcDbPolyline
 90
        2
 70
     0
 43
0.0
 10
114.2667874913
 20
91.6744988254
 10
112.9938493007
 20
90.4015606358
  0
LINE
  5
B9
330
1F
100
AcDbEntity
  8
MDS_Layer_2
  6
Continuous
 62
     7
100
AcDbLine
 10
112.7554956161
 20
106.053480523
 30
0.0
 11
114.719265884
 21
87.3694544901
 31
0.0
  0
LINE
  5
BA
330
1F
100
AcDbEntity
  8
MDS_Layer_2
  6
Continuous
 62
     7
100
AcDbLine
 10
91.5938493007
 20
92.8638676146
 30
0.0
 11
91.5938493007
 21
104.3686335129
 31
0.0
  0
LWPOLYLINE
  5
BB
330
1F
100
AcDbEntity
  8
MDS_Layer_2
  6
Continuous
 62
     7
100
AcDbPolyline
 90
        2
 70
     0
 43
0.0
 10
114.6702964913
 20
87.8353671395
 10
112.9938493007
 20
86.1589199503
  0
LWPOLYLINE
  5
BC
330
1F
100
AcDbEntity
  8
MDS_Layer_2
  6
Continuous
 62
     7
100
AcDbPolyline
 90
        2
 70
     0
 43
0.0
 10
113.0562604916
 20
103.1918938829
 10
111.4938493007
 20
101.6294826933
  0
ARC
  5
BD
330
1F
100
AcDbEntity
  8
MDS_Layer_2
  6
Continuous
 62
     7
100
AcDbCircle
 10
128.6425723085
 20
88.8328535761
 30
0.0
 40
13.99999995271859
100
AcDbArc
 50
186.0000024905
 51
209.517964609
  0
LINE
  5
BE
330
1F
100
AcDbEntity
  8
MDS_Layer_1
  6
Continuous
 62
     7
100
AcDbLine
 10
101.2392455935
 20
258.8258639827
 30
0.0
 11
100.9020693516
 21
258.3258639827
 31
0.0
  0
LWPOLYLINE
  5
BF
330
1F
100
AcDbEntity
  8
MDS_Layer_2
  6
Continuous
 62
     7
100
AcDbPolyline
 90
        2
 70
     0
 43
0.0
 10
115.4536348041
 20
84.3760647663
 10
112.9938493007
 20
81.9162792649
  0
LWPOLYLINE
  5
C0
330
1F
100
AcDbEntity
  8
MDS_Layer_2
  6
Continuous
 62
     7
100
AcDbPolyline
 90
        2
 70
     0
 43
0.0
 10
116.7183989648
 20
81.3981882406
 10
115.1840783376
 20
79.8638676146
  0
LINE
  5
C1
330
1F
100
AcDbEntity
  8
MDS_Layer_2
  6
Continuous
 62
     7
100
AcDbLine
 10
113.7938493007
 20
80.8638676146
 30
0.0
 11
112.9938493007
 21
81.6638676146
 31
0.0
  0
LINE
  5
C2
330
1F
100
AcDbEntity
  8
MDS_Layer_2
  6
Continuous
 62
     7
100
AcDbLine
 10
115.1938493007
 20
76.3638676146
 30
0.0
 11
115.1938493007
 21
79.8638676146
 31
0.0
  0
LINE
  5
C3
330
1F
100
AcDbEntity
  8
MDS_Layer_1
  6
Continuous
 62
     7
100
AcDbLine
 10
97.281321776
 20
258.3258639827
 30
0.0
 11
100.9020693516
 21
258.3258639827
 31
0.0
  0
LINE
  5
C4
330
1F
100
AcDbEntity
  8
MDS_Layer_1
  6
Continuous
 62
     7
100
AcDbLine
 10
105.4886364565
 20
258.3258639827
 30
0.0
 11
106.7959098397
 21
258.3258639827
 31
0.0
  0
ARC
  5
C5
330
1F
100
AcDbEntity
  8
MDS_Layer_2
  6
Continuous
 62
     7
100
AcDbCircle
 10
112.5438493007
 20
79.7179695832
 30
0.0
 40
4.500000001791805
100
AcDbArc
 50
311.8103148754
 51
29.5179669699
  0
LINE
  5
C6
330
1F
100
AcDbEntity
  8
MDS_Layer_2
  6
Continuous
 62
     7
100
AcDbLine
 10
115.1938493007
 20
79.8638676146
 30
0.0
 11
113.7938493007
 21
79.8638676146
 31
0.0
  0
LINE
  5
C7
330
1F
100
AcDbEntity
  8
MDS_Layer_2
  6
Continuous
 62
     7
100
AcDbLine
 10
101.5438493007
 20
79.8638676146
 30
0.0
 11
113.7938493007
 21
79.8638676146
 31
0.0
  0
LINE
  5
C8
330
1F
100
AcDbEntity
  8
MDS_Layer_1
  6
Continuous
 62
     7
100
AcDbLine
 10
114.6729042967
 20
136.0825054856
 30
0.0
 11
114.2909382854
 21
136.0825054856
 31
0.0
  0
LINE
  5
C9
330
1F
100
AcDbEntity
  8
MDS_Layer_2
  6
Continuous
 62
     7
100
AcDbLine
 10
101.5438493007
 20
80.8638676146
 30
0.0
 11
113.7938493007
 21
80.8638676146
 31
0.0
  0
LINE
  5
CA
330
1F
100
AcDbEntity
  8
MDS_Layer_2
  6
Continuous
 62
     7
100
AcDbLine
 10
101.5438493007
 20
76.3638676146
 30
0.0
 11
115.1938493007
 21
76.3638676146
 31
0.0
  0
ARC
  5
CB
330
1F
100
AcDbEntity
  8
MDS_Layer_2
  6
Continuous
 62
     7
100
AcDbCircle
 10
94.6729042967
 20
132.5825054856
 30
0.0
 40
1.500000000000057
100
AcDbArc
 50
180.0
 51
270.0
  0
LINE
  5
CC
330
1F
100
AcDbEntity
  8
MDS_Layer_1
  6
Continuous
 62
     7
100
AcDbLine
 10
88.6729042967
 20
136.0825054856
 30
0.0
 11
89.0548703079
 21
136.0825054856
 31
0.0
  0
LINE
  5
CD
330
1F
100
AcDbEntity
  8
MDS_Layer_2
  6
Continuous
 62
     7
100
AcDbLine
 10
115.5438493007
 20
76.3638676146
 30
0.0
 11
115.1938493007
 21
76.3638676146
 31
0.0
  0
LINE
  5
CE
330
1F
100
AcDbEntity
  8
MDS_Layer_2
  6
Continuous
 62
     7
100
AcDbLine
 10
89.2938493007
 20
80.8638676146
 30
0.0
 11
90.0938493007
 21
81.6638676146
 31
0.0
  0
LINE
  5
CF
330
1F
100
AcDbEntity
  8
MDS_Layer_2
  6
Continuous
 62
     7
100
AcDbLine
 10
101.5438493007
 20
92.8638676146
 30
0.0
 11
91.5938493007
 21
92.8638676146
 31
0.0
  0
LINE
  5
D0
330
1F
100
AcDbEntity
  8
MDS_Layer_2
  6
Continuous
 62
     7
100
AcDbLine
 10
101.5438493007
 20
91.3638676146
 30
0.0
 11
90.0938493007
 21
91.3638676146
 31
0.0
  0
LINE
  5
D1
330
1F
100
AcDbEntity
  8
MDS_Layer_1
  6
Continuous
 62
     7
100
AcDbLine
 10
105.0321147174
 20
261.8258639827
 30
0.0
 11
105.4886364565
 21
258.3258639827
 31
0.0
  0
LINE
  5
D2
330
1F
100
AcDbEntity
  8
MDS_Layer_2
  6
Continuous
 62
     7
100
AcDbLine
 10
87.8938493007
 20
76.3638676146
 30
0.0
 11
87.8938493007
 21
79.8638676146
 31
0.0
  0
LINE
  5
D3
330
1F
100
AcDbEntity
  8
MDS_Layer_2
  6
Continuous
 62
     7
100
AcDbLine
 10
87.5438493007
 20
76.3638676146
 30
0.0
 11
87.8938493007
 21
76.3638676146
 31
0.0
  0
ARC
  5
D4
330
1F
100
AcDbEntity
  8
MDS_Layer_2
  6
Continuous
 62
     7
100
AcDbCircle
 10
90.1729042967
 20
132.5825054856
 30
0.0
 40
3.000000000000003
100
AcDbArc
 50
0.0
 51
90.0
  0
LWPOLYLINE
  5
D5
330
1F
100
AcDbEntity
  8
MDS_Layer_2
  6
Continuous
 62
     7
100
AcDbPolyline
 90
        2
 70
     0
 43
0.0
 10
90.0938493007
 20
84.4721233957
 10
86.1103260672
 20
80.4886001654
  0
LWPOLYLINE
  5
D6
330
1F
100
AcDbEntity
  8
MDS_Layer_2
  6
Continuous
 62
     7
100
AcDbPolyline
 90
        2
 70
     0
 43
0.0
 10
87.8938493007
 20
78.029482712
 10
86.9176399655
 20
77.0532733776
  0
ARC
  5
D7
330
1F
100
AcDbEntity
  8
MDS_Layer_2
  6
Continuous
 62
     7
100
AcDbCircle
 10
94.3102904453
 20
105.6353650739
 30
0.0
 40
3.999999579818386
100
AcDbArc
 50
116.8783357407
 51
173.999993259
  0
LWPOLYLINE
  5
D8
330
1F
100
AcDbEntity
  8
MDS_Layer_2
  6
Continuous
 62
     7
100
AcDbPolyline
 90
        2
 70
     0
 43
0.0
 10
94.4854666602
 20
110.0769441788
 10
90.316958158
 20
105.90843568
  0
LINE
  5
D9
330
1F
100
AcDbEntity
  8
MDS_Layer_2
  6
Continuous
 62
     7
100
AcDbLine
 10
113.7938493007
 20
79.8638676146
 30
0.0
 11
113.7938493007
 21
80.8638676146
 31
0.0
  0
LINE
  5
DA
330
1F
100
AcDbEntity
  8
MDS_Layer_2
  6
Continuous
 62
     7
100
AcDbLine
 10
113.5438493007
 20
81.1138676146
 30
0.0
 11
113.5438493007
 21
85.8638676146
 31
0.0
  0
ARC
  5
DB
330
1F
100
AcDbEntity
  8
MDS_Layer_2
  6
Continuous
 62
     7
100
AcDbCircle
 10
90.1729042967
 20
137.0825054856
 30
0.0
 40
1.500000000000085
100
AcDbArc
 50
180.0
 51
270.0
  0
LINE
  5
DC
330
1F
100
AcDbEntity
  8
MDS_Layer_1
  6
Continuous
 62
     7
100
AcDbLine
 10
106.7959098397
 20
258.3258639827
 30
0.0
 11
107.2959098397
 21
258.8258639827
 31
0.0
  0
LINE
  5
DD
330
1F
100
AcDbEntity
  8
MDS_Layer_2
  6
Continuous
 62
     7
100
AcDbLine
 10
112.9938493007
 20
81.6638676146
 30
0.0
 11
112.9938493007
 21
91.3638676146
 31
0.0
  0
LINE
  5
DE
330
1F
100
AcDbEntity
  8
MDS_Layer_2
  6
Continuous
 62
     7
100
AcDbLine
 10
112.9938493007
 20
91.3638676146
 30
0.0
 11
111.4938493007
 21
92.8638676146
 31
0.0
  0
LINE
  5
DF
330
1F
100
AcDbEntity
  8
MDS_Layer_2
  6
Continuous
 62
     7
100
AcDbLine
 10
101.5438493007
 20
81.6638676146
 30
0.0
 11
112.9938493007
 21
81.6638676146
 31
0.0
  0
LINE
  5
E0
330
1F
100
AcDbEntity
  8
MDS_Layer_1
  6
Continuous
 62
     7
100
AcDbLine
 10
106.0431614977
 20
261.8258639827
 30
0.0
 11
106.2931614977
 21
258.3258639827
 31
0.0
  0
LINE
  5
E1
330
1F
100
AcDbEntity
  8
MDS_Layer_2
  6
Continuous
 62
     7
100
AcDbLine
 10
101.5438493007
 20
85.8638676146
 30
0.0
 11
113.5438493007
 21
85.8638676146
 31
0.0
  0
LINE
  5
E2
330
1F
100
AcDbEntity
  8
MDS_Layer_2
  6
Continuous
 62
     7
100
AcDbLine
 10
101.5438493007
 20
91.3638676146
 30
0.0
 11
112.9938493007
 21
91.3638676146
 31
0.0
  0
LINE
  5
E3
330
1F
100
AcDbEntity
  8
MDS_Layer_1
  6
Continuous
 62
     7
100
AcDbLine
 10
107.2959098397
 20
258.8258639827
 30
0.0
 11
106.257447212
 21
258.8258639827
 31
0.0
  0
LINE
  5
E4
330
1F
100
AcDbEntity
  8
MDS_Layer_2
  6
Continuous
 62
     7
100
AcDbLine
 10
101.5438493007
 20
92.8638676146
 30
0.0
 11
111.4938493007
 21
92.8638676146
 31
0.0
  0
ARC
  5
E5
330
1F
100
AcDbEntity
  8
MDS_Layer_1
  6
Continuous
 62
     7
100
AcDbCircle
 10
89.6729042967
 20
148.5825054856
 30
0.0
 40
0.9999999999999454
100
AcDbArc
 50
90.0
 51
180.0
  0
LINE
  5
E6
330
1F
100
AcDbEntity
  8
MDS_Layer_2
  6
Continuous
 62
     7
100
AcDbLine
 10
101.5438493007
 20
85.8638676146
 30
0.0
 11
89.5438493007
 21
85.8638676146
 31
0.0
  0
LINE
  5
E7
330
1F
100
AcDbEntity
  8
MDS_Layer_2
  6
Continuous
 62
     7
100
AcDbLine
 10
101.5438493007
 20
81.6638676146
 30
0.0
 11
90.0938493007
 21
81.6638676146
 31
0.0
  0
LINE
  5
E8
330
1F
100
AcDbEntity
  8
MDS_Layer_2
  6
Continuous
 62
     7
100
AcDbLine
 10
101.5438493007
 20
80.8638676146
 30
0.0
 11
89.2938493007
 21
80.8638676146
 31
0.0
  0
LINE
  5
E9
330
1F
100
AcDbEntity
  8
MDS_Layer_2
  6
Continuous
 62
     7
100
AcDbLine
 10
101.6729042967
 20
149.5825054856
 30
0.0
 11
89.6729042967
 21
149.5825054856
 31
0.0
  0
LINE
  5
EA
330
1F
100
AcDbEntity
  8
MDS_Layer_2
  6
Continuous
 62
     7
100
AcDbLine
 10
101.5438493007
 20
79.8638676146
 30
0.0
 11
89.2938493007
 21
79.8638676146
 31
0.0
  0
LWPOLYLINE
  5
EB
330
1F
100
AcDbEntity
  8
MDS_Layer_2
  6
Continuous
 62
     7
100
AcDbPolyline
 90
        2
 70
     0
 43
0.0
 10
91.5938493007
 20
98.7000454508
 10
89.3203739249
 20
96.4265700768
  0
LWPOLYLINE
  5
EC
330
1F
100
AcDbEntity
  8
MDS_Layer_2
  6
Continuous
 62
     7
100
AcDbPolyline
 90
        2
 70
     0
 43
0.0
 10
91.5938493007
 20
94.4574047654
 10
88.8220818084
 20
91.6856372752
  0
LINE
  5
ED
330
1F
100
AcDbEntity
  8
MDS_Layer_2
  6
Continuous
 62
     7
100
AcDbLine
 10
90.0938493007
 20
91.3638676146
 30
0.0
 11
91.5938493007
 21
92.8638676146
 31
0.0
  0
LINE
  5
EE
330
1F
100
AcDbEntity
  8
MDS_Layer_2
  6
Continuous
 62
     7
100
AcDbLine
 10
90.3322028673
 20
106.0534793998
 30
0.0
 11
88.3684332583
 21
87.3694596356
 31
0.0
  0
LWPOLYLINE
  5
EF
330
1F
100
AcDbEntity
  8
MDS_Layer_2
  6
Continuous
 62
     7
100
AcDbPolyline
 90
        2
 70
     0
 43
0.0
 10
90.0938493007
 20
88.7147640811
 10
88.3237896918
 20
86.9447044736
  0
ARC
  5
F0
330
1F
100
AcDbEntity
  8
MDS_Layer_2
  6
Continuous
 62
     7
100
AcDbCircle
 10
74.4451280179
 20
88.8328587179
 30
0.0
 40
13.99999877466838
100
AcDbArc
 50
330.4820194788
 51
353.9999970181
  0
LINE
  5
F1
330
1F
100
AcDbEntity
  8
MDS_Layer_2
  6
Continuous
 62
     7
100
AcDbLine
 10
89.5438493007
 20
81.1138676146
 30
0.0
 11
89.5438493007
 21
85.8638676146
 31
0.0
  0
LINE
  5
F2
330
1F
100
AcDbEntity
  8
MDS_Layer_2
  6
Continuous
 62
     7
100
AcDbLine
 10
90.0938493007
 20
81.6638676146
 30
0.0
 11
90.0938493007
 21
91.3638676146
 31
0.0
  0
LINE
  5
F3
330
1F
100
AcDbEntity
  8
MDS_Layer_2
  6
Continuous
 62
     7
100
AcDbLine
 10
87.8938493007
 20
79.8638676146
 30
0.0
 11
89.2938493007
 21
79.8638676146
 31
0.0
  0
LINE
  5
F4
330
1F
100
AcDbEntity
  8
MDS_Layer_2
  6
Continuous
 62
     7
100
AcDbLine
 10
89.2938493007
 20
79.8638676146
 30
0.0
 11
89.2938493007
 21
80.8638676146
 31
0.0
  0
LWPOLYLINE
  5
F5
330
1F
100
AcDbEntity
  8
MDS_Layer_2
  6
Continuous
 62
     7
100
AcDbPolyline
 90
        2
 70
     0
 43
0.0
 10
91.5938493007
 20
102.9426861362
 10
89.8186660415
 20
101.1675028784
  0
LINE
  5
F6
330
1F
100
AcDbEntity
  8
MDS_Layer_1
  6
Continuous
 62
     7
100
AcDbLine
 10
93.2959098397
 20
202.8719743913
 30
0.0
 11
101.7959098397
 21
202.8719743913
 31
0.0
  0
LINE
  5
F7
330
1F
100
AcDbEntity
  8
MDS_Layer_1
  6
Continuous
 62
     7
100
AcDbLine
 10
93.2959098397
 20
196.3719743913
 30
0.0
 11
93.2959098397
 21
200.3719743913
 31
0.0
  0
LINE
  5
F8
330
1F
100
AcDbEntity
  8
MDS_Layer_2
  6
Continuous
 62
     7
100
AcDbLine
 10
90.1729042967
 20
135.5825054856
 30
0.0
 11
96.7739248111
 21
135.5825054856
 31
0.0
  0
LINE
  5
F9
330
1F
100
AcDbEntity
  8
MDS_Layer_2
  6
Continuous
 62
     7
100
AcDbLine
 10
94.9229042967
 20
131.0825054856
 30
0.0
 11
101.6729042967
 21
131.0825054856
 31
0.0
  0
LINE
  5
FC
330
1F
100
AcDbEntity
  8
MDS_Layer_4
  6
CENTER2
 62
     7
100
AcDbLine
 10
101.7959098397
 20
221.7316885048
 30
0.0
 11
101.7959098397
 21
239.6383195209
 31
0.0
  0
ARC
  5
FD
330
1F
100
AcDbEntity
  8
MDS_Layer_3
  6
Continuous
 62
     7
100
AcDbCircle
 10
94.3655797437
 20
108.1544737254
 30
0.0
 40
0.7499999999999729
100
AcDbArc
 50
270.0
 51
90.0
  0
LINE
  5
FE
330
1F
100
AcDbEntity
  8
MDS_Layer_2
  6
Continuous
 62
     7
100
AcDbLine
 10
123.6729042967
 20
137.0536984154
 30
0.0
 11
123.6729042967
 21
144.1113126581
 31
0.0
  0
ELLIPSE
  5
FF
330
1F
100
AcDbEntity
  8
MDS_Layer_2
  6
Continuous
 62
     7
100
AcDbEllipse
 10
128.4229042967
 20
140.5825054856
 30
0.0
 11
2.775557561562891E-14
 21
-7.000000000000172
 31
0.0
210
0.0
220
0.0
230
1.0
 40
0.7857142857
 41
5.240746244675049
 42
10.46721700783587
  0
LINE
  5
100
330
1F
100
AcDbEntity
  8
MDS_Layer_2
  6
Continuous
 62
     7
100
AcDbLine
 10
122.6729042967
 20
136.8325054856
 30
0.0
 11
123.6729042967
 21
136.8325054856
 31
0.0
  0
LINE
  5
101
330
1F
100
AcDbEntity
  8
MDS_Layer_2
  6
Continuous
 62
     7
100
AcDbLine
 10
122.6729042967
 20
144.3325054856
 30
0.0
 11
123.6729042967
 21
144.3325054856
 31
0.0
  0
LINE
  5
102
330
1F
100
AcDbEntity
  8
MDS_Layer_2
  6
Continuous
 62
     7
100
AcDbLine
 10
122.6729042967
 20
136.0825054856
 30
0.0
 11
122.6729042967
 21
145.0825054856
 31
0.0
  0
LINE
  5
103
330
1F
100
AcDbEntity
  8
MDS_Layer_1
  6
Continuous
 62
     7
100
AcDbLine
 10
101.7959098397
 20
224.1369580619
 30
0.0
 11
103.2959098397
 21
224.1369580619
 31
0.0
  0
LINE
  5
104
330
1F
100
AcDbEntity
  8
MDS_Layer_1
  6
Continuous
 62
     7
100
AcDbLine
 10
110.2959098397
 20
202.8719743913
 30
0.0
 11
101.7959098397
 21
202.8719743913
 31
0.0
  0
LINE
  5
105
330
1F
100
AcDbEntity
  8
MDS_Layer_1
  6
Continuous
 62
     7
100
AcDbLine
 10
110.2959098397
 20
196.3719743913
 30
0.0
 11
110.2959098397
 21
200.3719743913
 31
0.0
  0
LINE
  5
106
330
1F
100
AcDbEntity
  8
MDS_Layer_1
  6
Continuous
 62
     7
100
AcDbLine
 10
101.7959098397
 20
234.1369580619
 30
0.0
 11
106.6959098397
 21
234.1369580619
 31
0.0
  0
ARC
  5
107
330
1F
100
AcDbEntity
  8
MDS_Layer_2
  6
Continuous
 62
     7
100
AcDbCircle
 10
118.1729042967
 20
150.4868914735
 30
0.0
 40
6.438741173985234
100
AcDbArc
 50
237.0720126609
 51
301.6869874105
  0
LINE
  5
108
330
1F
100
AcDbEntity
  8
MDS_Layer_2
  6
Continuous
 62
     7
100
AcDbLine
 10
122.6729042967
 20
145.0825054856
 30
0.0
 11
121.8176762501
 21
145.0825054856
 31
0.0
  0
ARC
  5
109
330
1F
100
AcDbEntity
  8
MDS_Layer_2
  6
Continuous
 62
     7
100
AcDbCircle
 10
118.1729042967
 20
130.6781194978
 30
0.0
 40
6.438741173985059
100
AcDbArc
 50
58.3130120784
 51
122.9279873391
  0
LINE
  5
10A
330
1F
100
AcDbEntity
  8
MDS_Layer_1
  6
Continuous
 62
     7
100
AcDbLine
 10
103.7959098397
 20
224.6369580619
 30
0.0
 11
103.7959098397
 21
234.1369580619
 31
0.0
  0
LINE
  5
10B
330
1F
100
AcDbEntity
  8
MDS_Layer_2
  6
Continuous
 62
     7
100
AcDbLine
 10
121.8176762348
 20
136.0825054856
 30
0.0
 11
122.6729042967
 21
136.0825054856
 31
0.0
  0
LINE
  5
10C
330
1F
100
AcDbEntity
  8
MDS_Layer_2
  6
Continuous
 62
     7
100
AcDbLine
 10
121.6729042967
 20
136.7768067965
 30
0.0
 11
121.6729042967
 21
144.5270739545
 31
0.0
  0
LINE
  5
10D
330
1F
100
AcDbEntity
  8
MDS_Layer_1
  6
Continuous
 62
     7
100
AcDbLine
 10
101.7959098397
 20
235.1369580619
 30
0.0
 11
106.6959098397
 21
235.1369580619
 31
0.0
  0
ARC
  5
10E
330
1F
100
AcDbEntity
  8
MDS_Layer_2
  6
Continuous
 62
     7
100
AcDbCircle
 10
121.8176757309
 20
144.5825054787
 30
0.0
 40
0.5000002668396364
100
AcDbArc
 50
89.9999405056
 51
121.6870384519
  0
ARC
  5
10F
330
1F
100
AcDbEntity
  8
MDS_Layer_2
  6
Continuous
 62
     7
100
AcDbCircle
 10
121.8176757496
 20
136.5825054763
 30
0.0
 40
0.4999999906532682
100
AcDbArc
 50
238.3129653285
 51
270.000055601
  0
LINE
  5
110
330
1F
100
AcDbEntity
  8
MDS_Layer_3
  6
Continuous
 62
     7
100
AcDbLine
 10
94.3655797437
 20
108.9044737254
 30
0.0
 11
101.5097525379
 21
108.9044737254
 31
0.0
  0
LINE
  5
111
330
1F
100
AcDbEntity
  8
MDS_Layer_1
  6
Continuous
 62
     7
100
AcDbLine
 10
107.2959098397
 20
196.3719743913
 30
0.0
 11
101.7959098397
 21
196.3719743913
 31
0.0
  0
LINE
  5
112
330
1F
100
AcDbEntity
  8
MDS_Layer_1
  6
Continuous
 62
     7
100
AcDbLine
 10
96.2959098397
 20
196.3719743913
 30
0.0
 11
101.7959098397
 21
196.3719743913
 31
0.0
  0
LINE
  5
113
330
1F
100
AcDbEntity
  8
MDS_Layer_1
  6
Continuous
 62
     7
100
AcDbLine
 10
106.6959098397
 20
235.1369580619
 30
0.0
 11
106.6959098397
 21
234.1369580619
 31
0.0
  0
LINE
  5
114
330
1F
100
AcDbEntity
  8
MDS_Layer_1
  6
Continuous
 62
     7
100
AcDbLine
 10
103.2959098397
 20
224.1369580619
 30
0.0
 11
103.7959098397
 21
224.6369580619
 31
0.0
  0
LINE
  5
115
330
1F
100
AcDbEntity
  8
MDS_Layer_2
  6
Continuous
 62
     7
100
AcDbLine
 10
81.6729042967
 20
136.7768067965
 30
0.0
 11
81.6729042967
 21
144.5270739545
 31
0.0
  0
LINE
  5
116
330
1F
100
AcDbEntity
  8
MDS_Layer_2
  6
Continuous
 62
     7
100
AcDbLine
 10
79.6729042967
 20
137.0536984154
 30
0.0
 11
79.6729042967
 21
144.1113126581
 31
0.0
  0
ARC
  5
117
330
1F
100
AcDbEntity
  8
MDS_Layer_2
  6
Continuous
 62
     7
100
AcDbCircle
 10
85.1729042967
 20
150.4868914735
 30
0.0
 40
6.438741173985031
100
AcDbArc
 50
238.3130125895
 51
302.9279873391
  0
LINE
  5
118
330
1F
100
AcDbEntity
  8
MDS_Layer_2
  6
Continuous
 62
     7
100
AcDbLine
 10
81.5281323586
 20
136.0825054856
 30
0.0
 11
80.6729042967
 21
136.0825054856
 31
0.0
  0
LINE
  5
119
330
1F
100
AcDbEntity
  8
MDS_Layer_2
  6
Continuous
 62
     7
100
AcDbLine
 10
80.6729042967
 20
145.0825054856
 30
0.0
 11
81.5281323433
 21
145.0825054856
 31
0.0
  0
ARC
  5
11A
330
1F
100
AcDbEntity
  8
MDS_Layer_2
  6
Continuous
 62
     7
100
AcDbCircle
 10
85.1729042967
 20
130.6781194978
 30
0.0
 40
6.438741173985028
100
AcDbArc
 50
57.0720126609
 51
121.6869879216
  0
ARC
  5
11B
330
1F
100
AcDbEntity
  8
MDS_Layer_2
  6
Continuous
 62
     7
100
AcDbCircle
 10
81.5281328438
 20
136.5825054763
 30
0.0
 40
0.4999999906533514
100
AcDbArc
 50
269.999944399
 51
301.6870346715
  0
LINE
  5
11C
330
1F
100
AcDbEntity
  8
MDS_Layer_2
  6
Continuous
 62
     7
100
AcDbLine
 10
80.6729042967
 20
136.8325054856
 30
0.0
 11
79.6729042967
 21
136.8325054856
 31
0.0
  0
ARC
  5
11D
330
1F
100
AcDbEntity
  8
MDS_Layer_2
  6
Continuous
 62
     7
100
AcDbCircle
 10
81.5281328625
 20
144.5825054787
 30
0.0
 40
0.5000002668386527
100
AcDbArc
 50
58.312961548
 51
90.0000594944
  0
ELLIPSE
  5
11E
330
1F
100
AcDbEntity
  8
MDS_Layer_2
  6
Continuous
 62
     7
100
AcDbEllipse
 10
74.9229042967
 20
140.5825054856
 30
0.0
 11
-1.526556658859590E-13
 21
-7.000000000000062
 31
0.0
210
0.0
220
0.0
230
1.0
 40
0.7857142857
 41
2.099153606523333
 42
7.325624369684133
  0
LINE
  5
11F
330
1F
100
AcDbEntity
  8
MDS_Layer_2
  6
Continuous
 62
     7
100
AcDbLine
 10
80.6729042967
 20
144.3325054856
 30
0.0
 11
79.6729042967
 21
144.3325054856
 31
0.0
  0
LINE
  5
120
330
1F
100
AcDbEntity
  8
MDS_Layer_2
  6
Continuous
 62
     7
100
AcDbLine
 10
80.6729042967
 20
136.0825054856
 30
0.0
 11
80.6729042967
 21
145.0825054856
 31
0.0
  0
LINE
  5
121
330
1F
100
AcDbEntity
  8
MDS_Layer_1
  6
Continuous
 62
     7
100
AcDbLine
 10
90.7959098397
 20
200.3719743913
 30
0.0
 11
101.7959098397
 21
200.3719743913
 31
0.0
  0
LINE
  5
122
330
1F
100
AcDbEntity
  8
MDS_Layer_2
  6
Continuous
 62
     7
100
AcDbLine
 10
94.1530102081
 20
132.5825054856
 30
0.0
 11
101.6729042967
 21
132.5825054856
 31
0.0
  0
LINE
  5
123
330
1F
100
AcDbEntity
  8
MDS_Layer_1
  6
Continuous
 62
     7
100
AcDbLine
 10
103.2959098397
 20
224.1369580619
 30
0.0
 11
103.2959098397
 21
233.1369580619
 31
0.0
  0
LINE
  5
124
330
1F
100
AcDbEntity
  8
MDS_Layer_1
  6
Continuous
 62
     7
100
AcDbLine
 10
103.7959098397
 20
224.6369580619
 30
0.0
 11
101.7959098397
 21
224.6369580619
 31
0.0
  0
LINE
  5
125
330
1F
100
AcDbEntity
  8
MDS_Layer_1
  6
Continuous
 62
     7
100
AcDbLine
 10
101.7959098397
 20
233.1369580619
 30
0.0
 11
103.7959098397
 21
233.1369580619
 31
0.0
  0
ARC
  5
126
330
1F
100
AcDbEntity
  8
MDS_Layer_1
  6
Continuous
 62
     7
100
AcDbCircle
 10
101.6729042967
 20
140.5825054856
 30
0.0
 40
6.999999999999979
100
AcDbArc
 50
90.0
 51
270.0
  0
LINE
  5
127
330
1F
100
AcDbEntity
  8
MDS_Layer_3
  6
Continuous
 62
     7
100
AcDbLine
 10
108.7221188577
 20
108.9044737254
 30
0.0
 11
101.5779460636
 21
108.9044737254
 31
0.0
  0
LINE
  5
128
330
1F
100
AcDbEntity
  8
MDS_Layer_3
  6
Continuous
 62
     7
100
AcDbLine
 10
108.7221188577
 20
107.4044737254
 30
0.0
 11
101.5779460636
 21
107.4044737254
 31
0.0
  0
LINE
  5
129
330
1F
100
AcDbEntity
  8
MDS_Layer_1
  6
Continuous
 62
     7
100
AcDbLine
 10
101.7959098397
 20
235.1369580619
 30
0.0
 11
96.8959098397
 21
235.1369580619
 31
0.0
  0
LINE
  5
12A
330
1F
100
AcDbEntity
  8
MDS_Layer_1
  6
Continuous
 62
     7
100
AcDbLine
 10
94.9229042967
 20
128.6071237911
 30
0.0
 11
94.9229042967
 21
120.5825054856
 31
0.0
  0
LINE
  5
12B
330
1F
100
AcDbEntity
  8
MDS_Layer_2
  6
Continuous
 62
     7
100
AcDbLine
 10
94.9229042967
 20
128.6071237911
 30
0.0
 11
94.9229042967
 21
131.0825054856
 31
0.0
  0
LINE
  5
12C
330
1F
100
AcDbEntity
  8
MDS_Layer_1
  6
Continuous
 62
     7
100
AcDbLine
 10
101.7959098397
 20
234.1369580619
 30
0.0
 11
96.8959098397
 21
234.1369580619
 31
0.0
  0
LINE
  5
12D
330
1F
100
AcDbEntity
  8
MDS_Layer_1
  6
Continuous
 62
     7
100
AcDbLine
 10
96.8959098397
 20
235.1369580619
 30
0.0
 11
96.8959098397
 21
234.1369580619
 31
0.0
  0
LINE
  5
12E
330
1F
100
AcDbEntity
  8
MDS_Layer_1
  6
Continuous
 62
     7
100
AcDbLine
 10
101.7959098397
 20
224.1369580619
 30
0.0
 11
100.2959098397
 21
224.1369580619
 31
0.0
  0
LINE
  5
12F
330
1F
100
AcDbEntity
  8
MDS_Layer_1
  6
Continuous
 62
     7
100
AcDbLine
 10
100.2959098397
 20
224.1369580619
 30
0.0
 11
99.7959098397
 21
224.6369580619
 31
0.0
  0
LINE
  5
130
330
1F
100
AcDbEntity
  8
MDS_Layer_1
  6
Continuous
 62
     7
100
AcDbLine
 10
99.7959098397
 20
224.6369580619
 30
0.0
 11
99.7959098397
 21
234.1369580619
 31
0.0
  0
LINE
  5
131
330
1F
100
AcDbEntity
  8
MDS_Layer_1
  6
Continuous
 62
     7
100
AcDbLine
 10
101.7959098397
 20
233.1369580619
 30
0.0
 11
99.7959098397
 21
233.1369580619
 31
0.0
  0
LINE
  5
132
330
1F
100
AcDbEntity
  8
MDS_Layer_1
  6
Continuous
 62
     7
100
AcDbLine
 10
99.7959098397
 20
224.6369580619
 30
0.0
 11
101.7959098397
 21
224.6369580619
 31
0.0
  0
LINE
  5
133
330
1F
100
AcDbEntity
  8
MDS_Layer_1
  6
Continuous
 62
     7
100
AcDbLine
 10
100.2959098397
 20
224.1369580619
 30
0.0
 11
100.2959098397
 21
233.1369580619
 31
0.0
  0
ARC
  5
134
330
1F
100
AcDbEntity
  8
MDS_Layer_1
  6
Continuous
 62
     7
100
AcDbCircle
 10
101.7959098397
 20
227.8836247286
 30
0.0
 40
8.753333333333158
100
AcDbArc
 50
55.958948777
 51
124.041051223
  0
LINE
  5
135
330
1F
100
AcDbEntity
  8
MDS_Layer_1
  6
Continuous
 62
     7
100
AcDbLine
 10
93.5459098397
 20
261.8258639827
 30
0.0
 11
110.0459098397
 21
261.8258639827
 31
0.0
  0
LINE
  5
136
330
1F
100
AcDbEntity
  8
MDS_Layer_1
  6
Continuous
 62
     7
100
AcDbLine
 10
107.2959098397
 20
261.8258639827
 30
0.0
 11
107.2959098397
 21
258.8258639827
 31
0.0
  0
LINE
  5
137
330
1F
100
AcDbEntity
  8
MDS_Layer_1
  6
Continuous
 62
     7
100
AcDbLine
 10
94.9229042967
 20
120.5825054856
 30
0.0
 11
101.6729042967
 21
120.5825054856
 31
0.0
  0
LINE
  5
138
330
1F
100
AcDbEntity
  8
MDS_Layer_3
  6
Continuous
 62
     7
100
AcDbLine
 10
94.3655797437
 20
107.4044737254
 30
0.0
 11
101.5097525379
 21
107.4044737254
 31
0.0
  0
ARC
  5
139
330
1F
100
AcDbEntity
  8
MDS_Layer_1
  6
Continuous
 62
     7
100
AcDbCircle
 10
101.7959098397
 20
229.7946139827
 30
0.0
 40
34.53124999999904
100
AcDbArc
 50
76.8364253815
 51
103.1635738956
  0
LINE
  5
13A
330
1F
100
AcDbEntity
  8
MDS_Layer_1
  6
Continuous
 62
     7
100
AcDbLine
 10
110.0459098397
 20
262.931654489
 30
0.0
 11
110.0459098397
 21
261.8258639827
 31
0.0
  0
LINE
  5
13B
330
1F
100
AcDbEntity
  8
MDS_Layer_1
  6
Continuous
 62
     7
100
AcDbLine
 10
93.5459098397
 20
262.9316558368
 30
0.0
 11
93.5459098397
 21
261.8258639827
 31
0.0
  0
LINE
  5
13C
330
1F
100
AcDbEntity
  8
MDS_Layer_1
  6
Continuous
 62
     7
100
AcDbLine
 10
94.8923235026
 20
263.3258639827
 30
0.0
 11
108.4368430371
 21
263.3258639827
 31
0.0
  0
ARC
  5
13D
330
1F
100
AcDbEntity
  8
MDS_Layer_1
  6
Continuous
 62
     7
100
AcDbCircle
 10
94.0459098089
 20
262.9316553296
 30
0.0
 40
0.4999995131509959
100
AcDbArc
 50
103.1635905677
 51
179.9999418744
  0
ARC
  5
13E
330
1F
100
AcDbEntity
  8
MDS_Layer_1
  6
Continuous
 62
     7
100
AcDbCircle
 10
109.5459100795
 20
262.9316546068
 30
0.0
 40
0.4999997601674716
100
AcDbArc
 50
0.0
 51
76.8364016952
  0
LINE
  5
13F
330
1F
100
AcDbEntity
  8
MDS_Layer_1
  6
Continuous
 62
     7
100
AcDbLine
 10
96.781321776
 20
261.8258639827
 30
0.0
 11
96.781321776
 21
258.8258639827
 31
0.0
  0
ARC
  5
140
330
1F
100
AcDbEntity
  8
MDS_Layer_3
  6
Continuous
 62
     7
100
AcDbCircle
 10
94.3655797437
 20
108.1544737254
 30
0.0
 40
0.7500000000000007
100
AcDbArc
 50
90.0
 51
270.0
  0
LINE
  5
141
330
1F
100
AcDbEntity
  8
MDS_Layer_2
  6
Continuous
 62
     7
100
AcDbLine
 10
113.1729042967
 20
135.5825054856
 30
0.0
 11
113.1729042967
 21
135.5825054856
 31
0.0
  0
LINE
  5
142
330
1F
100
AcDbEntity
  8
MDS_Layer_2
  6
Continuous
 62
     7
100
AcDbLine
 10
110.1729042967
 20
132.5825054856
 30
0.0
 11
110.1729042967
 21
132.5825054856
 31
0.0
  0
LINE
  5
143
330
1F
100
AcDbEntity
  8
MDS_Layer_2
  6
Continuous
 62
     7
100
AcDbLine
 10
101.6729042967
 20
149.5825054856
 30
0.0
 11
113.6729042967
 21
149.5825054856
 31
0.0
  0
LINE
  5
144
330
1F
100
AcDbEntity
  8
MDS_Layer_2
  6
Continuous
 62
     7
100
AcDbLine
 10
113.1729042967
 20
135.5825054856
 30
0.0
 11
106.5718837823
 21
135.5825054856
 31
0.0
  0
LINE
  5
145
330
1F
100
AcDbEntity
  8
MDS_Layer_2
  6
Continuous
 62
     7
100
AcDbLine
 10
108.4229042967
 20
131.0825054856
 30
0.0
 11
101.6729042967
 21
131.0825054856
 31
0.0
  0
LINE
  5
146
330
1F
100
AcDbEntity
  8
MDS_Layer_2
  6
Continuous
 62
     7
100
AcDbLine
 10
109.1927983852
 20
132.5825054856
 30
0.0
 11
101.6729042967
 21
132.5825054856
 31
0.0
  0
ARC
  5
147
330
1F
100
AcDbEntity
  8
MDS_Layer_1
  6
Continuous
 62
     7
100
AcDbCircle
 10
101.6729042967
 20
140.5825054856
 30
0.0
 40
6.999999999999979
100
AcDbArc
 50
270.0
 51
90.0
  0
LINE
  5
148
330
1F
100
AcDbEntity
  8
MDS_Layer_1
  6
Continuous
 62
     7
100
AcDbLine
 10
108.4229042967
 20
120.5825054856
 30
0.0
 11
101.6729042967
 21
120.5825054856
 31
0.0
  0
LINE
  5
149
330
1F
100
AcDbEntity
  8
MDS_Layer_1
  6
Continuous
 62
     7
100
AcDbLine
 10
90.7959098397
 20
202.1719743913
 30
0.0
 11
112.7959098397
 21
202.1719743913
 31
0.0
  0
LINE
  5
14A
330
1F
100
AcDbEntity
  8
MDS_Layer_1
  6
Continuous
 62
     7
100
AcDbLine
 10
92.7959098397
 20
196.8719743913
 30
0.0
 11
110.7959098397
 21
196.8719743913
 31
0.0
  0
DIMENSION
  5
15F
330
1F
100
AcDbEntity
  8
Layer3
  6
Continuous
 62
     7
100
AcDbDimension
  2
DMBLK45
 10
145.844256472
 20
76.3638676146
 30
0.0
 11
145.844256472
 21
93.25904632
 31
0.0
 70
   161
  1
\A1;<>
 71
     5
 42
-1.0
  3
Standard
100
AcDbAlignedDimension
 13
101.5438493007
 23
76.3638676146
 33
0.0
 14
101.5438493007
 24
110.1542241838
 34
0.0
  0
DIMENSION
  5
16A
330
1F
100
AcDbEntity
  8
Layer3
  6
Continuous
 62
     7
100
AcDbDimension
  2
DMBLK46
 10
88.6729042967
 20
157.681756145
 30
0.0
 11
101.6729045649
 21
157.681756145
 31
0.0
 70
   161
  1
\A1;<>
 71
     5
 42
-1.0
  3
Standard
100
AcDbAlignedDimension
 13
88.6729042967
 23
148.5825054856
 33
0.0
 14
114.6729042967
 24
148.5825054856
 34
0.0
  0
DIMENSION
  5
175
330
1F
100
AcDbEntity
  8
Layer3
  6
Continuous
 62
     7
100
AcDbDimension
  2
DMBLK47
 10
110.7959098397
 20
184.0806118002
 30
0.0
 11
101.7959094523
 21
184.0806118002
 31
0.0
 70
   160
  1
\A1;M <>
 71
     5
 42
-1.0
  3
Standard
100
AcDbAlignedDimension
 13
92.7959098397
 23
196.8719743913
 33
0.0
 14
110.7959098397
 24
198.6219743913
 34
0.0
100
AcDbRotatedDimension
  0
DIMENSION
  5
181
330
1F
100
AcDbEntity
  8
Layer3
  6
Continuous
 62
     7
100
AcDbDimension
  2
DMBLK48
 10
132.751383516
 20
202.8719743913
 30
0.0
 11
132.751383516
 21
199.6219744584
 31
0.0
 70
   160
  1
\A1;<>
 71
     5
 42
-1.0
  3
Standard
100
AcDbAlignedDimension
 13
108.7959098397
 23
196.3719743913
 33
0.0
 14
110.2959098397
 24
202.8719743913
 34
0.0
 50
90.0
100
AcDbRotatedDimension
  0
DIMENSION
  5
18C
330
1F
100
AcDbEntity
  8
Layer3
  6
Continuous
 62
     7
100
AcDbDimension
  2
DMBLK49
 10
99.7959098397
 20
213.2594399967
 30
0.0
 11
109.2758087991
 21
213.2594399967
 31
0.0
 70
   161
  1
\A1;M <>
 71
     5
 42
-1.0
  3
Standard
100
AcDbAlignedDimension
 13
99.7959098397
 23
224.6369580619
 33
0.0
 14
103.7959098397
 24
224.6369580619
 34
0.0
  0
DIMENSION
  5
198
330
1F
100
AcDbEntity
  8
Layer3
  6
Continuous
 62
     7
100
AcDbDimension
  2
DMBLK50
 10
96.8959098397
 20
249.4810245253
 30
0.0
 11
101.7959098978
 21
249.4810245253
 31
0.0
 70
   161
  1
\A1;<>
 71
     5
 42
-1.0
  3
Standard
100
AcDbAlignedDimension
 13
96.8959098397
 23
234.6369580619
 33
0.0
 14
106.6959098397
 24
234.6369580619
 34
0.0
  0
DIMENSION
  5
1A3
330
1F
100
AcDbEntity
  8
Layer3
  6
Continuous
 62
     7
100
AcDbDimension
  2
DMBLK51
 10
79.5278324811
 20
234.1369580619
 30
0.0
 11
79.5278324811
 21
229.1369579502
 31
0.0
 70
   160
  1
\A1;<>
 71
     5
 42
-1.0
  3
Standard
100
AcDbAlignedDimension
 13
101.7959098397
 23
224.1369580619
 33
0.0
 14
96.8959098397
 24
234.1369580619
 34
0.0
 50
90.0
100
AcDbRotatedDimension
  0
DIMENSION
  5
1AE
330
1F
100
AcDbEntity
  8
Layer3
  6
Continuous
 62
     7
100
AcDbDimension
  2
DMBLK52
 10
93.5459104067
 20
276.2625024136
 30
0.0
 11
101.795910362
 21
276.2625020766
 31
0.0
 70
   161
  1
\A1;<>
 71
     5
 42
-1.0
  3
Standard
100
AcDbAlignedDimension
 13
93.5459098397
 23
262.3787599098
 33
0.0
 14
110.0459098397
 24
262.3787592359
 34
0.0
  0
DIMENSION
  5
1B9
330
1F
100
AcDbEntity
  8
Layer3
  6
Continuous
 62
     7
100
AcDbDimension
  2
DMBLK53
 10
86.0438492989
 20
88.7807142603
 30
0.0
 11
80.413578721
 21
88.7807142603
 31
0.0
 70
   161
  1
\A1;<>
 71
     5
 42
-1.0
  3
Standard
100
AcDbAlignedDimension
 13
86.0438492989
 23
79.7179695832
 33
0.0
 14
117.0438493025
 24
79.7179695832
 34
0.0
  0
DIMENSION
  5
1C4
330
1F
100
AcDbEntity
  8
Layer3
  6
Continuous
 62
     7
100
AcDbDimension
  2
DMBLK54
 10
89.5438493007
 20
64.9543257096
 30
0.0
 11
101.543849405
 21
64.9543257096
 31
0.0
 70
   161
  1
\A1;M <>
 71
     5
 42
-1.0
  3
Standard
100
AcDbAlignedDimension
 13
89.5438493007
 23
81.1138676146
 33
0.0
 14
113.5438493007
 24
81.1138676146
 34
0.0
  0
DIMENSION
  5
1D0
330
1F
100
AcDbEntity
  8
Layer3
  6
Continuous
 62
     7
100
AcDbDimension
  2
DMBLK55
 10
69.4229042967
 20
169.5555782529
 30
0.0
 11
101.672902598
 21
169.5555782529
 31
0.0
 70
   161
  1
\A1;<>
 71
     5
 42
-1.0
  3
Standard
100
AcDbAlignedDimension
 13
69.4229042967
 23
140.5825054856
 33
0.0
 14
133.9229042967
 24
140.5825054856
 34
0.0
  0
DIMENSION
  5
1DB
330
1F
100
AcDbEntity
  8
Layer3
  6
Continuous
 62
     7
100
AcDbDimension
  2
DMBLK56
 10
145.3889157613
 20
120.5825054856
 30
0.0
 11
145.3889157613
 21
135.0825059028
 31
0.0
 70
   160
  1
\A1;<>
 71
     5
 42
-1.0
  3
Standard
100
AcDbAlignedDimension
 13
113.6729042967
 23
149.5825054856
 33
0.0
 14
108.4229042967
 24
120.5825054856
 34
0.0
 50
90.0
100
AcDbRotatedDimension
  0
DIMENSION
  5
1E6
330
1F
100
AcDbEntity
  8
Layer3
  6
Continuous
 62
     7
100
AcDbDimension
  2
DMBLK57
 10
132.3686539261
 20
258.3258639827
 30
0.0
 11
132.3686539261
 21
261.3258639567
 31
0.0
 70
   160
  1
\A1;<>
 71
     5
 42
-1.0
  3
Standard
100
AcDbAlignedDimension
 13
101.7959098397
 23
264.3258639827
 33
0.0
 14
106.7959098397
 24
258.3258639827
 34
0.0
 50
90.0
100
AcDbRotatedDimension
  0
LINE
  5
1F2
330
1F
100
AcDbEntity
  8
Standard
  6
Continuous
 62
     7
100
AcDbLine
 10
6.6
 20
291.0
 30
0.0
 11
6.6
 21
5.0
 31
0.0
  0
LINE
  5
1F3
330
1F
100
AcDbEntity
  8
Standard
  6
Continuous
 62
     7
100
AcDbLine
 10
6.6
 20
5.0
 30
0.0
 11
203.0048694642
 21
5.0
 31
0.0
  0
LINE
  5
1F4
330
1F
100
AcDbEntity
  8
Standard
  6
Continuous
 62
     7
100
AcDbLine
 10
203.0048694642
 20
291.0
 30
0.0
 11
6.6
 21
291.0
 31
0.0
  0
LINE
  5
1F5
330
1F
100
AcDbEntity
  8
Default
  6
Continuous
 62
     7
100
AcDbLine
 10
6.6
 20
45.0
 30
0.0
 11
203.0048694642
 21
45.0
 31
0.0
  0
LINE
  5
1F6
330
1F
100
AcDbEntity
  8
Default
  6
Continuous
 62
     7
100
AcDbLine
 10
6.6
 20
25.0
 30
0.0
 11
203.0048694642
 21
25.0
 31
0.0
  0
LINE
  5
1F7
330
1F
100
AcDbEntity
  8
Default
  6
Continuous
 62
     7
100
AcDbLine
 10
6.6
 20
40.0
 30
0.0
 11
105.0
 21
40.0
 31
0.0
  0
LINE
  5
1F8
330
1F
100
AcDbEntity
  8
Default
  6
Continuous
 62
     7
100
AcDbLine
 10
25.0
 20
35.0
 30
0.0
 11
105.0
 21
35.0
 31
0.0
  0
LINE
  5
1F9
330
1F
100
AcDbEntity
  8
Default
  6
Continuous
 62
     7
100
AcDbLine
 10
25.0
 20
30.0
 30
0.0
 11
85.0
 21
30.0
 31
0.0
  0
LINE
  5
1FA
330
1F
100
AcDbEntity
  8
Default
  6
Continuous
 62
     7
100
AcDbLine
 10
25.0
 20
45.0
 30
0.0
 11
25.0
 21
5.0
 31
0.0
  0
LINE
  5
1FB
330
1F
100
AcDbEntity
  8
Default
  6
Continuous
 62
     7
100
AcDbLine
 10
45.0
 20
45.0
 30
0.0
 11
45.0
 21
5.0
 31
0.0
  0
LINE
  5
1FC
330
1F
100
AcDbEntity
  8
Default
  6
Continuous
 62
     7
100
AcDbLine
 10
65.0
 20
45.0
 30
0.0
 11
65.0
 21
25.0
 31
0.0
  0
LINE
  5
1FD
330
1F
100
AcDbEntity
  8
Default
  6
Continuous
 62
     7
100
AcDbLine
 10
85.0
 20
45.0
 30
0.0
 11
85.0
 21
25.0
 31
0.0
  0
LINE
  5
1FE
330
1F
100
AcDbEntity
  8
Default
  6
Continuous
 62
     7
100
AcDbLine
 10
105.0
 20
45.0
 30
0.0
 11
105.0
 21
25.0
 31
0.0
  0
LINE
  5
1FF
330
1F
100
AcDbEntity
  8
Default
  6
Continuous
 62
     7
100
AcDbLine
 10
25.0
 20
12.0
 30
0.0
 11
203.0048694642
 21
12.0
 31
0.0
  0
LINE
  5
200
330
1F
100
AcDbEntity
  8
Default
  6
Continuous
 62
     7
100
AcDbLine
 10
6.6
 20
20.0
 30
0.0
 11
25.0
 21
20.0
 31
0.0
  0
LINE
  5
201
330
1F
100
AcDbEntity
  8
Default
  6
Continuous
 62
     7
100
AcDbLine
 10
163.0
 20
25.0
 30
0.0
 11
163.0
 21
5.0
 31
0.0
  0
MTEXT
  5
202
330
1F
100
AcDbEntity
  8
Default
100
AcDbMText
 10
6.9540142599
 20
43.7920376842
 30
0.0
 40
2.5
 41
18.4529619592
 71
     1
 72
     1
  1
{\fArial|b0||i0||c0|p34;\C7;\H2.;\W0.9;Ma\U+00DFstab / Scale}
  7
SEACAD_Arial
 73
     1
 44
1.0
1001
ACAD
1000
ACAD_MTEXT_DEFINED_HEIGHT_BEGIN
1070
    46
1040
3.1304447826
1000
ACAD_MTEXT_DEFINED_HEIGHT_END
  0
MTEXT
  5
203
330
1F
100
AcDbEntity
  8
Default
100
AcDbMText
 10
26.9540142599
 20
43.7920376842
 30
0.0
 40
2.5
 41
18.4529619592
 71
     1
 72
     1
  1
{\fArial|b0||i0||c0|p34;\C7;\H2.;\W0.9;\U+00C4M-Nr. / ECN}
  7
SEACAD_Arial
 73
     1
 44
1.0
1001
ACAD
1000
ACAD_MTEXT_DEFINED_HEIGHT_BEGIN
1070
    46
1040
3.1304447826
1000
ACAD_MTEXT_DEFINED_HEIGHT_END
  0
MTEXT
  5
204
330
1F
100
AcDbEntity
  8
Default
100
AcDbMText
 10
26.9540142599
 20
38.7920376842
 30
0.0
 40
2.5
 41
18.4529619592
 71
     1
 72
     1
  1
{\fArial|b0||i0||c0|p34;\C7;\H2.;\W0.9;Datum / Date}
  7
SEACAD_Arial
 73
     1
 44
1.0
1001
ACAD
1000
ACAD_MTEXT_DEFINED_HEIGHT_BEGIN
1070
    46
1040
3.1304447826
1000
ACAD_MTEXT_DEFINED_HEIGHT_END
  0
MTEXT
  5
205
330
1F
100
AcDbEntity
  8
Default
100
AcDbMText
 10
25.5253978501
 20
33.6729863168
 30
0.0
 40
2.5
 41
20.0012594728
 71
     1
 72
     1
  1
{\fArial|b0||i0||c0|p34;\C7;\H2.;\W0.8;Verantw. / Respons.}
  7
SEACAD_Arial
 73
     1
 44
1.0
1001
ACAD
1000
ACAD_MTEXT_DEFINED_HEIGHT_BEGIN
1070
    46
1040
3.4528045251
1000
ACAD_MTEXT_DEFINED_HEIGHT_END
  0
MTEXT
  5
206
330
1F
100
AcDbEntity
  8
Default
100
AcDbMText
 10
25.6444492176
 20
28.7920376842
 30
0.0
 40
2.5
 41
18.3913143478
 71
     1
 72
     1
  1
{\fArial|b0||i0||c0|p34;\C7;\H2.;\W0.8;Gepr\U+00FCft / Approved}
  7
SEACAD_Arial
 73
     1
 44
1.0
1001
ACAD
1000
ACAD_MTEXT_DEFINED_HEIGHT_BEGIN
1070
    46
1040
3.1304447826
1000
ACAD_MTEXT_DEFINED_HEIGHT_END
  0
MTEXT
  5
207
330
1F
100
AcDbEntity
  8
Default
100
AcDbMText
 10
15.5292897758
 20
22.8214279273
 30
0.0
 40
2.5
 41
18.4529619592
 71
     5
 72
     1
  1
{\fArial|b0||i0||c0|p34;\C7;\H2.;\W1.;Status}
 73
     1
 44
1.0
1001
ACAD
1000
ACAD_MTEXT_DEFINED_HEIGHT_BEGIN
1070
    46
1040
4.7620546991
1000
ACAD_MTEXT_DEFINED_HEIGHT_END
  0
MTEXT
  5
208
330
1F
100
AcDbEntity
  8
Default
100
AcDbMText
 10
25.8842381149
 20
17.7084237573
 30
0.0
 40
2.5
 41
20.1196811039
 71
     4
 72
     1
  1
{\fArial|b0||i0||c0|p34;\C7;\H2.;\W1.;Benennung /\P}{\fArial|b0||i0||c0|p34;\C7;\H2.;\W1.;Title}
 73
     1
 44
1.0
1001
ACAD
1000
ACAD_MTEXT_DEFINED_HEIGHT_BEGIN
1070
    46
1040
15.0004723023
1000
ACAD_MTEXT_DEFINED_HEIGHT_END
  0
MTEXT
  5
209
330
1F
100
AcDbEntity
  8
Default
100
AcDbMText
 10
25.8272330627
 20
8.2971610949
 30
0.0
 40
2.5
 41
20.0006297364
 71
     4
 72
     1
  1
{\fArial|b0||i0||c0|p34;\C7;\H2.;\W1.;Prod.-No. +\P}{\fArial|b0||i0||c0|p34;\C7;\H2.;\W1.;variants:}
 73
     1
 44
1.0
1001
ACAD
1000
ACAD_MTEXT_DEFINED_HEIGHT_BEGIN
1070
    46
1040
6.2608695652
1000
ACAD_MTEXT_DEFINED_HEIGHT_END
  0
MTEXT
  5
20A
330
1F
100
AcDbEntity
  8
Default
100
AcDbMText
 10
94.7996622009
 20
30.2349931318
 30
0.0
 40
2.5
 41
19.9738722629
 71
     5
 72
     1
  1
{\fArial|b0||i0||c0|p34;\C7;\H2.;\W1.;Copyright\P}{\fArial|b0||i0||c0|p34;\C7;\H2.;\W1.;reserved}
 73
     1
 44
1.0
1001
ACAD
1000
ACAD_MTEXT_DEFINED_HEIGHT_BEGIN
1070
    46
1040
9.8176660275
1000
ACAD_MTEXT_DEFINED_HEIGHT_END
  0
MTEXT
  5
20B
330
1F
100
AcDbEntity
  8
Default
100
AcDbMText
 10
163.7763570233
 20
23.3589041336
 30
0.0
 40
2.5
 41
36.0869665217
 71
     4
 72
     1
  1
{\fArial|b0||i0||c0|p34;\C7;\H2.;\W1.;Zeichnung Nr. / Drawing No.:}
 73
     1
 44
1.0
1001
ACAD
1000
ACAD_MTEXT_DEFINED_HEIGHT_BEGIN
1070
    46
1040
3.1304347826
1000
ACAD_MTEXT_DEFINED_HEIGHT_END
  0
MTEXT
  5
20C
330
1F
100
AcDbEntity
  8
Default
100
AcDbMText
 10
177.9167122798
 20
10.4191450781
 30
0.0
 40
2.5
 41
28.4674013043
 71
     5
 72
     1
  1
{\fArial|b0||i0||c0|p34;\C7;\H1.5;\W1.;TPI-Referenz / TPI-Reference:}
 73
     1
 44
1.0
1001
ACAD
1000
ACAD_MTEXT_DEFINED_HEIGHT_BEGIN
1070
    46
1040
2.347826087
1000
ACAD_MTEXT_DEFINED_HEIGHT_END
  0
LINE
  5
20D
330
1F
100
AcDbEntity
  8
Default
  6
Continuous
 62
     7
100
AcDbLine
 10
203.005
 20
5.0
 30
0.0
 11
203.0048694642
 21
291.0
 31
0.0
  0
MTEXT
  5
20E
330
1F
100
AcDbEntity
  8
Default
100
AcDbMText
 10
125.9819791287
 20
35.0860625795
 30
0.0
 40
2.5
 41
35.2174885633
 71
     5
 72
     1
  1
{\fArial|b0||i0||c0|p34;\C7;\H2.;\W1.;Grohe AG\P}{\fArial|b0||i0||c0|p34;\C7;\H2.;\W1.;Industriepark Edelburg\P}{\fArial|b0||i0||c0|p34;\C7;\H2.;\W1.;D-58675 Hemer\P}{\fArial|b0||i0||c0|p34;\C7;\H2.;\W1.;Tel. 02372 / 93-0}
 73
     1
 44
1.0
1001
ACAD
1000
ACAD_MTEXT_DEFINED_HEIGHT_BEGIN
1070
    46
1040
20.0099366837
1000
ACAD_MTEXT_DEFINED_HEIGHT_END
  0
INSERT
  5
250
330
1F
100
AcDbEntity
  8
Default
 62
     7
100
AcDbBlockReference
  2
symb_tb_GroheLogo2013_ori
 10
180.6
 20
27.27
 30
0.0
  0
ENDSEC
  0
SECTION
  2
OBJECTS
  0
DICTIONARY
  5
C
330
0
100
AcDbDictionary
281
     1
  3
ACAD_GROUP
350
D
  3
ACAD_LAYOUT
350
1A
  3
ACAD_MATERIAL
350
43
  3
ACAD_MLEADERSTYLE
350
253
  3
ACAD_MLINESTYLE
350
17
  3
ACAD_PLOTSETTINGS
350
19
  3
ACAD_PLOTSTYLENAME
350
E
  3
ACAD_SCALELIST
350
47
  3
ACAD_VISUALSTYLE
350
2A
  3
AcDbVariableDictionary
350
251
  0
DICTIONARY
  5
D
102
{ACAD_REACTORS
330
C
102
}
330
C
100
AcDbDictionary
281
     1
  0
DICTIONARY
  5
1A
102
{ACAD_REACTORS
330
C
102
}
330
C
100
AcDbDictionary
281
     1
  3
Layout1
350
1E
  3
Model
350
22
  0
DICTIONARY
  5
43
102
{ACAD_REACTORS
330
C
102
}
330
C
100
AcDbDictionary
281
     1
  3
ByBlock
350
45
  3
ByLayer
350
44
  3
Global
350
46
  0
DICTIONARY
  5
253
102
{ACAD_REACTORS
330
C
102
}
330
C
100
AcDbDictionary
281
     1
  0
DICTIONARY
  5
17
102
{ACAD_REACTORS
330
C
102
}
330
C
100
AcDbDictionary
281
     1
  3
Standard
350
18
  0
DICTIONARY
  5
19
102
{ACAD_REACTORS
330
C
102
}
330
C
100
AcDbDictionary
281
     1
  0
ACDBDICTIONARYWDFLT
  5
E
102
{ACAD_REACTORS
330
C
102
}
330
C
100
AcDbDictionary
281
     1
  3
Normal
350
F
100
AcDbDictionaryWithDefault
340
F
  0
DICTIONARY
  5
47
102
{ACAD_REACTORS
330
C
102
}
330
C
100
AcDbDictionary
281
     1
  3
A0
350
48
  3
A1
350
49
  3
A2
350
4A
  3
A3
350
4B
  3
A4
350
4C
  3
A5
350
4D
  3
A6
350
4E
  3
A7
350
4F
  3
A8
350
50
  3
A9
350
51
  3
B0
350
52
  3
B1
350
53
  3
B2
350
54
  3
B3
350
55
  3
B4
350
56
  3
B5
350
57
  3
B6
350
58
  3
B7
350
59
  3
B8
350
5A
  3
B9
350
5B
  3
C0
350
5C
  3
C1
350
5D
  3
C2
350
5E
  3
C3
350
5F
  3
C4
350
60
  3
C5
350
61
  3
C6
350
62
  3
C7
350
63
  3
C8
350
64
  3
C9
350
65
  3
D0
350
66
  3
D1
350
67
  3
D2
350
68
  0
DICTIONARY
  5
2A
102
{ACAD_REACTORS
330
C
102
}
330
C
100
AcDbDictionary
281
     1
  3
2dWireframe
350
2F
  3
Basic
350
32
  3
Brighten
350
36
  3
ColorChange
350
3A
  3
Conceptual
350
34
  3
Dim
350
35
  3
EdgeColorOff
350
3D
  3
Facepattern
350
39
  3
Flat
350
2B
  3
FlatWithEdges
350
2C
  3
Gouraud
350
2D
  3
GouraudWithEdges
350
2E
  3
Hidden
350
31
  3
JitterOff
350
3B
  3
Linepattern
350
38
  3
OverhangOff
350
3C
  3
Realistic
350
33
  3
Shaded
350
42
  3
Shaded with edges
350
41
  3
Shades of Gray
350
3E
  3
Sketchy
350
3F
  3
Thicken
350
37
  3
Wireframe
350
30
  3
X-Ray
350
40
  0
DICTIONARY
  5
251
102
{ACAD_REACTORS
330
C
102
}
330
C
100
AcDbDictionary
281
     1
  3
CANNOSCALE
350
25A
  3
DIMASSOC
350
258
  3
HIDETEXT
350
259
  3
MSLTSCALE
350
25B
  3
PSOLHEIGHT
350
255
  3
PSOLWIDTH
350
254
  0
LAYOUT
  5
1E
102
{ACAD_REACTORS
330
1A
102
}
330
1A
100
AcDbPlotSettings
  1

  2
none_device
  4

  6

 40
0.0
 41
0.0
 42
0.0
 43
0.0
 44
0.0
 45
0.0
 46
0.0
 47
0.0
 48
0.0
 49
0.0
140
0.0
141
0.0
142
1.0
143
1.0
 70
   688
 72
     1
 73
     0
 74
     5
  7

 75
    16
147
1.0
148
0.0
149
0.0
100
AcDbLayout
  1
Layout1
 70
     1
 71
     1
 10
0.0
 20
0.0
 11
209.0
 21
296.0
 12
0.0
 22
0.0
 32
0.0
 14
0.0
 24
0.0
 34
0.0
 15
209.0
 25
296.0
 35
0.0
146
0.0
 13
0.0
 23
0.0
 33
0.0
 16
1.0
 26
0.0
 36
0.0
 17
0.0
 27
1.0
 37
0.0
 76
     0
330
1B
  0
LAYOUT
  5
22
102
{ACAD_REACTORS
330
1A
102
}
330
1A
100
AcDbPlotSettings
  1

  2
none_device
  4
Letter_(8.50_x_11.00_Inches)
  6

 40
6.35
 41
6.35
 42
6.35000508
 43
6.35000508
 44
215.9
 45
279.4
 46
0.0
 47
0.0
 48
0.0
 49
0.0
140
0.0
141
0.0
142
1.0
143
1.0
 70
  1712
 72
     1
 73
     0
 74
     0
  7

 75
     0
147
1.0
148
0.0
149
0.0
100
AcDbLayout
  1
Model
 70
     1
 71
     0
 10
0.0
 20
0.0
 11
209.0
 21
296.0
 12
0.0
 22
0.0
 32
0.0
 14
0.0
 24
0.0
 34
0.0
 15
209.0
 25
296.0
 35
0.0
146
0.0
 13
0.0
 23
0.0
 33
0.0
 16
1.0
 26
0.0
 36
0.0
 17
0.0
 27
1.0
 37
0.0
 76
     0
330
1F
331
29
  0
MATERIAL
  5
45
102
{ACAD_REACTORS
330
43
102
}
102
{ACAD_XDICTIONARY
360
28E
102
}
330
43
100
AcDbMaterial
  1
ByBlock
  0
MATERIAL
  5
44
102
{ACAD_REACTORS
330
43
102
}
102
{ACAD_XDICTIONARY
360
28C
102
}
330
43
100
AcDbMaterial
  1
ByLayer
  0
MATERIAL
  5
46
102
{ACAD_REACTORS
330
43
102
}
102
{ACAD_XDICTIONARY
360
290
102
}
330
43
100
AcDbMaterial
  1
Global
  0
MLINESTYLE
  5
18
102
{ACAD_REACTORS
330
17
102
}
330
17
100
AcDbMlineStyle
  2
Standard
 70
     0
  3

 62
   256
 51
90.0
 52
90.0
 71
     2
 49
0.5
 62
   256
  6
BYLAYER
 49
-0.5
 62
   256
  6
BYLAYER
  0
ACDBPLACEHOLDER
  5
F
102
{ACAD_REACTORS
330
E
102
}
330
E
  0
SCALE
  5
48
102
{ACAD_REACTORS
330
47
102
}
330
47
100
AcDbScale
 70
     0
300
1:1
140
1.0
141
1.0
290
     1
  0
SCALE
  5
49
102
{ACAD_REACTORS
330
47
102
}
330
47
100
AcDbScale
 70
     0
300
1:2
140
1.0
141
2.0
290
     0
  0
SCALE
  5
4A
102
{ACAD_REACTORS
330
47
102
}
330
47
100
AcDbScale
 70
     0
300
1:4
140
1.0
141
4.0
290
     0
  0
SCALE
  5
4B
102
{ACAD_REACTORS
330
47
102
}
330
47
100
AcDbScale
 70
     0
300
1:5
140
1.0
141
5.0
290
     0
  0
SCALE
  5
4C
102
{ACAD_REACTORS
330
47
102
}
330
47
100
AcDbScale
 70
     0
300
1:8
140
1.0
141
8.0
290
     0
  0
SCALE
  5
4D
102
{ACAD_REACTORS
330
47
102
}
330
47
100
AcDbScale
 70
     0
300
1:10
140
1.0
141
10.0
290
     0
  0
SCALE
  5
4E
102
{ACAD_REACTORS
330
47
102
}
330
47
100
AcDbScale
 70
     0
300
1:16
140
1.0
141
16.0
290
     0
  0
SCALE
  5
4F
102
{ACAD_REACTORS
330
47
102
}
330
47
100
AcDbScale
 70
     0
300
1:20
140
1.0
141
20.0
290
     0
  0
SCALE
  5
50
102
{ACAD_REACTORS
330
47
102
}
330
47
100
AcDbScale
 70
     0
300
1:30
140
1.0
141
30.0
290
     0
  0
SCALE
  5
51
102
{ACAD_REACTORS
330
47
102
}
330
47
100
AcDbScale
 70
     0
300
1:40
140
1.0
141
40.0
290
     0
  0
SCALE
  5
52
102
{ACAD_REACTORS
330
47
102
}
330
47
100
AcDbScale
 70
     0
300
1:50
140
1.0
141
50.0
290
     0
  0
SCALE
  5
53
102
{ACAD_REACTORS
330
47
102
}
330
47
100
AcDbScale
 70
     0
300
1:100
140
1.0
141
100.0
290
     0
  0
SCALE
  5
54
102
{ACAD_REACTORS
330
47
102
}
330
47
100
AcDbScale
 70
     0
300
2:1
140
2.0
141
1.0
290
     0
  0
SCALE
  5
55
102
{ACAD_REACTORS
330
47
102
}
330
47
100
AcDbScale
 70
     0
300
4:1
140
4.0
141
1.0
290
     0
  0
SCALE
  5
56
102
{ACAD_REACTORS
330
47
102
}
330
47
100
AcDbScale
 70
     0
300
8:1
140
8.0
141
1.0
290
     0
  0
SCALE
  5
57
102
{ACAD_REACTORS
330
47
102
}
330
47
100
AcDbScale
 70
     0
300
10:1
140
10.0
141
1.0
290
     0
  0
SCALE
  5
58
102
{ACAD_REACTORS
330
47
102
}
330
47
100
AcDbScale
 70
     0
300
100:1
140
100.0
141
1.0
290
     0
  0
SCALE
  5
59
102
{ACAD_REACTORS
330
47
102
}
330
47
100
AcDbScale
 70
     0
300
1/128" = 1'-0"
140
0.0078125
141
12.0
290
     0
  0
SCALE
  5
5A
102
{ACAD_REACTORS
330
47
102
}
330
47
100
AcDbScale
 70
     0
300
1/64" = 1'-0"
140
0.015625
141
12.0
290
     0
  0
SCALE
  5
5B
102
{ACAD_REACTORS
330
47
102
}
330
47
100
AcDbScale
 70
     0
300
1/32" = 1'-0"
140
0.03125
141
12.0
290
     0
  0
SCALE
  5
5C
102
{ACAD_REACTORS
330
47
102
}
330
47
100
AcDbScale
 70
     0
300
1/16" = 1'-0"
140
0.0625
141
12.0
290
     0
  0
SCALE
  5
5D
102
{ACAD_REACTORS
330
47
102
}
330
47
100
AcDbScale
 70
     0
300
3/32" = 1'-0"
140
0.09375
141
12.0
290
     0
  0
SCALE
  5
5E
102
{ACAD_REACTORS
330
47
102
}
330
47
100
AcDbScale
 70
     0
300
1/8" = 1'-0"
140
0.125
141
12.0
290
     0
  0
SCALE
  5
5F
102
{ACAD_REACTORS
330
47
102
}
330
47
100
AcDbScale
 70
     0
300
3/16" = 1'-0"
140
0.1875
141
12.0
290
     0
  0
SCALE
  5
60
102
{ACAD_REACTORS
330
47
102
}
330
47
100
AcDbScale
 70
     0
300
1/4" = 1'-0"
140
0.25
141
12.0
290
     0
  0
SCALE
  5
61
102
{ACAD_REACTORS
330
47
102
}
330
47
100
AcDbScale
 70
     0
300
3/8" = 1'-0"
140
0.375
141
12.0
290
     0
  0
SCALE
  5
62
102
{ACAD_REACTORS
330
47
102
}
330
47
100
AcDbScale
 70
     0
300
1/2" = 1'-0"
140
0.5
141
12.0
290
     0
  0
SCALE
  5
63
102
{ACAD_REACTORS
330
47
102
}
330
47
100
AcDbScale
 70
     0
300
3/4" = 1'-0"
140
0.75
141
12.0
290
     0
  0
SCALE
  5
64
102
{ACAD_REACTORS
330
47
102
}
330
47
100
AcDbScale
 70
     0
300
1" = 1'-0"
140
1.0
141
12.0
290
     0
  0
SCALE
  5
65
102
{ACAD_REACTORS
330
47
102
}
330
47
100
AcDbScale
 70
     0
300
1-1/2" = 1'-0"
140
1.5
141
12.0
290
     0
  0
SCALE
  5
66
102
{ACAD_REACTORS
330
47
102
}
330
47
100
AcDbScale
 70
     0
300
3" = 1'-0"
140
3.0
141
12.0
290
     0
  0
SCALE
  5
67
102
{ACAD_REACTORS
330
47
102
}
330
47
100
AcDbScale
 70
     0
300
6" = 1'-0"
140
6.0
141
12.0
290
     0
  0
SCALE
  5
68
102
{ACAD_REACTORS
330
47
102
}
330
47
100
AcDbScale
 70
     0
300
1'-0" = 1'-0"
140
12.0
141
12.0
290
     0
  0
VISUALSTYLE
  5
2F
102
{ACAD_REACTORS
330
2A
102
}
102
{ACAD_XDICTIONARY
360
264
102
}
330
2A
100
AcDbVisualStyle
  2
2dWireframe
 70
     4
 71
     0
 72
     2
 73
     0
 90
        0
 40
0.6
 41
30.0
 62
     5
 63
     7
 74
     1
 91
        4
 64
     7
 65
   257
 75
     1
175
     1
 42
1.0
 92
        0
 66
   257
 43
1.0
 76
     1
 77
     6
 78
     2
 67
     7
 79
     5
170
     0
171
     0
290
     0
174
     0
 93
        1
 44
0.0
173
     0
291
     0
 45
0.0
1001
ACAD
1000
AcDbSavedByObjectVersion
1070
     0
  0
VISUALSTYLE
  5
32
102
{ACAD_REACTORS
330
2A
102
}
102
{ACAD_XDICTIONARY
360
26A
102
}
330
2A
100
AcDbVisualStyle
  2
Basic
 70
     7
 71
     1
 72
     0
 73
     1
 90
        0
 40
0.6
 41
30.0
 62
     5
 63
     7
 74
     0
 91
        4
 64
     7
 65
   257
 75
     1
175
     1
 42
1.0
 92
        8
 66
     7
 43
1.0
 76
     1
 77
     6
 78
     2
 67
     7
 79
     5
170
     0
171
     0
290
     0
174
     0
 93
        1
 44
0.0
173
     0
291
     1
 45
0.0
1001
ACAD
1000
AcDbSavedByObjectVersion
1070
     0
  0
VISUALSTYLE
  5
36
102
{ACAD_REACTORS
330
2A
102
}
102
{ACAD_XDICTIONARY
360
272
102
}
330
2A
100
AcDbVisualStyle
  2
Brighten
 70
    12
 71
     2
 72
     2
 73
     0
 90
        0
 40
0.6
 41
30.0
 62
     5
 63
     7
 74
     1
 91
        4
 64
     7
 65
   257
 75
     1
175
     1
 42
1.0
 92
        8
 66
     7
 43
1.0
 76
     1
 77
     6
 78
     2
 67
     7
 79
     5
170
     0
171
     0
290
     0
174
     0
 93
        1
 44
50.0
173
     0
291
     1
 45
0.0
1001
ACAD
1000
AcDbSavedByObjectVersion
1070
     0
  0
VISUALSTYLE
  5
3A
102
{ACAD_REACTORS
330
2A
102
}
102
{ACAD_XDICTIONARY
360
27A
102
}
330
2A
100
AcDbVisualStyle
  2
ColorChange
 70
    16
 71
     2
 72
     2
 73
     3
 90
        0
 40
0.6
 41
30.0
 62
     5
 63
     8
 74
     1
 91
        4
 64
     7
 65
   257
 75
     1
175
     1
 42
1.0
 92
        8
 66
     8
 43
1.0
 76
     1
 77
     6
 78
     2
 67
     7
 79
     5
170
     0
171
     0
290
     0
174
     0
 93
        1
 44
0.0
173
     0
291
     1
 45
0.0
1001
ACAD
1000
AcDbSavedByObjectVersion
1070
     0
  0
VISUALSTYLE
  5
34
102
{ACAD_REACTORS
330
2A
102
}
102
{ACAD_XDICTIONARY
360
26E
102
}
330
2A
100
AcDbVisualStyle
  2
Conceptual
 70
     9
 71
     3
 72
     2
 73
     0
 90
        0
 40
0.6
 41
30.0
 62
     5
 63
     7
 74
     2
 91
        2
 64
     7
 65
   257
 75
     1
175
     1
 42
179.0
 92
        8
 66
     7
 43
1.0
 76
     1
 77
     6
 78
     2
 67
     7
 79
     3
170
     0
171
     0
290
     0
174
     0
 93
        1
 44
0.0
173
     0
291
     0
 45
0.0
1001
ACAD
1000
AcDbSavedByObjectVersion
1070
     0
  0
VISUALSTYLE
  5
35
102
{ACAD_REACTORS
330
2A
102
}
102
{ACAD_XDICTIONARY
360
270
102
}
330
2A
100
AcDbVisualStyle
  2
Dim
 70
    11
 71
     2
 72
     2
 73
     0
 90
        0
 40
0.6
 41
30.0
 62
     5
 63
     7
 74
     1
 91
        4
 64
     7
 65
   257
 75
     1
175
     1
 42
1.0
 92
        8
 66
     7
 43
1.0
 76
     1
 77
     6
 78
     2
 67
     7
 79
     5
170
     0
171
     0
290
     0
174
     0
 93
        1
 44
-50.0
173
     0
291
     1
 45
0.0
1001
ACAD
1000
AcDbSavedByObjectVersion
1070
     0
  0
VISUALSTYLE
  5
3D
102
{ACAD_REACTORS
330
2A
102
}
102
{ACAD_XDICTIONARY
360
280
102
}
330
2A
100
AcDbVisualStyle
  2
EdgeColorOff
 70
    22
 71
     2
 72
     2
 73
     0
 90
        0
 40
0.6
 41
30.0
 62
     5
 63
     7
 74
     1
 91
        4
 64
     7
 65
   257
 75
     1
175
     1
 42
1.0
 92
        8
 66
     7
 43
1.0
 76
     1
 77
     6
 78
     2
 67
     7
 79
     5
170
     0
171
     0
290
     0
174
     0
 93
        1
 44
0.0
173
     0
291
     1
 45
0.0
1001
ACAD
1000
AcDbSavedByObjectVersion
1070
     0
  0
VISUALSTYLE
  5
39
102
{ACAD_REACTORS
330
2A
102
}
102
{ACAD_XDICTIONARY
360
278
102
}
330
2A
100
AcDbVisualStyle
  2
Facepattern
 70
    15
 71
     2
 72
     2
 73
     0
 90
        0
 40
0.6
 41
30.0
 62
     5
 63
     7
 74
     1
 91
        4
 64
     7
 65
   257
 75
     1
175
     1
 42
1.0
 92
        8
 66
     7
 43
1.0
 76
     1
 77
     6
 78
     2
 67
     7
 79
     5
170
     0
171
     0
290
     0
174
     0
 93
        1
 44
0.0
173
     0
291
     1
 45
0.0
1001
ACAD
1000
AcDbSavedByObjectVersion
1070
     0
  0
VISUALSTYLE
  5
2B
102
{ACAD_REACTORS
330
2A
102
}
102
{ACAD_XDICTIONARY
360
25C
102
}
330
2A
100
AcDbVisualStyle
  2
Flat
 70
     0
 71
     2
 72
     1
 73
     1
 90
        2
 40
0.6
 41
30.0
 62
     5
 63
     7
 74
     0
 91
        0
 64
     7
 65
   257
 75
     1
175
     1
 42
1.0
 92
        8
 66
     7
 43
1.0
 76
     1
 77
     6
 78
     2
 67
     7
 79
     5
170
     0
171
     0
290
     0
174
     0
 93
       13
 44
0.0
173
     0
291
     1
 45
0.0
1001
ACAD
1000
AcDbSavedByObjectVersion
1070
     0
  0
VISUALSTYLE
  5
2C
102
{ACAD_REACTORS
330
2A
102
}
102
{ACAD_XDICTIONARY
360
25E
102
}
330
2A
100
AcDbVisualStyle
  2
FlatWithEdges
 70
     1
 71
     2
 72
     1
 73
     1
 90
        2
 40
0.6
 41
30.0
 62
     5
 63
     7
 74
     1
 91
        0
 64
     7
 65
   257
 75
     1
175
     1
 42
1.0
 92
        0
 66
   257
 43
1.0
 76
     1
 77
     6
 78
     2
 67
     7
 79
     5
170
     0
171
     0
290
     0
174
     0
 93
       13
 44
0.0
173
     0
291
     1
 45
0.0
1001
ACAD
1000
AcDbSavedByObjectVersion
1070
     0
  0
VISUALSTYLE
  5
2D
102
{ACAD_REACTORS
330
2A
102
}
102
{ACAD_XDICTIONARY
360
260
102
}
330
2A
100
AcDbVisualStyle
  2
Gouraud
 70
     2
 71
     2
 72
     2
 73
     1
 90
        2
 40
0.6
 41
30.0
 62
     5
 63
     7
 74
     0
 91
        0
 64
     7
 65
   257
 75
     1
175
     1
 42
1.0
 92
        0
 66
     7
 43
1.0
 76
     1
 77
     6
 78
     2
 67
     7
 79
     5
170
     0
171
     0
290
     0
174
     0
 93
       13
 44
0.0
173
     0
291
     1
 45
0.0
1001
ACAD
1000
AcDbSavedByObjectVersion
1070
     0
  0
VISUALSTYLE
  5
2E
102
{ACAD_REACTORS
330
2A
102
}
102
{ACAD_XDICTIONARY
360
262
102
}
330
2A
100
AcDbVisualStyle
  2
GouraudWithEdges
 70
     3
 71
     2
 72
     2
 73
     1
 90
        2
 40
0.6
 41
30.0
 62
     5
 63
     7
 74
     1
 91
        0
 64
     7
 65
   257
 75
     1
175
     1
 42
1.0
 92
        0
 66
   257
 43
1.0
 76
     1
 77
     6
 78
     2
 67
     7
 79
     5
170
     0
171
     0
290
     0
174
     0
 93
       13
 44
0.0
173
     0
291
     1
 45
0.0
1001
ACAD
1000
AcDbSavedByObjectVersion
1070
     0
  0
VISUALSTYLE
  5
31
102
{ACAD_REACTORS
330
2A
102
}
102
{ACAD_XDICTIONARY
360
268
102
}
330
2A
100
AcDbVisualStyle
  2
Hidden
 70
     6
 71
     1
 72
     2
 73
     2
 90
        0
 40
0.6
 41
30.0
 62
     5
 63
     7
 74
     2
 91
        2
 64
     7
 65
   257
 75
     2
175
     1
 42
40.0
 92
        0
 66
   257
 43
1.0
 76
     1
 77
     6
 78
     2
 67
     7
 79
     3
170
     0
171
     0
290
     0
174
     0
 93
        1
 44
0.0
173
     0
291
     0
 45
0.0
1001
ACAD
1000
AcDbSavedByObjectVersion
1070
     0
  0
VISUALSTYLE
  5
3B
102
{ACAD_REACTORS
330
2A
102
}
102
{ACAD_XDICTIONARY
360
27C
102
}
330
2A
100
AcDbVisualStyle
  2
JitterOff
 70
    20
 71
     2
 72
     2
 73
     0
 90
        0
 40
0.6
 41
30.0
 62
     5
 63
     7
 74
     1
 91
        4
 64
     7
 65
   257
 75
     1
175
     1
 42
1.0
 92
       10
 66
     7
 43
1.0
 76
     1
 77
     6
 78
     2
 67
     7
 79
     5
170
     0
171
     0
290
     0
174
     0
 93
        1
 44
0.0
173
     0
291
     1
 45
0.0
1001
ACAD
1000
AcDbSavedByObjectVersion
1070
     0
  0
VISUALSTYLE
  5
38
102
{ACAD_REACTORS
330
2A
102
}
102
{ACAD_XDICTIONARY
360
276
102
}
330
2A
100
AcDbVisualStyle
  2
Linepattern
 70
    14
 71
     2
 72
     2
 73
     0
 90
        0
 40
0.6
 41
30.0
 62
     5
 63
     7
 74
     1
 91
        4
 64
     7
 65
   257
 75
     7
175
     7
 42
1.0
 92
        8
 66
     7
 43
1.0
 76
     1
 77
     6
 78
     2
 67
     7
 79
     5
170
     0
171
     0
290
     0
174
     0
 93
        1
 44
0.0
173
     0
291
     1
 45
0.0
1001
ACAD
1000
AcDbSavedByObjectVersion
1070
     0
  0
VISUALSTYLE
  5
3C
102
{ACAD_REACTORS
330
2A
102
}
102
{ACAD_XDICTIONARY
360
27E
102
}
330
2A
100
AcDbVisualStyle
  2
OverhangOff
 70
    21
 71
     2
 72
     2
 73
     0
 90
        0
 40
0.6
 41
30.0
 62
     5
 63
     7
 74
     1
 91
        4
 64
     7
 65
   257
 75
     1
175
     1
 42
1.0
 92
        9
 66
     7
 43
1.0
 76
     1
 77
     6
 78
     2
 67
     7
 79
     5
170
     0
171
     0
290
     0
174
     0
 93
        1
 44
0.0
173
     0
291
     1
 45
0.0
1001
ACAD
1000
AcDbSavedByObjectVersion
1070
     0
  0
VISUALSTYLE
  5
33
102
{ACAD_REACTORS
330
2A
102
}
102
{ACAD_XDICTIONARY
360
26C
102
}
330
2A
100
AcDbVisualStyle
  2
Realistic
 70
     8
 71
     2
 72
     3
 73
     0
 90
        2
 40
0.6
 41
30.0
 62
     5
 63
     7
 74
     0
 91
        0
 64
     7
 65
   257
 75
     1
175
     1
 42
1.0
 92
        8
 66
   257
 43
1.0
 76
     1
 77
     6
 78
     2
 67
     7
 79
     3
170
     0
171
     0
290
     0
174
     0
 93
       13
 44
0.0
173
     0
291
     0
 45
0.0
1001
ACAD
1000
AcDbSavedByObjectVersion
1070
     0
  0
VISUALSTYLE
  5
42
102
{ACAD_REACTORS
330
2A
102
}
102
{ACAD_XDICTIONARY
360
28A
102
}
330
2A
100
AcDbVisualStyle
  2
Shaded
 70
    27
 71
     2
 72
     2
 73
     1
 90
        2
 40
0.6
 41
30.0
 62
     5
 63
     7
 74
     0
 91
        4
 64
     7
 65
   257
 75
     1
175
     1
 42
1.0
 92
        8
 66
   257
 43
1.0
 76
     1
 77
     6
 78
     2
 67
     8
 79
     3
170
     0
171
     0
290
     0
174
     0
 93
        5
 44
0.0
173
     0
291
     0
 45
0.0
1001
ACAD
1000
AcDbSavedByObjectVersion
1070
     0
  0
VISUALSTYLE
  5
41
102
{ACAD_REACTORS
330
2A
102
}
102
{ACAD_XDICTIONARY
360
288
102
}
330
2A
100
AcDbVisualStyle
  2
Shaded with edges
 70
    26
 71
     2
 72
     2
 73
     1
 90
        2
 40
0.6
 41
30.0
 62
     5
 63
     7
 74
     1
 91
       10
 64
     7
 65
   257
 75
     2
175
     1
 42
1.0
 92
        8
 66
   257
 43
1.0
 76
     1
 77
     6
 78
     2
 67
     7
 79
     3
170
     0
171
     0
290
     0
174
     0
 93
        5
 44
0.0
173
     0
291
     0
 45
0.0
1001
ACAD
1000
AcDbSavedByObjectVersion
1070
     0
  0
VISUALSTYLE
  5
3E
102
{ACAD_REACTORS
330
2A
102
}
102
{ACAD_XDICTIONARY
360
282
102
}
330
2A
100
AcDbVisualStyle
  2
Shades of Gray
 70
    23
 71
     2
 72
     2
 73
     3
 90
        0
 40
0.6
 41
30.0
 62
     5
 63
     7
 74
     2
 91
        2
 64
     7
 65
     7
 75
     1
175
     1
 42
40.0
 92
        8
 66
     7
 43
1.0
 76
     1
 77
     6
 78
     2
 67
     7
 79
     3
170
     0
171
     0
290
     0
174
     0
 93
        1
 44
0.0
173
     0
291
     0
 45
0.0
1001
ACAD
1000
AcDbSavedByObjectVersion
1070
     0
  0
VISUALSTYLE
  5
3F
102
{ACAD_REACTORS
330
2A
102
}
102
{ACAD_XDICTIONARY
360
284
102
}
330
2A
100
AcDbVisualStyle
  2
Sketchy
 70
    24
 71
     1
 72
     2
 73
     2
 90
        0
 40
0.6
 41
30.0
 62
     5
 63
     7
 74
     2
 91
        2
 64
     7
 65
     7
 75
     1
175
     1
 42
40.0
 92
       11
 66
     7
 43
1.0
 76
     1
 77
     6
 78
     2
 67
     7
 79
     6
170
     0
171
     0
290
     0
174
     0
 93
        1
 44
0.0
173
     0
291
     0
 45
0.0
1001
ACAD
1000
AcDbSavedByObjectVersion
1070
     0
  0
VISUALSTYLE
  5
37
102
{ACAD_REACTORS
330
2A
102
}
102
{ACAD_XDICTIONARY
360
274
102
}
330
2A
100
AcDbVisualStyle
  2
Thicken
 70
    13
 71
     2
 72
     2
 73
     0
 90
        0
 40
0.6
 41
30.0
 62
     5
 63
     7
 74
     1
 91
        4
 64
     7
 65
   257
 75
     1
175
     1
 42
1.0
 92
       12
 66
     7
 43
1.0
 76
     1
 77
     6
 78
     2
 67
     7
 79
     5
170
     0
171
     0
290
     0
174
     0
 93
        1
 44
0.0
173
     0
291
     1
 45
0.0
1001
ACAD
1000
AcDbSavedByObjectVersion
1070
     0
  0
VISUALSTYLE
  5
30
102
{ACAD_REACTORS
330
2A
102
}
102
{ACAD_XDICTIONARY
360
266
102
}
330
2A
100
AcDbVisualStyle
  2
Wireframe
 70
     5
 71
     0
 72
     2
 73
     0
 90
        0
 40
0.6
 41
30.0
 62
     5
 63
     7
 74
     1
 91
        4
 64
     7
 65
   257
 75
     1
175
     1
 42
1.0
 92
        0
 66
   257
 43
1.0
 76
     1
 77
     6
 78
     2
 67
     7
 79
     3
170
     0
171
     0
290
     0
174
     0
 93
        1
 44
0.0
173
     0
291
     0
 45
0.0
1001
ACAD
1000
AcDbSavedByObjectVersion
1070
     0
  0
VISUALSTYLE
  5
40
102
{ACAD_REACTORS
330
2A
102
}
102
{ACAD_XDICTIONARY
360
286
102
}
330
2A
100
AcDbVisualStyle
  2
X-Ray
 70
    25
 71
     2
 72
     2
 73
     1
 90
        1
 40
0.5
 41
30.0
 62
     5
 63
     7
 74
     1
 91
        0
 64
     7
 65
   257
 75
     1
175
     1
 42
1.0
 92
        8
 66
     7
 43
1.0
 76
     1
 77
     6
 78
     2
 67
     7
 79
     3
170
     0
171
     0
290
     0
174
     0
 93
       13
 44
0.0
173
     0
291
     0
 45
0.0
1001
ACAD
1000
AcDbSavedByObjectVersion
1070
     0
  0
DICTIONARYVAR
  5
25A
102
{ACAD_REACTORS
330
251
102
}
330
251
100
DictionaryVariables
280
     0
  1
1:1
  0
DICTIONARYVAR
  5
258
102
{ACAD_REACTORS
330
251
102
}
330
251
100
DictionaryVariables
280
     0
  1
2
  0
DICTIONARYVAR
  5
259
102
{ACAD_REACTORS
330
251
102
}
330
251
100
DictionaryVariables
280
     0
  1
1
  0
DICTIONARYVAR
  5
25B
102
{ACAD_REACTORS
330
251
102
}
330
251
100
DictionaryVariables
280
     0
  1
1
  0
DICTIONARYVAR
  5
255
102
{ACAD_REACTORS
330
251
102
}
330
251
100
DictionaryVariables
280
     0
  1
80.000000
  0
DICTIONARYVAR
  5
254
102
{ACAD_REACTORS
330
251
102
}
330
251
100
DictionaryVariables
280
     0
  1
5.000000
  0
DICTIONARY
  5
28E
330
45
100
AcDbDictionary
280
     1
281
     1
  3
ACAD_XREC_ROUNDTRIP
360
28F
  0
DICTIONARY
  5
28C
330
44
100
AcDbDictionary
280
     1
281
     1
  3
ACAD_XREC_ROUNDTRIP
360
28D
  0
DICTIONARY
  5
290
330
46
100
AcDbDictionary
280
     1
281
     1
  3
ACAD_XREC_ROUNDTRIP
360
291
  0
DICTIONARY
  5
264
330
2F
100
AcDbDictionary
280
     1
281
     1
  3
ACAD_XREC_ROUNDTRIP
360
265
  0
DICTIONARY
  5
26A
330
32
100
AcDbDictionary
280
     1
281
     1
  3
ACAD_XREC_ROUNDTRIP
360
26B
  0
DICTIONARY
  5
272
330
36
100
AcDbDictionary
280
     1
281
     1
  3
ACAD_XREC_ROUNDTRIP
360
273
  0
DICTIONARY
  5
27A
330
3A
100
AcDbDictionary
280
     1
281
     1
  3
ACAD_XREC_ROUNDTRIP
360
27B
  0
DICTIONARY
  5
26E
330
34
100
AcDbDictionary
280
     1
281
     1
  3
ACAD_XREC_ROUNDTRIP
360
26F
  0
DICTIONARY
  5
270
330
35
100
AcDbDictionary
280
     1
281
     1
  3
ACAD_XREC_ROUNDTRIP
360
271
  0
DICTIONARY
  5
280
330
3D
100
AcDbDictionary
280
     1
281
     1
  3
ACAD_XREC_ROUNDTRIP
360
281
  0
DICTIONARY
  5
278
330
39
100
AcDbDictionary
280
     1
281
     1
  3
ACAD_XREC_ROUNDTRIP
360
279
  0
DICTIONARY
  5
25C
330
2B
100
AcDbDictionary
280
     1
281
     1
  3
ACAD_XREC_ROUNDTRIP
360
25D
  0
DICTIONARY
  5
25E
330
2C
100
AcDbDictionary
280
     1
281
     1
  3
ACAD_XREC_ROUNDTRIP
360
25F
  0
DICTIONARY
  5
260
330
2D
100
AcDbDictionary
280
     1
281
     1
  3
ACAD_XREC_ROUNDTRIP
360
261
  0
DICTIONARY
  5
262
330
2E
100
AcDbDictionary
280
     1
281
     1
  3
ACAD_XREC_ROUNDTRIP
360
263
  0
DICTIONARY
  5
268
330
31
100
AcDbDictionary
280
     1
281
     1
  3
ACAD_XREC_ROUNDTRIP
360
269
  0
DICTIONARY
  5
27C
330
3B
100
AcDbDictionary
280
     1
281
     1
  3
ACAD_XREC_ROUNDTRIP
360
27D
  0
DICTIONARY
  5
276
330
38
100
AcDbDictionary
280
     1
281
     1
  3
ACAD_XREC_ROUNDTRIP
360
277
  0
DICTIONARY
  5
27E
330
3C
100
AcDbDictionary
280
     1
281
     1
  3
ACAD_XREC_ROUNDTRIP
360
27F
  0
DICTIONARY
  5
26C
330
33
100
AcDbDictionary
280
     1
281
     1
  3
ACAD_XREC_ROUNDTRIP
360
26D
  0
DICTIONARY
  5
28A
330
42
100
AcDbDictionary
280
     1
281
     1
  3
ACAD_XREC_ROUNDTRIP
360
28B
  0
DICTIONARY
  5
288
330
41
100
AcDbDictionary
280
     1
281
     1
  3
ACAD_XREC_ROUNDTRIP
360
289
  0
DICTIONARY
  5
282
330
3E
100
AcDbDictionary
280
     1
281
     1
  3
ACAD_XREC_ROUNDTRIP
360
283
  0
DICTIONARY
  5
284
330
3F
100
AcDbDictionary
280
     1
281
     1
  3
ACAD_XREC_ROUNDTRIP
360
285
  0
DICTIONARY
  5
274
330
37
100
AcDbDictionary
280
     1
281
     1
  3
ACAD_XREC_ROUNDTRIP
360
275
  0
DICTIONARY
  5
266
330
30
100
AcDbDictionary
280
     1
281
     1
  3
ACAD_XREC_ROUNDTRIP
360
267
  0
DICTIONARY
  5
286
330
40
100
AcDbDictionary
280
     1
281
     1
  3
ACAD_XREC_ROUNDTRIP
360
287
  0
XRECORD
  5
28F
102
{ACAD_REACTORS
330
28E
102
}
330
28E
100
AcDbXrecord
280
     1
102
MATERIAL
148
0.0
149
0.0
149
0.0
 93
        0
 94
      127
282
     0
 72
     1
 77
     1
171
     1
175
     1
179
     1
273
     0
  0
XRECORD
  5
28D
102
{ACAD_REACTORS
330
28C
102
}
330
28C
100
AcDbXrecord
280
     1
102
MATERIAL
148
0.0
149
0.0
149
0.0
 93
        0
 94
      127
282
     0
 72
     1
 77
     1
171
     1
175
     1
179
     1
273
     0
  0
XRECORD
  5
291
102
{ACAD_REACTORS
330
290
102
}
330
290
100
AcDbXrecord
280
     1
102
MATERIAL
148
0.0
149
0.0
149
0.0
 93
        0
 94
      127
282
     0
 72
     1
 77
     1
171
     1
175
     1
179
     1
273
     0
  0
XRECORD
  5
265
102
{ACAD_REACTORS
330
264
102
}
330
264
100
AcDbXrecord
280
     1
102
RTVSPropertyOp0
 70
     1
102
RTVSPropertyOp1
 70
     1
102
RTVSPropertyOp2
 70
     1
102
RTVSPropertyOp3
 70
     1
102
RTVSPropertyOp4
 70
     1
102
RTVSPropertyOp5
 70
     1
102
RTVSPropertyOp6
 70
     1
102
RTVSPropertyOp7
 70
     1
102
RTVSPropertyOp8
 70
     1
102
RTVSPropertyOp9
 70
     1
102
RTVSPropertyOp10
 70
     1
102
RTVSPropertyOp11
 70
     1
102
RTVSPropertyOp12
 70
     1
102
RTVSPropertyOp13
 70
     1
102
RTVSPropertyOp14
 70
     1
102
RTVSPropertyOp15
 70
     1
102
RTVSPropertyOp16
 70
     1
102
RTVSPropertyOp17
 70
     1
102
RTVSPropertyOp18
 70
     1
102
RTVSPropertyOp19
 70
     1
102
RTVSPropertyOp20
 70
     1
102
RTVSPropertyOp21
 70
     1
102
RTVSPropertyOp22
 70
     1
102
RTVSPropertyOp23
 70
     1
102
RTVSPropertyOp24
 70
     1
102
RTVSPropertyOp25
 70
     1
102
RTVSPropertyOp26
 70
     1
102
RTVSPropertyOp27
 70
     1
102
RTVSPropertyOp28
 70
     1
102
RTVSPropertyOp29
 70
     1
102
RTVSPropertyOp30
 70
     1
102
RTVSPropertyOp31
 70
     1
102
RTVSPropertyOp32
 70
     1
102
RTVSPropertyOp33
 70
     1
102
RTVSPropertyOp34
 70
     1
102
RTVSPropertyOp35
 70
     1
102
RTVSPropertyOp36
 70
     1
102
RTVSPropertyOp37
 70
     1
102
RTVSPropertyOp38
 70
     1
102
RTVSPropertyOp39
 70
     1
102
RTVSPropertyOp40
 70
     1
102
RTVSPropertyOp41
 70
     1
102
RTVSPropertyOp42
 70
     1
102
RTVSPropertyOp43
 70
     1
102
RTVSPropertyOp44
 70
     1
102
RTVSPropertyOp45
 70
     1
102
RTVSPropertyOp46
 70
     1
102
RTVSPropertyOp47
 70
     1
102
RTVSPropertyOp48
 70
     1
102
RTVSPropertyOp49
 70
     1
102
RTVSPropertyOp50
 70
     1
102
RTVSPropertyOp51
 70
     0
102
RTVSPropertyOp52
 70
     0
102
RTVSPropertyOp53
 70
     1
102
RTVSPropertyOp54
 70
     1
102
RTVSPropertyOp55
 70
     1
102
RTVSPropertyOp56
 70
     1
102
RTVSPropertyOp57
 70
     1
102
RTVSPost2010Prop28
280
     1
102
RTVSPost2010PropOp28
 70
     1
102
RTVSPost2010Prop29
280
     1
102
RTVSPost2010PropOp29
 70
     1
102
RTVSPost2010Prop30
280
     0
102
RTVSPost2010PropOp30
 70
     1
102
RTVSPost2010Prop31
280
     0
102
RTVSPost2010PropOp31
 70
     1
102
RTVSPost2010Prop32
280
     0
102
RTVSPost2010PropOp32
 70
     1
102
RTVSPost2010Prop33
280
     0
102
RTVSPost2010PropOp33
 70
     1
102
RTVSPost2010Prop34
280
     0
102
RTVSPost2010PropOp34
 70
     1
102
RTVSPost2010Prop35
280
     0
102
RTVSPost2010PropOp35
 70
     1
102
RTVSPost2010Prop36
280
     0
102
RTVSPost2010PropOp36
 70
     1
102
RTVSPost2010Prop37
 90
       50
102
RTVSPost2010PropOp37
 70
     1
102
RTVSPost2010Prop38
140
0.0
102
RTVSPost2010PropOp38
 70
     1
102
RTVSPost2010Prop39
140
1.0
102
RTVSPost2010PropOp39
 70
     1
102
RTVSPost2010Prop40
 90
        0
102
RTVSPost2010PropOp40
 70
     1
102
RTVSPost2010Prop41ColorIndex
 90
       18
102
RTVSPost2010Prop41ColorRGB
 90
        0
102
RTVSPost2010PropOp41
 70
     1
102
RTVSPost2010Prop42
 90
       50
102
RTVSPost2010PropOp42
 70
     1
102
RTVSPost2010Prop43
 90
        3
102
RTVSPost2010PropOp43
 70
     1
102
RTVSPost2010Prop44ColorIndex
 90
        5
102
RTVSPost2010Prop44ColorRGB
 90
      255
102
RTVSPost2010PropOp44
 70
     1
102
RTVSPost2010Prop45
280
     0
102
RTVSPost2010PropOp45
 70
     1
102
RTVSPost2010Prop46
 90
       50
102
RTVSPost2010PropOp46
 70
     1
102
RTVSPost2010Prop47
 90
       50
102
RTVSPost2010PropOp47
 70
     1
102
RTVSPost2010Prop48
 90
       50
102
RTVSPost2010PropOp48
 70
     1
102
RTVSPost2010Prop49
280
     0
102
RTVSPost2010PropOp49
 70
     1
102
RTVSPost2010Prop50
 90
       50
102
RTVSPost2010PropOp50
 70
     1
102
RTVSPost2010Prop51ColorIndex
 90
      256
102
RTVSPost2010Prop51ColorRGB
 90
-16777216
102
RTVSPost2010PropOp51
 70
     0
102
RTVSPost2010Prop52
140
1.0
102
RTVSPost2010PropOp52
 70
     0
102
RTVSPost2010Prop53
 90
        2
102
RTVSPost2010PropOp53
 70
     1
102
RTVSPost2010Prop54
  1
strokes_ogs.tif
102
RTVSPost2010PropOp54
 70
     1
102
RTVSPost2010Prop55
280
     0
102
RTVSPost2010PropOp55
 70
     1
102
RTVSPost2010Prop56
140
1.0
102
RTVSPost2010PropOp56
 70
     1
102
RTVSPost2010Prop57
140
1.0
102
RTVSPost2010PropOp57
 70
     1
  0
XRECORD
  5
26B
102
{ACAD_REACTORS
330
26A
102
}
330
26A
100
AcDbXrecord
280
     1
102
RTVSPropertyOp0
 70
     1
102
RTVSPropertyOp1
 70
     1
102
RTVSPropertyOp2
 70
     1
102
RTVSPropertyOp3
 70
     1
102
RTVSPropertyOp4
 70
     1
102
RTVSPropertyOp5
 70
     1
102
RTVSPropertyOp6
 70
     1
102
RTVSPropertyOp7
 70
     1
102
RTVSPropertyOp8
 70
     1
102
RTVSPropertyOp9
 70
     1
102
RTVSPropertyOp10
 70
     1
102
RTVSPropertyOp11
 70
     1
102
RTVSPropertyOp12
 70
     1
102
RTVSPropertyOp13
 70
     1
102
RTVSPropertyOp14
 70
     1
102
RTVSPropertyOp15
 70
     1
102
RTVSPropertyOp16
 70
     1
102
RTVSPropertyOp17
 70
     1
102
RTVSPropertyOp18
 70
     1
102
RTVSPropertyOp19
 70
     1
102
RTVSPropertyOp20
 70
     1
102
RTVSPropertyOp21
 70
     1
102
RTVSPropertyOp22
 70
     1
102
RTVSPropertyOp23
 70
     1
102
RTVSPropertyOp24
 70
     1
102
RTVSPropertyOp25
 70
     1
102
RTVSPropertyOp26
 70
     1
102
RTVSPropertyOp27
 70
     1
102
RTVSPropertyOp28
 70
     1
102
RTVSPropertyOp29
 70
     1
102
RTVSPropertyOp30
 70
     1
102
RTVSPropertyOp31
 70
     1
102
RTVSPropertyOp32
 70
     1
102
RTVSPropertyOp33
 70
     1
102
RTVSPropertyOp34
 70
     1
102
RTVSPropertyOp35
 70
     1
102
RTVSPropertyOp36
 70
     1
102
RTVSPropertyOp37
 70
     1
102
RTVSPropertyOp38
 70
     1
102
RTVSPropertyOp39
 70
     1
102
RTVSPropertyOp40
 70
     1
102
RTVSPropertyOp41
 70
     1
102
RTVSPropertyOp42
 70
     1
102
RTVSPropertyOp43
 70
     1
102
RTVSPropertyOp44
 70
     1
102
RTVSPropertyOp45
 70
     1
102
RTVSPropertyOp46
 70
     1
102
RTVSPropertyOp47
 70
     1
102
RTVSPropertyOp48
 70
     1
102
RTVSPropertyOp49
 70
     1
102
RTVSPropertyOp50
 70
     1
102
RTVSPropertyOp51
 70
     0
102
RTVSPropertyOp52
 70
     0
102
RTVSPropertyOp53
 70
     1
102
RTVSPropertyOp54
 70
     1
102
RTVSPropertyOp55
 70
     1
102
RTVSPropertyOp56
 70
     1
102
RTVSPropertyOp57
 70
     1
102
RTVSPost2010Prop28
280
     0
102
RTVSPost2010PropOp28
 70
     1
102
RTVSPost2010Prop29
280
     1
102
RTVSPost2010PropOp29
 70
     1
102
RTVSPost2010Prop30
280
     1
102
RTVSPost2010PropOp30
 70
     1
102
RTVSPost2010Prop31
280
     0
102
RTVSPost2010PropOp31
 70
     1
102
RTVSPost2010Prop32
280
     0
102
RTVSPost2010PropOp32
 70
     1
102
RTVSPost2010Prop33
280
     0
102
RTVSPost2010PropOp33
 70
     1
102
RTVSPost2010Prop34
280
     0
102
RTVSPost2010PropOp34
 70
     1
102
RTVSPost2010Prop35
280
     0
102
RTVSPost2010PropOp35
 70
     1
102
RTVSPost2010Prop36
280
     0
102
RTVSPost2010PropOp36
 70
     1
102
RTVSPost2010Prop37
 90
       50
102
RTVSPost2010PropOp37
 70
     1
102
RTVSPost2010Prop38
140
0.0
102
RTVSPost2010PropOp38
 70
     1
102
RTVSPost2010Prop39
140
1.0
102
RTVSPost2010PropOp39
 70
     1
102
RTVSPost2010Prop40
 90
        0
102
RTVSPost2010PropOp40
 70
     1
102
RTVSPost2010Prop41ColorIndex
 90
       18
102
RTVSPost2010Prop41ColorRGB
 90
        0
102
RTVSPost2010PropOp41
 70
     1
102
RTVSPost2010Prop42
 90
       50
102
RTVSPost2010PropOp42
 70
     1
102
RTVSPost2010Prop43
 90
        3
102
RTVSPost2010PropOp43
 70
     1
102
RTVSPost2010Prop44ColorIndex
 90
        5
102
RTVSPost2010Prop44ColorRGB
 90
      255
102
RTVSPost2010PropOp44
 70
     1
102
RTVSPost2010Prop45
280
     0
102
RTVSPost2010PropOp45
 70
     1
102
RTVSPost2010Prop46
 90
       50
102
RTVSPost2010PropOp46
 70
     1
102
RTVSPost2010Prop47
 90
       50
102
RTVSPost2010PropOp47
 70
     1
102
RTVSPost2010Prop48
 90
       50
102
RTVSPost2010PropOp48
 70
     1
102
RTVSPost2010Prop49
280
     0
102
RTVSPost2010PropOp49
 70
     1
102
RTVSPost2010Prop50
 90
       50
102
RTVSPost2010PropOp50
 70
     1
102
RTVSPost2010Prop51ColorIndex
 90
      256
102
RTVSPost2010Prop51ColorRGB
 90
-16777216
102
RTVSPost2010PropOp51
 70
     0
102
RTVSPost2010Prop52
140
1.0
102
RTVSPost2010PropOp52
 70
     0
102
RTVSPost2010Prop53
 90
        2
102
RTVSPost2010PropOp53
 70
     1
102
RTVSPost2010Prop54
  1
strokes_ogs.tif
102
RTVSPost2010PropOp54
 70
     1
102
RTVSPost2010Prop55
280
     0
102
RTVSPost2010PropOp55
 70
     1
102
RTVSPost2010Prop56
140
1.0
102
RTVSPost2010PropOp56
 70
     1
102
RTVSPost2010Prop57
140
1.0
102
RTVSPost2010PropOp57
 70
     1
  0
XRECORD
  5
273
102
{ACAD_REACTORS
330
272
102
}
330
272
100
AcDbXrecord
280
     1
102
RTVSPropertyOp0
 70
     1
102
RTVSPropertyOp1
 70
     1
102
RTVSPropertyOp2
 70
     1
102
RTVSPropertyOp3
 70
     1
102
RTVSPropertyOp4
 70
     1
102
RTVSPropertyOp5
 70
     1
102
RTVSPropertyOp6
 70
     1
102
RTVSPropertyOp7
 70
     1
102
RTVSPropertyOp8
 70
     1
102
RTVSPropertyOp9
 70
     1
102
RTVSPropertyOp10
 70
     1
102
RTVSPropertyOp11
 70
     1
102
RTVSPropertyOp12
 70
     1
102
RTVSPropertyOp13
 70
     1
102
RTVSPropertyOp14
 70
     1
102
RTVSPropertyOp15
 70
     1
102
RTVSPropertyOp16
 70
     1
102
RTVSPropertyOp17
 70
     1
102
RTVSPropertyOp18
 70
     1
102
RTVSPropertyOp19
 70
     1
102
RTVSPropertyOp20
 70
     1
102
RTVSPropertyOp21
 70
     1
102
RTVSPropertyOp22
 70
     1
102
RTVSPropertyOp23
 70
     1
102
RTVSPropertyOp24
 70
     1
102
RTVSPropertyOp25
 70
     1
102
RTVSPropertyOp26
 70
     1
102
RTVSPropertyOp27
 70
     1
102
RTVSPropertyOp28
 70
     1
102
RTVSPropertyOp29
 70
     1
102
RTVSPropertyOp30
 70
     1
102
RTVSPropertyOp31
 70
     1
102
RTVSPropertyOp32
 70
     1
102
RTVSPropertyOp33
 70
     1
102
RTVSPropertyOp34
 70
     1
102
RTVSPropertyOp35
 70
     1
102
RTVSPropertyOp36
 70
     1
102
RTVSPropertyOp37
 70
     1
102
RTVSPropertyOp38
 70
     1
102
RTVSPropertyOp39
 70
     1
102
RTVSPropertyOp40
 70
     1
102
RTVSPropertyOp41
 70
     1
102
RTVSPropertyOp42
 70
     1
102
RTVSPropertyOp43
 70
     1
102
RTVSPropertyOp44
 70
     1
102
RTVSPropertyOp45
 70
     1
102
RTVSPropertyOp46
 70
     1
102
RTVSPropertyOp47
 70
     1
102
RTVSPropertyOp48
 70
     1
102
RTVSPropertyOp49
 70
     1
102
RTVSPropertyOp50
 70
     1
102
RTVSPropertyOp51
 70
     0
102
RTVSPropertyOp52
 70
     0
102
RTVSPropertyOp53
 70
     1
102
RTVSPropertyOp54
 70
     1
102
RTVSPropertyOp55
 70
     1
102
RTVSPropertyOp56
 70
     1
102
RTVSPropertyOp57
 70
     1
102
RTVSPost2010Prop28
280
     0
102
RTVSPost2010PropOp28
 70
     1
102
RTVSPost2010Prop29
280
     1
102
RTVSPost2010PropOp29
 70
     1
102
RTVSPost2010Prop30
280
     1
102
RTVSPost2010PropOp30
 70
     1
102
RTVSPost2010Prop31
280
     0
102
RTVSPost2010PropOp31
 70
     1
102
RTVSPost2010Prop32
280
     0
102
RTVSPost2010PropOp32
 70
     1
102
RTVSPost2010Prop33
280
     0
102
RTVSPost2010PropOp33
 70
     1
102
RTVSPost2010Prop34
280
     0
102
RTVSPost2010PropOp34
 70
     1
102
RTVSPost2010Prop35
280
     0
102
RTVSPost2010PropOp35
 70
     1
102
RTVSPost2010Prop36
280
     0
102
RTVSPost2010PropOp36
 70
     1
102
RTVSPost2010Prop37
 90
       50
102
RTVSPost2010PropOp37
 70
     1
102
RTVSPost2010Prop38
140
0.0
102
RTVSPost2010PropOp38
 70
     1
102
RTVSPost2010Prop39
140
1.0
102
RTVSPost2010PropOp39
 70
     1
102
RTVSPost2010Prop40
 90
        0
102
RTVSPost2010PropOp40
 70
     1
102
RTVSPost2010Prop41ColorIndex
 90
       18
102
RTVSPost2010Prop41ColorRGB
 90
        0
102
RTVSPost2010PropOp41
 70
     1
102
RTVSPost2010Prop42
 90
       50
102
RTVSPost2010PropOp42
 70
     1
102
RTVSPost2010Prop43
 90
        3
102
RTVSPost2010PropOp43
 70
     1
102
RTVSPost2010Prop44ColorIndex
 90
        5
102
RTVSPost2010Prop44ColorRGB
 90
      255
102
RTVSPost2010PropOp44
 70
     1
102
RTVSPost2010Prop45
280
     0
102
RTVSPost2010PropOp45
 70
     1
102
RTVSPost2010Prop46
 90
       50
102
RTVSPost2010PropOp46
 70
     1
102
RTVSPost2010Prop47
 90
       50
102
RTVSPost2010PropOp47
 70
     1
102
RTVSPost2010Prop48
 90
       50
102
RTVSPost2010PropOp48
 70
     1
102
RTVSPost2010Prop49
280
     0
102
RTVSPost2010PropOp49
 70
     1
102
RTVSPost2010Prop50
 90
       50
102
RTVSPost2010PropOp50
 70
     1
102
RTVSPost2010Prop51ColorIndex
 90
      256
102
RTVSPost2010Prop51ColorRGB
 90
-16777216
102
RTVSPost2010PropOp51
 70
     0
102
RTVSPost2010Prop52
140
1.0
102
RTVSPost2010PropOp52
 70
     0
102
RTVSPost2010Prop53
 90
        2
102
RTVSPost2010PropOp53
 70
     1
102
RTVSPost2010Prop54
  1
strokes_ogs.tif
102
RTVSPost2010PropOp54
 70
     1
102
RTVSPost2010Prop55
280
     0
102
RTVSPost2010PropOp55
 70
     1
102
RTVSPost2010Prop56
140
1.0
102
RTVSPost2010PropOp56
 70
     1
102
RTVSPost2010Prop57
140
1.0
102
RTVSPost2010PropOp57
 70
     1
  0
XRECORD
  5
27B
102
{ACAD_REACTORS
330
27A
102
}
330
27A
100
AcDbXrecord
280
     1
102
RTVSPropertyOp0
 70
     1
102
RTVSPropertyOp1
 70
     1
102
RTVSPropertyOp2
 70
     1
102
RTVSPropertyOp3
 70
     1
102
RTVSPropertyOp4
 70
     1
102
RTVSPropertyOp5
 70
     1
102
RTVSPropertyOp6
 70
     1
102
RTVSPropertyOp7
 70
     1
102
RTVSPropertyOp8
 70
     1
102
RTVSPropertyOp9
 70
     1
102
RTVSPropertyOp10
 70
     1
102
RTVSPropertyOp11
 70
     1
102
RTVSPropertyOp12
 70
     1
102
RTVSPropertyOp13
 70
     1
102
RTVSPropertyOp14
 70
     1
102
RTVSPropertyOp15
 70
     1
102
RTVSPropertyOp16
 70
     1
102
RTVSPropertyOp17
 70
     1
102
RTVSPropertyOp18
 70
     1
102
RTVSPropertyOp19
 70
     1
102
RTVSPropertyOp20
 70
     1
102
RTVSPropertyOp21
 70
     1
102
RTVSPropertyOp22
 70
     1
102
RTVSPropertyOp23
 70
     1
102
RTVSPropertyOp24
 70
     1
102
RTVSPropertyOp25
 70
     1
102
RTVSPropertyOp26
 70
     1
102
RTVSPropertyOp27
 70
     1
102
RTVSPropertyOp28
 70
     1
102
RTVSPropertyOp29
 70
     1
102
RTVSPropertyOp30
 70
     1
102
RTVSPropertyOp31
 70
     1
102
RTVSPropertyOp32
 70
     1
102
RTVSPropertyOp33
 70
     1
102
RTVSPropertyOp34
 70
     1
102
RTVSPropertyOp35
 70
     1
102
RTVSPropertyOp36
 70
     1
102
RTVSPropertyOp37
 70
     1
102
RTVSPropertyOp38
 70
     1
102
RTVSPropertyOp39
 70
     1
102
RTVSPropertyOp40
 70
     1
102
RTVSPropertyOp41
 70
     1
102
RTVSPropertyOp42
 70
     1
102
RTVSPropertyOp43
 70
     1
102
RTVSPropertyOp44
 70
     1
102
RTVSPropertyOp45
 70
     1
102
RTVSPropertyOp46
 70
     1
102
RTVSPropertyOp47
 70
     1
102
RTVSPropertyOp48
 70
     1
102
RTVSPropertyOp49
 70
     1
102
RTVSPropertyOp50
 70
     1
102
RTVSPropertyOp51
 70
     0
102
RTVSPropertyOp52
 70
     0
102
RTVSPropertyOp53
 70
     1
102
RTVSPropertyOp54
 70
     1
102
RTVSPropertyOp55
 70
     1
102
RTVSPropertyOp56
 70
     1
102
RTVSPropertyOp57
 70
     1
102
RTVSPost2010Prop28
280
     0
102
RTVSPost2010PropOp28
 70
     1
102
RTVSPost2010Prop29
280
     1
102
RTVSPost2010PropOp29
 70
     1
102
RTVSPost2010Prop30
280
     1
102
RTVSPost2010PropOp30
 70
     1
102
RTVSPost2010Prop31
280
     0
102
RTVSPost2010PropOp31
 70
     1
102
RTVSPost2010Prop32
280
     0
102
RTVSPost2010PropOp32
 70
     1
102
RTVSPost2010Prop33
280
     0
102
RTVSPost2010PropOp33
 70
     1
102
RTVSPost2010Prop34
280
     0
102
RTVSPost2010PropOp34
 70
     1
102
RTVSPost2010Prop35
280
     0
102
RTVSPost2010PropOp35
 70
     1
102
RTVSPost2010Prop36
280
     0
102
RTVSPost2010PropOp36
 70
     1
102
RTVSPost2010Prop37
 90
       50
102
RTVSPost2010PropOp37
 70
     1
102
RTVSPost2010Prop38
140
0.0
102
RTVSPost2010PropOp38
 70
     1
102
RTVSPost2010Prop39
140
1.0
102
RTVSPost2010PropOp39
 70
     1
102
RTVSPost2010Prop40
 90
        0
102
RTVSPost2010PropOp40
 70
     1
102
RTVSPost2010Prop41ColorIndex
 90
       18
102
RTVSPost2010Prop41ColorRGB
 90
        0
102
RTVSPost2010PropOp41
 70
     1
102
RTVSPost2010Prop42
 90
       50
102
RTVSPost2010PropOp42
 70
     1
102
RTVSPost2010Prop43
 90
        3
102
RTVSPost2010PropOp43
 70
     1
102
RTVSPost2010Prop44ColorIndex
 90
        5
102
RTVSPost2010Prop44ColorRGB
 90
      255
102
RTVSPost2010PropOp44
 70
     1
102
RTVSPost2010Prop45
280
     0
102
RTVSPost2010PropOp45
 70
     1
102
RTVSPost2010Prop46
 90
       50
102
RTVSPost2010PropOp46
 70
     1
102
RTVSPost2010Prop47
 90
       50
102
RTVSPost2010PropOp47
 70
     1
102
RTVSPost2010Prop48
 90
       50
102
RTVSPost2010PropOp48
 70
     1
102
RTVSPost2010Prop49
280
     0
102
RTVSPost2010PropOp49
 70
     1
102
RTVSPost2010Prop50
 90
       50
102
RTVSPost2010PropOp50
 70
     1
102
RTVSPost2010Prop51ColorIndex
 90
      256
102
RTVSPost2010Prop51ColorRGB
 90
-16777216
102
RTVSPost2010PropOp51
 70
     0
102
RTVSPost2010Prop52
140
1.0
102
RTVSPost2010PropOp52
 70
     0
102
RTVSPost2010Prop53
 90
        2
102
RTVSPost2010PropOp53
 70
     1
102
RTVSPost2010Prop54
  1
strokes_ogs.tif
102
RTVSPost2010PropOp54
 70
     1
102
RTVSPost2010Prop55
280
     0
102
RTVSPost2010PropOp55
 70
     1
102
RTVSPost2010Prop56
140
1.0
102
RTVSPost2010PropOp56
 70
     1
102
RTVSPost2010Prop57
140
1.0
102
RTVSPost2010PropOp57
 70
     1
  0
XRECORD
  5
26F
102
{ACAD_REACTORS
330
26E
102
}
330
26E
100
AcDbXrecord
280
     1
102
RTVSPropertyOp0
 70
     1
102
RTVSPropertyOp1
 70
     1
102
RTVSPropertyOp2
 70
     1
102
RTVSPropertyOp3
 70
     1
102
RTVSPropertyOp4
 70
     1
102
RTVSPropertyOp5
 70
     1
102
RTVSPropertyOp6
 70
     1
102
RTVSPropertyOp7
 70
     1
102
RTVSPropertyOp8
 70
     1
102
RTVSPropertyOp9
 70
     1
102
RTVSPropertyOp10
 70
     1
102
RTVSPropertyOp11
 70
     1
102
RTVSPropertyOp12
 70
     1
102
RTVSPropertyOp13
 70
     1
102
RTVSPropertyOp14
 70
     1
102
RTVSPropertyOp15
 70
     1
102
RTVSPropertyOp16
 70
     1
102
RTVSPropertyOp17
 70
     1
102
RTVSPropertyOp18
 70
     1
102
RTVSPropertyOp19
 70
     1
102
RTVSPropertyOp20
 70
     1
102
RTVSPropertyOp21
 70
     1
102
RTVSPropertyOp22
 70
     1
102
RTVSPropertyOp23
 70
     1
102
RTVSPropertyOp24
 70
     1
102
RTVSPropertyOp25
 70
     1
102
RTVSPropertyOp26
 70
     1
102
RTVSPropertyOp27
 70
     1
102
RTVSPropertyOp28
 70
     1
102
RTVSPropertyOp29
 70
     1
102
RTVSPropertyOp30
 70
     1
102
RTVSPropertyOp31
 70
     1
102
RTVSPropertyOp32
 70
     1
102
RTVSPropertyOp33
 70
     1
102
RTVSPropertyOp34
 70
     1
102
RTVSPropertyOp35
 70
     1
102
RTVSPropertyOp36
 70
     1
102
RTVSPropertyOp37
 70
     1
102
RTVSPropertyOp38
 70
     1
102
RTVSPropertyOp39
 70
     1
102
RTVSPropertyOp40
 70
     1
102
RTVSPropertyOp41
 70
     1
102
RTVSPropertyOp42
 70
     1
102
RTVSPropertyOp43
 70
     1
102
RTVSPropertyOp44
 70
     1
102
RTVSPropertyOp45
 70
     1
102
RTVSPropertyOp46
 70
     1
102
RTVSPropertyOp47
 70
     1
102
RTVSPropertyOp48
 70
     1
102
RTVSPropertyOp49
 70
     1
102
RTVSPropertyOp50
 70
     1
102
RTVSPropertyOp51
 70
     0
102
RTVSPropertyOp52
 70
     0
102
RTVSPropertyOp53
 70
     1
102
RTVSPropertyOp54
 70
     1
102
RTVSPropertyOp55
 70
     1
102
RTVSPropertyOp56
 70
     1
102
RTVSPropertyOp57
 70
     1
102
RTVSPost2010Prop28
280
     0
102
RTVSPost2010PropOp28
 70
     1
102
RTVSPost2010Prop29
280
     1
102
RTVSPost2010PropOp29
 70
     1
102
RTVSPost2010Prop30
280
     1
102
RTVSPost2010PropOp30
 70
     1
102
RTVSPost2010Prop31
280
     0
102
RTVSPost2010PropOp31
 70
     1
102
RTVSPost2010Prop32
280
     0
102
RTVSPost2010PropOp32
 70
     1
102
RTVSPost2010Prop33
280
     0
102
RTVSPost2010PropOp33
 70
     1
102
RTVSPost2010Prop34
280
     0
102
RTVSPost2010PropOp34
 70
     1
102
RTVSPost2010Prop35
280
     0
102
RTVSPost2010PropOp35
 70
     1
102
RTVSPost2010Prop36
280
     0
102
RTVSPost2010PropOp36
 70
     1
102
RTVSPost2010Prop37
 90
       50
102
RTVSPost2010PropOp37
 70
     1
102
RTVSPost2010Prop38
140
0.0
102
RTVSPost2010PropOp38
 70
     1
102
RTVSPost2010Prop39
140
1.0
102
RTVSPost2010PropOp39
 70
     1
102
RTVSPost2010Prop40
 90
        0
102
RTVSPost2010PropOp40
 70
     1
102
RTVSPost2010Prop41ColorIndex
 90
       18
102
RTVSPost2010Prop41ColorRGB
 90
        0
102
RTVSPost2010PropOp41
 70
     1
102
RTVSPost2010Prop42
 90
       50
102
RTVSPost2010PropOp42
 70
     1
102
RTVSPost2010Prop43
 90
        3
102
RTVSPost2010PropOp43
 70
     1
102
RTVSPost2010Prop44ColorIndex
 90
        5
102
RTVSPost2010Prop44ColorRGB
 90
      255
102
RTVSPost2010PropOp44
 70
     1
102
RTVSPost2010Prop45
280
     0
102
RTVSPost2010PropOp45
 70
     1
102
RTVSPost2010Prop46
 90
       50
102
RTVSPost2010PropOp46
 70
     1
102
RTVSPost2010Prop47
 90
       50
102
RTVSPost2010PropOp47
 70
     1
102
RTVSPost2010Prop48
 90
       50
102
RTVSPost2010PropOp48
 70
     1
102
RTVSPost2010Prop49
280
     0
102
RTVSPost2010PropOp49
 70
     1
102
RTVSPost2010Prop50
 90
       50
102
RTVSPost2010PropOp50
 70
     1
102
RTVSPost2010Prop51ColorIndex
 90
      256
102
RTVSPost2010Prop51ColorRGB
 90
-16777216
102
RTVSPost2010PropOp51
 70
     0
102
RTVSPost2010Prop52
140
1.0
102
RTVSPost2010PropOp52
 70
     0
102
RTVSPost2010Prop53
 90
        2
102
RTVSPost2010PropOp53
 70
     1
102
RTVSPost2010Prop54
  1
strokes_ogs.tif
102
RTVSPost2010PropOp54
 70
     1
102
RTVSPost2010Prop55
280
     0
102
RTVSPost2010PropOp55
 70
     1
102
RTVSPost2010Prop56
140
1.0
102
RTVSPost2010PropOp56
 70
     1
102
RTVSPost2010Prop57
140
1.0
102
RTVSPost2010PropOp57
 70
     1
  0
XRECORD
  5
271
102
{ACAD_REACTORS
330
270
102
}
330
270
100
AcDbXrecord
280
     1
102
RTVSPropertyOp0
 70
     1
102
RTVSPropertyOp1
 70
     1
102
RTVSPropertyOp2
 70
     1
102
RTVSPropertyOp3
 70
     1
102
RTVSPropertyOp4
 70
     1
102
RTVSPropertyOp5
 70
     1
102
RTVSPropertyOp6
 70
     1
102
RTVSPropertyOp7
 70
     1
102
RTVSPropertyOp8
 70
     1
102
RTVSPropertyOp9
 70
     1
102
RTVSPropertyOp10
 70
     1
102
RTVSPropertyOp11
 70
     1
102
RTVSPropertyOp12
 70
     1
102
RTVSPropertyOp13
 70
     1
102
RTVSPropertyOp14
 70
     1
102
RTVSPropertyOp15
 70
     1
102
RTVSPropertyOp16
 70
     1
102
RTVSPropertyOp17
 70
     1
102
RTVSPropertyOp18
 70
     1
102
RTVSPropertyOp19
 70
     1
102
RTVSPropertyOp20
 70
     1
102
RTVSPropertyOp21
 70
     1
102
RTVSPropertyOp22
 70
     1
102
RTVSPropertyOp23
 70
     1
102
RTVSPropertyOp24
 70
     1
102
RTVSPropertyOp25
 70
     1
102
RTVSPropertyOp26
 70
     1
102
RTVSPropertyOp27
 70
     1
102
RTVSPropertyOp28
 70
     1
102
RTVSPropertyOp29
 70
     1
102
RTVSPropertyOp30
 70
     1
102
RTVSPropertyOp31
 70
     1
102
RTVSPropertyOp32
 70
     1
102
RTVSPropertyOp33
 70
     1
102
RTVSPropertyOp34
 70
     1
102
RTVSPropertyOp35
 70
     1
102
RTVSPropertyOp36
 70
     1
102
RTVSPropertyOp37
 70
     1
102
RTVSPropertyOp38
 70
     1
102
RTVSPropertyOp39
 70
     1
102
RTVSPropertyOp40
 70
     1
102
RTVSPropertyOp41
 70
     1
102
RTVSPropertyOp42
 70
     1
102
RTVSPropertyOp43
 70
     1
102
RTVSPropertyOp44
 70
     1
102
RTVSPropertyOp45
 70
     1
102
RTVSPropertyOp46
 70
     1
102
RTVSPropertyOp47
 70
     1
102
RTVSPropertyOp48
 70
     1
102
RTVSPropertyOp49
 70
     1
102
RTVSPropertyOp50
 70
     1
102
RTVSPropertyOp51
 70
     0
102
RTVSPropertyOp52
 70
     0
102
RTVSPropertyOp53
 70
     1
102
RTVSPropertyOp54
 70
     1
102
RTVSPropertyOp55
 70
     1
102
RTVSPropertyOp56
 70
     1
102
RTVSPropertyOp57
 70
     1
102
RTVSPost2010Prop28
280
     0
102
RTVSPost2010PropOp28
 70
     1
102
RTVSPost2010Prop29
280
     1
102
RTVSPost2010PropOp29
 70
     1
102
RTVSPost2010Prop30
280
     1
102
RTVSPost2010PropOp30
 70
     1
102
RTVSPost2010Prop31
280
     0
102
RTVSPost2010PropOp31
 70
     1
102
RTVSPost2010Prop32
280
     0
102
RTVSPost2010PropOp32
 70
     1
102
RTVSPost2010Prop33
280
     0
102
RTVSPost2010PropOp33
 70
     1
102
RTVSPost2010Prop34
280
     0
102
RTVSPost2010PropOp34
 70
     1
102
RTVSPost2010Prop35
280
     0
102
RTVSPost2010PropOp35
 70
     1
102
RTVSPost2010Prop36
280
     0
102
RTVSPost2010PropOp36
 70
     1
102
RTVSPost2010Prop37
 90
       50
102
RTVSPost2010PropOp37
 70
     1
102
RTVSPost2010Prop38
140
0.0
102
RTVSPost2010PropOp38
 70
     1
102
RTVSPost2010Prop39
140
1.0
102
RTVSPost2010PropOp39
 70
     1
102
RTVSPost2010Prop40
 90
        0
102
RTVSPost2010PropOp40
 70
     1
102
RTVSPost2010Prop41ColorIndex
 90
       18
102
RTVSPost2010Prop41ColorRGB
 90
        0
102
RTVSPost2010PropOp41
 70
     1
102
RTVSPost2010Prop42
 90
       50
102
RTVSPost2010PropOp42
 70
     1
102
RTVSPost2010Prop43
 90
        3
102
RTVSPost2010PropOp43
 70
     1
102
RTVSPost2010Prop44ColorIndex
 90
        5
102
RTVSPost2010Prop44ColorRGB
 90
      255
102
RTVSPost2010PropOp44
 70
     1
102
RTVSPost2010Prop45
280
     0
102
RTVSPost2010PropOp45
 70
     1
102
RTVSPost2010Prop46
 90
       50
102
RTVSPost2010PropOp46
 70
     1
102
RTVSPost2010Prop47
 90
       50
102
RTVSPost2010PropOp47
 70
     1
102
RTVSPost2010Prop48
 90
       50
102
RTVSPost2010PropOp48
 70
     1
102
RTVSPost2010Prop49
280
     0
102
RTVSPost2010PropOp49
 70
     1
102
RTVSPost2010Prop50
 90
       50
102
RTVSPost2010PropOp50
 70
     1
102
RTVSPost2010Prop51ColorIndex
 90
      256
102
RTVSPost2010Prop51ColorRGB
 90
-16777216
102
RTVSPost2010PropOp51
 70
     0
102
RTVSPost2010Prop52
140
1.0
102
RTVSPost2010PropOp52
 70
     0
102
RTVSPost2010Prop53
 90
        2
102
RTVSPost2010PropOp53
 70
     1
102
RTVSPost2010Prop54
  1
strokes_ogs.tif
102
RTVSPost2010PropOp54
 70
     1
102
RTVSPost2010Prop55
280
     0
102
RTVSPost2010PropOp55
 70
     1
102
RTVSPost2010Prop56
140
1.0
102
RTVSPost2010PropOp56
 70
     1
102
RTVSPost2010Prop57
140
1.0
102
RTVSPost2010PropOp57
 70
     1
  0
XRECORD
  5
281
102
{ACAD_REACTORS
330
280
102
}
330
280
100
AcDbXrecord
280
     1
102
RTVSPropertyOp0
 70
     0
102
RTVSPropertyOp1
 70
     0
102
RTVSPropertyOp2
 70
     0
102
RTVSPropertyOp3
 70
     0
102
RTVSPropertyOp4
 70
     0
102
RTVSPropertyOp5
 70
     0
102
RTVSPropertyOp6
 70
     0
102
RTVSPropertyOp7
 70
     0
102
RTVSPropertyOp8
 70
     0
102
RTVSPropertyOp9
 70
     0
102
RTVSPropertyOp10
 70
     0
102
RTVSPropertyOp11
 70
     0
102
RTVSPropertyOp12
 70
     0
102
RTVSPropertyOp13
 70
     0
102
RTVSPropertyOp14
 70
     2
102
RTVSPropertyOp15
 70
     0
102
RTVSPropertyOp16
 70
     0
102
RTVSPropertyOp17
 70
     0
102
RTVSPropertyOp18
 70
     0
102
RTVSPropertyOp19
 70
     0
102
RTVSPropertyOp20
 70
     0
102
RTVSPropertyOp21
 70
     0
102
RTVSPropertyOp22
 70
     0
102
RTVSPropertyOp23
 70
     0
102
RTVSPropertyOp24
 70
     0
102
RTVSPropertyOp25
 70
     0
102
RTVSPropertyOp26
 70
     0
102
RTVSPropertyOp27
 70
     0
102
RTVSPropertyOp28
 70
     0
102
RTVSPropertyOp29
 70
     0
102
RTVSPropertyOp30
 70
     0
102
RTVSPropertyOp31
 70
     0
102
RTVSPropertyOp32
 70
     0
102
RTVSPropertyOp33
 70
     0
102
RTVSPropertyOp34
 70
     0
102
RTVSPropertyOp35
 70
     0
102
RTVSPropertyOp36
 70
     0
102
RTVSPropertyOp37
 70
     0
102
RTVSPropertyOp38
 70
     0
102
RTVSPropertyOp39
 70
     0
102
RTVSPropertyOp40
 70
     0
102
RTVSPropertyOp41
 70
     0
102
RTVSPropertyOp42
 70
     0
102
RTVSPropertyOp43
 70
     0
102
RTVSPropertyOp44
 70
     0
102
RTVSPropertyOp45
 70
     0
102
RTVSPropertyOp46
 70
     0
102
RTVSPropertyOp47
 70
     0
102
RTVSPropertyOp48
 70
     0
102
RTVSPropertyOp49
 70
     0
102
RTVSPropertyOp50
 70
     0
102
RTVSPropertyOp51
 70
     0
102
RTVSPropertyOp52
 70
     0
102
RTVSPropertyOp53
 70
     0
102
RTVSPropertyOp54
 70
     0
102
RTVSPropertyOp55
 70
     0
102
RTVSPropertyOp56
 70
     0
102
RTVSPropertyOp57
 70
     0
102
RTVSPost2010Prop28
280
     0
102
RTVSPost2010PropOp28
 70
     0
102
RTVSPost2010Prop29
280
     1
102
RTVSPost2010PropOp29
 70
     0
102
RTVSPost2010Prop30
280
     1
102
RTVSPost2010PropOp30
 70
     0
102
RTVSPost2010Prop31
280
     0
102
RTVSPost2010PropOp31
 70
     0
102
RTVSPost2010Prop32
280
     0
102
RTVSPost2010PropOp32
 70
     0
102
RTVSPost2010Prop33
280
     0
102
RTVSPost2010PropOp33
 70
     0
102
RTVSPost2010Prop34
280
     0
102
RTVSPost2010PropOp34
 70
     0
102
RTVSPost2010Prop35
280
     0
102
RTVSPost2010PropOp35
 70
     0
102
RTVSPost2010Prop36
280
     0
102
RTVSPost2010PropOp36
 70
     0
102
RTVSPost2010Prop37
 90
       50
102
RTVSPost2010PropOp37
 70
     0
102
RTVSPost2010Prop38
140
0.0
102
RTVSPost2010PropOp38
 70
     0
102
RTVSPost2010Prop39
140
1.0
102
RTVSPost2010PropOp39
 70
     0
102
RTVSPost2010Prop40
 90
        0
102
RTVSPost2010PropOp40
 70
     0
102
RTVSPost2010Prop41ColorIndex
 90
       18
102
RTVSPost2010Prop41ColorRGB
 90
        0
102
RTVSPost2010PropOp41
 70
     0
102
RTVSPost2010Prop42
 90
       50
102
RTVSPost2010PropOp42
 70
     0
102
RTVSPost2010Prop43
 90
        3
102
RTVSPost2010PropOp43
 70
     0
102
RTVSPost2010Prop44ColorIndex
 90
        5
102
RTVSPost2010Prop44ColorRGB
 90
      255
102
RTVSPost2010PropOp44
 70
     0
102
RTVSPost2010Prop45
280
     0
102
RTVSPost2010PropOp45
 70
     0
102
RTVSPost2010Prop46
 90
       50
102
RTVSPost2010PropOp46
 70
     0
102
RTVSPost2010Prop47
 90
       50
102
RTVSPost2010PropOp47
 70
     0
102
RTVSPost2010Prop48
 90
       50
102
RTVSPost2010PropOp48
 70
     0
102
RTVSPost2010Prop49
280
     0
102
RTVSPost2010PropOp49
 70
     0
102
RTVSPost2010Prop50
 90
       50
102
RTVSPost2010PropOp50
 70
     0
102
RTVSPost2010Prop51ColorIndex
 90
      256
102
RTVSPost2010Prop51ColorRGB
 90
-16777216
102
RTVSPost2010PropOp51
 70
     0
102
RTVSPost2010Prop52
140
1.0
102
RTVSPost2010PropOp52
 70
     0
102
RTVSPost2010Prop53
 90
        2
102
RTVSPost2010PropOp53
 70
     0
102
RTVSPost2010Prop54
  1
strokes_ogs.tif
102
RTVSPost2010PropOp54
 70
     0
102
RTVSPost2010Prop55
280
     0
102
RTVSPost2010PropOp55
 70
     0
102
RTVSPost2010Prop56
140
1.0
102
RTVSPost2010PropOp56
 70
     0
102
RTVSPost2010Prop57
140
1.0
102
RTVSPost2010PropOp57
 70
     0
  0
XRECORD
  5
279
102
{ACAD_REACTORS
330
278
102
}
330
278
100
AcDbXrecord
280
     1
102
RTVSPropertyOp0
 70
     1
102
RTVSPropertyOp1
 70
     1
102
RTVSPropertyOp2
 70
     1
102
RTVSPropertyOp3
 70
     1
102
RTVSPropertyOp4
 70
     1
102
RTVSPropertyOp5
 70
     1
102
RTVSPropertyOp6
 70
     1
102
RTVSPropertyOp7
 70
     1
102
RTVSPropertyOp8
 70
     1
102
RTVSPropertyOp9
 70
     1
102
RTVSPropertyOp10
 70
     1
102
RTVSPropertyOp11
 70
     1
102
RTVSPropertyOp12
 70
     1
102
RTVSPropertyOp13
 70
     1
102
RTVSPropertyOp14
 70
     1
102
RTVSPropertyOp15
 70
     1
102
RTVSPropertyOp16
 70
     1
102
RTVSPropertyOp17
 70
     1
102
RTVSPropertyOp18
 70
     1
102
RTVSPropertyOp19
 70
     1
102
RTVSPropertyOp20
 70
     1
102
RTVSPropertyOp21
 70
     1
102
RTVSPropertyOp22
 70
     1
102
RTVSPropertyOp23
 70
     1
102
RTVSPropertyOp24
 70
     1
102
RTVSPropertyOp25
 70
     1
102
RTVSPropertyOp26
 70
     1
102
RTVSPropertyOp27
 70
     1
102
RTVSPropertyOp28
 70
     1
102
RTVSPropertyOp29
 70
     1
102
RTVSPropertyOp30
 70
     1
102
RTVSPropertyOp31
 70
     1
102
RTVSPropertyOp32
 70
     1
102
RTVSPropertyOp33
 70
     1
102
RTVSPropertyOp34
 70
     1
102
RTVSPropertyOp35
 70
     1
102
RTVSPropertyOp36
 70
     1
102
RTVSPropertyOp37
 70
     1
102
RTVSPropertyOp38
 70
     1
102
RTVSPropertyOp39
 70
     1
102
RTVSPropertyOp40
 70
     1
102
RTVSPropertyOp41
 70
     1
102
RTVSPropertyOp42
 70
     1
102
RTVSPropertyOp43
 70
     1
102
RTVSPropertyOp44
 70
     1
102
RTVSPropertyOp45
 70
     1
102
RTVSPropertyOp46
 70
     1
102
RTVSPropertyOp47
 70
     1
102
RTVSPropertyOp48
 70
     1
102
RTVSPropertyOp49
 70
     1
102
RTVSPropertyOp50
 70
     1
102
RTVSPropertyOp51
 70
     0
102
RTVSPropertyOp52
 70
     0
102
RTVSPropertyOp53
 70
     1
102
RTVSPropertyOp54
 70
     1
102
RTVSPropertyOp55
 70
     1
102
RTVSPropertyOp56
 70
     1
102
RTVSPropertyOp57
 70
     1
102
RTVSPost2010Prop28
280
     0
102
RTVSPost2010PropOp28
 70
     1
102
RTVSPost2010Prop29
280
     1
102
RTVSPost2010PropOp29
 70
     1
102
RTVSPost2010Prop30
280
     1
102
RTVSPost2010PropOp30
 70
     1
102
RTVSPost2010Prop31
280
     0
102
RTVSPost2010PropOp31
 70
     1
102
RTVSPost2010Prop32
280
     0
102
RTVSPost2010PropOp32
 70
     1
102
RTVSPost2010Prop33
280
     0
102
RTVSPost2010PropOp33
 70
     1
102
RTVSPost2010Prop34
280
     0
102
RTVSPost2010PropOp34
 70
     1
102
RTVSPost2010Prop35
280
     0
102
RTVSPost2010PropOp35
 70
     1
102
RTVSPost2010Prop36
280
     0
102
RTVSPost2010PropOp36
 70
     1
102
RTVSPost2010Prop37
 90
       50
102
RTVSPost2010PropOp37
 70
     1
102
RTVSPost2010Prop38
140
0.0
102
RTVSPost2010PropOp38
 70
     1
102
RTVSPost2010Prop39
140
1.0
102
RTVSPost2010PropOp39
 70
     1
102
RTVSPost2010Prop40
 90
        0
102
RTVSPost2010PropOp40
 70
     1
102
RTVSPost2010Prop41ColorIndex
 90
       18
102
RTVSPost2010Prop41ColorRGB
 90
        0
102
RTVSPost2010PropOp41
 70
     1
102
RTVSPost2010Prop42
 90
       50
102
RTVSPost2010PropOp42
 70
     1
102
RTVSPost2010Prop43
 90
        3
102
RTVSPost2010PropOp43
 70
     1
102
RTVSPost2010Prop44ColorIndex
 90
        5
102
RTVSPost2010Prop44ColorRGB
 90
      255
102
RTVSPost2010PropOp44
 70
     1
102
RTVSPost2010Prop45
280
     0
102
RTVSPost2010PropOp45
 70
     1
102
RTVSPost2010Prop46
 90
       50
102
RTVSPost2010PropOp46
 70
     1
102
RTVSPost2010Prop47
 90
       50
102
RTVSPost2010PropOp47
 70
     1
102
RTVSPost2010Prop48
 90
       50
102
RTVSPost2010PropOp48
 70
     1
102
RTVSPost2010Prop49
280
     0
102
RTVSPost2010PropOp49
 70
     1
102
RTVSPost2010Prop50
 90
       50
102
RTVSPost2010PropOp50
 70
     1
102
RTVSPost2010Prop51ColorIndex
 90
      256
102
RTVSPost2010Prop51ColorRGB
 90
-16777216
102
RTVSPost2010PropOp51
 70
     0
102
RTVSPost2010Prop52
140
1.0
102
RTVSPost2010PropOp52
 70
     0
102
RTVSPost2010Prop53
 90
        2
102
RTVSPost2010PropOp53
 70
     1
102
RTVSPost2010Prop54
  1
strokes_ogs.tif
102
RTVSPost2010PropOp54
 70
     1
102
RTVSPost2010Prop55
280
     0
102
RTVSPost2010PropOp55
 70
     1
102
RTVSPost2010Prop56
140
1.0
102
RTVSPost2010PropOp56
 70
     1
102
RTVSPost2010Prop57
140
1.0
102
RTVSPost2010PropOp57
 70
     1
  0
XRECORD
  5
25D
102
{ACAD_REACTORS
330
25C
102
}
330
25C
100
AcDbXrecord
280
     1
102
RTVSPropertyOp0
 70
     1
102
RTVSPropertyOp1
 70
     1
102
RTVSPropertyOp2
 70
     1
102
RTVSPropertyOp3
 70
     1
102
RTVSPropertyOp4
 70
     1
102
RTVSPropertyOp5
 70
     1
102
RTVSPropertyOp6
 70
     1
102
RTVSPropertyOp7
 70
     1
102
RTVSPropertyOp8
 70
     1
102
RTVSPropertyOp9
 70
     1
102
RTVSPropertyOp10
 70
     1
102
RTVSPropertyOp11
 70
     1
102
RTVSPropertyOp12
 70
     1
102
RTVSPropertyOp13
 70
     1
102
RTVSPropertyOp14
 70
     1
102
RTVSPropertyOp15
 70
     1
102
RTVSPropertyOp16
 70
     1
102
RTVSPropertyOp17
 70
     1
102
RTVSPropertyOp18
 70
     1
102
RTVSPropertyOp19
 70
     1
102
RTVSPropertyOp20
 70
     1
102
RTVSPropertyOp21
 70
     1
102
RTVSPropertyOp22
 70
     1
102
RTVSPropertyOp23
 70
     1
102
RTVSPropertyOp24
 70
     1
102
RTVSPropertyOp25
 70
     1
102
RTVSPropertyOp26
 70
     1
102
RTVSPropertyOp27
 70
     1
102
RTVSPropertyOp28
 70
     1
102
RTVSPropertyOp29
 70
     1
102
RTVSPropertyOp30
 70
     1
102
RTVSPropertyOp31
 70
     1
102
RTVSPropertyOp32
 70
     1
102
RTVSPropertyOp33
 70
     1
102
RTVSPropertyOp34
 70
     1
102
RTVSPropertyOp35
 70
     1
102
RTVSPropertyOp36
 70
     1
102
RTVSPropertyOp37
 70
     1
102
RTVSPropertyOp38
 70
     1
102
RTVSPropertyOp39
 70
     1
102
RTVSPropertyOp40
 70
     1
102
RTVSPropertyOp41
 70
     1
102
RTVSPropertyOp42
 70
     1
102
RTVSPropertyOp43
 70
     1
102
RTVSPropertyOp44
 70
     1
102
RTVSPropertyOp45
 70
     1
102
RTVSPropertyOp46
 70
     1
102
RTVSPropertyOp47
 70
     1
102
RTVSPropertyOp48
 70
     1
102
RTVSPropertyOp49
 70
     1
102
RTVSPropertyOp50
 70
     1
102
RTVSPropertyOp51
 70
     0
102
RTVSPropertyOp52
 70
     0
102
RTVSPropertyOp53
 70
     1
102
RTVSPropertyOp54
 70
     1
102
RTVSPropertyOp55
 70
     1
102
RTVSPropertyOp56
 70
     1
102
RTVSPropertyOp57
 70
     1
102
RTVSPost2010Prop28
280
     0
102
RTVSPost2010PropOp28
 70
     1
102
RTVSPost2010Prop29
280
     1
102
RTVSPost2010PropOp29
 70
     1
102
RTVSPost2010Prop30
280
     1
102
RTVSPost2010PropOp30
 70
     1
102
RTVSPost2010Prop31
280
     0
102
RTVSPost2010PropOp31
 70
     1
102
RTVSPost2010Prop32
280
     0
102
RTVSPost2010PropOp32
 70
     1
102
RTVSPost2010Prop33
280
     0
102
RTVSPost2010PropOp33
 70
     1
102
RTVSPost2010Prop34
280
     0
102
RTVSPost2010PropOp34
 70
     1
102
RTVSPost2010Prop35
280
     0
102
RTVSPost2010PropOp35
 70
     1
102
RTVSPost2010Prop36
280
     0
102
RTVSPost2010PropOp36
 70
     1
102
RTVSPost2010Prop37
 90
       50
102
RTVSPost2010PropOp37
 70
     1
102
RTVSPost2010Prop38
140
0.0
102
RTVSPost2010PropOp38
 70
     1
102
RTVSPost2010Prop39
140
1.0
102
RTVSPost2010PropOp39
 70
     1
102
RTVSPost2010Prop40
 90
        0
102
RTVSPost2010PropOp40
 70
     1
102
RTVSPost2010Prop41ColorIndex
 90
       18
102
RTVSPost2010Prop41ColorRGB
 90
        0
102
RTVSPost2010PropOp41
 70
     1
102
RTVSPost2010Prop42
 90
       50
102
RTVSPost2010PropOp42
 70
     1
102
RTVSPost2010Prop43
 90
        3
102
RTVSPost2010PropOp43
 70
     1
102
RTVSPost2010Prop44ColorIndex
 90
        5
102
RTVSPost2010Prop44ColorRGB
 90
      255
102
RTVSPost2010PropOp44
 70
     1
102
RTVSPost2010Prop45
280
     0
102
RTVSPost2010PropOp45
 70
     1
102
RTVSPost2010Prop46
 90
       50
102
RTVSPost2010PropOp46
 70
     1
102
RTVSPost2010Prop47
 90
       50
102
RTVSPost2010PropOp47
 70
     1
102
RTVSPost2010Prop48
 90
       50
102
RTVSPost2010PropOp48
 70
     1
102
RTVSPost2010Prop49
280
     0
102
RTVSPost2010PropOp49
 70
     1
102
RTVSPost2010Prop50
 90
       50
102
RTVSPost2010PropOp50
 70
     1
102
RTVSPost2010Prop51ColorIndex
 90
      256
102
RTVSPost2010Prop51ColorRGB
 90
-16777216
102
RTVSPost2010PropOp51
 70
     0
102
RTVSPost2010Prop52
140
1.0
102
RTVSPost2010PropOp52
 70
     0
102
RTVSPost2010Prop53
 90
        2
102
RTVSPost2010PropOp53
 70
     1
102
RTVSPost2010Prop54
  1
strokes_ogs.tif
102
RTVSPost2010PropOp54
 70
     1
102
RTVSPost2010Prop55
280
     0
102
RTVSPost2010PropOp55
 70
     1
102
RTVSPost2010Prop56
140
1.0
102
RTVSPost2010PropOp56
 70
     1
102
RTVSPost2010Prop57
140
1.0
102
RTVSPost2010PropOp57
 70
     1
  0
XRECORD
  5
25F
102
{ACAD_REACTORS
330
25E
102
}
330
25E
100
AcDbXrecord
280
     1
102
RTVSPropertyOp0
 70
     1
102
RTVSPropertyOp1
 70
     1
102
RTVSPropertyOp2
 70
     1
102
RTVSPropertyOp3
 70
     1
102
RTVSPropertyOp4
 70
     1
102
RTVSPropertyOp5
 70
     1
102
RTVSPropertyOp6
 70
     1
102
RTVSPropertyOp7
 70
     1
102
RTVSPropertyOp8
 70
     1
102
RTVSPropertyOp9
 70
     1
102
RTVSPropertyOp10
 70
     1
102
RTVSPropertyOp11
 70
     1
102
RTVSPropertyOp12
 70
     1
102
RTVSPropertyOp13
 70
     1
102
RTVSPropertyOp14
 70
     1
102
RTVSPropertyOp15
 70
     1
102
RTVSPropertyOp16
 70
     1
102
RTVSPropertyOp17
 70
     1
102
RTVSPropertyOp18
 70
     1
102
RTVSPropertyOp19
 70
     1
102
RTVSPropertyOp20
 70
     1
102
RTVSPropertyOp21
 70
     1
102
RTVSPropertyOp22
 70
     1
102
RTVSPropertyOp23
 70
     1
102
RTVSPropertyOp24
 70
     1
102
RTVSPropertyOp25
 70
     1
102
RTVSPropertyOp26
 70
     1
102
RTVSPropertyOp27
 70
     1
102
RTVSPropertyOp28
 70
     1
102
RTVSPropertyOp29
 70
     1
102
RTVSPropertyOp30
 70
     1
102
RTVSPropertyOp31
 70
     1
102
RTVSPropertyOp32
 70
     1
102
RTVSPropertyOp33
 70
     1
102
RTVSPropertyOp34
 70
     1
102
RTVSPropertyOp35
 70
     1
102
RTVSPropertyOp36
 70
     1
102
RTVSPropertyOp37
 70
     1
102
RTVSPropertyOp38
 70
     1
102
RTVSPropertyOp39
 70
     1
102
RTVSPropertyOp40
 70
     1
102
RTVSPropertyOp41
 70
     1
102
RTVSPropertyOp42
 70
     1
102
RTVSPropertyOp43
 70
     1
102
RTVSPropertyOp44
 70
     1
102
RTVSPropertyOp45
 70
     1
102
RTVSPropertyOp46
 70
     1
102
RTVSPropertyOp47
 70
     1
102
RTVSPropertyOp48
 70
     1
102
RTVSPropertyOp49
 70
     1
102
RTVSPropertyOp50
 70
     1
102
RTVSPropertyOp51
 70
     0
102
RTVSPropertyOp52
 70
     0
102
RTVSPropertyOp53
 70
     1
102
RTVSPropertyOp54
 70
     1
102
RTVSPropertyOp55
 70
     1
102
RTVSPropertyOp56
 70
     1
102
RTVSPropertyOp57
 70
     1
102
RTVSPost2010Prop28
280
     0
102
RTVSPost2010PropOp28
 70
     1
102
RTVSPost2010Prop29
280
     1
102
RTVSPost2010PropOp29
 70
     1
102
RTVSPost2010Prop30
280
     1
102
RTVSPost2010PropOp30
 70
     1
102
RTVSPost2010Prop31
280
     0
102
RTVSPost2010PropOp31
 70
     1
102
RTVSPost2010Prop32
280
     0
102
RTVSPost2010PropOp32
 70
     1
102
RTVSPost2010Prop33
280
     0
102
RTVSPost2010PropOp33
 70
     1
102
RTVSPost2010Prop34
280
     0
102
RTVSPost2010PropOp34
 70
     1
102
RTVSPost2010Prop35
280
     0
102
RTVSPost2010PropOp35
 70
     1
102
RTVSPost2010Prop36
280
     0
102
RTVSPost2010PropOp36
 70
     1
102
RTVSPost2010Prop37
 90
       50
102
RTVSPost2010PropOp37
 70
     1
102
RTVSPost2010Prop38
140
0.0
102
RTVSPost2010PropOp38
 70
     1
102
RTVSPost2010Prop39
140
1.0
102
RTVSPost2010PropOp39
 70
     1
102
RTVSPost2010Prop40
 90
        0
102
RTVSPost2010PropOp40
 70
     1
102
RTVSPost2010Prop41ColorIndex
 90
       18
102
RTVSPost2010Prop41ColorRGB
 90
        0
102
RTVSPost2010PropOp41
 70
     1
102
RTVSPost2010Prop42
 90
       50
102
RTVSPost2010PropOp42
 70
     1
102
RTVSPost2010Prop43
 90
        3
102
RTVSPost2010PropOp43
 70
     1
102
RTVSPost2010Prop44ColorIndex
 90
        5
102
RTVSPost2010Prop44ColorRGB
 90
      255
102
RTVSPost2010PropOp44
 70
     1
102
RTVSPost2010Prop45
280
     0
102
RTVSPost2010PropOp45
 70
     1
102
RTVSPost2010Prop46
 90
       50
102
RTVSPost2010PropOp46
 70
     1
102
RTVSPost2010Prop47
 90
       50
102
RTVSPost2010PropOp47
 70
     1
102
RTVSPost2010Prop48
 90
       50
102
RTVSPost2010PropOp48
 70
     1
102
RTVSPost2010Prop49
280
     0
102
RTVSPost2010PropOp49
 70
     1
102
RTVSPost2010Prop50
 90
       50
102
RTVSPost2010PropOp50
 70
     1
102
RTVSPost2010Prop51ColorIndex
 90
      256
102
RTVSPost2010Prop51ColorRGB
 90
-16777216
102
RTVSPost2010PropOp51
 70
     0
102
RTVSPost2010Prop52
140
1.0
102
RTVSPost2010PropOp52
 70
     0
102
RTVSPost2010Prop53
 90
        2
102
RTVSPost2010PropOp53
 70
     1
102
RTVSPost2010Prop54
  1
strokes_ogs.tif
102
RTVSPost2010PropOp54
 70
     1
102
RTVSPost2010Prop55
280
     0
102
RTVSPost2010PropOp55
 70
     1
102
RTVSPost2010Prop56
140
1.0
102
RTVSPost2010PropOp56
 70
     1
102
RTVSPost2010Prop57
140
1.0
102
RTVSPost2010PropOp57
 70
     1
  0
XRECORD
  5
261
102
{ACAD_REACTORS
330
260
102
}
330
260
100
AcDbXrecord
280
     1
102
RTVSPropertyOp0
 70
     1
102
RTVSPropertyOp1
 70
     1
102
RTVSPropertyOp2
 70
     1
102
RTVSPropertyOp3
 70
     1
102
RTVSPropertyOp4
 70
     1
102
RTVSPropertyOp5
 70
     1
102
RTVSPropertyOp6
 70
     1
102
RTVSPropertyOp7
 70
     1
102
RTVSPropertyOp8
 70
     1
102
RTVSPropertyOp9
 70
     1
102
RTVSPropertyOp10
 70
     1
102
RTVSPropertyOp11
 70
     1
102
RTVSPropertyOp12
 70
     1
102
RTVSPropertyOp13
 70
     1
102
RTVSPropertyOp14
 70
     1
102
RTVSPropertyOp15
 70
     1
102
RTVSPropertyOp16
 70
     1
102
RTVSPropertyOp17
 70
     1
102
RTVSPropertyOp18
 70
     1
102
RTVSPropertyOp19
 70
     1
102
RTVSPropertyOp20
 70
     1
102
RTVSPropertyOp21
 70
     1
102
RTVSPropertyOp22
 70
     1
102
RTVSPropertyOp23
 70
     1
102
RTVSPropertyOp24
 70
     1
102
RTVSPropertyOp25
 70
     1
102
RTVSPropertyOp26
 70
     1
102
RTVSPropertyOp27
 70
     1
102
RTVSPropertyOp28
 70
     1
102
RTVSPropertyOp29
 70
     1
102
RTVSPropertyOp30
 70
     1
102
RTVSPropertyOp31
 70
     1
102
RTVSPropertyOp32
 70
     1
102
RTVSPropertyOp33
 70
     1
102
RTVSPropertyOp34
 70
     1
102
RTVSPropertyOp35
 70
     1
102
RTVSPropertyOp36
 70
     1
102
RTVSPropertyOp37
 70
     1
102
RTVSPropertyOp38
 70
     1
102
RTVSPropertyOp39
 70
     1
102
RTVSPropertyOp40
 70
     1
102
RTVSPropertyOp41
 70
     1
102
RTVSPropertyOp42
 70
     1
102
RTVSPropertyOp43
 70
     1
102
RTVSPropertyOp44
 70
     1
102
RTVSPropertyOp45
 70
     1
102
RTVSPropertyOp46
 70
     1
102
RTVSPropertyOp47
 70
     1
102
RTVSPropertyOp48
 70
     1
102
RTVSPropertyOp49
 70
     1
102
RTVSPropertyOp50
 70
     1
102
RTVSPropertyOp51
 70
     0
102
RTVSPropertyOp52
 70
     0
102
RTVSPropertyOp53
 70
     1
102
RTVSPropertyOp54
 70
     1
102
RTVSPropertyOp55
 70
     1
102
RTVSPropertyOp56
 70
     1
102
RTVSPropertyOp57
 70
     1
102
RTVSPost2010Prop28
280
     0
102
RTVSPost2010PropOp28
 70
     1
102
RTVSPost2010Prop29
280
     1
102
RTVSPost2010PropOp29
 70
     1
102
RTVSPost2010Prop30
280
     1
102
RTVSPost2010PropOp30
 70
     1
102
RTVSPost2010Prop31
280
     0
102
RTVSPost2010PropOp31
 70
     1
102
RTVSPost2010Prop32
280
     0
102
RTVSPost2010PropOp32
 70
     1
102
RTVSPost2010Prop33
280
     0
102
RTVSPost2010PropOp33
 70
     1
102
RTVSPost2010Prop34
280
     0
102
RTVSPost2010PropOp34
 70
     1
102
RTVSPost2010Prop35
280
     0
102
RTVSPost2010PropOp35
 70
     1
102
RTVSPost2010Prop36
280
     0
102
RTVSPost2010PropOp36
 70
     1
102
RTVSPost2010Prop37
 90
       50
102
RTVSPost2010PropOp37
 70
     1
102
RTVSPost2010Prop38
140
0.0
102
RTVSPost2010PropOp38
 70
     1
102
RTVSPost2010Prop39
140
1.0
102
RTVSPost2010PropOp39
 70
     1
102
RTVSPost2010Prop40
 90
        0
102
RTVSPost2010PropOp40
 70
     1
102
RTVSPost2010Prop41ColorIndex
 90
       18
102
RTVSPost2010Prop41ColorRGB
 90
        0
102
RTVSPost2010PropOp41
 70
     1
102
RTVSPost2010Prop42
 90
       50
102
RTVSPost2010PropOp42
 70
     1
102
RTVSPost2010Prop43
 90
        3
102
RTVSPost2010PropOp43
 70
     1
102
RTVSPost2010Prop44ColorIndex
 90
        5
102
RTVSPost2010Prop44ColorRGB
 90
      255
102
RTVSPost2010PropOp44
 70
     1
102
RTVSPost2010Prop45
280
     0
102
RTVSPost2010PropOp45
 70
     1
102
RTVSPost2010Prop46
 90
       50
102
RTVSPost2010PropOp46
 70
     1
102
RTVSPost2010Prop47
 90
       50
102
RTVSPost2010PropOp47
 70
     1
102
RTVSPost2010Prop48
 90
       50
102
RTVSPost2010PropOp48
 70
     1
102
RTVSPost2010Prop49
280
     0
102
RTVSPost2010PropOp49
 70
     1
102
RTVSPost2010Prop50
 90
       50
102
RTVSPost2010PropOp50
 70
     1
102
RTVSPost2010Prop51ColorIndex
 90
      256
102
RTVSPost2010Prop51ColorRGB
 90
-16777216
102
RTVSPost2010PropOp51
 70
     0
102
RTVSPost2010Prop52
140
1.0
102
RTVSPost2010PropOp52
 70
     0
102
RTVSPost2010Prop53
 90
        2
102
RTVSPost2010PropOp53
 70
     1
102
RTVSPost2010Prop54
  1
strokes_ogs.tif
102
RTVSPost2010PropOp54
 70
     1
102
RTVSPost2010Prop55
280
     0
102
RTVSPost2010PropOp55
 70
     1
102
RTVSPost2010Prop56
140
1.0
102
RTVSPost2010PropOp56
 70
     1
102
RTVSPost2010Prop57
140
1.0
102
RTVSPost2010PropOp57
 70
     1
  0
XRECORD
  5
263
102
{ACAD_REACTORS
330
262
102
}
330
262
100
AcDbXrecord
280
     1
102
RTVSPropertyOp0
 70
     1
102
RTVSPropertyOp1
 70
     1
102
RTVSPropertyOp2
 70
     1
102
RTVSPropertyOp3
 70
     1
102
RTVSPropertyOp4
 70
     1
102
RTVSPropertyOp5
 70
     1
102
RTVSPropertyOp6
 70
     1
102
RTVSPropertyOp7
 70
     1
102
RTVSPropertyOp8
 70
     1
102
RTVSPropertyOp9
 70
     1
102
RTVSPropertyOp10
 70
     1
102
RTVSPropertyOp11
 70
     1
102
RTVSPropertyOp12
 70
     1
102
RTVSPropertyOp13
 70
     1
102
RTVSPropertyOp14
 70
     1
102
RTVSPropertyOp15
 70
     1
102
RTVSPropertyOp16
 70
     1
102
RTVSPropertyOp17
 70
     1
102
RTVSPropertyOp18
 70
     1
102
RTVSPropertyOp19
 70
     1
102
RTVSPropertyOp20
 70
     1
102
RTVSPropertyOp21
 70
     1
102
RTVSPropertyOp22
 70
     1
102
RTVSPropertyOp23
 70
     1
102
RTVSPropertyOp24
 70
     1
102
RTVSPropertyOp25
 70
     1
102
RTVSPropertyOp26
 70
     1
102
RTVSPropertyOp27
 70
     1
102
RTVSPropertyOp28
 70
     1
102
RTVSPropertyOp29
 70
     1
102
RTVSPropertyOp30
 70
     1
102
RTVSPropertyOp31
 70
     1
102
RTVSPropertyOp32
 70
     1
102
RTVSPropertyOp33
 70
     1
102
RTVSPropertyOp34
 70
     1
102
RTVSPropertyOp35
 70
     1
102
RTVSPropertyOp36
 70
     1
102
RTVSPropertyOp37
 70
     1
102
RTVSPropertyOp38
 70
     1
102
RTVSPropertyOp39
 70
     1
102
RTVSPropertyOp40
 70
     1
102
RTVSPropertyOp41
 70
     1
102
RTVSPropertyOp42
 70
     1
102
RTVSPropertyOp43
 70
     1
102
RTVSPropertyOp44
 70
     1
102
RTVSPropertyOp45
 70
     1
102
RTVSPropertyOp46
 70
     1
102
RTVSPropertyOp47
 70
     1
102
RTVSPropertyOp48
 70
     1
102
RTVSPropertyOp49
 70
     1
102
RTVSPropertyOp50
 70
     1
102
RTVSPropertyOp51
 70
     0
102
RTVSPropertyOp52
 70
     0
102
RTVSPropertyOp53
 70
     1
102
RTVSPropertyOp54
 70
     1
102
RTVSPropertyOp55
 70
     1
102
RTVSPropertyOp56
 70
     1
102
RTVSPropertyOp57
 70
     1
102
RTVSPost2010Prop28
280
     0
102
RTVSPost2010PropOp28
 70
     1
102
RTVSPost2010Prop29
280
     1
102
RTVSPost2010PropOp29
 70
     1
102
RTVSPost2010Prop30
280
     1
102
RTVSPost2010PropOp30
 70
     1
102
RTVSPost2010Prop31
280
     0
102
RTVSPost2010PropOp31
 70
     1
102
RTVSPost2010Prop32
280
     0
102
RTVSPost2010PropOp32
 70
     1
102
RTVSPost2010Prop33
280
     0
102
RTVSPost2010PropOp33
 70
     1
102
RTVSPost2010Prop34
280
     0
102
RTVSPost2010PropOp34
 70
     1
102
RTVSPost2010Prop35
280
     0
102
RTVSPost2010PropOp35
 70
     1
102
RTVSPost2010Prop36
280
     0
102
RTVSPost2010PropOp36
 70
     1
102
RTVSPost2010Prop37
 90
       50
102
RTVSPost2010PropOp37
 70
     1
102
RTVSPost2010Prop38
140
0.0
102
RTVSPost2010PropOp38
 70
     1
102
RTVSPost2010Prop39
140
1.0
102
RTVSPost2010PropOp39
 70
     1
102
RTVSPost2010Prop40
 90
        0
102
RTVSPost2010PropOp40
 70
     1
102
RTVSPost2010Prop41ColorIndex
 90
       18
102
RTVSPost2010Prop41ColorRGB
 90
        0
102
RTVSPost2010PropOp41
 70
     1
102
RTVSPost2010Prop42
 90
       50
102
RTVSPost2010PropOp42
 70
     1
102
RTVSPost2010Prop43
 90
        3
102
RTVSPost2010PropOp43
 70
     1
102
RTVSPost2010Prop44ColorIndex
 90
        5
102
RTVSPost2010Prop44ColorRGB
 90
      255
102
RTVSPost2010PropOp44
 70
     1
102
RTVSPost2010Prop45
280
     0
102
RTVSPost2010PropOp45
 70
     1
102
RTVSPost2010Prop46
 90
       50
102
RTVSPost2010PropOp46
 70
     1
102
RTVSPost2010Prop47
 90
       50
102
RTVSPost2010PropOp47
 70
     1
102
RTVSPost2010Prop48
 90
       50
102
RTVSPost2010PropOp48
 70
     1
102
RTVSPost2010Prop49
280
     0
102
RTVSPost2010PropOp49
 70
     1
102
RTVSPost2010Prop50
 90
       50
102
RTVSPost2010PropOp50
 70
     1
102
RTVSPost2010Prop51ColorIndex
 90
      256
102
RTVSPost2010Prop51ColorRGB
 90
-16777216
102
RTVSPost2010PropOp51
 70
     0
102
RTVSPost2010Prop52
140
1.0
102
RTVSPost2010PropOp52
 70
     0
102
RTVSPost2010Prop53
 90
        2
102
RTVSPost2010PropOp53
 70
     1
102
RTVSPost2010Prop54
  1
strokes_ogs.tif
102
RTVSPost2010PropOp54
 70
     1
102
RTVSPost2010Prop55
280
     0
102
RTVSPost2010PropOp55
 70
     1
102
RTVSPost2010Prop56
140
1.0
102
RTVSPost2010PropOp56
 70
     1
102
RTVSPost2010Prop57
140
1.0
102
RTVSPost2010PropOp57
 70
     1
  0
XRECORD
  5
269
102
{ACAD_REACTORS
330
268
102
}
330
268
100
AcDbXrecord
280
     1
102
RTVSPropertyOp0
 70
     1
102
RTVSPropertyOp1
 70
     1
102
RTVSPropertyOp2
 70
     1
102
RTVSPropertyOp3
 70
     1
102
RTVSPropertyOp4
 70
     1
102
RTVSPropertyOp5
 70
     1
102
RTVSPropertyOp6
 70
     1
102
RTVSPropertyOp7
 70
     1
102
RTVSPropertyOp8
 70
     1
102
RTVSPropertyOp9
 70
     1
102
RTVSPropertyOp10
 70
     1
102
RTVSPropertyOp11
 70
     1
102
RTVSPropertyOp12
 70
     1
102
RTVSPropertyOp13
 70
     1
102
RTVSPropertyOp14
 70
     1
102
RTVSPropertyOp15
 70
     1
102
RTVSPropertyOp16
 70
     1
102
RTVSPropertyOp17
 70
     1
102
RTVSPropertyOp18
 70
     1
102
RTVSPropertyOp19
 70
     1
102
RTVSPropertyOp20
 70
     1
102
RTVSPropertyOp21
 70
     1
102
RTVSPropertyOp22
 70
     1
102
RTVSPropertyOp23
 70
     1
102
RTVSPropertyOp24
 70
     1
102
RTVSPropertyOp25
 70
     1
102
RTVSPropertyOp26
 70
     1
102
RTVSPropertyOp27
 70
     1
102
RTVSPropertyOp28
 70
     1
102
RTVSPropertyOp29
 70
     1
102
RTVSPropertyOp30
 70
     1
102
RTVSPropertyOp31
 70
     1
102
RTVSPropertyOp32
 70
     1
102
RTVSPropertyOp33
 70
     1
102
RTVSPropertyOp34
 70
     1
102
RTVSPropertyOp35
 70
     1
102
RTVSPropertyOp36
 70
     1
102
RTVSPropertyOp37
 70
     1
102
RTVSPropertyOp38
 70
     1
102
RTVSPropertyOp39
 70
     1
102
RTVSPropertyOp40
 70
     1
102
RTVSPropertyOp41
 70
     1
102
RTVSPropertyOp42
 70
     1
102
RTVSPropertyOp43
 70
     1
102
RTVSPropertyOp44
 70
     1
102
RTVSPropertyOp45
 70
     1
102
RTVSPropertyOp46
 70
     1
102
RTVSPropertyOp47
 70
     1
102
RTVSPropertyOp48
 70
     1
102
RTVSPropertyOp49
 70
     1
102
RTVSPropertyOp50
 70
     1
102
RTVSPropertyOp51
 70
     0
102
RTVSPropertyOp52
 70
     0
102
RTVSPropertyOp53
 70
     1
102
RTVSPropertyOp54
 70
     1
102
RTVSPropertyOp55
 70
     1
102
RTVSPropertyOp56
 70
     1
102
RTVSPropertyOp57
 70
     1
102
RTVSPost2010Prop28
280
     0
102
RTVSPost2010PropOp28
 70
     1
102
RTVSPost2010Prop29
280
     1
102
RTVSPost2010PropOp29
 70
     1
102
RTVSPost2010Prop30
280
     1
102
RTVSPost2010PropOp30
 70
     1
102
RTVSPost2010Prop31
280
     0
102
RTVSPost2010PropOp31
 70
     1
102
RTVSPost2010Prop32
280
     0
102
RTVSPost2010PropOp32
 70
     1
102
RTVSPost2010Prop33
280
     0
102
RTVSPost2010PropOp33
 70
     1
102
RTVSPost2010Prop34
280
     0
102
RTVSPost2010PropOp34
 70
     1
102
RTVSPost2010Prop35
280
     0
102
RTVSPost2010PropOp35
 70
     1
102
RTVSPost2010Prop36
280
     0
102
RTVSPost2010PropOp36
 70
     1
102
RTVSPost2010Prop37
 90
       50
102
RTVSPost2010PropOp37
 70
     1
102
RTVSPost2010Prop38
140
0.0
102
RTVSPost2010PropOp38
 70
     1
102
RTVSPost2010Prop39
140
1.0
102
RTVSPost2010PropOp39
 70
     1
102
RTVSPost2010Prop40
 90
        0
102
RTVSPost2010PropOp40
 70
     1
102
RTVSPost2010Prop41ColorIndex
 90
       18
102
RTVSPost2010Prop41ColorRGB
 90
        0
102
RTVSPost2010PropOp41
 70
     1
102
RTVSPost2010Prop42
 90
       50
102
RTVSPost2010PropOp42
 70
     1
102
RTVSPost2010Prop43
 90
        3
102
RTVSPost2010PropOp43
 70
     1
102
RTVSPost2010Prop44ColorIndex
 90
        5
102
RTVSPost2010Prop44ColorRGB
 90
      255
102
RTVSPost2010PropOp44
 70
     1
102
RTVSPost2010Prop45
280
     0
102
RTVSPost2010PropOp45
 70
     1
102
RTVSPost2010Prop46
 90
       50
102
RTVSPost2010PropOp46
 70
     1
102
RTVSPost2010Prop47
 90
       50
102
RTVSPost2010PropOp47
 70
     1
102
RTVSPost2010Prop48
 90
       50
102
RTVSPost2010PropOp48
 70
     1
102
RTVSPost2010Prop49
280
     0
102
RTVSPost2010PropOp49
 70
     1
102
RTVSPost2010Prop50
 90
       50
102
RTVSPost2010PropOp50
 70
     1
102
RTVSPost2010Prop51ColorIndex
 90
      256
102
RTVSPost2010Prop51ColorRGB
 90
-16777216
102
RTVSPost2010PropOp51
 70
     0
102
RTVSPost2010Prop52
140
1.0
102
RTVSPost2010PropOp52
 70
     0
102
RTVSPost2010Prop53
 90
        2
102
RTVSPost2010PropOp53
 70
     1
102
RTVSPost2010Prop54
  1
strokes_ogs.tif
102
RTVSPost2010PropOp54
 70
     1
102
RTVSPost2010Prop55
280
     0
102
RTVSPost2010PropOp55
 70
     1
102
RTVSPost2010Prop56
140
1.0
102
RTVSPost2010PropOp56
 70
     1
102
RTVSPost2010Prop57
140
1.0
102
RTVSPost2010PropOp57
 70
     1
  0
XRECORD
  5
27D
102
{ACAD_REACTORS
330
27C
102
}
330
27C
100
AcDbXrecord
280
     1
102
RTVSPropertyOp0
 70
     0
102
RTVSPropertyOp1
 70
     0
102
RTVSPropertyOp2
 70
     0
102
RTVSPropertyOp3
 70
     0
102
RTVSPropertyOp4
 70
     0
102
RTVSPropertyOp5
 70
     0
102
RTVSPropertyOp6
 70
     0
102
RTVSPropertyOp7
 70
     0
102
RTVSPropertyOp8
 70
     0
102
RTVSPropertyOp9
 70
     0
102
RTVSPropertyOp10
 70
     0
102
RTVSPropertyOp11
 70
     0
102
RTVSPropertyOp12
 70
     0
102
RTVSPropertyOp13
 70
     0
102
RTVSPropertyOp14
 70
     2
102
RTVSPropertyOp15
 70
     0
102
RTVSPropertyOp16
 70
     0
102
RTVSPropertyOp17
 70
     0
102
RTVSPropertyOp18
 70
     0
102
RTVSPropertyOp19
 70
     0
102
RTVSPropertyOp20
 70
     0
102
RTVSPropertyOp21
 70
     0
102
RTVSPropertyOp22
 70
     0
102
RTVSPropertyOp23
 70
     0
102
RTVSPropertyOp24
 70
     0
102
RTVSPropertyOp25
 70
     0
102
RTVSPropertyOp26
 70
     0
102
RTVSPropertyOp27
 70
     0
102
RTVSPropertyOp28
 70
     0
102
RTVSPropertyOp29
 70
     0
102
RTVSPropertyOp30
 70
     0
102
RTVSPropertyOp31
 70
     0
102
RTVSPropertyOp32
 70
     0
102
RTVSPropertyOp33
 70
     0
102
RTVSPropertyOp34
 70
     0
102
RTVSPropertyOp35
 70
     0
102
RTVSPropertyOp36
 70
     0
102
RTVSPropertyOp37
 70
     0
102
RTVSPropertyOp38
 70
     0
102
RTVSPropertyOp39
 70
     0
102
RTVSPropertyOp40
 70
     0
102
RTVSPropertyOp41
 70
     0
102
RTVSPropertyOp42
 70
     0
102
RTVSPropertyOp43
 70
     0
102
RTVSPropertyOp44
 70
     0
102
RTVSPropertyOp45
 70
     0
102
RTVSPropertyOp46
 70
     0
102
RTVSPropertyOp47
 70
     0
102
RTVSPropertyOp48
 70
     0
102
RTVSPropertyOp49
 70
     0
102
RTVSPropertyOp50
 70
     0
102
RTVSPropertyOp51
 70
     0
102
RTVSPropertyOp52
 70
     0
102
RTVSPropertyOp53
 70
     0
102
RTVSPropertyOp54
 70
     0
102
RTVSPropertyOp55
 70
     0
102
RTVSPropertyOp56
 70
     0
102
RTVSPropertyOp57
 70
     0
102
RTVSPost2010Prop28
280
     0
102
RTVSPost2010PropOp28
 70
     0
102
RTVSPost2010Prop29
280
     1
102
RTVSPost2010PropOp29
 70
     0
102
RTVSPost2010Prop30
280
     1
102
RTVSPost2010PropOp30
 70
     0
102
RTVSPost2010Prop31
280
     0
102
RTVSPost2010PropOp31
 70
     0
102
RTVSPost2010Prop32
280
     0
102
RTVSPost2010PropOp32
 70
     0
102
RTVSPost2010Prop33
280
     0
102
RTVSPost2010PropOp33
 70
     0
102
RTVSPost2010Prop34
280
     0
102
RTVSPost2010PropOp34
 70
     0
102
RTVSPost2010Prop35
280
     0
102
RTVSPost2010PropOp35
 70
     0
102
RTVSPost2010Prop36
280
     0
102
RTVSPost2010PropOp36
 70
     0
102
RTVSPost2010Prop37
 90
       50
102
RTVSPost2010PropOp37
 70
     0
102
RTVSPost2010Prop38
140
0.0
102
RTVSPost2010PropOp38
 70
     0
102
RTVSPost2010Prop39
140
1.0
102
RTVSPost2010PropOp39
 70
     0
102
RTVSPost2010Prop40
 90
        0
102
RTVSPost2010PropOp40
 70
     0
102
RTVSPost2010Prop41ColorIndex
 90
       18
102
RTVSPost2010Prop41ColorRGB
 90
        0
102
RTVSPost2010PropOp41
 70
     0
102
RTVSPost2010Prop42
 90
       50
102
RTVSPost2010PropOp42
 70
     0
102
RTVSPost2010Prop43
 90
        3
102
RTVSPost2010PropOp43
 70
     0
102
RTVSPost2010Prop44ColorIndex
 90
        5
102
RTVSPost2010Prop44ColorRGB
 90
      255
102
RTVSPost2010PropOp44
 70
     0
102
RTVSPost2010Prop45
280
     0
102
RTVSPost2010PropOp45
 70
     0
102
RTVSPost2010Prop46
 90
       50
102
RTVSPost2010PropOp46
 70
     0
102
RTVSPost2010Prop47
 90
       50
102
RTVSPost2010PropOp47
 70
     0
102
RTVSPost2010Prop48
 90
       50
102
RTVSPost2010PropOp48
 70
     0
102
RTVSPost2010Prop49
280
     0
102
RTVSPost2010PropOp49
 70
     0
102
RTVSPost2010Prop50
 90
       50
102
RTVSPost2010PropOp50
 70
     0
102
RTVSPost2010Prop51ColorIndex
 90
      256
102
RTVSPost2010Prop51ColorRGB
 90
-16777216
102
RTVSPost2010PropOp51
 70
     0
102
RTVSPost2010Prop52
140
1.0
102
RTVSPost2010PropOp52
 70
     0
102
RTVSPost2010Prop53
 90
        2
102
RTVSPost2010PropOp53
 70
     0
102
RTVSPost2010Prop54
  1
strokes_ogs.tif
102
RTVSPost2010PropOp54
 70
     0
102
RTVSPost2010Prop55
280
     0
102
RTVSPost2010PropOp55
 70
     0
102
RTVSPost2010Prop56
140
1.0
102
RTVSPost2010PropOp56
 70
     0
102
RTVSPost2010Prop57
140
1.0
102
RTVSPost2010PropOp57
 70
     0
  0
XRECORD
  5
277
102
{ACAD_REACTORS
330
276
102
}
330
276
100
AcDbXrecord
280
     1
102
RTVSPropertyOp0
 70
     1
102
RTVSPropertyOp1
 70
     1
102
RTVSPropertyOp2
 70
     1
102
RTVSPropertyOp3
 70
     1
102
RTVSPropertyOp4
 70
     1
102
RTVSPropertyOp5
 70
     1
102
RTVSPropertyOp6
 70
     1
102
RTVSPropertyOp7
 70
     1
102
RTVSPropertyOp8
 70
     1
102
RTVSPropertyOp9
 70
     1
102
RTVSPropertyOp10
 70
     1
102
RTVSPropertyOp11
 70
     1
102
RTVSPropertyOp12
 70
     1
102
RTVSPropertyOp13
 70
     1
102
RTVSPropertyOp14
 70
     1
102
RTVSPropertyOp15
 70
     1
102
RTVSPropertyOp16
 70
     1
102
RTVSPropertyOp17
 70
     1
102
RTVSPropertyOp18
 70
     1
102
RTVSPropertyOp19
 70
     1
102
RTVSPropertyOp20
 70
     1
102
RTVSPropertyOp21
 70
     1
102
RTVSPropertyOp22
 70
     1
102
RTVSPropertyOp23
 70
     1
102
RTVSPropertyOp24
 70
     1
102
RTVSPropertyOp25
 70
     1
102
RTVSPropertyOp26
 70
     1
102
RTVSPropertyOp27
 70
     1
102
RTVSPropertyOp28
 70
     1
102
RTVSPropertyOp29
 70
     1
102
RTVSPropertyOp30
 70
     1
102
RTVSPropertyOp31
 70
     1
102
RTVSPropertyOp32
 70
     1
102
RTVSPropertyOp33
 70
     1
102
RTVSPropertyOp34
 70
     1
102
RTVSPropertyOp35
 70
     1
102
RTVSPropertyOp36
 70
     1
102
RTVSPropertyOp37
 70
     1
102
RTVSPropertyOp38
 70
     1
102
RTVSPropertyOp39
 70
     1
102
RTVSPropertyOp40
 70
     1
102
RTVSPropertyOp41
 70
     1
102
RTVSPropertyOp42
 70
     1
102
RTVSPropertyOp43
 70
     1
102
RTVSPropertyOp44
 70
     1
102
RTVSPropertyOp45
 70
     1
102
RTVSPropertyOp46
 70
     1
102
RTVSPropertyOp47
 70
     1
102
RTVSPropertyOp48
 70
     1
102
RTVSPropertyOp49
 70
     1
102
RTVSPropertyOp50
 70
     1
102
RTVSPropertyOp51
 70
     0
102
RTVSPropertyOp52
 70
     0
102
RTVSPropertyOp53
 70
     1
102
RTVSPropertyOp54
 70
     1
102
RTVSPropertyOp55
 70
     1
102
RTVSPropertyOp56
 70
     1
102
RTVSPropertyOp57
 70
     1
102
RTVSPost2010Prop28
280
     0
102
RTVSPost2010PropOp28
 70
     1
102
RTVSPost2010Prop29
280
     1
102
RTVSPost2010PropOp29
 70
     1
102
RTVSPost2010Prop30
280
     1
102
RTVSPost2010PropOp30
 70
     1
102
RTVSPost2010Prop31
280
     0
102
RTVSPost2010PropOp31
 70
     1
102
RTVSPost2010Prop32
280
     0
102
RTVSPost2010PropOp32
 70
     1
102
RTVSPost2010Prop33
280
     0
102
RTVSPost2010PropOp33
 70
     1
102
RTVSPost2010Prop34
280
     0
102
RTVSPost2010PropOp34
 70
     1
102
RTVSPost2010Prop35
280
     0
102
RTVSPost2010PropOp35
 70
     1
102
RTVSPost2010Prop36
280
     0
102
RTVSPost2010PropOp36
 70
     1
102
RTVSPost2010Prop37
 90
       50
102
RTVSPost2010PropOp37
 70
     1
102
RTVSPost2010Prop38
140
0.0
102
RTVSPost2010PropOp38
 70
     1
102
RTVSPost2010Prop39
140
1.0
102
RTVSPost2010PropOp39
 70
     1
102
RTVSPost2010Prop40
 90
        0
102
RTVSPost2010PropOp40
 70
     1
102
RTVSPost2010Prop41ColorIndex
 90
       18
102
RTVSPost2010Prop41ColorRGB
 90
        0
102
RTVSPost2010PropOp41
 70
     1
102
RTVSPost2010Prop42
 90
       50
102
RTVSPost2010PropOp42
 70
     1
102
RTVSPost2010Prop43
 90
        3
102
RTVSPost2010PropOp43
 70
     1
102
RTVSPost2010Prop44ColorIndex
 90
        5
102
RTVSPost2010Prop44ColorRGB
 90
      255
102
RTVSPost2010PropOp44
 70
     1
102
RTVSPost2010Prop45
280
     0
102
RTVSPost2010PropOp45
 70
     1
102
RTVSPost2010Prop46
 90
       50
102
RTVSPost2010PropOp46
 70
     1
102
RTVSPost2010Prop47
 90
       50
102
RTVSPost2010PropOp47
 70
     1
102
RTVSPost2010Prop48
 90
       50
102
RTVSPost2010PropOp48
 70
     1
102
RTVSPost2010Prop49
280
     0
102
RTVSPost2010PropOp49
 70
     1
102
RTVSPost2010Prop50
 90
       50
102
RTVSPost2010PropOp50
 70
     1
102
RTVSPost2010Prop51ColorIndex
 90
      256
102
RTVSPost2010Prop51ColorRGB
 90
-16777216
102
RTVSPost2010PropOp51
 70
     0
102
RTVSPost2010Prop52
140
1.0
102
RTVSPost2010PropOp52
 70
     0
102
RTVSPost2010Prop53
 90
        2
102
RTVSPost2010PropOp53
 70
     1
102
RTVSPost2010Prop54
  1
strokes_ogs.tif
102
RTVSPost2010PropOp54
 70
     1
102
RTVSPost2010Prop55
280
     0
102
RTVSPost2010PropOp55
 70
     1
102
RTVSPost2010Prop56
140
1.0
102
RTVSPost2010PropOp56
 70
     1
102
RTVSPost2010Prop57
140
1.0
102
RTVSPost2010PropOp57
 70
     1
  0
XRECORD
  5
27F
102
{ACAD_REACTORS
330
27E
102
}
330
27E
100
AcDbXrecord
280
     1
102
RTVSPropertyOp0
 70
     0
102
RTVSPropertyOp1
 70
     0
102
RTVSPropertyOp2
 70
     0
102
RTVSPropertyOp3
 70
     0
102
RTVSPropertyOp4
 70
     0
102
RTVSPropertyOp5
 70
     0
102
RTVSPropertyOp6
 70
     0
102
RTVSPropertyOp7
 70
     0
102
RTVSPropertyOp8
 70
     0
102
RTVSPropertyOp9
 70
     0
102
RTVSPropertyOp10
 70
     0
102
RTVSPropertyOp11
 70
     0
102
RTVSPropertyOp12
 70
     0
102
RTVSPropertyOp13
 70
     0
102
RTVSPropertyOp14
 70
     2
102
RTVSPropertyOp15
 70
     0
102
RTVSPropertyOp16
 70
     0
102
RTVSPropertyOp17
 70
     0
102
RTVSPropertyOp18
 70
     0
102
RTVSPropertyOp19
 70
     0
102
RTVSPropertyOp20
 70
     0
102
RTVSPropertyOp21
 70
     0
102
RTVSPropertyOp22
 70
     0
102
RTVSPropertyOp23
 70
     0
102
RTVSPropertyOp24
 70
     0
102
RTVSPropertyOp25
 70
     0
102
RTVSPropertyOp26
 70
     0
102
RTVSPropertyOp27
 70
     0
102
RTVSPropertyOp28
 70
     0
102
RTVSPropertyOp29
 70
     0
102
RTVSPropertyOp30
 70
     0
102
RTVSPropertyOp31
 70
     0
102
RTVSPropertyOp32
 70
     0
102
RTVSPropertyOp33
 70
     0
102
RTVSPropertyOp34
 70
     0
102
RTVSPropertyOp35
 70
     0
102
RTVSPropertyOp36
 70
     0
102
RTVSPropertyOp37
 70
     0
102
RTVSPropertyOp38
 70
     0
102
RTVSPropertyOp39
 70
     0
102
RTVSPropertyOp40
 70
     0
102
RTVSPropertyOp41
 70
     0
102
RTVSPropertyOp42
 70
     0
102
RTVSPropertyOp43
 70
     0
102
RTVSPropertyOp44
 70
     0
102
RTVSPropertyOp45
 70
     0
102
RTVSPropertyOp46
 70
     0
102
RTVSPropertyOp47
 70
     0
102
RTVSPropertyOp48
 70
     0
102
RTVSPropertyOp49
 70
     0
102
RTVSPropertyOp50
 70
     0
102
RTVSPropertyOp51
 70
     0
102
RTVSPropertyOp52
 70
     0
102
RTVSPropertyOp53
 70
     0
102
RTVSPropertyOp54
 70
     0
102
RTVSPropertyOp55
 70
     0
102
RTVSPropertyOp56
 70
     0
102
RTVSPropertyOp57
 70
     0
102
RTVSPost2010Prop28
280
     0
102
RTVSPost2010PropOp28
 70
     0
102
RTVSPost2010Prop29
280
     1
102
RTVSPost2010PropOp29
 70
     0
102
RTVSPost2010Prop30
280
     1
102
RTVSPost2010PropOp30
 70
     0
102
RTVSPost2010Prop31
280
     0
102
RTVSPost2010PropOp31
 70
     0
102
RTVSPost2010Prop32
280
     0
102
RTVSPost2010PropOp32
 70
     0
102
RTVSPost2010Prop33
280
     0
102
RTVSPost2010PropOp33
 70
     0
102
RTVSPost2010Prop34
280
     0
102
RTVSPost2010PropOp34
 70
     0
102
RTVSPost2010Prop35
280
     0
102
RTVSPost2010PropOp35
 70
     0
102
RTVSPost2010Prop36
280
     0
102
RTVSPost2010PropOp36
 70
     0
102
RTVSPost2010Prop37
 90
       50
102
RTVSPost2010PropOp37
 70
     0
102
RTVSPost2010Prop38
140
0.0
102
RTVSPost2010PropOp38
 70
     0
102
RTVSPost2010Prop39
140
1.0
102
RTVSPost2010PropOp39
 70
     0
102
RTVSPost2010Prop40
 90
        0
102
RTVSPost2010PropOp40
 70
     0
102
RTVSPost2010Prop41ColorIndex
 90
       18
102
RTVSPost2010Prop41ColorRGB
 90
        0
102
RTVSPost2010PropOp41
 70
     0
102
RTVSPost2010Prop42
 90
       50
102
RTVSPost2010PropOp42
 70
     0
102
RTVSPost2010Prop43
 90
        3
102
RTVSPost2010PropOp43
 70
     0
102
RTVSPost2010Prop44ColorIndex
 90
        5
102
RTVSPost2010Prop44ColorRGB
 90
      255
102
RTVSPost2010PropOp44
 70
     0
102
RTVSPost2010Prop45
280
     0
102
RTVSPost2010PropOp45
 70
     0
102
RTVSPost2010Prop46
 90
       50
102
RTVSPost2010PropOp46
 70
     0
102
RTVSPost2010Prop47
 90
       50
102
RTVSPost2010PropOp47
 70
     0
102
RTVSPost2010Prop48
 90
       50
102
RTVSPost2010PropOp48
 70
     0
102
RTVSPost2010Prop49
280
     0
102
RTVSPost2010PropOp49
 70
     0
102
RTVSPost2010Prop50
 90
       50
102
RTVSPost2010PropOp50
 70
     0
102
RTVSPost2010Prop51ColorIndex
 90
      256
102
RTVSPost2010Prop51ColorRGB
 90
-16777216
102
RTVSPost2010PropOp51
 70
     0
102
RTVSPost2010Prop52
140
1.0
102
RTVSPost2010PropOp52
 70
     0
102
RTVSPost2010Prop53
 90
        2
102
RTVSPost2010PropOp53
 70
     0
102
RTVSPost2010Prop54
  1
strokes_ogs.tif
102
RTVSPost2010PropOp54
 70
     0
102
RTVSPost2010Prop55
280
     0
102
RTVSPost2010PropOp55
 70
     0
102
RTVSPost2010Prop56
140
1.0
102
RTVSPost2010PropOp56
 70
     0
102
RTVSPost2010Prop57
140
1.0
102
RTVSPost2010PropOp57
 70
     0
  0
XRECORD
  5
26D
102
{ACAD_REACTORS
330
26C
102
}
330
26C
100
AcDbXrecord
280
     1
102
RTVSPropertyOp0
 70
     1
102
RTVSPropertyOp1
 70
     1
102
RTVSPropertyOp2
 70
     1
102
RTVSPropertyOp3
 70
     1
102
RTVSPropertyOp4
 70
     1
102
RTVSPropertyOp5
 70
     1
102
RTVSPropertyOp6
 70
     1
102
RTVSPropertyOp7
 70
     1
102
RTVSPropertyOp8
 70
     1
102
RTVSPropertyOp9
 70
     1
102
RTVSPropertyOp10
 70
     1
102
RTVSPropertyOp11
 70
     1
102
RTVSPropertyOp12
 70
     1
102
RTVSPropertyOp13
 70
     1
102
RTVSPropertyOp14
 70
     1
102
RTVSPropertyOp15
 70
     1
102
RTVSPropertyOp16
 70
     1
102
RTVSPropertyOp17
 70
     1
102
RTVSPropertyOp18
 70
     1
102
RTVSPropertyOp19
 70
     1
102
RTVSPropertyOp20
 70
     1
102
RTVSPropertyOp21
 70
     1
102
RTVSPropertyOp22
 70
     1
102
RTVSPropertyOp23
 70
     1
102
RTVSPropertyOp24
 70
     1
102
RTVSPropertyOp25
 70
     1
102
RTVSPropertyOp26
 70
     1
102
RTVSPropertyOp27
 70
     1
102
RTVSPropertyOp28
 70
     1
102
RTVSPropertyOp29
 70
     1
102
RTVSPropertyOp30
 70
     1
102
RTVSPropertyOp31
 70
     1
102
RTVSPropertyOp32
 70
     1
102
RTVSPropertyOp33
 70
     1
102
RTVSPropertyOp34
 70
     1
102
RTVSPropertyOp35
 70
     1
102
RTVSPropertyOp36
 70
     1
102
RTVSPropertyOp37
 70
     1
102
RTVSPropertyOp38
 70
     1
102
RTVSPropertyOp39
 70
     1
102
RTVSPropertyOp40
 70
     1
102
RTVSPropertyOp41
 70
     1
102
RTVSPropertyOp42
 70
     1
102
RTVSPropertyOp43
 70
     1
102
RTVSPropertyOp44
 70
     1
102
RTVSPropertyOp45
 70
     1
102
RTVSPropertyOp46
 70
     1
102
RTVSPropertyOp47
 70
     1
102
RTVSPropertyOp48
 70
     1
102
RTVSPropertyOp49
 70
     1
102
RTVSPropertyOp50
 70
     1
102
RTVSPropertyOp51
 70
     0
102
RTVSPropertyOp52
 70
     0
102
RTVSPropertyOp53
 70
     1
102
RTVSPropertyOp54
 70
     1
102
RTVSPropertyOp55
 70
     1
102
RTVSPropertyOp56
 70
     1
102
RTVSPropertyOp57
 70
     1
102
RTVSPost2010Prop28
280
     0
102
RTVSPost2010PropOp28
 70
     1
102
RTVSPost2010Prop29
280
     1
102
RTVSPost2010PropOp29
 70
     1
102
RTVSPost2010Prop30
280
     1
102
RTVSPost2010PropOp30
 70
     1
102
RTVSPost2010Prop31
280
     0
102
RTVSPost2010PropOp31
 70
     1
102
RTVSPost2010Prop32
280
     0
102
RTVSPost2010PropOp32
 70
     1
102
RTVSPost2010Prop33
280
     0
102
RTVSPost2010PropOp33
 70
     1
102
RTVSPost2010Prop34
280
     0
102
RTVSPost2010PropOp34
 70
     1
102
RTVSPost2010Prop35
280
     0
102
RTVSPost2010PropOp35
 70
     1
102
RTVSPost2010Prop36
280
     0
102
RTVSPost2010PropOp36
 70
     1
102
RTVSPost2010Prop37
 90
       50
102
RTVSPost2010PropOp37
 70
     1
102
RTVSPost2010Prop38
140
0.0
102
RTVSPost2010PropOp38
 70
     1
102
RTVSPost2010Prop39
140
1.0
102
RTVSPost2010PropOp39
 70
     1
102
RTVSPost2010Prop40
 90
        0
102
RTVSPost2010PropOp40
 70
     1
102
RTVSPost2010Prop41ColorIndex
 90
       18
102
RTVSPost2010Prop41ColorRGB
 90
        0
102
RTVSPost2010PropOp41
 70
     1
102
RTVSPost2010Prop42
 90
       50
102
RTVSPost2010PropOp42
 70
     1
102
RTVSPost2010Prop43
 90
        3
102
RTVSPost2010PropOp43
 70
     1
102
RTVSPost2010Prop44ColorIndex
 90
        5
102
RTVSPost2010Prop44ColorRGB
 90
      255
102
RTVSPost2010PropOp44
 70
     1
102
RTVSPost2010Prop45
280
     0
102
RTVSPost2010PropOp45
 70
     1
102
RTVSPost2010Prop46
 90
       50
102
RTVSPost2010PropOp46
 70
     1
102
RTVSPost2010Prop47
 90
       50
102
RTVSPost2010PropOp47
 70
     1
102
RTVSPost2010Prop48
 90
       50
102
RTVSPost2010PropOp48
 70
     1
102
RTVSPost2010Prop49
280
     0
102
RTVSPost2010PropOp49
 70
     1
102
RTVSPost2010Prop50
 90
       50
102
RTVSPost2010PropOp50
 70
     1
102
RTVSPost2010Prop51ColorIndex
 90
      256
102
RTVSPost2010Prop51ColorRGB
 90
-16777216
102
RTVSPost2010PropOp51
 70
     0
102
RTVSPost2010Prop52
140
1.0
102
RTVSPost2010PropOp52
 70
     0
102
RTVSPost2010Prop53
 90
        2
102
RTVSPost2010PropOp53
 70
     1
102
RTVSPost2010Prop54
  1
strokes_ogs.tif
102
RTVSPost2010PropOp54
 70
     1
102
RTVSPost2010Prop55
280
     0
102
RTVSPost2010PropOp55
 70
     1
102
RTVSPost2010Prop56
140
1.0
102
RTVSPost2010PropOp56
 70
     1
102
RTVSPost2010Prop57
140
1.0
102
RTVSPost2010PropOp57
 70
     1
  0
XRECORD
  5
28B
102
{ACAD_REACTORS
330
28A
102
}
330
28A
100
AcDbXrecord
280
     1
102
RTVSPropertyOp0
 70
     1
102
RTVSPropertyOp1
 70
     1
102
RTVSPropertyOp2
 70
     1
102
RTVSPropertyOp3
 70
     1
102
RTVSPropertyOp4
 70
     1
102
RTVSPropertyOp5
 70
     1
102
RTVSPropertyOp6
 70
     1
102
RTVSPropertyOp7
 70
     1
102
RTVSPropertyOp8
 70
     1
102
RTVSPropertyOp9
 70
     1
102
RTVSPropertyOp10
 70
     1
102
RTVSPropertyOp11
 70
     1
102
RTVSPropertyOp12
 70
     1
102
RTVSPropertyOp13
 70
     1
102
RTVSPropertyOp14
 70
     1
102
RTVSPropertyOp15
 70
     1
102
RTVSPropertyOp16
 70
     1
102
RTVSPropertyOp17
 70
     1
102
RTVSPropertyOp18
 70
     1
102
RTVSPropertyOp19
 70
     1
102
RTVSPropertyOp20
 70
     1
102
RTVSPropertyOp21
 70
     1
102
RTVSPropertyOp22
 70
     1
102
RTVSPropertyOp23
 70
     1
102
RTVSPropertyOp24
 70
     1
102
RTVSPropertyOp25
 70
     1
102
RTVSPropertyOp26
 70
     1
102
RTVSPropertyOp27
 70
     1
102
RTVSPropertyOp28
 70
     1
102
RTVSPropertyOp29
 70
     1
102
RTVSPropertyOp30
 70
     1
102
RTVSPropertyOp31
 70
     1
102
RTVSPropertyOp32
 70
     1
102
RTVSPropertyOp33
 70
     1
102
RTVSPropertyOp34
 70
     1
102
RTVSPropertyOp35
 70
     1
102
RTVSPropertyOp36
 70
     1
102
RTVSPropertyOp37
 70
     1
102
RTVSPropertyOp38
 70
     1
102
RTVSPropertyOp39
 70
     1
102
RTVSPropertyOp40
 70
     1
102
RTVSPropertyOp41
 70
     1
102
RTVSPropertyOp42
 70
     1
102
RTVSPropertyOp43
 70
     1
102
RTVSPropertyOp44
 70
     1
102
RTVSPropertyOp45
 70
     1
102
RTVSPropertyOp46
 70
     1
102
RTVSPropertyOp47
 70
     1
102
RTVSPropertyOp48
 70
     1
102
RTVSPropertyOp49
 70
     1
102
RTVSPropertyOp50
 70
     1
102
RTVSPropertyOp51
 70
     0
102
RTVSPropertyOp52
 70
     0
102
RTVSPropertyOp53
 70
     1
102
RTVSPropertyOp54
 70
     1
102
RTVSPropertyOp55
 70
     1
102
RTVSPropertyOp56
 70
     1
102
RTVSPropertyOp57
 70
     1
102
RTVSPost2010Prop28
280
     0
102
RTVSPost2010PropOp28
 70
     1
102
RTVSPost2010Prop29
280
     1
102
RTVSPost2010PropOp29
 70
     1
102
RTVSPost2010Prop30
280
     1
102
RTVSPost2010PropOp30
 70
     1
102
RTVSPost2010Prop31
280
     0
102
RTVSPost2010PropOp31
 70
     1
102
RTVSPost2010Prop32
280
     0
102
RTVSPost2010PropOp32
 70
     1
102
RTVSPost2010Prop33
280
     0
102
RTVSPost2010PropOp33
 70
     1
102
RTVSPost2010Prop34
280
     0
102
RTVSPost2010PropOp34
 70
     1
102
RTVSPost2010Prop35
280
     0
102
RTVSPost2010PropOp35
 70
     1
102
RTVSPost2010Prop36
280
     0
102
RTVSPost2010PropOp36
 70
     1
102
RTVSPost2010Prop37
 90
       50
102
RTVSPost2010PropOp37
 70
     1
102
RTVSPost2010Prop38
140
0.0
102
RTVSPost2010PropOp38
 70
     1
102
RTVSPost2010Prop39
140
1.0
102
RTVSPost2010PropOp39
 70
     1
102
RTVSPost2010Prop40
 90
        0
102
RTVSPost2010PropOp40
 70
     1
102
RTVSPost2010Prop41ColorIndex
 90
       18
102
RTVSPost2010Prop41ColorRGB
 90
        0
102
RTVSPost2010PropOp41
 70
     1
102
RTVSPost2010Prop42
 90
       50
102
RTVSPost2010PropOp42
 70
     1
102
RTVSPost2010Prop43
 90
        3
102
RTVSPost2010PropOp43
 70
     1
102
RTVSPost2010Prop44ColorIndex
 90
        5
102
RTVSPost2010Prop44ColorRGB
 90
      255
102
RTVSPost2010PropOp44
 70
     1
102
RTVSPost2010Prop45
280
     0
102
RTVSPost2010PropOp45
 70
     1
102
RTVSPost2010Prop46
 90
       50
102
RTVSPost2010PropOp46
 70
     1
102
RTVSPost2010Prop47
 90
       50
102
RTVSPost2010PropOp47
 70
     1
102
RTVSPost2010Prop48
 90
       50
102
RTVSPost2010PropOp48
 70
     1
102
RTVSPost2010Prop49
280
     0
102
RTVSPost2010PropOp49
 70
     1
102
RTVSPost2010Prop50
 90
       50
102
RTVSPost2010PropOp50
 70
     1
102
RTVSPost2010Prop51ColorIndex
 90
      256
102
RTVSPost2010Prop51ColorRGB
 90
-16777216
102
RTVSPost2010PropOp51
 70
     0
102
RTVSPost2010Prop52
140
1.0
102
RTVSPost2010PropOp52
 70
     0
102
RTVSPost2010Prop53
 90
        2
102
RTVSPost2010PropOp53
 70
     1
102
RTVSPost2010Prop54
  1
strokes_ogs.tif
102
RTVSPost2010PropOp54
 70
     1
102
RTVSPost2010Prop55
280
     0
102
RTVSPost2010PropOp55
 70
     1
102
RTVSPost2010Prop56
140
1.0
102
RTVSPost2010PropOp56
 70
     1
102
RTVSPost2010Prop57
140
1.0
102
RTVSPost2010PropOp57
 70
     1
  0
XRECORD
  5
289
102
{ACAD_REACTORS
330
288
102
}
330
288
100
AcDbXrecord
280
     1
102
RTVSPropertyOp0
 70
     1
102
RTVSPropertyOp1
 70
     1
102
RTVSPropertyOp2
 70
     1
102
RTVSPropertyOp3
 70
     1
102
RTVSPropertyOp4
 70
     1
102
RTVSPropertyOp5
 70
     1
102
RTVSPropertyOp6
 70
     1
102
RTVSPropertyOp7
 70
     1
102
RTVSPropertyOp8
 70
     1
102
RTVSPropertyOp9
 70
     1
102
RTVSPropertyOp10
 70
     1
102
RTVSPropertyOp11
 70
     1
102
RTVSPropertyOp12
 70
     1
102
RTVSPropertyOp13
 70
     1
102
RTVSPropertyOp14
 70
     1
102
RTVSPropertyOp15
 70
     1
102
RTVSPropertyOp16
 70
     1
102
RTVSPropertyOp17
 70
     1
102
RTVSPropertyOp18
 70
     1
102
RTVSPropertyOp19
 70
     1
102
RTVSPropertyOp20
 70
     1
102
RTVSPropertyOp21
 70
     1
102
RTVSPropertyOp22
 70
     1
102
RTVSPropertyOp23
 70
     1
102
RTVSPropertyOp24
 70
     1
102
RTVSPropertyOp25
 70
     1
102
RTVSPropertyOp26
 70
     1
102
RTVSPropertyOp27
 70
     1
102
RTVSPropertyOp28
 70
     1
102
RTVSPropertyOp29
 70
     1
102
RTVSPropertyOp30
 70
     1
102
RTVSPropertyOp31
 70
     1
102
RTVSPropertyOp32
 70
     1
102
RTVSPropertyOp33
 70
     1
102
RTVSPropertyOp34
 70
     1
102
RTVSPropertyOp35
 70
     1
102
RTVSPropertyOp36
 70
     1
102
RTVSPropertyOp37
 70
     1
102
RTVSPropertyOp38
 70
     1
102
RTVSPropertyOp39
 70
     1
102
RTVSPropertyOp40
 70
     1
102
RTVSPropertyOp41
 70
     1
102
RTVSPropertyOp42
 70
     1
102
RTVSPropertyOp43
 70
     1
102
RTVSPropertyOp44
 70
     1
102
RTVSPropertyOp45
 70
     1
102
RTVSPropertyOp46
 70
     1
102
RTVSPropertyOp47
 70
     1
102
RTVSPropertyOp48
 70
     1
102
RTVSPropertyOp49
 70
     1
102
RTVSPropertyOp50
 70
     1
102
RTVSPropertyOp51
 70
     0
102
RTVSPropertyOp52
 70
     0
102
RTVSPropertyOp53
 70
     1
102
RTVSPropertyOp54
 70
     1
102
RTVSPropertyOp55
 70
     1
102
RTVSPropertyOp56
 70
     1
102
RTVSPropertyOp57
 70
     1
102
RTVSPost2010Prop28
280
     0
102
RTVSPost2010PropOp28
 70
     1
102
RTVSPost2010Prop29
280
     1
102
RTVSPost2010PropOp29
 70
     1
102
RTVSPost2010Prop30
280
     1
102
RTVSPost2010PropOp30
 70
     1
102
RTVSPost2010Prop31
280
     0
102
RTVSPost2010PropOp31
 70
     1
102
RTVSPost2010Prop32
280
     0
102
RTVSPost2010PropOp32
 70
     1
102
RTVSPost2010Prop33
280
     0
102
RTVSPost2010PropOp33
 70
     1
102
RTVSPost2010Prop34
280
     0
102
RTVSPost2010PropOp34
 70
     1
102
RTVSPost2010Prop35
280
     0
102
RTVSPost2010PropOp35
 70
     1
102
RTVSPost2010Prop36
280
     0
102
RTVSPost2010PropOp36
 70
     1
102
RTVSPost2010Prop37
 90
       50
102
RTVSPost2010PropOp37
 70
     1
102
RTVSPost2010Prop38
140
0.0
102
RTVSPost2010PropOp38
 70
     1
102
RTVSPost2010Prop39
140
1.0
102
RTVSPost2010PropOp39
 70
     1
102
RTVSPost2010Prop40
 90
        0
102
RTVSPost2010PropOp40
 70
     1
102
RTVSPost2010Prop41ColorIndex
 90
       18
102
RTVSPost2010Prop41ColorRGB
 90
        0
102
RTVSPost2010PropOp41
 70
     1
102
RTVSPost2010Prop42
 90
       50
102
RTVSPost2010PropOp42
 70
     1
102
RTVSPost2010Prop43
 90
        3
102
RTVSPost2010PropOp43
 70
     1
102
RTVSPost2010Prop44ColorIndex
 90
        5
102
RTVSPost2010Prop44ColorRGB
 90
      255
102
RTVSPost2010PropOp44
 70
     1
102
RTVSPost2010Prop45
280
     0
102
RTVSPost2010PropOp45
 70
     1
102
RTVSPost2010Prop46
 90
       50
102
RTVSPost2010PropOp46
 70
     1
102
RTVSPost2010Prop47
 90
       50
102
RTVSPost2010PropOp47
 70
     1
102
RTVSPost2010Prop48
 90
       50
102
RTVSPost2010PropOp48
 70
     1
102
RTVSPost2010Prop49
280
     0
102
RTVSPost2010PropOp49
 70
     1
102
RTVSPost2010Prop50
 90
       50
102
RTVSPost2010PropOp50
 70
     1
102
RTVSPost2010Prop51ColorIndex
 90
      256
102
RTVSPost2010Prop51ColorRGB
 90
-16777216
102
RTVSPost2010PropOp51
 70
     0
102
RTVSPost2010Prop52
140
1.0
102
RTVSPost2010PropOp52
 70
     0
102
RTVSPost2010Prop53
 90
        2
102
RTVSPost2010PropOp53
 70
     1
102
RTVSPost2010Prop54
  1
strokes_ogs.tif
102
RTVSPost2010PropOp54
 70
     1
102
RTVSPost2010Prop55
280
     0
102
RTVSPost2010PropOp55
 70
     1
102
RTVSPost2010Prop56
140
1.0
102
RTVSPost2010PropOp56
 70
     1
102
RTVSPost2010Prop57
140
1.0
102
RTVSPost2010PropOp57
 70
     1
  0
XRECORD
  5
283
102
{ACAD_REACTORS
330
282
102
}
330
282
100
AcDbXrecord
280
     1
102
RTVSPropertyOp0
 70
     1
102
RTVSPropertyOp1
 70
     1
102
RTVSPropertyOp2
 70
     1
102
RTVSPropertyOp3
 70
     1
102
RTVSPropertyOp4
 70
     1
102
RTVSPropertyOp5
 70
     1
102
RTVSPropertyOp6
 70
     1
102
RTVSPropertyOp7
 70
     1
102
RTVSPropertyOp8
 70
     1
102
RTVSPropertyOp9
 70
     1
102
RTVSPropertyOp10
 70
     1
102
RTVSPropertyOp11
 70
     1
102
RTVSPropertyOp12
 70
     1
102
RTVSPropertyOp13
 70
     1
102
RTVSPropertyOp14
 70
     1
102
RTVSPropertyOp15
 70
     1
102
RTVSPropertyOp16
 70
     1
102
RTVSPropertyOp17
 70
     1
102
RTVSPropertyOp18
 70
     1
102
RTVSPropertyOp19
 70
     1
102
RTVSPropertyOp20
 70
     1
102
RTVSPropertyOp21
 70
     1
102
RTVSPropertyOp22
 70
     1
102
RTVSPropertyOp23
 70
     1
102
RTVSPropertyOp24
 70
     1
102
RTVSPropertyOp25
 70
     1
102
RTVSPropertyOp26
 70
     1
102
RTVSPropertyOp27
 70
     1
102
RTVSPropertyOp28
 70
     1
102
RTVSPropertyOp29
 70
     1
102
RTVSPropertyOp30
 70
     1
102
RTVSPropertyOp31
 70
     1
102
RTVSPropertyOp32
 70
     1
102
RTVSPropertyOp33
 70
     1
102
RTVSPropertyOp34
 70
     1
102
RTVSPropertyOp35
 70
     1
102
RTVSPropertyOp36
 70
     1
102
RTVSPropertyOp37
 70
     1
102
RTVSPropertyOp38
 70
     1
102
RTVSPropertyOp39
 70
     1
102
RTVSPropertyOp40
 70
     1
102
RTVSPropertyOp41
 70
     1
102
RTVSPropertyOp42
 70
     1
102
RTVSPropertyOp43
 70
     1
102
RTVSPropertyOp44
 70
     1
102
RTVSPropertyOp45
 70
     1
102
RTVSPropertyOp46
 70
     1
102
RTVSPropertyOp47
 70
     1
102
RTVSPropertyOp48
 70
     1
102
RTVSPropertyOp49
 70
     1
102
RTVSPropertyOp50
 70
     1
102
RTVSPropertyOp51
 70
     0
102
RTVSPropertyOp52
 70
     0
102
RTVSPropertyOp53
 70
     1
102
RTVSPropertyOp54
 70
     1
102
RTVSPropertyOp55
 70
     1
102
RTVSPropertyOp56
 70
     1
102
RTVSPropertyOp57
 70
     1
102
RTVSPost2010Prop28
280
     0
102
RTVSPost2010PropOp28
 70
     1
102
RTVSPost2010Prop29
280
     1
102
RTVSPost2010PropOp29
 70
     1
102
RTVSPost2010Prop30
280
     1
102
RTVSPost2010PropOp30
 70
     1
102
RTVSPost2010Prop31
280
     0
102
RTVSPost2010PropOp31
 70
     1
102
RTVSPost2010Prop32
280
     0
102
RTVSPost2010PropOp32
 70
     1
102
RTVSPost2010Prop33
280
     0
102
RTVSPost2010PropOp33
 70
     1
102
RTVSPost2010Prop34
280
     0
102
RTVSPost2010PropOp34
 70
     1
102
RTVSPost2010Prop35
280
     0
102
RTVSPost2010PropOp35
 70
     1
102
RTVSPost2010Prop36
280
     0
102
RTVSPost2010PropOp36
 70
     1
102
RTVSPost2010Prop37
 90
       50
102
RTVSPost2010PropOp37
 70
     1
102
RTVSPost2010Prop38
140
0.0
102
RTVSPost2010PropOp38
 70
     1
102
RTVSPost2010Prop39
140
1.0
102
RTVSPost2010PropOp39
 70
     1
102
RTVSPost2010Prop40
 90
        0
102
RTVSPost2010PropOp40
 70
     1
102
RTVSPost2010Prop41ColorIndex
 90
       18
102
RTVSPost2010Prop41ColorRGB
 90
        0
102
RTVSPost2010PropOp41
 70
     1
102
RTVSPost2010Prop42
 90
       50
102
RTVSPost2010PropOp42
 70
     1
102
RTVSPost2010Prop43
 90
        3
102
RTVSPost2010PropOp43
 70
     1
102
RTVSPost2010Prop44ColorIndex
 90
        5
102
RTVSPost2010Prop44ColorRGB
 90
      255
102
RTVSPost2010PropOp44
 70
     1
102
RTVSPost2010Prop45
280
     0
102
RTVSPost2010PropOp45
 70
     1
102
RTVSPost2010Prop46
 90
       50
102
RTVSPost2010PropOp46
 70
     1
102
RTVSPost2010Prop47
 90
       50
102
RTVSPost2010PropOp47
 70
     1
102
RTVSPost2010Prop48
 90
       50
102
RTVSPost2010PropOp48
 70
     1
102
RTVSPost2010Prop49
280
     0
102
RTVSPost2010PropOp49
 70
     1
102
RTVSPost2010Prop50
 90
       50
102
RTVSPost2010PropOp50
 70
     1
102
RTVSPost2010Prop51ColorIndex
 90
      256
102
RTVSPost2010Prop51ColorRGB
 90
-16777216
102
RTVSPost2010PropOp51
 70
     0
102
RTVSPost2010Prop52
140
1.0
102
RTVSPost2010PropOp52
 70
     0
102
RTVSPost2010Prop53
 90
        2
102
RTVSPost2010PropOp53
 70
     1
102
RTVSPost2010Prop54
  1
strokes_ogs.tif
102
RTVSPost2010PropOp54
 70
     1
102
RTVSPost2010Prop55
280
     0
102
RTVSPost2010PropOp55
 70
     1
102
RTVSPost2010Prop56
140
1.0
102
RTVSPost2010PropOp56
 70
     1
102
RTVSPost2010Prop57
140
1.0
102
RTVSPost2010PropOp57
 70
     1
  0
XRECORD
  5
285
102
{ACAD_REACTORS
330
284
102
}
330
284
100
AcDbXrecord
280
     1
102
RTVSPropertyOp0
 70
     1
102
RTVSPropertyOp1
 70
     1
102
RTVSPropertyOp2
 70
     1
102
RTVSPropertyOp3
 70
     1
102
RTVSPropertyOp4
 70
     1
102
RTVSPropertyOp5
 70
     1
102
RTVSPropertyOp6
 70
     1
102
RTVSPropertyOp7
 70
     1
102
RTVSPropertyOp8
 70
     1
102
RTVSPropertyOp9
 70
     1
102
RTVSPropertyOp10
 70
     1
102
RTVSPropertyOp11
 70
     1
102
RTVSPropertyOp12
 70
     1
102
RTVSPropertyOp13
 70
     1
102
RTVSPropertyOp14
 70
     1
102
RTVSPropertyOp15
 70
     1
102
RTVSPropertyOp16
 70
     1
102
RTVSPropertyOp17
 70
     1
102
RTVSPropertyOp18
 70
     1
102
RTVSPropertyOp19
 70
     1
102
RTVSPropertyOp20
 70
     1
102
RTVSPropertyOp21
 70
     1
102
RTVSPropertyOp22
 70
     1
102
RTVSPropertyOp23
 70
     1
102
RTVSPropertyOp24
 70
     1
102
RTVSPropertyOp25
 70
     1
102
RTVSPropertyOp26
 70
     1
102
RTVSPropertyOp27
 70
     1
102
RTVSPropertyOp28
 70
     1
102
RTVSPropertyOp29
 70
     1
102
RTVSPropertyOp30
 70
     1
102
RTVSPropertyOp31
 70
     1
102
RTVSPropertyOp32
 70
     1
102
RTVSPropertyOp33
 70
     1
102
RTVSPropertyOp34
 70
     1
102
RTVSPropertyOp35
 70
     1
102
RTVSPropertyOp36
 70
     1
102
RTVSPropertyOp37
 70
     1
102
RTVSPropertyOp38
 70
     1
102
RTVSPropertyOp39
 70
     1
102
RTVSPropertyOp40
 70
     1
102
RTVSPropertyOp41
 70
     1
102
RTVSPropertyOp42
 70
     1
102
RTVSPropertyOp43
 70
     1
102
RTVSPropertyOp44
 70
     1
102
RTVSPropertyOp45
 70
     1
102
RTVSPropertyOp46
 70
     1
102
RTVSPropertyOp47
 70
     1
102
RTVSPropertyOp48
 70
     1
102
RTVSPropertyOp49
 70
     1
102
RTVSPropertyOp50
 70
     1
102
RTVSPropertyOp51
 70
     0
102
RTVSPropertyOp52
 70
     0
102
RTVSPropertyOp53
 70
     1
102
RTVSPropertyOp54
 70
     1
102
RTVSPropertyOp55
 70
     1
102
RTVSPropertyOp56
 70
     1
102
RTVSPropertyOp57
 70
     1
102
RTVSPost2010Prop28
280
     0
102
RTVSPost2010PropOp28
 70
     1
102
RTVSPost2010Prop29
280
     1
102
RTVSPost2010PropOp29
 70
     1
102
RTVSPost2010Prop30
280
     1
102
RTVSPost2010PropOp30
 70
     1
102
RTVSPost2010Prop31
280
     0
102
RTVSPost2010PropOp31
 70
     1
102
RTVSPost2010Prop32
280
     0
102
RTVSPost2010PropOp32
 70
     1
102
RTVSPost2010Prop33
280
     0
102
RTVSPost2010PropOp33
 70
     1
102
RTVSPost2010Prop34
280
     0
102
RTVSPost2010PropOp34
 70
     1
102
RTVSPost2010Prop35
280
     0
102
RTVSPost2010PropOp35
 70
     1
102
RTVSPost2010Prop36
280
     0
102
RTVSPost2010PropOp36
 70
     1
102
RTVSPost2010Prop37
 90
       50
102
RTVSPost2010PropOp37
 70
     1
102
RTVSPost2010Prop38
140
0.0
102
RTVSPost2010PropOp38
 70
     1
102
RTVSPost2010Prop39
140
1.0
102
RTVSPost2010PropOp39
 70
     1
102
RTVSPost2010Prop40
 90
        0
102
RTVSPost2010PropOp40
 70
     1
102
RTVSPost2010Prop41ColorIndex
 90
       18
102
RTVSPost2010Prop41ColorRGB
 90
        0
102
RTVSPost2010PropOp41
 70
     1
102
RTVSPost2010Prop42
 90
       50
102
RTVSPost2010PropOp42
 70
     1
102
RTVSPost2010Prop43
 90
        3
102
RTVSPost2010PropOp43
 70
     1
102
RTVSPost2010Prop44ColorIndex
 90
        5
102
RTVSPost2010Prop44ColorRGB
 90
      255
102
RTVSPost2010PropOp44
 70
     1
102
RTVSPost2010Prop45
280
     0
102
RTVSPost2010PropOp45
 70
     1
102
RTVSPost2010Prop46
 90
       50
102
RTVSPost2010PropOp46
 70
     1
102
RTVSPost2010Prop47
 90
       50
102
RTVSPost2010PropOp47
 70
     1
102
RTVSPost2010Prop48
 90
       50
102
RTVSPost2010PropOp48
 70
     1
102
RTVSPost2010Prop49
280
     0
102
RTVSPost2010PropOp49
 70
     1
102
RTVSPost2010Prop50
 90
       50
102
RTVSPost2010PropOp50
 70
     1
102
RTVSPost2010Prop51ColorIndex
 90
      256
102
RTVSPost2010Prop51ColorRGB
 90
-16777216
102
RTVSPost2010PropOp51
 70
     0
102
RTVSPost2010Prop52
140
1.0
102
RTVSPost2010PropOp52
 70
     0
102
RTVSPost2010Prop53
 90
        2
102
RTVSPost2010PropOp53
 70
     1
102
RTVSPost2010Prop54
  1
strokes_ogs.tif
102
RTVSPost2010PropOp54
 70
     1
102
RTVSPost2010Prop55
280
     0
102
RTVSPost2010PropOp55
 70
     1
102
RTVSPost2010Prop56
140
1.0
102
RTVSPost2010PropOp56
 70
     1
102
RTVSPost2010Prop57
140
1.0
102
RTVSPost2010PropOp57
 70
     1
  0
XRECORD
  5
275
102
{ACAD_REACTORS
330
274
102
}
330
274
100
AcDbXrecord
280
     1
102
RTVSPropertyOp0
 70
     1
102
RTVSPropertyOp1
 70
     1
102
RTVSPropertyOp2
 70
     1
102
RTVSPropertyOp3
 70
     1
102
RTVSPropertyOp4
 70
     1
102
RTVSPropertyOp5
 70
     1
102
RTVSPropertyOp6
 70
     1
102
RTVSPropertyOp7
 70
     1
102
RTVSPropertyOp8
 70
     1
102
RTVSPropertyOp9
 70
     1
102
RTVSPropertyOp10
 70
     1
102
RTVSPropertyOp11
 70
     1
102
RTVSPropertyOp12
 70
     1
102
RTVSPropertyOp13
 70
     1
102
RTVSPropertyOp14
 70
     1
102
RTVSPropertyOp15
 70
     1
102
RTVSPropertyOp16
 70
     1
102
RTVSPropertyOp17
 70
     1
102
RTVSPropertyOp18
 70
     1
102
RTVSPropertyOp19
 70
     1
102
RTVSPropertyOp20
 70
     1
102
RTVSPropertyOp21
 70
     1
102
RTVSPropertyOp22
 70
     1
102
RTVSPropertyOp23
 70
     1
102
RTVSPropertyOp24
 70
     1
102
RTVSPropertyOp25
 70
     1
102
RTVSPropertyOp26
 70
     1
102
RTVSPropertyOp27
 70
     1
102
RTVSPropertyOp28
 70
     1
102
RTVSPropertyOp29
 70
     1
102
RTVSPropertyOp30
 70
     1
102
RTVSPropertyOp31
 70
     1
102
RTVSPropertyOp32
 70
     1
102
RTVSPropertyOp33
 70
     1
102
RTVSPropertyOp34
 70
     1
102
RTVSPropertyOp35
 70
     1
102
RTVSPropertyOp36
 70
     1
102
RTVSPropertyOp37
 70
     1
102
RTVSPropertyOp38
 70
     1
102
RTVSPropertyOp39
 70
     1
102
RTVSPropertyOp40
 70
     1
102
RTVSPropertyOp41
 70
     1
102
RTVSPropertyOp42
 70
     1
102
RTVSPropertyOp43
 70
     1
102
RTVSPropertyOp44
 70
     1
102
RTVSPropertyOp45
 70
     1
102
RTVSPropertyOp46
 70
     1
102
RTVSPropertyOp47
 70
     1
102
RTVSPropertyOp48
 70
     1
102
RTVSPropertyOp49
 70
     1
102
RTVSPropertyOp50
 70
     1
102
RTVSPropertyOp51
 70
     0
102
RTVSPropertyOp52
 70
     0
102
RTVSPropertyOp53
 70
     1
102
RTVSPropertyOp54
 70
     1
102
RTVSPropertyOp55
 70
     1
102
RTVSPropertyOp56
 70
     1
102
RTVSPropertyOp57
 70
     1
102
RTVSPost2010Prop28
280
     0
102
RTVSPost2010PropOp28
 70
     1
102
RTVSPost2010Prop29
280
     1
102
RTVSPost2010PropOp29
 70
     1
102
RTVSPost2010Prop30
280
     1
102
RTVSPost2010PropOp30
 70
     1
102
RTVSPost2010Prop31
280
     0
102
RTVSPost2010PropOp31
 70
     1
102
RTVSPost2010Prop32
280
     0
102
RTVSPost2010PropOp32
 70
     1
102
RTVSPost2010Prop33
280
     0
102
RTVSPost2010PropOp33
 70
     1
102
RTVSPost2010Prop34
280
     0
102
RTVSPost2010PropOp34
 70
     1
102
RTVSPost2010Prop35
280
     0
102
RTVSPost2010PropOp35
 70
     1
102
RTVSPost2010Prop36
280
     0
102
RTVSPost2010PropOp36
 70
     1
102
RTVSPost2010Prop37
 90
       50
102
RTVSPost2010PropOp37
 70
     1
102
RTVSPost2010Prop38
140
0.0
102
RTVSPost2010PropOp38
 70
     1
102
RTVSPost2010Prop39
140
1.0
102
RTVSPost2010PropOp39
 70
     1
102
RTVSPost2010Prop40
 90
        0
102
RTVSPost2010PropOp40
 70
     1
102
RTVSPost2010Prop41ColorIndex
 90
       18
102
RTVSPost2010Prop41ColorRGB
 90
        0
102
RTVSPost2010PropOp41
 70
     1
102
RTVSPost2010Prop42
 90
       50
102
RTVSPost2010PropOp42
 70
     1
102
RTVSPost2010Prop43
 90
        3
102
RTVSPost2010PropOp43
 70
     1
102
RTVSPost2010Prop44ColorIndex
 90
        5
102
RTVSPost2010Prop44ColorRGB
 90
      255
102
RTVSPost2010PropOp44
 70
     1
102
RTVSPost2010Prop45
280
     0
102
RTVSPost2010PropOp45
 70
     1
102
RTVSPost2010Prop46
 90
       50
102
RTVSPost2010PropOp46
 70
     1
102
RTVSPost2010Prop47
 90
       50
102
RTVSPost2010PropOp47
 70
     1
102
RTVSPost2010Prop48
 90
       50
102
RTVSPost2010PropOp48
 70
     1
102
RTVSPost2010Prop49
280
     0
102
RTVSPost2010PropOp49
 70
     1
102
RTVSPost2010Prop50
 90
       50
102
RTVSPost2010PropOp50
 70
     1
102
RTVSPost2010Prop51ColorIndex
 90
      256
102
RTVSPost2010Prop51ColorRGB
 90
-16777216
102
RTVSPost2010PropOp51
 70
     0
102
RTVSPost2010Prop52
140
1.0
102
RTVSPost2010PropOp52
 70
     0
102
RTVSPost2010Prop53
 90
        2
102
RTVSPost2010PropOp53
 70
     1
102
RTVSPost2010Prop54
  1
strokes_ogs.tif
102
RTVSPost2010PropOp54
 70
     1
102
RTVSPost2010Prop55
280
     0
102
RTVSPost2010PropOp55
 70
     1
102
RTVSPost2010Prop56
140
1.0
102
RTVSPost2010PropOp56
 70
     1
102
RTVSPost2010Prop57
140
1.0
102
RTVSPost2010PropOp57
 70
     1
  0
XRECORD
  5
267
102
{ACAD_REACTORS
330
266
102
}
330
266
100
AcDbXrecord
280
     1
102
RTVSPropertyOp0
 70
     1
102
RTVSPropertyOp1
 70
     1
102
RTVSPropertyOp2
 70
     1
102
RTVSPropertyOp3
 70
     1
102
RTVSPropertyOp4
 70
     1
102
RTVSPropertyOp5
 70
     1
102
RTVSPropertyOp6
 70
     1
102
RTVSPropertyOp7
 70
     1
102
RTVSPropertyOp8
 70
     1
102
RTVSPropertyOp9
 70
     1
102
RTVSPropertyOp10
 70
     1
102
RTVSPropertyOp11
 70
     1
102
RTVSPropertyOp12
 70
     1
102
RTVSPropertyOp13
 70
     1
102
RTVSPropertyOp14
 70
     1
102
RTVSPropertyOp15
 70
     1
102
RTVSPropertyOp16
 70
     1
102
RTVSPropertyOp17
 70
     1
102
RTVSPropertyOp18
 70
     1
102
RTVSPropertyOp19
 70
     1
102
RTVSPropertyOp20
 70
     1
102
RTVSPropertyOp21
 70
     1
102
RTVSPropertyOp22
 70
     1
102
RTVSPropertyOp23
 70
     1
102
RTVSPropertyOp24
 70
     1
102
RTVSPropertyOp25
 70
     1
102
RTVSPropertyOp26
 70
     1
102
RTVSPropertyOp27
 70
     1
102
RTVSPropertyOp28
 70
     1
102
RTVSPropertyOp29
 70
     1
102
RTVSPropertyOp30
 70
     1
102
RTVSPropertyOp31
 70
     1
102
RTVSPropertyOp32
 70
     1
102
RTVSPropertyOp33
 70
     1
102
RTVSPropertyOp34
 70
     1
102
RTVSPropertyOp35
 70
     1
102
RTVSPropertyOp36
 70
     1
102
RTVSPropertyOp37
 70
     1
102
RTVSPropertyOp38
 70
     1
102
RTVSPropertyOp39
 70
     1
102
RTVSPropertyOp40
 70
     1
102
RTVSPropertyOp41
 70
     1
102
RTVSPropertyOp42
 70
     1
102
RTVSPropertyOp43
 70
     1
102
RTVSPropertyOp44
 70
     1
102
RTVSPropertyOp45
 70
     1
102
RTVSPropertyOp46
 70
     1
102
RTVSPropertyOp47
 70
     1
102
RTVSPropertyOp48
 70
     1
102
RTVSPropertyOp49
 70
     1
102
RTVSPropertyOp50
 70
     1
102
RTVSPropertyOp51
 70
     0
102
RTVSPropertyOp52
 70
     0
102
RTVSPropertyOp53
 70
     1
102
RTVSPropertyOp54
 70
     1
102
RTVSPropertyOp55
 70
     1
102
RTVSPropertyOp56
 70
     1
102
RTVSPropertyOp57
 70
     1
102
RTVSPost2010Prop28
280
     0
102
RTVSPost2010PropOp28
 70
     1
102
RTVSPost2010Prop29
280
     1
102
RTVSPost2010PropOp29
 70
     1
102
RTVSPost2010Prop30
280
     1
102
RTVSPost2010PropOp30
 70
     1
102
RTVSPost2010Prop31
280
     0
102
RTVSPost2010PropOp31
 70
     1
102
RTVSPost2010Prop32
280
     0
102
RTVSPost2010PropOp32
 70
     1
102
RTVSPost2010Prop33
280
     0
102
RTVSPost2010PropOp33
 70
     1
102
RTVSPost2010Prop34
280
     0
102
RTVSPost2010PropOp34
 70
     1
102
RTVSPost2010Prop35
280
     0
102
RTVSPost2010PropOp35
 70
     1
102
RTVSPost2010Prop36
280
     0
102
RTVSPost2010PropOp36
 70
     1
102
RTVSPost2010Prop37
 90
       50
102
RTVSPost2010PropOp37
 70
     1
102
RTVSPost2010Prop38
140
0.0
102
RTVSPost2010PropOp38
 70
     1
102
RTVSPost2010Prop39
140
1.0
102
RTVSPost2010PropOp39
 70
     1
102
RTVSPost2010Prop40
 90
        0
102
RTVSPost2010PropOp40
 70
     1
102
RTVSPost2010Prop41ColorIndex
 90
       18
102
RTVSPost2010Prop41ColorRGB
 90
        0
102
RTVSPost2010PropOp41
 70
     1
102
RTVSPost2010Prop42
 90
       50
102
RTVSPost2010PropOp42
 70
     1
102
RTVSPost2010Prop43
 90
        3
102
RTVSPost2010PropOp43
 70
     1
102
RTVSPost2010Prop44ColorIndex
 90
        5
102
RTVSPost2010Prop44ColorRGB
 90
      255
102
RTVSPost2010PropOp44
 70
     1
102
RTVSPost2010Prop45
280
     0
102
RTVSPost2010PropOp45
 70
     1
102
RTVSPost2010Prop46
 90
       50
102
RTVSPost2010PropOp46
 70
     1
102
RTVSPost2010Prop47
 90
       50
102
RTVSPost2010PropOp47
 70
     1
102
RTVSPost2010Prop48
 90
       50
102
RTVSPost2010PropOp48
 70
     1
102
RTVSPost2010Prop49
280
     0
102
RTVSPost2010PropOp49
 70
     1
102
RTVSPost2010Prop50
 90
       50
102
RTVSPost2010PropOp50
 70
     1
102
RTVSPost2010Prop51ColorIndex
 90
      256
102
RTVSPost2010Prop51ColorRGB
 90
-16777216
102
RTVSPost2010PropOp51
 70
     0
102
RTVSPost2010Prop52
140
1.0
102
RTVSPost2010PropOp52
 70
     0
102
RTVSPost2010Prop53
 90
        2
102
RTVSPost2010PropOp53
 70
     1
102
RTVSPost2010Prop54
  1
strokes_ogs.tif
102
RTVSPost2010PropOp54
 70
     1
102
RTVSPost2010Prop55
280
     0
102
RTVSPost2010PropOp55
 70
     1
102
RTVSPost2010Prop56
140
1.0
102
RTVSPost2010PropOp56
 70
     1
102
RTVSPost2010Prop57
140
1.0
102
RTVSPost2010PropOp57
 70
     1
  0
XRECORD
  5
287
102
{ACAD_REACTORS
330
286
102
}
330
286
100
AcDbXrecord
280
     1
102
RTVSPropertyOp0
 70
     1
102
RTVSPropertyOp1
 70
     1
102
RTVSPropertyOp2
 70
     1
102
RTVSPropertyOp3
 70
     1
102
RTVSPropertyOp4
 70
     1
102
RTVSPropertyOp5
 70
     1
102
RTVSPropertyOp6
 70
     1
102
RTVSPropertyOp7
 70
     1
102
RTVSPropertyOp8
 70
     1
102
RTVSPropertyOp9
 70
     1
102
RTVSPropertyOp10
 70
     1
102
RTVSPropertyOp11
 70
     1
102
RTVSPropertyOp12
 70
     1
102
RTVSPropertyOp13
 70
     1
102
RTVSPropertyOp14
 70
     1
102
RTVSPropertyOp15
 70
     1
102
RTVSPropertyOp16
 70
     1
102
RTVSPropertyOp17
 70
     1
102
RTVSPropertyOp18
 70
     1
102
RTVSPropertyOp19
 70
     1
102
RTVSPropertyOp20
 70
     1
102
RTVSPropertyOp21
 70
     1
102
RTVSPropertyOp22
 70
     1
102
RTVSPropertyOp23
 70
     1
102
RTVSPropertyOp24
 70
     1
102
RTVSPropertyOp25
 70
     1
102
RTVSPropertyOp26
 70
     1
102
RTVSPropertyOp27
 70
     1
102
RTVSPropertyOp28
 70
     1
102
RTVSPropertyOp29
 70
     1
102
RTVSPropertyOp30
 70
     1
102
RTVSPropertyOp31
 70
     1
102
RTVSPropertyOp32
 70
     1
102
RTVSPropertyOp33
 70
     1
102
RTVSPropertyOp34
 70
     1
102
RTVSPropertyOp35
 70
     1
102
RTVSPropertyOp36
 70
     1
102
RTVSPropertyOp37
 70
     1
102
RTVSPropertyOp38
 70
     1
102
RTVSPropertyOp39
 70
     1
102
RTVSPropertyOp40
 70
     1
102
RTVSPropertyOp41
 70
     1
102
RTVSPropertyOp42
 70
     1
102
RTVSPropertyOp43
 70
     1
102
RTVSPropertyOp44
 70
     1
102
RTVSPropertyOp45
 70
     1
102
RTVSPropertyOp46
 70
     1
102
RTVSPropertyOp47
 70
     1
102
RTVSPropertyOp48
 70
     1
102
RTVSPropertyOp49
 70
     1
102
RTVSPropertyOp50
 70
     1
102
RTVSPropertyOp51
 70
     0
102
RTVSPropertyOp52
 70
     0
102
RTVSPropertyOp53
 70
     1
102
RTVSPropertyOp54
 70
     1
102
RTVSPropertyOp55
 70
     1
102
RTVSPropertyOp56
 70
     1
102
RTVSPropertyOp57
 70
     1
102
RTVSPost2010Prop28
280
     0
102
RTVSPost2010PropOp28
 70
     1
102
RTVSPost2010Prop29
280
     1
102
RTVSPost2010PropOp29
 70
     1
102
RTVSPost2010Prop30
280
     1
102
RTVSPost2010PropOp30
 70
     1
102
RTVSPost2010Prop31
280
     0
102
RTVSPost2010PropOp31
 70
     1
102
RTVSPost2010Prop32
280
     0
102
RTVSPost2010PropOp32
 70
     1
102
RTVSPost2010Prop33
280
     0
102
RTVSPost2010PropOp33
 70
     1
102
RTVSPost2010Prop34
280
     0
102
RTVSPost2010PropOp34
 70
     1
102
RTVSPost2010Prop35
280
     0
102
RTVSPost2010PropOp35
 70
     1
102
RTVSPost2010Prop36
280
     0
102
RTVSPost2010PropOp36
 70
     1
102
RTVSPost2010Prop37
 90
       50
102
RTVSPost2010PropOp37
 70
     1
102
RTVSPost2010Prop38
140
0.0
102
RTVSPost2010PropOp38
 70
     1
102
RTVSPost2010Prop39
140
1.0
102
RTVSPost2010PropOp39
 70
     1
102
RTVSPost2010Prop40
 90
        0
102
RTVSPost2010PropOp40
 70
     1
102
RTVSPost2010Prop41ColorIndex
 90
       18
102
RTVSPost2010Prop41ColorRGB
 90
        0
102
RTVSPost2010PropOp41
 70
     1
102
RTVSPost2010Prop42
 90
       50
102
RTVSPost2010PropOp42
 70
     1
102
RTVSPost2010Prop43
 90
        3
102
RTVSPost2010PropOp43
 70
     1
102
RTVSPost2010Prop44ColorIndex
 90
        5
102
RTVSPost2010Prop44ColorRGB
 90
      255
102
RTVSPost2010PropOp44
 70
     1
102
RTVSPost2010Prop45
280
     0
102
RTVSPost2010PropOp45
 70
     1
102
RTVSPost2010Prop46
 90
       50
102
RTVSPost2010PropOp46
 70
     1
102
RTVSPost2010Prop47
 90
       50
102
RTVSPost2010PropOp47
 70
     1
102
RTVSPost2010Prop48
 90
       50
102
RTVSPost2010PropOp48
 70
     1
102
RTVSPost2010Prop49
280
     0
102
RTVSPost2010PropOp49
 70
     1
102
RTVSPost2010Prop50
 90
       50
102
RTVSPost2010PropOp50
 70
     1
102
RTVSPost2010Prop51ColorIndex
 90
      256
102
RTVSPost2010Prop51ColorRGB
 90
-16777216
102
RTVSPost2010PropOp51
 70
     0
102
RTVSPost2010Prop52
140
1.0
102
RTVSPost2010PropOp52
 70
     0
102
RTVSPost2010Prop53
 90
        2
102
RTVSPost2010PropOp53
 70
     1
102
RTVSPost2010Prop54
  1
strokes_ogs.tif
102
RTVSPost2010PropOp54
 70
     1
102
RTVSPost2010Prop55
280
     0
102
RTVSPost2010PropOp55
 70
     1
102
RTVSPost2010Prop56
140
1.0
102
RTVSPost2010PropOp56
 70
     1
102
RTVSPost2010Prop57
140
1.0
102
RTVSPost2010PropOp57
 70
     1
  0
ENDSEC
  0
EOF
