  0
SECTION
  2
HEADER
  9
$ACADVER
  1
AC1015
  9
$ACADMAINTVER
 70
     6
  9
$DWGCODEPAGE
  3
ANSI_932
  9
$INSBASE
 10
0.0
 20
0.0
 30
0.0
  9
$EXTMIN
 10
0.0
 20
0.0
 30
0.0
  9
$EXTMAX
 10
210.0
 20
297.0
 30
0.0
  9
$LIMMIN
 10
0.0
 20
0.0
  9
$LIMMAX
 10
210.0
 20
297.0
  9
$ORTHOMODE
 70
     0
  9
$REGENMODE
 70
     1
  9
$FILLMODE
 70
     1
  9
$QTEXTMODE
 70
     0
  9
$MIRRTEXT
 70
     1
  9
$LTSCALE
 40
1.0
  9
$ATTMODE
 70
     1
  9
$TEXTSIZE
 40
2.5
  9
$TRACEWID
 40
1.0
  9
$TEXTSTYLE
  7
Standard
  9
$CLAYER
  8
0
  9
$CELTYPE
  6
ByLayer
  9
$CECOLOR
 62
   256
  9
$CELTSCALE
 40
1.0
  9
$DISPSILH
 70
     0
  9
$DIMSCALE
 40
1.0
  9
$DIMASZ
 40
2.5
  9
$DIMEXO
 40
0.625
  9
$DIMDLI
 40
3.75
  9
$DIMRND
 40
0.0
  9
$DIMDLE
 40
0.0
  9
$DIMEXE
 40
1.25
  9
$DIMTP
 40
0.0
  9
$DIMTM
 40
0.0
  9
$DIMTXT
 40
2.5
  9
$DIMCEN
 40
2.5
  9
$DIMTSZ
 40
0.0
  9
$DIMTOL
 70
     0
  9
$DIMLIM
 70
     0
  9
$DIMTIH
 70
     0
  9
$DIMTOH
 70
     0
  9
$DIMSE1
 70
     0
  9
$DIMSE2
 70
     0
  9
$DIMTAD
 70
     1
  9
$DIMZIN
 70
     8
  9
$DIMBLK
  1

  9
$DIMASO
 70
     1
  9
$DIMSHO
 70
     1
  9
$DIMPOST
  1

  9
$DIMAPOST
  1

  9
$DIMALT
 70
     0
  9
$DIMALTD
 70
     3
  9
$DIMALTF
 40
0.0393700787
  9
$DIMLFAC
 40
1.0
  9
$DIMTOFL
 70
     1
  9
$DIMTVP
 40
0.0
  9
$DIMTIX
 70
     0
  9
$DIMSOXD
 70
     0
  9
$DIMSAH
 70
     0
  9
$DIMBLK1
  1

  9
$DIMBLK2
  1

  9
$DIMSTYLE
  2
ISO-25
  9
$DIMCLRD
 70
     0
  9
$DIMCLRE
 70
     0
  9
$DIMCLRT
 70
     0
  9
$DIMTFAC
 40
1.0
  9
$DIMGAP
 40
0.625
  9
$DIMJUST
 70
     0
  9
$DIMSD1
 70
     0
  9
$DIMSD2
 70
     0
  9
$DIMTOLJ
 70
     0
  9
$DIMTZIN
 70
     8
  9
$DIMALTZ
 70
     0
  9
$DIMALTTZ
 70
     0
  9
$DIMUPT
 70
     0
  9
$DIMDEC
 70
     2
  9
$DIMTDEC
 70
     2
  9
$DIMALTU
 70
     2
  9
$DIMALTTD
 70
     3
  9
$DIMTXSTY
  7
Standard
  9
$DIMAUNIT
 70
     0
  9
$DIMADEC
 70
     0
  9
$DIMALTRND
 40
0.0
  9
$DIMAZIN
 70
     0
  9
$DIMDSEP
 70
    44
  9
$DIMATFIT
 70
     3
  9
$DIMFRAC
 70
     0
  9
$DIMLDRBLK
  1

  9
$DIMLUNIT
 70
     2
  9
$DIMLWD
 70
    -2
  9
$DIMLWE
 70
    -2
  9
$DIMTMOVE
 70
     0
  9
$LUNITS
 70
     2
  9
$LUPREC
 70
     4
  9
$SKETCHINC
 40
1.0
  9
$FILLETRAD
 40
10.0
  9
$AUNITS
 70
     0
  9
$AUPREC
 70
     0
  9
$MENU
  1
.
  9
$ELEVATION
 40
0.0
  9
$PELEVATION
 40
0.0
  9
$THICKNESS
 40
0.0
  9
$LIMCHECK
 70
     0
  9
$CHAMFERA
 40
0.0
  9
$CHAMFERB
 40
0.0
  9
$CHAMFERC
 40
0.0
  9
$CHAMFERD
 40
0.0
  9
$SKPOLY
 70
     0
  9
$TDCREATE
 40
2458152.602651238
  9
$TDUCREATE
 40
2458152.227651238
  9
$TDUPDATE
 40
2458152.602652141
  9
$TDUUPDATE
 40
2458152.227652141
  9
$TDINDWG
 40
0.0000000116
  9
$TDUSRTIMER
 40
0.0000000116
  9
$USRTIMER
 70
     1
  9
$ANGBASE
 50
0.0
  9
$ANGDIR
 70
     0
  9
$PDMODE
 70
     0
  9
$PDSIZE
 40
0.0
  9
$PLINEWID
 40
0.0
  9
$SPLFRAME
 70
     0
  9
$SPLINETYPE
 70
     6
  9
$SPLINESEGS
 70
     8
  9
$HANDSEED
  5
216
  9
$SURFTAB1
 70
     6
  9
$SURFTAB2
 70
     6
  9
$SURFTYPE
 70
     6
  9
$SURFU
 70
     6
  9
$SURFV
 70
     6
  9
$UCSBASE
  2

  9
$UCSNAME
  2

  9
$UCSORG
 10
0.0
 20
0.0
 30
0.0
  9
$UCSXDIR
 10
1.0
 20
0.0
 30
0.0
  9
$UCSYDIR
 10
0.0
 20
1.0
 30
0.0
  9
$UCSORTHOREF
  2

  9
$UCSORTHOVIEW
 70
     0
  9
$UCSORGTOP
 10
0.0
 20
0.0
 30
0.0
  9
$UCSORGBOTTOM
 10
0.0
 20
0.0
 30
0.0
  9
$UCSORGLEFT
 10
0.0
 20
0.0
 30
0.0
  9
$UCSORGRIGHT
 10
0.0
 20
0.0
 30
0.0
  9
$UCSORGFRONT
 10
0.0
 20
0.0
 30
0.0
  9
$UCSORGBACK
 10
0.0
 20
0.0
 30
0.0
  9
$PUCSBASE
  2

  9
$PUCSNAME
  2

  9
$PUCSORG
 10
0.0
 20
0.0
 30
0.0
  9
$PUCSXDIR
 10
1.0
 20
0.0
 30
0.0
  9
$PUCSYDIR
 10
0.0
 20
1.0
 30
0.0
  9
$PUCSORTHOREF
  2

  9
$PUCSORTHOVIEW
 70
     0
  9
$PUCSORGTOP
 10
0.0
 20
0.0
 30
0.0
  9
$PUCSORGBOTTOM
 10
0.0
 20
0.0
 30
0.0
  9
$PUCSORGLEFT
 10
0.0
 20
0.0
 30
0.0
  9
$PUCSORGRIGHT
 10
0.0
 20
0.0
 30
0.0
  9
$PUCSORGFRONT
 10
0.0
 20
0.0
 30
0.0
  9
$PUCSORGBACK
 10
0.0
 20
0.0
 30
0.0
  9
$USERI1
 70
     0
  9
$USERI2
 70
     0
  9
$USERI3
 70
     0
  9
$USERI4
 70
     0
  9
$USERI5
 70
     0
  9
$USERR1
 40
0.0
  9
$USERR2
 40
0.0
  9
$USERR3
 40
0.0
  9
$USERR4
 40
0.0
  9
$USERR5
 40
0.0
  9
$WORLDVIEW
 70
     1
  9
$SHADEDGE
 70
     3
  9
$SHADEDIF
 70
    70
  9
$TILEMODE
 70
     1
  9
$MAXACTVP
 70
    64
  9
$PINSBASE
 10
0.0
 20
0.0
 30
0.0
  9
$PLIMCHECK
 70
     0
  9
$PEXTMIN
 10
0.0
 20
0.0
 30
0.0
  9
$PEXTMAX
 10
210.0
 20
297.0
 30
0.0
  9
$PLIMMIN
 10
0.0
 20
0.0
  9
$PLIMMAX
 10
210.0
 20
297.0
  9
$UNITMODE
 70
     0
  9
$VISRETAIN
 70
     1
  9
$PLINEGEN
 70
     0
  9
$PSLTSCALE
 70
     1
  9
$TREEDEPTH
 70
  3020
  9
$CMLSTYLE
  2
Standard
  9
$CMLJUST
 70
     0
  9
$CMLSCALE
 40
20.0
  9
$PROXYGRAPHICS
 70
     1
  9
$MEASUREMENT
 70
     1
  9
$CELWEIGHT
370
    -1
  9
$ENDCAPS
280
     0
  9
$JOINSTYLE
280
     0
  9
$LWDISPLAY
290
     0
  9
$INSUNITS
 70
     4
  9
$HYPERLINKBASE
  1

  9
$STYLESHEET
  1

  9
$XEDIT
290
     1
  9
$CEPSNTYPE
380
     0
  9
$PSTYLEMODE
290
     1
  9
$FINGERPRINTGUID
  2
{F47C8BC9-26FD-4E31-9B14-0B0F116CDCCD}
  9
$VERSIONGUID
  2
{FAEB1C32-E019-11D5-929B-00C0DF256EC4}
  9
$EXTNAMES
290
     1
  9
$PSVPSCALE
 40
0.0
  9
$OLESTARTUP
290
     0
  0
ENDSEC
  0
SECTION
  2
CLASSES
  0
CLASS
  1
ACDBDICTIONARYWDFLT
  2
AcDbDictionaryWithDefault
  3
ObjectDBX Classes
 90
        0
280
     0
281
     0
  0
CLASS
  1
VISUALSTYLE
  2
AcDbVisualStyle
  3
ObjectDBX Classes
 90
     4095
280
     0
281
     0
  0
CLASS
  1
MATERIAL
  2
AcDbMaterial
  3
ObjectDBX Classes
 90
     1153
280
     0
281
     0
  0
CLASS
  1
SCALE
  2
AcDbScale
  3
ObjectDBX Classes
 90
     1153
280
     0
281
     0
  0
CLASS
  1
SUN
  2
AcDbSun
  3
SCENEOE
 90
     1153
280
     0
281
     0
  0
CLASS
  1
DICTIONARYVAR
  2
AcDbDictionaryVar
  3
ObjectDBX Classes
 90
        0
280
     0
281
     0
  0
CLASS
  1
ACDBPLACEHOLDER
  2
AcDbPlaceHolder
  3
ObjectDBX Classes
 90
        0
280
     0
281
     0
  0
CLASS
  1
LAYOUT
  2
AcDbLayout
  3
ObjectDBX Classes
 90
        0
280
     0
281
     0
  0
ENDSEC
  0
SECTION
  2
TABLES
  0
TABLE
  2
VPORT
  5
8
330
0
100
AcDbSymbolTable
 70
     1
  0
VPORT
  5
29
330
8
100
AcDbSymbolTableRecord
100
AcDbViewportTableRecord
  2
*Active
 70
     0
 10
0.0
 20
0.0
 11
1.0
 21
1.0
 12
344.1869158879
 22
148.5
 13
0.0
 23
0.0
 14
10.0
 24
10.0
 15
10.0
 25
10.0
 16
0.0
 26
0.0
 36
1.0
 17
0.0
 27
0.0
 37
0.0
 40
297.0
 41
1.9729729729
 42
50.0
 43
0.0
 44
0.0
 50
0.0
 51
0.0
 71
     0
 72
   100
 73
     1
 74
     3
 75
     0
 76
     0
 77
     0
 78
     0
281
     0
 65
     1
110
0.0
120
0.0
130
0.0
111
1.0
121
0.0
131
0.0
112
0.0
122
1.0
132
0.0
 79
     0
146
0.0
  0
ENDTAB
  0
TABLE
  2
LTYPE
  5
5
330
0
100
AcDbSymbolTable
 70
     1
  0
LTYPE
  5
14
330
5
100
AcDbSymbolTableRecord
100
AcDbLinetypeTableRecord
  2
ByBlock
 70
     0
  3

 72
    65
 73
     0
 40
0.0
  0
LTYPE
  5
15
330
5
100
AcDbSymbolTableRecord
100
AcDbLinetypeTableRecord
  2
ByLayer
 70
     0
  3

 72
    65
 73
     0
 40
0.0
  0
LTYPE
  5
16
330
5
100
AcDbSymbolTableRecord
100
AcDbLinetypeTableRecord
  2
Continuous
 70
     0
  3
Solid line
 72
    65
 73
     0
 40
0.0
  0
ENDTAB
  0
TABLE
  2
LAYER
  5
2
330
0
100
AcDbSymbolTable
 70
     3
  0
LAYER
  5
10
330
2
100
AcDbSymbolTableRecord
100
AcDbLayerTableRecord
  2
0
 70
     0
 62
     7
  6
Continuous
370
    -3
390
F
  0
LAYER
  5
6A
330
2
100
AcDbSymbolTableRecord
100
AcDbLayerTableRecord
  2
Default
 70
     0
 62
     7
  6
Continuous
370
    -3
390
F
  0
LAYER
  5
19C
330
2
100
AcDbSymbolTableRecord
100
AcDbLayerTableRecord
  2
Standard
 70
     0
 62
     7
  6
Continuous
370
    -3
390
F
  0
ENDTAB
  0
TABLE
  2
STYLE
  5
3
330
0
100
AcDbSymbolTable
 70
     2
  0
STYLE
  5
11
330
3
100
AcDbSymbolTableRecord
100
AcDbTextStyleTableRecord
  2
Standard
 70
     0
 40
0.0
 41
1.0
 50
0.0
 71
     0
 42
2.5
  3
txt
  4

  0
STYLE
  5
159
330
3
100
AcDbSymbolTableRecord
100
AcDbTextStyleTableRecord
  2
SEACAD_Arial
 70
     0
 40
0.0
 41
1.0
 50
0.0
 71
     0
 42
2.5
  3
arial.ttf
  4

1001
ACAD
1000
Arial
1071
        0
  0
ENDTAB
  0
TABLE
  2
VIEW
  5
6
330
0
100
AcDbSymbolTable
 70
     0
  0
ENDTAB
  0
TABLE
  2
UCS
  5
7
330
0
100
AcDbSymbolTable
 70
     0
  0
ENDTAB
  0
TABLE
  2
APPID
  5
9
330
0
100
AcDbSymbolTable
 70
     1
  0
APPID
  5
12
330
9
100
AcDbSymbolTableRecord
100
AcDbRegAppTableRecord
  2
ACAD
 70
     0
  0
ENDTAB
  0
TABLE
  2
DIMSTYLE
  5
A
330
0
100
AcDbSymbolTable
 70
     2
100
AcDbDimStyleTable
  0
DIMSTYLE
105
27
330
A
100
AcDbSymbolTableRecord
100
AcDbDimStyleTableRecord
  2
ISO-25
 70
     0
 41
2.5
 42
0.625
 43
3.75
 44
1.25
 73
     0
 74
     0
 77
     1
 78
     8
140
2.5
141
2.5
143
0.0393700787
147
0.625
171
     3
172
     1
178
     0
271
     2
272
     2
274
     3
278
    44
283
     0
284
     8
340
11
  0
DIMSTYLE
105
147
102
{ACAD_REACTORS
330
15A
330
166
330
171
330
17C
330
187
330
193
102
}
330
A
100
AcDbSymbolTableRecord
100
AcDbDimStyleTableRecord
  2
Standard
 70
     0
178
     0
340
11
  0
ENDTAB
  0
TABLE
  2
BLOCK_RECORD
  5
1
330
0
100
AcDbSymbolTable
 70
    10
  0
BLOCK_RECORD
  5
1F
330
1
100
AcDbSymbolTableRecord
100
AcDbBlockTableRecord
  2
*Model_Space
340
22
  0
BLOCK_RECORD
  5
1B
330
1
100
AcDbSymbolTableRecord
100
AcDbBlockTableRecord
  2
*Paper_Space
340
1E
  0
BLOCK_RECORD
  5
148
330
1
100
AcDbSymbolTableRecord
100
AcDbBlockTableRecord
  2
_OBLIQUE
340
0
  0
BLOCK_RECORD
  5
14C
330
1
100
AcDbSymbolTableRecord
100
AcDbBlockTableRecord
  2
_DOT
340
0
  0
BLOCK_RECORD
  5
154
330
1
100
AcDbSymbolTableRecord
100
AcDbBlockTableRecord
  2
_SE_FILLED
340
0
  0
BLOCK_RECORD
  5
15B
330
1
100
AcDbSymbolTableRecord
100
AcDbBlockTableRecord
  2
DMBLK35
340
0
  0
BLOCK_RECORD
  5
167
330
1
100
AcDbSymbolTableRecord
100
AcDbBlockTableRecord
  2
DMBLK36
340
0
  0
BLOCK_RECORD
  5
172
330
1
100
AcDbSymbolTableRecord
100
AcDbBlockTableRecord
  2
DMBLK37
340
0
  0
BLOCK_RECORD
  5
17D
330
1
100
AcDbSymbolTableRecord
100
AcDbBlockTableRecord
  2
DMBLK38
340
0
  0
BLOCK_RECORD
  5
188
330
1
100
AcDbSymbolTableRecord
100
AcDbBlockTableRecord
  2
DMBLK39
340
0
  0
BLOCK_RECORD
  5
194
330
1
100
AcDbSymbolTableRecord
100
AcDbBlockTableRecord
  2
DMBLK40
340
0
  0
ENDTAB
  0
ENDSEC
  0
SECTION
  2
BLOCKS
  0
BLOCK
  5
20
330
1F
100
AcDbEntity
  8
0
100
AcDbBlockBegin
  2
*Model_Space
 70
     0
 10
0.0
 20
0.0
 30
0.0
  3
*Model_Space
  1
*Model_Space
  0
ENDBLK
  5
21
330
1F
100
AcDbEntity
  8
0
100
AcDbBlockEnd
  0
BLOCK
  5
1C
330
1B
100
AcDbEntity
 67
     1
  8
0
100
AcDbBlockBegin
  2
*Paper_Space
 70
     0
 10
0.0
 20
0.0
 30
0.0
  3
*Paper_Space
  1
*Paper_Space
  0
ENDBLK
  5
1D
330
1B
100
AcDbEntity
 67
     1
  8
0
100
AcDbBlockEnd
  0
BLOCK
  5
149
330
148
100
AcDbEntity
  8
0
100
AcDbBlockBegin
  2
_OBLIQUE
 70
     0
 10
0.0
 20
0.0
 30
0.0
  3
_OBLIQUE
  1
_OBLIQUE
  0
LINE
  5
14B
330
148
100
AcDbEntity
  8
0
  6
ByBlock
 62
     0
370
    -2
100
AcDbLine
 10
-0.5
 20
-0.5
 30
0.0
 11
0.5
 21
0.5
 31
0.0
  0
ENDBLK
  5
14A
330
148
100
AcDbEntity
  8
0
100
AcDbBlockEnd
  0
BLOCK
  5
14D
330
14C
100
AcDbEntity
  8
0
100
AcDbBlockBegin
  2
_DOT
 70
     0
 10
0.0
 20
0.0
 30
0.0
  3
_DOT
  1
_DOT
  0
POLYLINE
  5
14F
330
14C
100
AcDbEntity
  8
0
  6
ByBlock
 62
     0
100
AcDb2dPolyline
 66
     1
 10
0.0
 20
0.0
 30
0.0
 70
     1
 40
0.5
 41
0.5
  0
VERTEX
  5
151
330
14F
100
AcDbEntity
  8
0
  6
ByBlock
 62
     0
100
AcDbVertex
100
AcDb2dVertex
 10
-0.25
 20
0.0
 30
0.0
 42
1.0
  0
VERTEX
  5
152
330
14F
100
AcDbEntity
  8
0
  6
ByBlock
 62
     0
100
AcDbVertex
100
AcDb2dVertex
 10
0.25
 20
0.0
 30
0.0
 42
1.0
  0
SEQEND
  5
153
330
14F
100
AcDbEntity
  8
0
  6
ByBlock
 62
     0
  0
LINE
  5
150
330
14C
100
AcDbEntity
  8
0
  6
ByBlock
 62
     0
370
    -2
100
AcDbLine
 10
-0.5
 20
0.0
 30
0.0
 11
-1.0
 21
0.0
 31
0.0
  0
ENDBLK
  5
14E
330
14C
100
AcDbEntity
  8
0
100
AcDbBlockEnd
  0
BLOCK
  5
157
330
154
100
AcDbEntity
  8
0
100
AcDbBlockBegin
  2
_SE_FILLED
 70
     0
 10
0.0
 20
0.0
 30
0.0
  3
_SE_FILLED
  1
_SE_FILLED
  0
SOLID
  5
155
330
154
100
AcDbEntity
  8
0
 62
     0
100
AcDbTrace
 10
0.0
 20
0.0
 30
0.0
 11
-1.0
 21
-0.1665
 31
0.0
 12
-1.0
 22
0.1665
 32
0.0
 13
0.0
 23
0.0
 33
0.0
  0
LINE
  5
156
330
154
100
AcDbEntity
  8
0
 62
     0
100
AcDbLine
 10
0.0
 20
0.0
 30
0.0
 11
-1.0
 21
0.0
 31
0.0
  0
ENDBLK
  5
158
330
154
100
AcDbEntity
  8
0
100
AcDbBlockEnd
  0
BLOCK
  5
164
330
15B
100
AcDbEntity
  8
0
100
AcDbBlockBegin
  2
DMBLK35
 70
     0
 10
0.0
 20
0.0
 30
0.0
  3
DMBLK35
  1
DMBLK35
  0
HATCH
  5
15C
330
15B
100
AcDbEntity
  8
Default
  6
Continuous
 62
     7
100
AcDbHatch
 10
0.0
 20
0.0
 30
0.0
210
0.0
220
0.0
230
1.0
  2
SOLID
 70
     1
 71
     0
 91
        1
 92
        1
 93
        3
 72
     1
 10
91.2067272914062
 20
259.1129707283962
 11
91.2067272914062
 21
257.1129707110115
 72
     1
 10
91.2067272914062
 20
257.1129707110115
 11
97.20672734356026
 21
258.1129707197039
 72
     1
 10
97.20672734356026
 20
258.1129707197039
 11
91.2067272914062
 21
259.1129707283962
 97
        0
 75
     0
 76
     1
 98
        0
  0
HATCH
  5
15D
330
15B
100
AcDbEntity
  8
Default
  6
Continuous
 62
     7
100
AcDbHatch
 10
0.0
 20
0.0
 30
0.0
210
0.0
220
0.0
230
1.0
  2
SOLID
 70
     1
 71
     0
 91
        1
 92
        1
 93
        3
 72
     1
 10
111.4819273957144
 20
259.1129707283962
 11
105.4819273435603
 21
258.1129707197039
 72
     1
 10
105.4819273435603
 20
258.1129707197039
 11
111.4819273957144
 21
257.1129707110115
 72
     1
 10
111.4819273957144
 20
257.1129707110115
 11
111.4819273957144
 21
259.1129707283962
 97
        0
 75
     0
 76
     1
 98
        0
  0
LINE
  5
15E
330
15B
100
AcDbEntity
  8
Default
  6
Continuous
 62
     7
100
AcDbLine
 10
97.2067273436
 20
239.5441569189
 30
0.0
 11
97.2067273436
 21
261.1129707458
 31
0.0
  0
LINE
  5
15F
330
15B
100
AcDbEntity
  8
Default
  6
Continuous
 62
     7
100
AcDbLine
 10
105.4819273436
 20
239.5441569189
 30
0.0
 11
105.4819273436
 21
261.1129707458
 31
0.0
  0
LINE
  5
160
330
15B
100
AcDbEntity
  8
Default
  6
Continuous
 62
     7
100
AcDbLine
 10
85.2067272393
 20
258.1129707197
 30
0.0
 11
97.2067273436
 21
258.1129707197
 31
0.0
  0
LINE
  5
161
330
15B
100
AcDbEntity
  8
Default
  6
Continuous
 62
     7
100
AcDbLine
 10
105.4819273436
 20
258.1129707197
 30
0.0
 11
128.6805691802
 21
258.1129707197
 31
0.0
  0
TEXT
  5
162
330
15B
100
AcDbEntity
  8
Default
  6
Continuous
 62
     7
100
AcDbText
 10
121.8849165886
 20
259.6129707197
 30
0.0
 40
6.0
  1
8
  7
SEACAD_Arial
 11
121.8849165886
 21
265.6129707197
 31
0.0
100
AcDbText
 73
     3
  0
TEXT
  5
163
330
15B
100
AcDbEntity
  8
Default
  6
Continuous
 62
     7
100
AcDbText
 10
113.7718731103
 20
259.6129707197
 30
0.0
 40
6.0
  1
M
  7
SEACAD_Arial
 11
113.7718731103
 21
265.6129707197
 31
0.0
100
AcDbText
 73
     3
  0
ENDBLK
  5
165
330
15B
100
AcDbEntity
  8
0
100
AcDbBlockEnd
  0
BLOCK
  5
16F
330
167
100
AcDbEntity
  8
0
100
AcDbBlockBegin
  2
DMBLK36
 70
     0
 10
0.0
 20
0.0
 30
0.0
  3
DMBLK36
  1
DMBLK36
  0
HATCH
  5
168
330
167
100
AcDbEntity
  8
Default
  6
Continuous
 62
     7
100
AcDbHatch
 10
0.0
 20
0.0
 30
0.0
210
0.0
220
0.0
230
1.0
  2
SOLID
 70
     1
 71
     0
 91
        1
 92
        1
 93
        3
 72
     1
 10
151.7379814819724
 20
210.0441569710461
 11
149.7379814645877
 21
210.0441569710461
 72
     1
 10
149.7379814645877
 20
210.0441569710461
 11
150.7379814732801
 21
204.0441569188921
 72
     1
 10
150.7379814732801
 20
204.0441569188921
 11
151.7379814819724
 21
210.0441569710461
 97
        0
 75
     0
 76
     1
 98
        0
  0
HATCH
  5
169
330
167
100
AcDbEntity
  8
Default
  6
Continuous
 62
     7
100
AcDbHatch
 10
0.0
 20
0.0
 30
0.0
210
0.0
220
0.0
230
1.0
  2
SOLID
 70
     1
 71
     0
 91
        1
 92
        1
 93
        3
 72
     1
 10
151.7379814819724
 20
233.544156866738
 11
150.7379814732801
 21
239.544156918892
 72
     1
 10
150.7379814732801
 20
239.544156918892
 11
149.7379814645877
 21
233.544156866738
 72
     1
 10
149.7379814645877
 20
233.544156866738
 11
151.7379814819724
 21
233.544156866738
 97
        0
 75
     0
 76
     1
 98
        0
  0
LINE
  5
16A
330
167
100
AcDbEntity
  8
Default
  6
Continuous
 62
     7
100
AcDbLine
 10
125.3439273436
 20
204.0441569189
 30
0.0
 11
153.7379814994
 21
204.0441569189
 31
0.0
  0
LINE
  5
16B
330
167
100
AcDbEntity
  8
Default
  6
Continuous
 62
     7
100
AcDbLine
 10
105.4819273436
 20
239.5441569189
 30
0.0
 11
153.7379814994
 21
239.5441569189
 31
0.0
  0
LINE
  5
16C
330
167
100
AcDbEntity
  8
Default
  6
Continuous
 62
     7
100
AcDbLine
 10
150.7379814733
 20
204.0441569189
 30
0.0
 11
150.7379814733
 21
216.6941577817
 31
0.0
  0
LINE
  5
16D
330
167
100
AcDbEntity
  8
Default
  6
Continuous
 62
     7
100
AcDbLine
 10
150.7379814733
 20
226.8941579188
 30
0.0
 11
150.7379814733
 21
239.5441569189
 31
0.0
  0
TEXT
  5
16E
330
167
100
AcDbEntity
  8
Default
  6
Continuous
 62
     7
100
AcDbText
 10
146.0423292994
 20
218.7941575
 30
0.0
 40
6.0
  1
36
  7
SEACAD_Arial
 11
146.0423292994
 21
224.7941575
 31
0.0
100
AcDbText
 73
     3
  0
ENDBLK
  5
170
330
167
100
AcDbEntity
  8
0
100
AcDbBlockEnd
  0
BLOCK
  5
17A
330
172
100
AcDbEntity
  8
0
100
AcDbBlockBegin
  2
DMBLK37
 70
     0
 10
0.0
 20
0.0
 30
0.0
  3
DMBLK37
  1
DMBLK37
  0
HATCH
  5
173
330
172
100
AcDbEntity
  8
Default
  6
Continuous
 62
     7
100
AcDbHatch
 10
0.0
 20
0.0
 30
0.0
210
0.0
220
0.0
230
1.0
  2
SOLID
 70
     1
 71
     0
 91
        1
 92
        1
 93
        3
 72
     1
 10
151.7379814819724
 20
198.044156866738
 11
150.7379814732801
 21
204.0441569188921
 72
     1
 10
150.7379814732801
 20
204.0441569188921
 11
149.7379814645877
 21
198.044156866738
 72
     1
 10
149.7379814645877
 20
198.044156866738
 11
151.7379814819724
 21
198.044156866738
 97
        0
 75
     0
 76
     1
 98
        0
  0
HATCH
  5
174
330
172
100
AcDbEntity
  8
Default
  6
Continuous
 62
     7
100
AcDbHatch
 10
0.0
 20
0.0
 30
0.0
210
0.0
220
0.0
230
1.0
  2
SOLID
 70
     1
 71
     0
 91
        1
 92
        1
 93
        3
 72
     1
 10
151.7379814819724
 20
117.5441569710461
 11
149.7379814645877
 21
117.5441569710461
 72
     1
 10
149.7379814645877
 20
117.5441569710461
 11
150.7379814732801
 21
111.5441569188921
 72
     1
 10
150.7379814732801
 20
111.5441569188921
 11
151.7379814819724
 21
117.5441569710461
 97
        0
 75
     0
 76
     1
 98
        0
  0
LINE
  5
175
330
172
100
AcDbEntity
  8
Default
  6
Continuous
 62
     7
100
AcDbLine
 10
125.3439273436
 20
204.0441569189
 30
0.0
 11
153.7379814994
 21
204.0441569189
 31
0.0
  0
LINE
  5
176
330
172
100
AcDbEntity
  8
Default
  6
Continuous
 62
     7
100
AcDbLine
 10
114.8439273436
 20
111.5441569189
 30
0.0
 11
153.7379814994
 21
111.5441569189
 31
0.0
  0
LINE
  5
177
330
172
100
AcDbEntity
  8
Default
  6
Continuous
 62
     7
100
AcDbLine
 10
150.7379814733
 20
204.0441569189
 30
0.0
 11
150.7379814733
 21
162.8941569725
 31
0.0
  0
LINE
  5
178
330
172
100
AcDbEntity
  8
Default
  6
Continuous
 62
     7
100
AcDbLine
 10
150.7379814733
 20
152.6941568652
 30
0.0
 11
150.7379814733
 21
111.5441569189
 31
0.0
  0
TEXT
  5
179
330
172
100
AcDbEntity
  8
Default
  6
Continuous
 62
     7
100
AcDbText
 10
146.0423292994
 20
154.7941563228
 30
0.0
 40
6.0
  1
92
  7
SEACAD_Arial
 11
146.0423292994
 21
160.7941563228
 31
0.0
100
AcDbText
 73
     3
  0
ENDBLK
  5
17B
330
172
100
AcDbEntity
  8
0
100
AcDbBlockEnd
  0
BLOCK
  5
185
330
17D
100
AcDbEntity
  8
0
100
AcDbBlockBegin
  2
DMBLK38
 70
     0
 10
0.0
 20
0.0
 30
0.0
  3
DMBLK38
  1
DMBLK38
  0
HATCH
  5
17E
330
17D
100
AcDbEntity
  8
Default
  6
Continuous
 62
     7
100
AcDbHatch
 10
0.0
 20
0.0
 30
0.0
210
0.0
220
0.0
230
1.0
  2
SOLID
 70
     1
 71
     0
 91
        1
 92
        1
 93
        3
 72
     1
 10
80.84392729140625
 20
93.94070552410562
 11
86.84392734356031
 21
94.94070553279796
 72
     1
 10
86.84392734356031
 20
94.94070553279796
 11
80.84392729140625
 21
95.9407055414903
 72
     1
 10
80.84392729140625
 20
95.9407055414903
 11
80.84392729140625
 21
93.94070552410562
 97
        0
 75
     0
 76
     1
 98
        0
  0
HATCH
  5
17F
330
17D
100
AcDbEntity
  8
Default
  6
Continuous
 62
     7
100
AcDbHatch
 10
0.0
 20
0.0
 30
0.0
210
0.0
220
0.0
230
1.0
  2
SOLID
 70
     1
 71
     0
 91
        1
 92
        1
 93
        3
 72
     1
 10
121.8439273957143
 20
93.94070552410562
 11
121.8439273957143
 21
95.9407055414903
 72
     1
 10
121.8439273957143
 20
95.9407055414903
 11
115.8439273435603
 21
94.94070553279796
 72
     1
 10
115.8439273435603
 20
94.94070553279796
 11
121.8439273957143
 21
93.94070552410562
 97
        0
 75
     0
 76
     1
 98
        0
  0
LINE
  5
180
330
17D
100
AcDbEntity
  8
Default
  6
Continuous
 62
     7
100
AcDbLine
 10
86.8439273436
 20
112.5441569189
 30
0.0
 11
86.8439273436
 21
91.9407055067
 31
0.0
  0
LINE
  5
181
330
17D
100
AcDbEntity
  8
Default
  6
Continuous
 62
     7
100
AcDbLine
 10
115.8439273436
 20
112.5441569189
 30
0.0
 11
115.8439273436
 21
91.9407055067
 31
0.0
  0
LINE
  5
182
330
17D
100
AcDbEntity
  8
Default
  6
Continuous
 62
     7
100
AcDbLine
 10
74.8439272393
 20
94.9407055328
 30
0.0
 11
86.8439273436
 21
94.9407055328
 31
0.0
  0
LINE
  5
183
330
17D
100
AcDbEntity
  8
Default
  6
Continuous
 62
     7
100
AcDbLine
 10
115.8439273436
 20
94.9407055328
 30
0.0
 11
127.8439274479
 21
94.9407055328
 31
0.0
  0
TEXT
  5
184
330
17D
100
AcDbEntity
  8
Default
  6
Continuous
 62
     7
100
AcDbText
 10
96.6482747524
 20
91.9407055328
 30
0.0
 40
6.0
  1
29
  7
SEACAD_Arial
 11
96.6482747524
 21
97.9407055328
 31
0.0
100
AcDbText
 73
     3
  0
ENDBLK
  5
186
330
17D
100
AcDbEntity
  8
0
100
AcDbBlockEnd
  0
BLOCK
  5
191
330
188
100
AcDbEntity
  8
0
100
AcDbBlockBegin
  2
DMBLK39
 70
     0
 10
0.0
 20
0.0
 30
0.0
  3
DMBLK39
  1
DMBLK39
  0
HATCH
  5
189
330
188
100
AcDbEntity
  8
Default
  6
Continuous
 62
     7
100
AcDbHatch
 10
0.0
 20
0.0
 30
0.0
210
0.0
220
0.0
230
1.0
  2
SOLID
 70
     1
 71
     0
 91
        1
 92
        1
 93
        3
 72
     1
 10
129.8439273957144
 20
199.0286378189611
 11
123.8439273435603
 21
198.0286378102688
 72
     1
 10
123.8439273435603
 20
198.0286378102688
 11
129.8439273957143
 21
197.0286378015764
 72
     1
 10
129.8439273957144
 20
197.0286378015764
 11
129.8439273957144
 21
199.0286378189611
 97
        0
 75
     0
 76
     1
 98
        0
  0
HATCH
  5
18A
330
188
100
AcDbEntity
  8
Default
  6
Continuous
 62
     7
100
AcDbHatch
 10
0.0
 20
0.0
 30
0.0
210
0.0
220
0.0
230
1.0
  2
SOLID
 70
     1
 71
     0
 91
        1
 92
        1
 93
        3
 72
     1
 10
72.84392729140617
 20
199.0286378189611
 11
72.84392729140617
 21
197.0286378015764
 72
     1
 10
72.84392729140617
 20
197.0286378015764
 11
78.84392734356024
 21
198.0286378102688
 72
     1
 10
78.84392734356024
 20
198.0286378102688
 11
72.84392729140617
 21
199.0286378189611
 97
        0
 75
     0
 76
     1
 98
        0
  0
LINE
  5
18B
330
188
100
AcDbEntity
  8
Default
  6
Continuous
 62
     7
100
AcDbLine
 10
123.8439273436
 20
195.2941569189
 30
0.0
 11
123.8439273436
 21
201.0286378363
 31
0.0
  0
LINE
  5
18C
330
188
100
AcDbEntity
  8
Default
  6
Continuous
 62
     7
100
AcDbLine
 10
78.8439273436
 20
195.2941569189
 30
0.0
 11
78.8439273436
 21
201.0286378363
 31
0.0
  0
LINE
  5
18D
330
188
100
AcDbEntity
  8
Default
  6
Continuous
 62
     7
100
AcDbLine
 10
135.8439274479
 20
198.0286378103
 30
0.0
 11
123.8439273436
 21
198.0286378103
 31
0.0
  0
LINE
  5
18E
330
188
100
AcDbEntity
  8
Default
  6
Continuous
 62
     7
100
AcDbLine
 10
78.8439273436
 20
198.0286378103
 30
0.0
 11
49.9815944184
 21
198.0286378103
 31
0.0
  0
TEXT
  5
18F
330
188
100
AcDbEntity
  8
Default
  6
Continuous
 62
     7
100
AcDbText
 10
60.1946398119
 20
199.5286378103
 30
0.0
 40
6.0
  1
45
  7
SEACAD_Arial
 11
60.1946398119
 21
205.5286378103
 31
0.0
100
AcDbText
 73
     3
  0
TEXT
  5
190
330
188
100
AcDbEntity
  8
Default
  6
Continuous
 62
     7
100
AcDbText
 10
52.0815963336
 20
199.5286378103
 30
0.0
 40
6.0
  1
M
  7
SEACAD_Arial
 11
52.0815963336
 21
205.5286378103
 31
0.0
100
AcDbText
 73
     3
  0
ENDBLK
  5
192
330
188
100
AcDbEntity
  8
0
100
AcDbBlockEnd
  0
BLOCK
  5
19A
330
194
100
AcDbEntity
  8
0
100
AcDbBlockBegin
  2
DMBLK40
 70
     0
 10
0.0
 20
0.0
 30
0.0
  3
DMBLK40
  1
DMBLK40
  0
HATCH
  5
195
330
194
100
AcDbEntity
  8
Default
  6
Continuous
 62
     7
100
AcDbHatch
 10
0.0
 20
0.0
 30
0.0
210
0.0
220
0.0
230
1.0
  2
SOLID
 70
     1
 71
     0
 91
        1
 92
        1
 93
        3
 72
     1
 10
74.44392729140623
 20
156.7594591714131
 11
74.44392729140623
 21
154.7594591540284
 72
     1
 10
74.44392729140623
 20
154.7594591540284
 11
80.44392734356029
 21
155.7594591627208
 72
     1
 10
80.44392734356029
 20
155.7594591627208
 11
74.44392729140623
 21
156.7594591714131
 97
        0
 75
     0
 76
     1
 98
        0
  0
HATCH
  5
196
330
194
100
AcDbEntity
  8
Default
  6
Continuous
 62
     7
100
AcDbHatch
 10
0.0
 20
0.0
 30
0.0
210
0.0
220
0.0
230
1.0
  2
SOLID
 70
     1
 71
     0
 91
        1
 92
        1
 93
        3
 72
     1
 10
128.2439273957144
 20
156.7594591714131
 11
122.2439273435604
 21
155.7594591627208
 72
     1
 10
122.2439273435603
 20
155.7594591627208
 11
128.2439273957144
 21
154.7594591540284
 72
     1
 10
128.2439273957144
 20
154.7594591540284
 11
128.2439273957144
 21
156.7594591714131
 97
        0
 75
     0
 76
     1
 98
        0
  0
LINE
  5
197
330
194
100
AcDbEntity
  8
Default
  6
Continuous
 62
     7
100
AcDbLine
 10
58.0291946191
 20
155.7594591627
 30
0.0
 11
80.4439273436
 21
155.7594591627
 31
0.0
  0
LINE
  5
198
330
194
100
AcDbEntity
  8
Default
  6
Continuous
 62
     7
100
AcDbLine
 10
122.2439273436
 20
155.7594591627
 30
0.0
 11
134.2439274479
 21
155.7594591627
 31
0.0
  0
TEXT
  5
199
330
194
100
AcDbEntity
  8
Default
  6
Continuous
 62
     7
100
AcDbText
 10
60.1291946927
 20
157.2594591627
 30
0.0
 40
6.0
  1
42
  7
SEACAD_Arial
 11
60.1291946927
 21
163.2594591627
 31
0.0
100
AcDbText
 73
     3
  0
ENDBLK
  5
19B
330
194
100
AcDbEntity
  8
0
100
AcDbBlockEnd
  0
ENDSEC
  0
SECTION
  2
ENTITIES
  0
MTEXT
  5
6B
330
1F
100
AcDbEntity
  8
Default
100
AcDbMText
 10
182.75
 20
17.1
 30
0.0
 40
2.5
 41
39.5
 71
     5
 72
     1
  1
{\fSolid Edge ISO|b0||i0||c0|p34;\C7;\H5.;\W1.;47025000}
 73
     1
 44
1.0
1001
ACAD
1000
ACAD_MTEXT_DEFINED_HEIGHT_BEGIN
1070
    46
1040
8.2
1000
ACAD_MTEXT_DEFINED_HEIGHT_END
  0
MTEXT
  5
6C
330
1F
100
AcDbEntity
  8
Default
100
AcDbMText
 10
104.0
 20
8.5
 30
0.0
 40
2.5
 41
112.0
 71
     5
 72
     1
  1
{\fSolid Edge ISO|b0||i0||c0|p34;\C7;\H3.;\W1.;47025000}
 73
     1
 44
1.0
1001
ACAD
1000
ACAD_MTEXT_DEFINED_HEIGHT_BEGIN
1070
    46
1040
5.0
1000
ACAD_MTEXT_DEFINED_HEIGHT_END
  0
MTEXT
  5
6D
330
1F
100
AcDbEntity
  8
Default
100
AcDbMText
 10
54.85
 20
42.6
 30
0.0
 40
2.5
 41
18.9
 71
     5
 72
     1
  1
{\fSolid Edge ISO|b0||i0||c0|p34;\C7;\H2.2;\W1.;LTS}
 73
     1
 44
1.0
1001
ACAD
1000
ACAD_MTEXT_DEFINED_HEIGHT_BEGIN
1070
    46
1040
4.0
1000
ACAD_MTEXT_DEFINED_HEIGHT_END
  0
MTEXT
  5
6E
330
1F
100
AcDbEntity
  8
Default
100
AcDbMText
 10
54.85
 20
37.6
 30
0.0
 40
2.5
 41
18.9
 71
     5
 72
     1
  1
{\fSolid Edge ISO|b0||i0||c0|p34;\C7;\H2.2;\W1.;2. 2.2018}
 73
     1
 44
1.0
1001
ACAD
1000
ACAD_MTEXT_DEFINED_HEIGHT_BEGIN
1070
    46
1040
4.0
1000
ACAD_MTEXT_DEFINED_HEIGHT_END
  0
MTEXT
  5
6F
330
1F
100
AcDbEntity
  8
Default
100
AcDbMText
 10
54.85
 20
32.4
 30
0.0
 40
2.5
 41
18.9
 71
     5
 72
     1
  1
{\fSolid Edge ISO|b0||i0||c0|p34;\C7;\H2.2;\W1.;Matsumoto}
 73
     1
 44
1.0
1001
ACAD
1000
ACAD_MTEXT_DEFINED_HEIGHT_BEGIN
1070
    46
1040
4.0
1000
ACAD_MTEXT_DEFINED_HEIGHT_END
  0
MTEXT
  5
70
330
1F
100
AcDbEntity
  8
Default
100
AcDbMText
 10
54.85
 20
27.6
 30
0.0
 40
2.5
 41
18.9
 71
     5
 72
     1
  1
{\fSolid Edge ISO|b0||i0||c0|p34;\C7;\H2.2;\W1.;Rikukawa}
 73
     1
 44
1.0
1001
ACAD
1000
ACAD_MTEXT_DEFINED_HEIGHT_BEGIN
1070
    46
1040
4.0
1000
ACAD_MTEXT_DEFINED_HEIGHT_END
  0
MTEXT
  5
71
330
1F
100
AcDbEntity
  8
Default
100
AcDbMText
 10
15.8
 20
32.9
 30
0.0
 40
2.5
 41
16.8
 71
     5
 72
     1
  1
{\fSolid Edge ISO|b0||i0||c0|p34;\C7;\H5.;\W1.;1:1}
 73
     1
 44
1.0
1001
ACAD
1000
ACAD_MTEXT_DEFINED_HEIGHT_BEGIN
1070
    46
1040
8.2
1000
ACAD_MTEXT_DEFINED_HEIGHT_END
  0
MTEXT
  5
72
330
1F
100
AcDbEntity
  8
Default
100
AcDbMText
 10
183.25
 20
6.9
 30
0.0
 40
2.5
 41
37.5
 71
     5
 72
     1
  1
{\fArial|b0||i0||c0|p34;\C7;\H2.5;\W1.;m47025}
 73
     1
 44
1.0
1001
ACAD
1000
ACAD_MTEXT_DEFINED_HEIGHT_BEGIN
1070
    46
1040
5.0
1000
ACAD_MTEXT_DEFINED_HEIGHT_END
  0
LINE
  5
73
330
1F
100
AcDbEntity
  8
0
  6
Continuous
 62
     7
100
AcDbLine
 10
94.4439273436
 20
225.3301569189
 30
0.0
 11
97.2067273436
 21
239.5441569189
 31
0.0
  0
LINE
  5
74
330
1F
100
AcDbEntity
  8
0
  6
Continuous
 62
     7
100
AcDbLine
 10
108.2439273436
 20
225.3301569189
 30
0.0
 11
105.4799273436
 21
239.5501569189
 31
0.0
  0
LINE
  5
75
330
1F
100
AcDbEntity
  8
0
  6
Continuous
 62
     7
100
AcDbLine
 10
89.3439273436
 20
218.5441569189
 30
0.0
 11
113.3439273436
 21
218.5441569189
 31
0.0
  0
LINE
  5
76
330
1F
100
AcDbEntity
  8
0
  6
Continuous
 62
     7
100
AcDbLine
 10
88.3439273436
 20
210.0441569189
 30
0.0
 11
88.3439273436
 21
217.9661569189
 31
0.0
  0
LINE
  5
77
330
1F
100
AcDbEntity
  8
0
  6
Continuous
 62
     7
100
AcDbLine
 10
88.3439273436
 20
217.9661569189
 30
0.0
 11
89.3439273436
 21
218.5441569189
 31
0.0
  0
LINE
  5
78
330
1F
100
AcDbEntity
  8
0
  6
Continuous
 62
     7
100
AcDbLine
 10
97.2067273436
 20
239.5441569189
 30
0.0
 11
99.3439273436
 21
239.5441569189
 31
0.0
  0
LINE
  5
79
330
1F
100
AcDbEntity
  8
0
  6
Continuous
 62
     7
100
AcDbLine
 10
89.8439273436
 20
220.0441569189
 30
0.0
 11
112.8439273436
 21
220.0441569189
 31
0.0
  0
LINE
  5
7A
330
1F
100
AcDbEntity
  8
0
  6
Continuous
 62
     7
100
AcDbLine
 10
94.4439273436
 20
220.0441569189
 30
0.0
 11
94.4439273436
 21
225.3301569189
 31
0.0
  0
LINE
  5
7B
330
1F
100
AcDbEntity
  8
0
  6
Continuous
 62
     7
100
AcDbLine
 10
89.8439273436
 20
218.5441569189
 30
0.0
 11
89.8439273436
 21
220.0441569189
 31
0.0
  0
LINE
  5
7C
330
1F
100
AcDbEntity
  8
0
  6
Continuous
 62
     7
100
AcDbLine
 10
99.3439273436
 20
237.5441569189
 30
0.0
 11
103.3439273436
 21
237.5441569189
 31
0.0
  0
LINE
  5
7D
330
1F
100
AcDbEntity
  8
0
  6
Continuous
 62
     7
100
AcDbLine
 10
103.3439273436
 20
237.5441569189
 30
0.0
 11
103.3439273436
 21
239.5441569189
 31
0.0
  0
LINE
  5
7E
330
1F
100
AcDbEntity
  8
0
  6
Continuous
 62
     7
100
AcDbLine
 10
99.3439273436
 20
237.5441569189
 30
0.0
 11
99.3439273436
 21
239.5441569189
 31
0.0
  0
LINE
  5
7F
330
1F
100
AcDbEntity
  8
0
  6
Continuous
 62
     7
100
AcDbLine
 10
103.3439273436
 20
239.5441569189
 30
0.0
 11
105.4819273436
 21
239.5441569189
 31
0.0
  0
LINE
  5
80
330
1F
100
AcDbEntity
  8
0
  6
Continuous
 62
     7
100
AcDbLine
 10
108.2439273436
 20
220.0441569189
 30
0.0
 11
108.2439273436
 21
225.3301569189
 31
0.0
  0
LINE
  5
81
330
1F
100
AcDbEntity
  8
0
  6
Continuous
 62
     7
100
AcDbLine
 10
112.8439273436
 20
218.5441569189
 30
0.0
 11
112.8439273436
 21
220.0441569189
 31
0.0
  0
LINE
  5
82
330
1F
100
AcDbEntity
  8
0
  6
Continuous
 62
     7
100
AcDbLine
 10
114.3439273436
 20
210.0441569189
 30
0.0
 11
114.3439273436
 21
217.9661569189
 31
0.0
  0
LINE
  5
83
330
1F
100
AcDbEntity
  8
0
  6
Continuous
 62
     7
100
AcDbLine
 10
114.3439273436
 20
217.9661569189
 30
0.0
 11
113.3439273436
 21
218.5441569189
 31
0.0
  0
LINE
  5
84
330
1F
100
AcDbEntity
  8
0
  6
Continuous
 62
     7
100
AcDbLine
 10
94.4439273436
 20
225.3301569189
 30
0.0
 11
99.0287273436
 21
225.3301569189
 31
0.0
  0
LINE
  5
85
330
1F
100
AcDbEntity
  8
0
  6
Continuous
 62
     7
100
AcDbLine
 10
96.3439273436
 20
210.0441569189
 30
0.0
 11
96.3439273436
 21
217.9661569189
 31
0.0
  0
LINE
  5
86
330
1F
100
AcDbEntity
  8
0
  6
Continuous
 62
     7
100
AcDbLine
 10
93.4515273436
 20
210.0441569189
 30
0.0
 11
93.4515273436
 21
217.9661569189
 31
0.0
  0
LINE
  5
87
330
1F
100
AcDbEntity
  8
0
  6
Continuous
 62
     7
100
AcDbLine
 10
88.4515273436
 20
210.0441569189
 30
0.0
 11
88.4515273436
 21
217.9661569189
 31
0.0
  0
LINE
  5
88
330
1F
100
AcDbEntity
  8
0
  6
Continuous
 62
     7
100
AcDbLine
 10
106.3439273436
 20
210.0441569189
 30
0.0
 11
106.3439273436
 21
217.9661569189
 31
0.0
  0
LINE
  5
89
330
1F
100
AcDbEntity
  8
0
  6
Continuous
 62
     7
100
AcDbLine
 10
96.3439273436
 20
217.9661569189
 30
0.0
 11
93.4515273436
 21
217.9661569189
 31
0.0
  0
LINE
  5
8A
330
1F
100
AcDbEntity
  8
0
  6
Continuous
 62
     7
100
AcDbLine
 10
88.4515273436
 20
217.9661569189
 30
0.0
 11
88.3439273436
 21
217.9661569189
 31
0.0
  0
LINE
  5
8B
330
1F
100
AcDbEntity
  8
0
  6
Continuous
 62
     7
100
AcDbLine
 10
106.3439273436
 20
217.9661569189
 30
0.0
 11
109.2359273436
 21
217.9661569189
 31
0.0
  0
LINE
  5
8C
330
1F
100
AcDbEntity
  8
0
  6
Continuous
 62
     7
100
AcDbLine
 10
109.2359273436
 20
210.0441569189
 30
0.0
 11
109.2359273436
 21
217.9661569189
 31
0.0
  0
LINE
  5
8D
330
1F
100
AcDbEntity
  8
0
  6
Continuous
 62
     7
100
AcDbLine
 10
114.2359273436
 20
210.0441569189
 30
0.0
 11
114.2359273436
 21
217.9661569189
 31
0.0
  0
LINE
  5
8E
330
1F
100
AcDbEntity
  8
0
  6
Continuous
 62
     7
100
AcDbLine
 10
114.2359273436
 20
217.9661569189
 30
0.0
 11
114.3439273436
 21
217.9661569189
 31
0.0
  0
LINE
  5
8F
330
1F
100
AcDbEntity
  8
0
  6
Continuous
 62
     7
100
AcDbLine
 10
77.8439273436
 20
203.0441569189
 30
0.0
 11
77.9153273436
 21
203.0441569189
 31
0.0
  0
LINE
  5
90
330
1F
100
AcDbEntity
  8
0
  6
Continuous
 62
     7
100
AcDbLine
 10
78.8439273436
 20
195.2941569189
 30
0.0
 11
78.8439273436
 21
200.2941569189
 31
0.0
  0
LINE
  5
91
330
1F
100
AcDbEntity
  8
0
  6
Continuous
 62
     7
100
AcDbLine
 10
79.5939273436
 20
194.5441569189
 30
0.0
 11
79.5939273436
 21
201.0441569189
 31
0.0
  0
LINE
  5
92
330
1F
100
AcDbEntity
  8
0
  6
Continuous
 62
     7
100
AcDbLine
 10
77.3439273436
 20
208.0441569189
 30
0.0
 11
125.3439273436
 21
208.0441569189
 31
0.0
  0
LINE
  5
93
330
1F
100
AcDbEntity
  8
0
  6
Continuous
 62
     7
100
AcDbLine
 10
82.3439273436
 20
208.0441569189
 30
0.0
 11
82.3439273436
 21
210.0441569189
 31
0.0
  0
LINE
  5
94
330
1F
100
AcDbEntity
  8
0
  6
Continuous
 62
     7
100
AcDbLine
 10
76.3439273436
 20
205.0441569189
 30
0.0
 11
76.3439273436
 21
207.0441569189
 31
0.0
  0
LINE
  5
95
330
1F
100
AcDbEntity
  8
0
  6
Continuous
 62
     7
100
AcDbLine
 10
76.3439273436
 20
207.0441569189
 30
0.0
 11
77.3439273436
 21
208.0441569189
 31
0.0
  0
LINE
  5
96
330
1F
100
AcDbEntity
  8
0
  6
Continuous
 62
     7
100
AcDbLine
 10
76.3439273436
 20
205.0441569189
 30
0.0
 11
77.3439273436
 21
204.0441569189
 31
0.0
  0
LINE
  5
97
330
1F
100
AcDbEntity
  8
0
  6
Continuous
 62
     7
100
AcDbLine
 10
77.3439273436
 20
204.0441569189
 30
0.0
 11
125.3439273436
 21
204.0441569189
 31
0.0
  0
LINE
  5
98
330
1F
100
AcDbEntity
  8
0
  6
Continuous
 62
     7
100
AcDbLine
 10
120.3439273436
 20
210.0441569189
 30
0.0
 11
82.3439273436
 21
210.0441569189
 31
0.0
  0
LINE
  5
99
330
1F
100
AcDbEntity
  8
0
  6
Continuous
 62
     7
100
AcDbLine
 10
120.3439273436
 20
208.0441569189
 30
0.0
 11
120.3439273436
 21
210.0441569189
 31
0.0
  0
LINE
  5
9A
330
1F
100
AcDbEntity
  8
0
  6
Continuous
 62
     7
100
AcDbLine
 10
126.3439273436
 20
207.0441569189
 30
0.0
 11
125.3439273436
 21
208.0441569189
 31
0.0
  0
LINE
  5
9B
330
1F
100
AcDbEntity
  8
0
  6
Continuous
 62
     7
100
AcDbLine
 10
126.3439273436
 20
205.0441569189
 30
0.0
 11
125.3439273436
 21
204.0441569189
 31
0.0
  0
LINE
  5
9C
330
1F
100
AcDbEntity
  8
0
  6
Continuous
 62
     7
100
AcDbLine
 10
126.3439273436
 20
205.0441569189
 30
0.0
 11
126.3439273436
 21
207.0441569189
 31
0.0
  0
LINE
  5
9D
330
1F
100
AcDbEntity
  8
0
  6
Continuous
 62
     7
100
AcDbLine
 10
79.0939273436
 20
201.0441569189
 30
0.0
 11
123.5939273436
 21
201.0441569189
 31
0.0
  0
LINE
  5
9E
330
1F
100
AcDbEntity
  8
0
  6
Continuous
 62
     7
100
AcDbLine
 10
79.5939273436
 20
201.0441569189
 30
0.0
 11
78.8439273436
 21
200.2941569189
 31
0.0
  0
LINE
  5
9F
330
1F
100
AcDbEntity
  8
0
  6
Continuous
 62
     7
100
AcDbLine
 10
123.0939273436
 20
194.5441569189
 30
0.0
 11
123.0939273436
 21
201.0441569189
 31
0.0
  0
LINE
  5
A0
330
1F
100
AcDbEntity
  8
0
  6
Continuous
 62
     7
100
AcDbLine
 10
123.8439273436
 20
195.2941569189
 30
0.0
 11
123.8439273436
 21
200.2941569189
 31
0.0
  0
LINE
  5
A1
330
1F
100
AcDbEntity
  8
0
  6
Continuous
 62
     7
100
AcDbLine
 10
123.0939273436
 20
201.0441569189
 30
0.0
 11
123.8439273436
 21
200.2941569189
 31
0.0
  0
LINE
  5
A2
330
1F
100
AcDbEntity
  8
0
  6
Continuous
 62
     7
100
AcDbLine
 10
124.8439273436
 20
203.0441569189
 30
0.0
 11
124.7719273436
 21
203.0441569189
 31
0.0
  0
LINE
  5
A3
330
1F
100
AcDbEntity
  8
0
  6
Continuous
 62
     7
100
AcDbLine
 10
123.0939273436
 20
194.5441569189
 30
0.0
 11
79.5939273436
 21
194.5441569189
 31
0.0
  0
LINE
  5
A4
330
1F
100
AcDbEntity
  8
0
  6
Continuous
 62
     7
100
AcDbLine
 10
79.5939273436
 20
194.5441569189
 30
0.0
 11
78.8439273436
 21
195.2941569189
 31
0.0
  0
LINE
  5
A5
330
1F
100
AcDbEntity
  8
0
  6
Continuous
 62
     7
100
AcDbLine
 10
123.0939273436
 20
194.5441569189
 30
0.0
 11
123.8439273436
 21
195.2941569189
 31
0.0
  0
LINE
  5
A6
330
1F
100
AcDbEntity
  8
0
  6
Continuous
 62
     7
100
AcDbLine
 10
115.8439273436
 20
112.5441569189
 30
0.0
 11
115.8439273436
 21
118.0441569189
 31
0.0
  0
LINE
  5
A7
330
1F
100
AcDbEntity
  8
0
  6
Continuous
 62
     7
100
AcDbLine
 10
115.8439273436
 20
122.5441569189
 30
0.0
 11
115.8439273436
 21
127.0441569189
 31
0.0
  0
LINE
  5
A8
330
1F
100
AcDbEntity
  8
0
  6
Continuous
 62
     7
100
AcDbLine
 10
106.6359273436
 20
116.5441569189
 30
0.0
 11
96.0523273436
 21
116.5441569189
 31
0.0
  0
LINE
  5
A9
330
1F
100
AcDbEntity
  8
0
  6
Continuous
 62
     7
100
AcDbLine
 10
86.8439273436
 20
112.5441569189
 30
0.0
 11
86.8439273436
 21
118.0441569189
 31
0.0
  0
LINE
  5
AA
330
1F
100
AcDbEntity
  8
0
  6
Continuous
 62
     7
100
AcDbLine
 10
115.3439273436
 20
118.5441569189
 30
0.0
 11
87.3439273436
 21
118.5441569189
 31
0.0
  0
LINE
  5
AB
330
1F
100
AcDbEntity
  8
0
  6
Continuous
 62
     7
100
AcDbLine
 10
115.3439273436
 20
122.0441569189
 30
0.0
 11
87.3439273436
 21
122.0441569189
 31
0.0
  0
LINE
  5
AC
330
1F
100
AcDbEntity
  8
0
  6
Continuous
 62
     7
100
AcDbLine
 10
86.8439273436
 20
122.5441569189
 30
0.0
 11
86.8439273436
 21
127.0441569189
 31
0.0
  0
LINE
  5
AD
330
1F
100
AcDbEntity
  8
0
  6
Continuous
 62
     7
100
AcDbLine
 10
114.8439273436
 20
111.5441569189
 30
0.0
 11
87.8439273436
 21
111.5441569189
 31
0.0
  0
LINE
  5
AE
330
1F
100
AcDbEntity
  8
0
  6
Continuous
 62
     7
100
AcDbLine
 10
119.6179273436
 20
128.4175569189
 30
0.0
 11
115.8439273436
 21
127.0441569189
 31
0.0
  0
LINE
  5
AF
330
1F
100
AcDbEntity
  8
0
  6
Continuous
 62
     7
100
AcDbLine
 10
122.2439273436
 20
131.0441569189
 30
0.0
 11
122.2439273436
 21
142.5441569189
 31
0.0
  0
LINE
  5
B0
330
1F
100
AcDbEntity
  8
0
  6
Continuous
 62
     7
100
AcDbLine
 10
80.4439273436
 20
142.5441569189
 30
0.0
 11
122.2439273436
 21
142.5441569189
 31
0.0
  0
LINE
  5
B1
330
1F
100
AcDbEntity
  8
0
  6
Continuous
 62
     7
100
AcDbLine
 10
80.4439273436
 20
144.0441569189
 30
0.0
 11
80.4439273436
 21
194.5441569189
 31
0.0
  0
LINE
  5
B2
330
1F
100
AcDbEntity
  8
0
  6
Continuous
 62
     7
100
AcDbLine
 10
80.4439273436
 20
144.0441569189
 30
0.0
 11
122.2439273436
 21
144.0441569189
 31
0.0
  0
LINE
  5
B3
330
1F
100
AcDbEntity
  8
0
  6
Continuous
 62
     7
100
AcDbLine
 10
122.2439273436
 20
144.0441569189
 30
0.0
 11
122.2439273436
 21
194.5441569189
 31
0.0
  0
LINE
  5
B4
330
1F
100
AcDbEntity
  8
0
  6
Continuous
 62
     7
100
AcDbLine
 10
80.4439273436
 20
141.5441569189
 30
0.0
 11
122.2439273436
 21
141.5441569189
 31
0.0
  0
LINE
  5
B5
330
1F
100
AcDbEntity
  8
0
  6
Continuous
 62
     7
100
AcDbLine
 10
119.6179273436
 20
128.4175569189
 30
0.0
 11
122.2439273436
 21
131.0441569189
 31
0.0
  0
LINE
  5
B6
330
1F
100
AcDbEntity
  8
0
  6
Continuous
 62
     7
100
AcDbLine
 10
80.4439273436
 20
134.0441569189
 30
0.0
 11
122.2439273436
 21
134.0441569189
 31
0.0
  0
LINE
  5
B7
330
1F
100
AcDbEntity
  8
0
  6
Continuous
 62
     7
100
AcDbLine
 10
83.0705273436
 20
128.4175569189
 30
0.0
 11
86.8439273436
 21
127.0441569189
 31
0.0
  0
LINE
  5
B8
330
1F
100
AcDbEntity
  8
0
  6
Continuous
 62
     7
100
AcDbLine
 10
83.0705273436
 20
128.4175569189
 30
0.0
 11
80.4439273436
 21
131.0441569189
 31
0.0
  0
LINE
  5
B9
330
1F
100
AcDbEntity
  8
0
  6
Continuous
 62
     7
100
AcDbLine
 10
80.4439273436
 20
131.0441569189
 30
0.0
 11
80.4439273436
 21
142.5441569189
 31
0.0
  0
LINE
  5
BA
330
1F
100
AcDbEntity
  8
0
  6
Continuous
 62
     7
100
AcDbLine
 10
80.4439273436
 20
131.0441569189
 30
0.0
 11
122.2439273436
 21
131.0441569189
 31
0.0
  0
LINE
  5
BB
330
1F
100
AcDbEntity
  8
0
  6
Continuous
 62
     7
100
AcDbLine
 10
83.0705273436
 20
128.4175569189
 30
0.0
 11
119.6179273436
 21
128.4175569189
 31
0.0
  0
LINE
  5
BC
330
1F
100
AcDbEntity
  8
0
  6
Continuous
 62
     7
100
AcDbLine
 10
86.8439273436
 20
127.0441569189
 30
0.0
 11
115.8439273436
 21
127.0441569189
 31
0.0
  0
LINE
  5
BD
330
1F
100
AcDbEntity
  8
0
  6
Continuous
 62
     7
100
AcDbLine
 10
78.8439273436
 20
200.2941569189
 30
0.0
 11
123.8439273436
 21
200.2941569189
 31
0.0
  0
LINE
  5
BE
330
1F
100
AcDbEntity
  8
0
  6
Continuous
 62
     7
100
AcDbLine
 10
78.8439273436
 20
195.2941569189
 30
0.0
 11
123.8439273436
 21
195.2941569189
 31
0.0
  0
LINE
  5
BF
330
1F
100
AcDbEntity
  8
0
  6
Continuous
 62
     7
100
AcDbLine
 10
126.3439273436
 20
207.0441569189
 30
0.0
 11
76.3439273436
 21
207.0441569189
 31
0.0
  0
LINE
  5
C0
330
1F
100
AcDbEntity
  8
0
  6
Continuous
 62
     7
100
AcDbLine
 10
126.3439273436
 20
205.0441569189
 30
0.0
 11
76.3439273436
 21
205.0441569189
 31
0.0
  0
LINE
  5
C1
330
1F
100
AcDbEntity
  8
0
  6
Continuous
 62
     7
100
AcDbLine
 10
106.6359273436
 20
116.5441569189
 30
0.0
 11
106.6359273436
 21
111.5441569189
 31
0.0
  0
LINE
  5
C2
330
1F
100
AcDbEntity
  8
0
  6
Continuous
 62
     7
100
AcDbLine
 10
96.0523273436
 20
116.5441569189
 30
0.0
 11
96.0523273436
 21
111.5441569189
 31
0.0
  0
LINE
  5
C3
330
1F
100
AcDbEntity
  8
0
  6
Continuous
 62
     7
100
AcDbLine
 10
114.8439273436
 20
111.5441569189
 30
0.0
 11
115.8439273436
 21
112.5441569189
 31
0.0
  0
LINE
  5
C4
330
1F
100
AcDbEntity
  8
0
  6
Continuous
 62
     7
100
AcDbLine
 10
87.8439273436
 20
111.5441569189
 30
0.0
 11
86.8439273436
 21
112.5441569189
 31
0.0
  0
LINE
  5
C5
330
1F
100
AcDbEntity
  8
0
  6
Continuous
 62
     7
100
AcDbLine
 10
96.0523273436
 20
112.5441569189
 30
0.0
 11
86.8439273436
 21
112.5441569189
 31
0.0
  0
LINE
  5
C6
330
1F
100
AcDbEntity
  8
0
  6
Continuous
 62
     7
100
AcDbLine
 10
106.6359273436
 20
112.5441569189
 30
0.0
 11
115.8439273436
 21
112.5441569189
 31
0.0
  0
LINE
  5
C7
330
1F
100
AcDbEntity
  8
0
  6
Continuous
 62
     7
100
AcDbLine
 10
115.8979273436
 20
182.5441569189
 30
0.0
 11
115.8979273436
 21
177.5441569189
 31
0.0
  0
LINE
  5
C8
330
1F
100
AcDbEntity
  8
0
  6
Continuous
 62
     7
100
AcDbLine
 10
113.8039273436
 20
182.5441569189
 30
0.0
 11
113.8039273436
 21
177.5441569189
 31
0.0
  0
LINE
  5
C9
330
1F
100
AcDbEntity
  8
0
  6
Continuous
 62
     7
100
AcDbLine
 10
115.8979273436
 20
177.5441569189
 30
0.0
 11
86.7903273436
 21
177.5441569189
 31
0.0
  0
LINE
  5
CA
330
1F
100
AcDbEntity
  8
0
  6
Continuous
 62
     7
100
AcDbLine
 10
115.8979273436
 20
182.5441569189
 30
0.0
 11
86.7903273436
 21
182.5441569189
 31
0.0
  0
LINE
  5
CB
330
1F
100
AcDbEntity
  8
0
  6
Continuous
 62
     7
100
AcDbLine
 10
88.8839273436
 20
182.5441569189
 30
0.0
 11
88.8839273436
 21
177.5441569189
 31
0.0
  0
LINE
  5
CC
330
1F
100
AcDbEntity
  8
0
  6
Continuous
 62
     7
100
AcDbLine
 10
86.7903273436
 20
182.5441569189
 30
0.0
 11
86.7903273436
 21
177.5441569189
 31
0.0
  0
LINE
  5
CD
330
1F
100
AcDbEntity
  8
0
  6
Continuous
 62
     7
100
AcDbLine
 10
103.6599273436
 20
220.0441569189
 30
0.0
 11
103.6599273436
 21
225.3301569189
 31
0.0
  0
LINE
  5
CE
330
1F
100
AcDbEntity
  8
0
  6
Continuous
 62
     7
100
AcDbLine
 10
99.0287273436
 20
220.0441569189
 30
0.0
 11
99.0287273436
 21
225.3301569189
 31
0.0
  0
LINE
  5
CF
330
1F
100
AcDbEntity
  8
0
  6
Continuous
 62
     7
100
AcDbLine
 10
103.6599273436
 20
225.3301569189
 30
0.0
 11
108.2439273436
 21
225.3301569189
 31
0.0
  0
ARC
  5
D0
330
1F
100
AcDbEntity
  8
0
  6
Continuous
 62
     7
100
AcDbCircle
 10
101.3439273436
 20
196.6048249189
 30
0.0
 40
21.93933000000001
100
AcDbArc
 50
76.826596
 51
103.173704
  0
ARC
  5
D1
330
1F
100
AcDbEntity
  8
0
  6
Continuous
 62
     7
100
AcDbCircle
 10
90.9516233436
 20
212.8428329189
 30
0.0
 40
5.701338
100
AcDbArc
 50
63.992332
 51
116.007968
  0
ARC
  5
D2
330
1F
100
AcDbEntity
  8
0
  6
Continuous
 62
     7
100
AcDbCircle
 10
111.7362313436
 20
212.8428329189
 30
0.0
 40
5.701338
100
AcDbArc
 50
63.992332
 51
116.007968
  0
ARC
  5
D3
330
1F
100
AcDbEntity
  8
0
  6
Continuous
 62
     7
100
AcDbCircle
 10
115.3439273436
 20
118.0441569189
 30
0.0
 40
0.5000000000000004
100
AcDbArc
 50
0.000072
 51
90.000143
  0
ARC
  5
D4
330
1F
100
AcDbEntity
  8
0
  6
Continuous
 62
     7
100
AcDbCircle
 10
115.3439273436
 20
122.5441569189
 30
0.0
 40
0.5000000000000004
100
AcDbArc
 50
270.000003
 51
0.0
  0
ARC
  5
D5
330
1F
100
AcDbEntity
  8
0
  6
Continuous
 62
     7
100
AcDbCircle
 10
87.3439273436
 20
118.0441569189
 30
0.0
 40
0.5000000000000004
100
AcDbArc
 50
90.000143
 51
180.000229
  0
ARC
  5
D6
330
1F
100
AcDbEntity
  8
0
  6
Continuous
 62
     7
100
AcDbCircle
 10
87.3439273436
 20
122.5441569189
 30
0.0
 40
0.5000000000000004
100
AcDbArc
 50
179.999921
 51
270.000003
  0
LINE
  5
D7
330
1F
100
AcDbEntity
  8
0
  6
Continuous
 62
     7
100
AcDbLine
 10
79.0939273436
 20
204.0441569189
 30
0.0
 11
78.8270953436
 21
204.0095829189
 31
0.0
  0
LINE
  5
D8
330
1F
100
AcDbEntity
  8
0
  6
Continuous
 62
     7
100
AcDbLine
 10
78.8270953436
 20
204.0095829189
 30
0.0
 11
78.5765933436
 21
203.9096629189
 31
0.0
  0
LINE
  5
D9
330
1F
100
AcDbEntity
  8
0
  6
Continuous
 62
     7
100
AcDbLine
 10
78.5765933436
 20
203.9096629189
 30
0.0
 11
78.3559513436
 21
203.7548429189
 31
0.0
  0
LINE
  5
DA
330
1F
100
AcDbEntity
  8
0
  6
Continuous
 62
     7
100
AcDbLine
 10
78.3559513436
 20
203.7548429189
 30
0.0
 11
78.1719733436
 21
203.5570749189
 31
0.0
  0
LINE
  5
DB
330
1F
100
AcDbEntity
  8
0
  6
Continuous
 62
     7
100
AcDbLine
 10
78.1719733436
 20
203.5570749189
 30
0.0
 11
78.0283233436
 21
203.3282909189
 31
0.0
  0
LINE
  5
DC
330
1F
100
AcDbEntity
  8
0
  6
Continuous
 62
     7
100
AcDbLine
 10
78.0283233436
 20
203.3282909189
 30
0.0
 11
77.9258333436
 21
203.0781989189
 31
0.0
  0
LINE
  5
DD
330
1F
100
AcDbEntity
  8
0
  6
Continuous
 62
     7
100
AcDbLine
 10
77.9258333436
 20
203.0781989189
 30
0.0
 11
77.8644533436
 21
202.8148729189
 31
0.0
  0
LINE
  5
DE
330
1F
100
AcDbEntity
  8
0
  6
Continuous
 62
     7
100
AcDbLine
 10
77.8644533436
 20
202.8148729189
 30
0.0
 11
77.8439273436
 21
202.5441569189
 31
0.0
  0
LINE
  5
DF
330
1F
100
AcDbEntity
  8
0
  6
Continuous
 62
     7
100
AcDbLine
 10
77.8439273436
 20
202.5441569189
 30
0.0
 11
77.8642553436
 21
202.2747389189
 31
0.0
  0
LINE
  5
E0
330
1F
100
AcDbEntity
  8
0
  6
Continuous
 62
     7
100
AcDbLine
 10
77.8642553436
 20
202.2747389189
 30
0.0
 11
77.9253253436
 21
202.0117149189
 31
0.0
  0
LINE
  5
E1
330
1F
100
AcDbEntity
  8
0
  6
Continuous
 62
     7
100
AcDbLine
 10
77.9253253436
 20
202.0117149189
 30
0.0
 11
78.0275273436
 21
201.7615829189
 31
0.0
  0
LINE
  5
E2
330
1F
100
AcDbEntity
  8
0
  6
Continuous
 62
     7
100
AcDbLine
 10
78.0275273436
 20
201.7615829189
 30
0.0
 11
78.1711313436
 21
201.5323449189
 31
0.0
  0
LINE
  5
E3
330
1F
100
AcDbEntity
  8
0
  6
Continuous
 62
     7
100
AcDbLine
 10
78.1711313436
 20
201.5323449189
 30
0.0
 11
78.3553473436
 21
201.3339989189
 31
0.0
  0
LINE
  5
E4
330
1F
100
AcDbEntity
  8
0
  6
Continuous
 62
     7
100
AcDbLine
 10
78.3553473436
 20
201.3339989189
 30
0.0
 11
78.5768553436
 21
201.1785089189
 31
0.0
  0
LINE
  5
E5
330
1F
100
AcDbEntity
  8
0
  6
Continuous
 62
     7
100
AcDbLine
 10
78.5768553436
 20
201.1785089189
 30
0.0
 11
78.8279653436
 21
201.0785029189
 31
0.0
  0
LINE
  5
E6
330
1F
100
AcDbEntity
  8
0
  6
Continuous
 62
     7
100
AcDbLine
 10
78.8279653436
 20
201.0785029189
 30
0.0
 11
79.0939273436
 21
201.0441569189
 31
0.0
  0
LINE
  5
E7
330
1F
100
AcDbEntity
  8
0
  6
Continuous
 62
     7
100
AcDbLine
 10
123.5939273436
 20
204.0441569189
 30
0.0
 11
123.8607593436
 21
204.0095829189
 31
0.0
  0
LINE
  5
E8
330
1F
100
AcDbEntity
  8
0
  6
Continuous
 62
     7
100
AcDbLine
 10
123.8607593436
 20
204.0095829189
 30
0.0
 11
124.1112613436
 21
203.9096629189
 31
0.0
  0
LINE
  5
E9
330
1F
100
AcDbEntity
  8
0
  6
Continuous
 62
     7
100
AcDbLine
 10
124.1112613436
 20
203.9096629189
 30
0.0
 11
124.3319033436
 21
203.7548429189
 31
0.0
  0
LINE
  5
EA
330
1F
100
AcDbEntity
  8
0
  6
Continuous
 62
     7
100
AcDbLine
 10
124.3319033436
 20
203.7548429189
 30
0.0
 11
124.5158813436
 21
203.5570749189
 31
0.0
  0
LINE
  5
EB
330
1F
100
AcDbEntity
  8
0
  6
Continuous
 62
     7
100
AcDbLine
 10
124.5158813436
 20
203.5570749189
 30
0.0
 11
124.6595313436
 21
203.3282909189
 31
0.0
  0
LINE
  5
EC
330
1F
100
AcDbEntity
  8
0
  6
Continuous
 62
     7
100
AcDbLine
 10
124.6595313436
 20
203.3282909189
 30
0.0
 11
124.7620213436
 21
203.0781989189
 31
0.0
  0
LINE
  5
ED
330
1F
100
AcDbEntity
  8
0
  6
Continuous
 62
     7
100
AcDbLine
 10
124.7620213436
 20
203.0781989189
 30
0.0
 11
124.8234013436
 21
202.8148729189
 31
0.0
  0
LINE
  5
EE
330
1F
100
AcDbEntity
  8
0
  6
Continuous
 62
     7
100
AcDbLine
 10
124.8234013436
 20
202.8148729189
 30
0.0
 11
124.8439273436
 21
202.5441569189
 31
0.0
  0
LINE
  5
EF
330
1F
100
AcDbEntity
  8
0
  6
Continuous
 62
     7
100
AcDbLine
 10
124.8439273436
 20
202.5441569189
 30
0.0
 11
124.8235993436
 21
202.2747389189
 31
0.0
  0
LINE
  5
F0
330
1F
100
AcDbEntity
  8
0
  6
Continuous
 62
     7
100
AcDbLine
 10
124.8235993436
 20
202.2747389189
 30
0.0
 11
124.7625293436
 21
202.0117149189
 31
0.0
  0
LINE
  5
F1
330
1F
100
AcDbEntity
  8
0
  6
Continuous
 62
     7
100
AcDbLine
 10
124.7625293436
 20
202.0117149189
 30
0.0
 11
124.6603273436
 21
201.7615829189
 31
0.0
  0
LINE
  5
F2
330
1F
100
AcDbEntity
  8
0
  6
Continuous
 62
     7
100
AcDbLine
 10
124.6603273436
 20
201.7615829189
 30
0.0
 11
124.5167233436
 21
201.5323449189
 31
0.0
  0
LINE
  5
F3
330
1F
100
AcDbEntity
  8
0
  6
Continuous
 62
     7
100
AcDbLine
 10
124.5167233436
 20
201.5323449189
 30
0.0
 11
124.3325073436
 21
201.3339989189
 31
0.0
  0
LINE
  5
F4
330
1F
100
AcDbEntity
  8
0
  6
Continuous
 62
     7
100
AcDbLine
 10
124.3325073436
 20
201.3339989189
 30
0.0
 11
124.1109993436
 21
201.1785089189
 31
0.0
  0
LINE
  5
F5
330
1F
100
AcDbEntity
  8
0
  6
Continuous
 62
     7
100
AcDbLine
 10
124.1109993436
 20
201.1785089189
 30
0.0
 11
123.8598893436
 21
201.0785029189
 31
0.0
  0
LINE
  5
F6
330
1F
100
AcDbEntity
  8
0
  6
Continuous
 62
     7
100
AcDbLine
 10
123.8598893436
 20
201.0785029189
 30
0.0
 11
123.5939273436
 21
201.0441569189
 31
0.0
  0
LINE
  5
F7
330
1F
100
AcDbEntity
  8
0
  6
Continuous
 62
     7
100
AcDbLine
 10
114.8439273436
 20
118.5441569189
 30
0.0
 11
115.1346953436
 21
118.5921609189
 31
0.0
  0
LINE
  5
F8
330
1F
100
AcDbEntity
  8
0
  6
Continuous
 62
     7
100
AcDbLine
 10
115.1346953436
 20
118.5921609189
 30
0.0
 11
115.3975893436
 21
118.7251829189
 31
0.0
  0
LINE
  5
F9
330
1F
100
AcDbEntity
  8
0
  6
Continuous
 62
     7
100
AcDbLine
 10
115.3975893436
 20
118.7251829189
 30
0.0
 11
115.6190393436
 21
118.9212269189
 31
0.0
  0
LINE
  5
FA
330
1F
100
AcDbEntity
  8
0
  6
Continuous
 62
     7
100
AcDbLine
 10
115.6190393436
 20
118.9212269189
 30
0.0
 11
115.7952433436
 21
119.1589509189
 31
0.0
  0
LINE
  5
FB
330
1F
100
AcDbEntity
  8
0
  6
Continuous
 62
     7
100
AcDbLine
 10
115.7952433436
 20
119.1589509189
 30
0.0
 11
115.9284093436
 21
119.4239009189
 31
0.0
  0
LINE
  5
FC
330
1F
100
AcDbEntity
  8
0
  6
Continuous
 62
     7
100
AcDbLine
 10
115.9284093436
 20
119.4239009189
 30
0.0
 11
116.0210573436
 21
119.7053849189
 31
0.0
  0
LINE
  5
FD
330
1F
100
AcDbEntity
  8
0
  6
Continuous
 62
     7
100
AcDbLine
 10
116.0210573436
 20
119.7053849189
 30
0.0
 11
116.0757453436
 21
119.9967609189
 31
0.0
  0
LINE
  5
FE
330
1F
100
AcDbEntity
  8
0
  6
Continuous
 62
     7
100
AcDbLine
 10
116.0757453436
 20
119.9967609189
 30
0.0
 11
116.0939273436
 21
120.2941569189
 31
0.0
  0
LINE
  5
FF
330
1F
100
AcDbEntity
  8
0
  6
Continuous
 62
     7
100
AcDbLine
 10
116.0939273436
 20
120.2941569189
 30
0.0
 11
116.0760053436
 21
120.5894349189
 31
0.0
  0
LINE
  5
100
330
1F
100
AcDbEntity
  8
0
  6
Continuous
 62
     7
100
AcDbLine
 10
116.0760053436
 20
120.5894349189
 30
0.0
 11
116.0217013436
 21
120.8804049189
 31
0.0
  0
LINE
  5
101
330
1F
100
AcDbEntity
  8
0
  6
Continuous
 62
     7
100
AcDbLine
 10
116.0217013436
 20
120.8804049189
 30
0.0
 11
115.9292973436
 21
121.1622389189
 31
0.0
  0
LINE
  5
102
330
1F
100
AcDbEntity
  8
0
  6
Continuous
 62
     7
100
AcDbLine
 10
115.9292973436
 20
121.1622389189
 30
0.0
 11
115.7960673436
 21
121.4280109189
 31
0.0
  0
LINE
  5
103
330
1F
100
AcDbEntity
  8
0
  6
Continuous
 62
     7
100
AcDbLine
 10
115.7960673436
 20
121.4280109189
 30
0.0
 11
115.6188773436
 21
121.6672649189
 31
0.0
  0
LINE
  5
104
330
1F
100
AcDbEntity
  8
0
  6
Continuous
 62
     7
100
AcDbLine
 10
115.6188773436
 20
121.6672649189
 30
0.0
 11
115.3959653436
 21
121.8642529189
 31
0.0
  0
LINE
  5
105
330
1F
100
AcDbEntity
  8
0
  6
Continuous
 62
     7
100
AcDbLine
 10
115.3959653436
 20
121.8642529189
 30
0.0
 11
115.1310733436
 21
121.9973569189
 31
0.0
  0
LINE
  5
106
330
1F
100
AcDbEntity
  8
0
  6
Continuous
 62
     7
100
AcDbLine
 10
115.1310733436
 20
121.9973569189
 30
0.0
 11
114.8406513436
 21
122.0441509189
 31
0.0
  0
LINE
  5
107
330
1F
100
AcDbEntity
  8
0
  6
Continuous
 62
     7
100
AcDbLine
 10
87.8439273436
 20
118.5441569189
 30
0.0
 11
87.5531593436
 21
118.5921609189
 31
0.0
  0
LINE
  5
108
330
1F
100
AcDbEntity
  8
0
  6
Continuous
 62
     7
100
AcDbLine
 10
87.5531593436
 20
118.5921609189
 30
0.0
 11
87.2902653436
 21
118.7251829189
 31
0.0
  0
LINE
  5
109
330
1F
100
AcDbEntity
  8
0
  6
Continuous
 62
     7
100
AcDbLine
 10
87.2902653436
 20
118.7251829189
 30
0.0
 11
87.0688153436
 21
118.9212269189
 31
0.0
  0
LINE
  5
10A
330
1F
100
AcDbEntity
  8
0
  6
Continuous
 62
     7
100
AcDbLine
 10
87.0688153436
 20
118.9212269189
 30
0.0
 11
86.8926113436
 21
119.1589509189
 31
0.0
  0
LINE
  5
10B
330
1F
100
AcDbEntity
  8
0
  6
Continuous
 62
     7
100
AcDbLine
 10
86.8926113436
 20
119.1589509189
 30
0.0
 11
86.7594453436
 21
119.4239009189
 31
0.0
  0
LINE
  5
10C
330
1F
100
AcDbEntity
  8
0
  6
Continuous
 62
     7
100
AcDbLine
 10
86.7594453436
 20
119.4239009189
 30
0.0
 11
86.6667973436
 21
119.7053849189
 31
0.0
  0
LINE
  5
10D
330
1F
100
AcDbEntity
  8
0
  6
Continuous
 62
     7
100
AcDbLine
 10
86.6667973436
 20
119.7053849189
 30
0.0
 11
86.6121093436
 21
119.9967609189
 31
0.0
  0
LINE
  5
10E
330
1F
100
AcDbEntity
  8
0
  6
Continuous
 62
     7
100
AcDbLine
 10
86.6121093436
 20
119.9967609189
 30
0.0
 11
86.5939273436
 21
120.2941569189
 31
0.0
  0
LINE
  5
10F
330
1F
100
AcDbEntity
  8
0
  6
Continuous
 62
     7
100
AcDbLine
 10
86.5939273436
 20
120.2941569189
 30
0.0
 11
86.6118493436
 21
120.5894349189
 31
0.0
  0
LINE
  5
110
330
1F
100
AcDbEntity
  8
0
  6
Continuous
 62
     7
100
AcDbLine
 10
86.6118493436
 20
120.5894349189
 30
0.0
 11
86.6661533436
 21
120.8804049189
 31
0.0
  0
LINE
  5
111
330
1F
100
AcDbEntity
  8
0
  6
Continuous
 62
     7
100
AcDbLine
 10
86.6661533436
 20
120.8804049189
 30
0.0
 11
86.7585573436
 21
121.1622389189
 31
0.0
  0
LINE
  5
112
330
1F
100
AcDbEntity
  8
0
  6
Continuous
 62
     7
100
AcDbLine
 10
86.7585573436
 20
121.1622389189
 30
0.0
 11
86.8917873436
 21
121.4280109189
 31
0.0
  0
LINE
  5
113
330
1F
100
AcDbEntity
  8
0
  6
Continuous
 62
     7
100
AcDbLine
 10
86.8917873436
 20
121.4280109189
 30
0.0
 11
87.0689773436
 21
121.6672649189
 31
0.0
  0
LINE
  5
114
330
1F
100
AcDbEntity
  8
0
  6
Continuous
 62
     7
100
AcDbLine
 10
87.0689773436
 20
121.6672649189
 30
0.0
 11
87.2918893436
 21
121.8642529189
 31
0.0
  0
LINE
  5
115
330
1F
100
AcDbEntity
  8
0
  6
Continuous
 62
     7
100
AcDbLine
 10
87.2918893436
 20
121.8642529189
 30
0.0
 11
87.5567813436
 21
121.9973569189
 31
0.0
  0
LINE
  5
116
330
1F
100
AcDbEntity
  8
0
  6
Continuous
 62
     7
100
AcDbLine
 10
87.5567813436
 20
121.9973569189
 30
0.0
 11
87.8472033436
 21
122.0441509189
 31
0.0
  0
LINE
  5
117
330
1F
100
AcDbEntity
  8
0
  6
Continuous
 62
     7
100
AcDbLine
 10
121.8439273436
 20
142.5441569189
 30
0.0
 11
121.9634733436
 21
142.5659089189
 31
0.0
  0
LINE
  5
118
330
1F
100
AcDbEntity
  8
0
  6
Continuous
 62
     7
100
AcDbLine
 10
121.9634733436
 20
142.5659089189
 30
0.0
 11
122.0707513436
 21
142.6257729189
 31
0.0
  0
LINE
  5
119
330
1F
100
AcDbEntity
  8
0
  6
Continuous
 62
     7
100
AcDbLine
 10
122.0707513436
 20
142.6257729189
 30
0.0
 11
122.1584513436
 21
142.7111309189
 31
0.0
  0
LINE
  5
11A
330
1F
100
AcDbEntity
  8
0
  6
Continuous
 62
     7
100
AcDbLine
 10
122.1584513436
 20
142.7111309189
 30
0.0
 11
122.2277373436
 21
142.8134789189
 31
0.0
  0
LINE
  5
11B
330
1F
100
AcDbEntity
  8
0
  6
Continuous
 62
     7
100
AcDbLine
 10
122.2277373436
 20
142.8134789189
 30
0.0
 11
122.2792993436
 21
142.9253569189
 31
0.0
  0
LINE
  5
11C
330
1F
100
AcDbEntity
  8
0
  6
Continuous
 62
     7
100
AcDbLine
 10
122.2792993436
 20
142.9253569189
 30
0.0
 11
122.3152673436
 21
143.0438789189
 31
0.0
  0
LINE
  5
11D
330
1F
100
AcDbEntity
  8
0
  6
Continuous
 62
     7
100
AcDbLine
 10
122.3152673436
 20
143.0438789189
 30
0.0
 11
122.3365673436
 21
143.1659469189
 31
0.0
  0
LINE
  5
11E
330
1F
100
AcDbEntity
  8
0
  6
Continuous
 62
     7
100
AcDbLine
 10
122.3365673436
 20
143.1659469189
 30
0.0
 11
122.3439193436
 21
143.2897409189
 31
0.0
  0
LINE
  5
11F
330
1F
100
AcDbEntity
  8
0
  6
Continuous
 62
     7
100
AcDbLine
 10
122.3439193436
 20
143.2897409189
 30
0.0
 11
122.3375913436
 21
143.4131769189
 31
0.0
  0
LINE
  5
120
330
1F
100
AcDbEntity
  8
0
  6
Continuous
 62
     7
100
AcDbLine
 10
122.3375913436
 20
143.4131769189
 30
0.0
 11
122.3173953436
 21
143.5352229189
 31
0.0
  0
LINE
  5
121
330
1F
100
AcDbEntity
  8
0
  6
Continuous
 62
     7
100
AcDbLine
 10
122.3173953436
 20
143.5352229189
 30
0.0
 11
122.2825293436
 21
143.6542469189
 31
0.0
  0
LINE
  5
122
330
1F
100
AcDbEntity
  8
0
  6
Continuous
 62
     7
100
AcDbLine
 10
122.2825293436
 20
143.6542469189
 30
0.0
 11
122.2316253436
 21
143.7677629189
 31
0.0
  0
LINE
  5
123
330
1F
100
AcDbEntity
  8
0
  6
Continuous
 62
     7
100
AcDbLine
 10
122.2316253436
 20
143.7677629189
 30
0.0
 11
122.1628713436
 21
143.8717549189
 31
0.0
  0
LINE
  5
124
330
1F
100
AcDbEntity
  8
0
  6
Continuous
 62
     7
100
AcDbLine
 10
122.1628713436
 20
143.8717549189
 30
0.0
 11
122.0745533436
 21
143.9596089189
 31
0.0
  0
LINE
  5
125
330
1F
100
AcDbEntity
  8
0
  6
Continuous
 62
     7
100
AcDbLine
 10
122.0745533436
 20
143.9596089189
 30
0.0
 11
121.9668893436
 21
144.0211229189
 31
0.0
  0
LINE
  5
126
330
1F
100
AcDbEntity
  8
0
  6
Continuous
 62
     7
100
AcDbLine
 10
121.9668893436
 20
144.0211229189
 30
0.0
 11
121.8439273436
 21
144.0441569189
 31
0.0
  0
LINE
  5
127
330
1F
100
AcDbEntity
  8
0
  6
Continuous
 62
     7
100
AcDbLine
 10
80.8439273436
 20
142.5441569189
 30
0.0
 11
80.7243813436
 21
142.5659089189
 31
0.0
  0
LINE
  5
128
330
1F
100
AcDbEntity
  8
0
  6
Continuous
 62
     7
100
AcDbLine
 10
80.7243813436
 20
142.5659089189
 30
0.0
 11
80.6171033436
 21
142.6257729189
 31
0.0
  0
LINE
  5
129
330
1F
100
AcDbEntity
  8
0
  6
Continuous
 62
     7
100
AcDbLine
 10
80.6171033436
 20
142.6257729189
 30
0.0
 11
80.5294033436
 21
142.7111309189
 31
0.0
  0
LINE
  5
12A
330
1F
100
AcDbEntity
  8
0
  6
Continuous
 62
     7
100
AcDbLine
 10
80.5294033436
 20
142.7111309189
 30
0.0
 11
80.4601173436
 21
142.8134789189
 31
0.0
  0
LINE
  5
12B
330
1F
100
AcDbEntity
  8
0
  6
Continuous
 62
     7
100
AcDbLine
 10
80.4601173436
 20
142.8134789189
 30
0.0
 11
80.4085553436
 21
142.9253569189
 31
0.0
  0
LINE
  5
12C
330
1F
100
AcDbEntity
  8
0
  6
Continuous
 62
     7
100
AcDbLine
 10
80.4085553436
 20
142.9253569189
 30
0.0
 11
80.3725873436
 21
143.0438789189
 31
0.0
  0
LINE
  5
12D
330
1F
100
AcDbEntity
  8
0
  6
Continuous
 62
     7
100
AcDbLine
 10
80.3725873436
 20
143.0438789189
 30
0.0
 11
80.3512873436
 21
143.1659469189
 31
0.0
  0
LINE
  5
12E
330
1F
100
AcDbEntity
  8
0
  6
Continuous
 62
     7
100
AcDbLine
 10
80.3512873436
 20
143.1659469189
 30
0.0
 11
80.3439353436
 21
143.2897409189
 31
0.0
  0
LINE
  5
12F
330
1F
100
AcDbEntity
  8
0
  6
Continuous
 62
     7
100
AcDbLine
 10
80.3439353436
 20
143.2897409189
 30
0.0
 11
80.3502633436
 21
143.4131769189
 31
0.0
  0
LINE
  5
130
330
1F
100
AcDbEntity
  8
0
  6
Continuous
 62
     7
100
AcDbLine
 10
80.3502633436
 20
143.4131769189
 30
0.0
 11
80.3704593436
 21
143.5352229189
 31
0.0
  0
LINE
  5
131
330
1F
100
AcDbEntity
  8
0
  6
Continuous
 62
     7
100
AcDbLine
 10
80.3704593436
 20
143.5352229189
 30
0.0
 11
80.4053253436
 21
143.6542469189
 31
0.0
  0
LINE
  5
132
330
1F
100
AcDbEntity
  8
0
  6
Continuous
 62
     7
100
AcDbLine
 10
80.4053253436
 20
143.6542469189
 30
0.0
 11
80.4562293436
 21
143.7677629189
 31
0.0
  0
LINE
  5
133
330
1F
100
AcDbEntity
  8
0
  6
Continuous
 62
     7
100
AcDbLine
 10
80.4562293436
 20
143.7677629189
 30
0.0
 11
80.5249833436
 21
143.8717549189
 31
0.0
  0
LINE
  5
134
330
1F
100
AcDbEntity
  8
0
  6
Continuous
 62
     7
100
AcDbLine
 10
80.5249833436
 20
143.8717549189
 30
0.0
 11
80.6133013436
 21
143.9596089189
 31
0.0
  0
LINE
  5
135
330
1F
100
AcDbEntity
  8
0
  6
Continuous
 62
     7
100
AcDbLine
 10
80.6133013436
 20
143.9596089189
 30
0.0
 11
80.7209653436
 21
144.0211229189
 31
0.0
  0
LINE
  5
136
330
1F
100
AcDbEntity
  8
0
  6
Continuous
 62
     7
100
AcDbLine
 10
80.7209653436
 20
144.0211229189
 30
0.0
 11
80.8439273436
 21
144.0441569189
 31
0.0
  0
LINE
  5
137
330
1F
100
AcDbEntity
  8
0
  6
Continuous
 62
     7
100
AcDbLine
 10
103.6590953436
 20
225.3302889189
 30
0.0
 11
103.6091253436
 21
225.7555309189
 31
0.0
  0
LINE
  5
138
330
1F
100
AcDbEntity
  8
0
  6
Continuous
 62
     7
100
AcDbLine
 10
103.6091253436
 20
225.7555309189
 30
0.0
 11
103.4639453436
 21
226.1572209189
 31
0.0
  0
LINE
  5
139
330
1F
100
AcDbEntity
  8
0
  6
Continuous
 62
     7
100
AcDbLine
 10
103.4639453436
 20
226.1572209189
 30
0.0
 11
103.2337993436
 21
226.5189549189
 31
0.0
  0
LINE
  5
13A
330
1F
100
AcDbEntity
  8
0
  6
Continuous
 62
     7
100
AcDbLine
 10
103.2337993436
 20
226.5189549189
 30
0.0
 11
102.9341553436
 21
226.8258789189
 31
0.0
  0
LINE
  5
13B
330
1F
100
AcDbEntity
  8
0
  6
Continuous
 62
     7
100
AcDbLine
 10
102.9341553436
 20
226.8258789189
 30
0.0
 11
102.5811093436
 21
227.0696629189
 31
0.0
  0
LINE
  5
13C
330
1F
100
AcDbEntity
  8
0
  6
Continuous
 62
     7
100
AcDbLine
 10
102.5811093436
 20
227.0696629189
 30
0.0
 11
102.1896893436
 21
227.2458989189
 31
0.0
  0
LINE
  5
13D
330
1F
100
AcDbEntity
  8
0
  6
Continuous
 62
     7
100
AcDbLine
 10
102.1896893436
 20
227.2458989189
 30
0.0
 11
101.7736893436
 21
227.3523629189
 31
0.0
  0
LINE
  5
13E
330
1F
100
AcDbEntity
  8
0
  6
Continuous
 62
     7
100
AcDbLine
 10
101.7736893436
 20
227.3523629189
 30
0.0
 11
101.3439273436
 21
227.3881289189
 31
0.0
  0
LINE
  5
13F
330
1F
100
AcDbEntity
  8
0
  6
Continuous
 62
     7
100
AcDbLine
 10
101.3439273436
 20
227.3881289189
 30
0.0
 11
100.9161113436
 21
227.3526889189
 31
0.0
  0
LINE
  5
140
330
1F
100
AcDbEntity
  8
0
  6
Continuous
 62
     7
100
AcDbLine
 10
100.9161113436
 20
227.3526889189
 30
0.0
 11
100.5004853436
 21
227.2467069189
 31
0.0
  0
LINE
  5
141
330
1F
100
AcDbEntity
  8
0
  6
Continuous
 62
     7
100
AcDbLine
 10
100.5004853436
 20
227.2467069189
 30
0.0
 11
100.1091193436
 21
227.0709969189
 31
0.0
  0
LINE
  5
142
330
1F
100
AcDbEntity
  8
0
  6
Continuous
 62
     7
100
AcDbLine
 10
100.1091193436
 20
227.0709969189
 30
0.0
 11
99.7555833436
 21
226.8274589189
 31
0.0
  0
LINE
  5
143
330
1F
100
AcDbEntity
  8
0
  6
Continuous
 62
     7
100
AcDbLine
 10
99.7555833436
 20
226.8274589189
 30
0.0
 11
99.4552033436
 21
226.5203929189
 31
0.0
  0
LINE
  5
144
330
1F
100
AcDbEntity
  8
0
  6
Continuous
 62
     7
100
AcDbLine
 10
99.4552033436
 20
226.5203929189
 30
0.0
 11
99.2243513436
 21
226.1581149189
 31
0.0
  0
LINE
  5
145
330
1F
100
AcDbEntity
  8
0
  6
Continuous
 62
     7
100
AcDbLine
 10
99.2243513436
 20
226.1581149189
 30
0.0
 11
99.0784573436
 21
225.7543769189
 31
0.0
  0
LINE
  5
146
330
1F
100
AcDbEntity
  8
0
  6
Continuous
 62
     7
100
AcDbLine
 10
99.0784573436
 20
225.7543769189
 30
0.0
 11
99.0287593436
 21
225.3302889189
 31
0.0
  0
DIMENSION
  5
15A
330
1F
100
AcDbEntity
  8
Default
  6
Continuous
 62
     7
100
AcDbDimension
  2
DMBLK35
 10
97.2067273436
 20
258.1129707197
 30
0.0
 11
111.6718731103
 21
258.1129707197
 31
0.0
 70
   161
  1
\A1;M <>
 71
     5
 42
-1.0
  3
Standard
100
AcDbAlignedDimension
 13
97.2067273436
 23
239.5441569189
 33
0.0
 14
105.4819273436
 24
239.5441569189
 34
0.0
  0
DIMENSION
  5
166
330
1F
100
AcDbEntity
  8
Default
  6
Continuous
 62
     7
100
AcDbDimension
  2
DMBLK36
 10
150.7379814733
 20
239.5441569189
 30
0.0
 11
150.7379814733
 21
221.7941575
 31
0.0
 70
   160
  1
\A1;<>
 71
     5
 42
-1.0
  3
Standard
100
AcDbAlignedDimension
 13
125.3439273436
 23
204.0441569189
 33
0.0
 14
105.4819273436
 24
239.5441569189
 34
0.0
 50
90.0
100
AcDbRotatedDimension
  0
DIMENSION
  5
171
330
1F
100
AcDbEntity
  8
Default
  6
Continuous
 62
     7
100
AcDbDimension
  2
DMBLK37
 10
150.7379814733
 20
111.5441569189
 30
0.0
 11
150.7379814733
 21
157.7941563228
 31
0.0
 70
   160
  1
\A1;<>
 71
     5
 42
-1.0
  3
Standard
100
AcDbAlignedDimension
 13
125.3439273436
 23
204.0441569189
 33
0.0
 14
114.8439273436
 24
111.5441569189
 34
0.0
 50
90.0
100
AcDbRotatedDimension
  0
DIMENSION
  5
17C
330
1F
100
AcDbEntity
  8
Default
  6
Continuous
 62
     7
100
AcDbDimension
  2
DMBLK38
 10
86.8439273436
 20
94.9407055328
 30
0.0
 11
101.3439269263
 21
94.9407055328
 31
0.0
 70
   161
  1
\A1;<>
 71
     5
 42
-1.0
  3
Standard
100
AcDbAlignedDimension
 13
86.8439273436
 23
112.5441569189
 33
0.0
 14
115.8439273436
 24
112.5441569189
 34
0.0
  0
DIMENSION
  5
187
330
1F
100
AcDbEntity
  8
Default
  6
Continuous
 62
     7
100
AcDbDimension
  2
DMBLK39
 10
78.8439273436
 20
198.0286378103
 30
0.0
 11
71.6859441597
 21
198.0286378103
 31
0.0
 70
   160
  1
\A1;M <>
 71
     5
 42
-1.0
  3
Standard
100
AcDbAlignedDimension
 13
123.8439273436
 23
195.2941569189
 33
0.0
 14
78.8439273436
 24
195.2941569189
 34
0.0
100
AcDbRotatedDimension
  0
DIMENSION
  5
193
330
1F
100
AcDbEntity
  8
Default
  6
Continuous
 62
     7
100
AcDbDimension
  2
DMBLK40
 10
80.4439273436
 20
155.7594591627
 30
0.0
 11
71.6204990406
 21
155.7594591627
 31
0.0
 70
   161
  1
\A1;<>
 71
     5
 42
-1.0
  3
Standard
100
AcDbAlignedDimension
 13
80.4439273436
 23
144.0441569189
 33
0.0
 14
122.2439273436
 24
144.0441569189
 34
0.0
  0
LINE
  5
19D
330
1F
100
AcDbEntity
  8
Standard
  6
Continuous
 62
     7
100
AcDbLine
 10
6.6
 20
291.0
 30
0.0
 11
6.6
 21
5.0
 31
0.0
  0
LINE
  5
19E
330
1F
100
AcDbEntity
  8
Standard
  6
Continuous
 62
     7
100
AcDbLine
 10
6.6
 20
5.0
 30
0.0
 11
203.0048694642
 21
5.0
 31
0.0
  0
LINE
  5
19F
330
1F
100
AcDbEntity
  8
Standard
  6
Continuous
 62
     7
100
AcDbLine
 10
203.0048694642
 20
291.0
 30
0.0
 11
6.6
 21
291.0
 31
0.0
  0
HATCH
  5
1A0
330
1F
100
AcDbEntity
  8
Standard
  6
Continuous
 62
     7
100
AcDbHatch
 10
0.0
 20
0.0
 30
0.0
210
0.0
220
0.0
230
1.0
  2
SOLID
 70
     1
 71
     0
 91
        1
 92
        1
 93
      139
 72
     1
 10
172.7172376075405
 20
36.00717426027418
 11
172.7172376075405
 21
38.16056787729543
 72
     1
 10
172.7172376075405
 20
38.16056787729543
 11
171.3135439905194
 21
38.16056787729543
 72
     1
 10
171.3135439905194
 20
38.16056787729543
 11
171.3135439905194
 21
36.61701935882525
 72
     1
 10
171.3135439905194
 20
36.61701935882525
 11
171.1917076643315
 21
36.5611499033753
 72
     1
 10
171.1917076643315
 20
36.5611499033753
 11
171.0666502755375
 21
36.51126995692736
 72
     1
 10
171.0666502755375
 20
36.51126995692736
 11
170.9388185719342
 21
36.46764219434532
 72
     1
 10
170.9388185719342
 20
36.46764219434532
 11
170.8086865832739
 21
36.43048421156423
 72
     1
 10
170.8086865832739
 20
36.43048421156423
 11
170.6767498485449
 21
36.39996513139732
 72
     1
 10
170.6767498485449
 20
36.39996513139732
 11
170.5435191598414
 21
36.37620310823803
 72
     1
 10
170.5435191598414
 20
36.37620310823803
 11
170.4095139875734
 21
36.35926380720596
 72
     1
 10
170.4095139875734
 20
36.35926380720596
 11
170.2752557640552
 21
36.34915989868774
 72
     1
 10
170.2752557640552
 20
36.34915989868774
 11
170.141261206663
 21
36.34585157274731
 72
     1
 10
170.141261206663
 20
36.34585157274731
 11
170.0152684750314
 21
36.34668446771455
 72
     1
 10
170.0152684750314
 20
36.34668446771455
 11
169.8968082340686
 21
36.35706328170605
 72
     1
 10
169.8968082340686
 20
36.35706328170605
 11
169.7858119386887
 21
36.37592624282478
 72
     1
 10
169.7858119386887
 20
36.37592624282478
 11
169.6822110438061
 21
36.40221157917369
 72
     1
 10
169.6822110438061
 20
36.40221157917369
 11
169.5859370043348
 21
36.43485751885568
 72
     1
 10
169.5859370043348
 20
36.43485751885568
 11
169.496921275189
 21
36.47280228997371
 72
     1
 10
169.496921275189
 20
36.47280228997371
 11
169.3768570709555
 21
36.53733212956858
 72
     1
 10
169.3768570709555
 20
36.53733212956858
 11
169.2727384988467
 21
36.60781187297363
 72
     1
 10
169.2727384988467
 20
36.60781187297363
 11
169.1894514104418
 21
36.67647551794381
 72
     1
 10
169.1894514104418
 20
36.67647551794381
 11
169.1173294851355
 21
36.74883793734485
 72
     1
 10
169.1173294851355
 20
36.74883793734485
 11
169.0538819172082
 21
36.82654144600173
 72
     1
 10
169.0538819172082
 20
36.82654144600173
 11
168.9966179009403
 21
36.91122835873944
 72
     1
 10
168.9966179009403
 20
36.91122835873944
 11
168.9430466306121
 21
37.00454099038299
 72
     1
 10
168.9430466306121
 20
37.00454099038299
 11
168.8906773005039
 21
37.10812165575732
 72
     1
 10
168.8906773005039
 20
37.10812165575732
 11
168.836505619997
 21
37.22742444161827
 72
     1
 10
168.836505619997
 20
37.22742444161827
 11
168.7844135449151
 21
37.36353572944269
 72
     1
 10
168.7844135449151
 20
37.36353572944269
 11
168.7525402409839
 21
37.46570111320462
 72
     1
 10
168.7525402409839
 20
37.46570111320462
 11
168.7241403207949
 21
37.57846664513256
 72
     1
 10
168.7241403207949
 20
37.57846664513256
 11
168.7002334302138
 21
37.70308420636606
 72
     1
 10
168.7002334302138
 20
37.70308420636606
 11
168.6818392151061
 21
37.84080567804467
 72
     1
 10
168.6818392151061
 20
37.84080567804467
 11
168.6699773213378
 21
37.99288294130795
 72
     1
 10
168.6699773213378
 20
37.99288294130795
 11
168.6656673947745
 21
38.16056787729547
 72
     1
 10
168.6656673947745
 20
38.16056787729547
 11
168.6712120570559
 21
38.32825281328298
 72
     1
 10
168.6712120570559
 20
38.32825281328298
 11
168.686472223093
 21
38.48033007654627
 72
     1
 10
168.686472223093
 20
38.48033007654627
 11
168.7101361322584
 21
38.61805154822488
 72
     1
 10
168.7101361322584
 20
38.61805154822488
 11
168.740892023925
 21
38.74266910945838
 72
     1
 10
168.740892023925
 20
38.74266910945838
 11
168.7774281374655
 21
38.8554346413863
 72
     1
 10
168.7774281374655
 20
38.8554346413863
 11
168.8184327122526
 21
38.95760002514824
 72
     1
 10
168.8184327122526
 20
38.95760002514824
 11
168.8854484628985
 21
39.09371131297266
 72
     1
 10
168.8854484628985
 20
39.09371131297266
 11
168.955139597821
 21
39.2130140988336
 72
     1
 10
168.955139597821
 20
39.2130140988336
 11
169.0225120333115
 21
39.31659476420789
 72
     1
 10
169.0225120333115
 20
39.31659476420789
 11
169.0914307486526
 21
39.4099073958514
 72
     1
 10
169.0914307486526
 20
39.4099073958514
 11
169.1651001317433
 21
39.4945943085891
 72
     1
 10
169.1651001317433
 20
39.4945943085891
 11
169.2467245704821
 21
39.57229781724597
 72
     1
 10
169.2467245704821
 20
39.57229781724597
 11
169.3395084527681
 21
39.64466023664699
 72
     1
 10
169.3395084527681
 20
39.64466023664699
 11
169.4466561664998
 21
39.71332388161716
 72
     1
 10
169.4466561664998
 20
39.71332388161716
 11
169.5336896386445
 21
39.76079451607121
 72
     1
 10
169.5336896386445
 20
39.76079451607121
 11
169.6297962819564
 21
39.80615163724154
 72
     1
 10
169.6297962819564
 20
39.80615163724154
 11
169.7350642787605
 21
39.84833347569219
 72
     1
 10
169.7350642787605
 20
39.84833347569219
 11
169.849581811382
 21
39.88627826198729
 72
     1
 10
169.849581811382
 20
39.88627826198729
 11
169.9734370621461
 21
39.91892422669089
 72
     1
 10
169.9734370621461
 20
39.91892422669089
 11
170.1067182133778
 21
39.94520960036712
 72
     1
 10
170.1067182133778
 20
39.94520960036712
 11
170.2495134474023
 21
39.96407261358002
 72
     1
 10
170.2495134474023
 20
39.96407261358002
 11
170.4019109465447
 21
39.97445149689372
 72
     1
 10
170.4019109465447
 20
39.97445149689372
 11
170.5639988931302
 21
39.97528448087226
 72
     1
 10
170.5639988931302
 20
39.97528448087226
 11
170.7940677015586
 21
39.96791705452002
 72
     1
 10
170.7940677015586
 20
39.96791705452002
 11
171.0248685653708
 21
39.94564911414763
 72
     1
 10
171.0248685653708
 20
39.94564911414763
 11
171.2549550680946
 21
39.90833871893881
 72
     1
 10
171.2549550680946
 20
39.90833871893881
 11
171.4828592819786
 21
39.8560316822272
 72
     1
 10
171.4828592819786
 20
39.8560316822272
 11
171.7071223381179
 21
39.78896457142685
 72
     1
 10
171.7071223381179
 20
39.78896457142685
 11
171.9263252902625
 21
39.70756173025599
 72
     1
 10
171.9263252902625
 20
39.70756173025599
 11
172.1391189154063
 21
39.6124263667062
 72
     1
 10
172.1391189154063
 20
39.6124263667062
 11
172.3442511450613
 21
39.50432609735185
 72
     1
 10
172.3442511450613
 20
39.50432609735185
 11
172.5405909692427
 21
39.38417365663604
 72
     1
 10
172.5405909692427
 20
39.38417365663604
 11
172.5405909692427
 21
40.41797801232769
 72
     1
 10
172.5405909692427
 20
40.41797801232769
 11
172.3015900069624
 21
40.52611532128243
 72
     1
 10
172.3015900069624
 20
40.52611532128243
 11
172.0564343849309
 21
40.6226451417334
 72
     1
 10
172.0564343849309
 20
40.6226451417334
 11
171.8059791867947
 21
40.70707201125296
 72
     1
 10
171.8059791867947
 20
40.70707201125296
 11
171.5511302914853
 21
40.7789856498396
 72
     1
 10
171.5511302914853
 20
40.7789856498396
 11
171.2928336083978
 21
40.83806719739523
 72
     1
 10
171.2928336083978
 20
40.83806719739523
 11
171.032063435777
 21
40.88409379760048
 72
     1
 10
171.032063435777
 20
40.88409379760048
 11
170.769810241229
 21
40.91694139294221
 72
     1
 10
170.769810241229
 20
40.91694139294221
 11
170.5070681849877
 21
40.93658565755333
 72
     1
 10
170.5070681849877
 20
40.93658565755333
 11
170.2448227139236
 21
40.94310105971638
 72
     1
 10
170.2448227139236
 20
40.94310105971638
 11
169.9860473983418
 21
40.94182396144203
 72
     1
 10
169.9860473983418
 20
40.94182396144203
 11
169.742742996224
 21
40.92591146575024
 72
     1
 10
169.742742996224
 20
40.92591146575024
 11
169.5147687234499
 21
40.89699143578041
 72
     1
 10
169.5147687234499
 20
40.89699143578041
 11
169.3019837958987
 21
40.85669173467197
 72
     1
 10
169.3019837958987
 20
40.85669173467197
 11
169.10424742945
 21
40.80664022556437
 72
     1
 10
169.10424742945
 20
40.80664022556437
 11
168.9214188399832
 21
40.748464771597
 72
     1
 10
168.9214188399832
 20
40.748464771597
 11
168.7533572433777
 21
40.68379323590929
 72
     1
 10
168.7533572433777
 20
40.68379323590929
 11
168.5999218555129
 21
40.6142534816407
 72
     1
 10
168.5999218555129
 20
40.6142534816407
 11
168.4609718922684
 21
40.54147337193057
 72
     1
 10
168.4609718922684
 20
40.54147337193057
 11
168.3441295306047
 21
40.4717975202572
 72
     1
 10
168.3441295306047
 20
40.4717975202572
 11
168.2382370831932
 21
40.39997433318328
 72
     1
 10
168.2382370831932
 20
40.39997433318328
 11
168.1417787446954
 21
40.32525775663572
 72
     1
 10
168.1417787446954
 20
40.32525775663572
 11
168.0532387097728
 21
40.24690173654134
 72
     1
 10
168.0532387097728
 20
40.24690173654134
 11
167.9711011730867
 21
40.16416021882696
 72
     1
 10
167.9711011730867
 20
40.16416021882696
 11
167.8938503292988
 21
40.07628714941943
 72
     1
 10
167.8938503292988
 20
40.07628714941943
 11
167.7838207886228
 21
39.93322389259848
 72
     1
 10
167.7838207886228
 20
39.93322389259848
 11
167.6762599019385
 21
39.77441809030643
 72
     1
 10
167.6762599019385
 20
39.77441809030643
 11
167.601959210119
 21
39.6550213233442
 72
     1
 10
167.601959210119
 20
39.6550213233442
 11
167.5285097454347
 21
39.52513083089987
 72
     1
 10
167.5285097454347
 20
39.52513083089987
 11
167.4580057491749
 21
39.38282727804717
 72
     1
 10
167.4580057491749
 20
39.38282727804717
 11
167.3925414626295
 21
39.22619132985976
 72
     1
 10
167.3925414626295
 20
39.22619132985976
 11
167.334211127088
 21
39.05330365141138
 72
     1
 10
167.334211127088
 20
39.05330365141138
 11
167.2851089838399
 21
38.8622449077757
 72
     1
 10
167.2851089838399
 20
38.8622449077757
 11
167.247329274175
 21
38.65109576402647
 72
     1
 10
167.247329274175
 20
38.65109576402647
 11
167.2229662393827
 21
38.41793688523737
 72
     1
 10
167.2229662393827
 20
38.41793688523737
 11
167.2141141207528
 21
38.16084893648212
 72
     1
 10
167.2141141207528
 20
38.16084893648212
 11
167.2141138140291
 21
38.16056786286189
 72
     1
 10
167.2141138140291
 20
38.16056786286189
 11
167.2141141207528
 21
38.1602868181087
 72
     1
 10
167.2141141207528
 20
38.1602868181087
 11
167.2229662393827
 21
37.90319886935345
 72
     1
 10
167.2229662393827
 20
37.90319886935345
 11
167.247329274175
 21
37.67003999056436
 72
     1
 10
167.247329274175
 20
37.67003999056436
 11
167.2851089838399
 21
37.45889084681512
 72
     1
 10
167.2851089838399
 20
37.45889084681512
 11
167.334211127088
 21
37.26783210317947
 72
     1
 10
167.334211127088
 20
37.26783210317947
 11
167.3925414626295
 21
37.09494442473109
 72
     1
 10
167.3925414626295
 20
37.09494442473109
 11
167.4580057491749
 21
36.9383084765437
 72
     1
 10
167.4580057491749
 20
36.9383084765437
 11
167.5285097454346
 21
36.796004923691
 72
     1
 10
167.5285097454346
 20
36.796004923691
 11
167.601959210119
 21
36.66611443124668
 72
     1
 10
167.601959210119
 20
36.66611443124668
 11
167.6762599019385
 21
36.54671766428446
 72
     1
 10
167.6762599019385
 20
36.54671766428446
 11
167.7838207886228
 21
36.38791186199242
 72
     1
 10
167.7838207886228
 20
36.38791186199242
 11
167.8938503292988
 21
36.24484860517147
 72
     1
 10
167.8938503292988
 20
36.24484860517147
 11
167.9711011730867
 21
36.15697553576395
 72
     1
 10
167.9711011730867
 20
36.15697553576395
 11
168.0532387097727
 21
36.07423401804957
 72
     1
 10
168.0532387097727
 20
36.07423401804957
 11
168.1417787446954
 21
35.99587799795518
 72
     1
 10
168.1417787446954
 20
35.99587799795518
 11
168.2382370831932
 21
35.9211614214076
 72
     1
 10
168.2382370831932
 20
35.9211614214076
 11
168.3441295306047
 21
35.84933823433372
 72
     1
 10
168.3441295306047
 20
35.84933823433372
 11
168.4609718922684
 21
35.77966238266035
 72
     1
 10
168.4609718922684
 20
35.77966238266035
 11
168.5999218555129
 21
35.70688227295025
 72
     1
 10
168.5999218555129
 20
35.70688227295025
 11
168.7533572433776
 21
35.63734251868161
 72
     1
 10
168.7533572433776
 20
35.63734251868161
 11
168.9214188399831
 21
35.57267098299393
 72
     1
 10
168.9214188399831
 20
35.57267098299393
 11
169.10424742945
 21
35.51449552902657
 72
     1
 10
169.10424742945
 20
35.51449552902657
 11
169.3019837958987
 21
35.46444401991895
 72
     1
 10
169.3019837958987
 20
35.46444401991895
 11
169.5147687234499
 21
35.42414431881054
 72
     1
 10
169.5147687234499
 20
35.42414431881054
 11
169.742742996224
 21
35.39522428884071
 72
     1
 10
169.742742996224
 20
35.39522428884071
 11
169.9860473983418
 21
35.37931179314892
 72
     1
 10
169.9860473983418
 20
35.37931179314892
 11
170.2448227139236
 21
35.37803469487456
 72
     1
 10
170.2448227139236
 20
35.37803469487456
 11
170.5290512572761
 21
35.38584952449677
 72
     1
 10
170.5290512572761
 20
35.38584952449677
 11
170.8139423257373
 21
35.40943858022688
 72
     1
 10
170.8139423257373
 20
35.40943858022688
 11
171.0981835120091
 21
35.4489119638496
 72
     1
 10
171.0981835120091
 20
35.4489119638496
 11
171.3804481219209
 21
35.50423387728592
 72
     1
 10
171.3804481219209
 20
35.50423387728592
 11
171.6594155003299
 21
35.57522091739236
 72
     1
 10
171.6594155003299
 20
35.57522091739236
 11
171.9337914998247
 21
35.66154377077486
 72
     1
 10
171.9337914998247
 20
35.66154377077486
 11
172.2023284311315
 21
35.76273229044097
 72
     1
 10
172.2023284311315
 20
35.76273229044097
 11
172.4638438523356
 21
35.87818379069809
 72
     1
 10
172.4638438523356
 20
35.87818379069809
 11
172.7172376075405
 21
36.00717426027418
 97
        0
 75
     0
 76
     1
 98
        0
  0
HATCH
  5
1A1
330
1F
100
AcDbEntity
  8
Standard
  6
Continuous
 62
     7
100
AcDbHatch
 10
0.0
 20
0.0
 30
0.0
210
0.0
220
0.0
230
1.0
  2
SOLID
 70
     1
 71
     0
 91
        1
 92
        1
 93
       81
 72
     1
 10
178.3239249654455
 20
39.14238211211093
 11
178.3183255861878
 21
39.29451473095851
 72
     1
 10
178.3183255861878
 20
39.29451473095851
 11
178.3029148266429
 21
39.43248724584884
 72
     1
 10
178.3029148266429
 20
39.43248724584884
 11
178.2790173924239
 21
39.55743542938495
 72
     1
 10
178.2790173924239
 20
39.55743542938495
 11
178.2479579891439
 21
39.67049505417
 72
     1
 10
178.2479579891439
 20
39.67049505417
 11
178.2110613224162
 21
39.77280189280702
 72
     1
 10
178.2110613224162
 20
39.77280189280702
 11
178.1696520978538
 21
39.86549171789918
 72
     1
 10
178.1696520978538
 20
39.86549171789918
 11
178.1019750085993
 21
39.98897905770999
 72
     1
 10
178.1019750085993
 20
39.98897905770999
 11
178.031596133291
 21
40.09721683793724
 72
     1
 10
178.031596133291
 20
40.09721683793724
 11
177.9635588392812
 21
40.19119068116036
 72
     1
 10
177.9635588392812
 20
40.19119068116036
 11
177.893960006104
 21
40.27584882257234
 72
     1
 10
177.893960006104
 20
40.27584882257234
 11
177.8195636236611
 21
40.35268125680999
 72
     1
 10
177.8195636236611
 20
40.35268125680999
 11
177.7371336818543
 21
40.42317797851011
 72
     1
 10
177.7371336818543
 20
40.42317797851011
 11
177.6434341705854
 21
40.48882898230956
 72
     1
 10
177.6434341705854
 20
40.48882898230956
 11
177.535229079756
 21
40.55112426284511
 72
     1
 10
177.535229079756
 20
40.55112426284511
 11
177.3999600990802
 21
40.61506720493097
 72
     1
 10
177.3999600990802
 20
40.61506720493097
 11
177.2439748392668
 21
40.67361208797514
 72
     1
 10
177.2439748392668
 20
40.67361208797514
 11
177.1283272011856
 21
40.70803759958527
 72
     1
 10
177.1283272011856
 20
40.70803759958527
 11
177.003249696572
 21
40.73765574074933
 72
     1
 10
177.003249696572
 20
40.73765574074933
 11
176.8686532728818
 21
40.76150321822963
 72
     1
 10
176.8686532728818
 20
40.76150321822963
 11
176.724448877571
 21
40.77861673878849
 72
     1
 10
176.724448877571
 20
40.77861673878849
 11
176.5705474580954
 21
40.78803300918823
 72
     1
 10
176.5705474580954
 20
40.78803300918823
 11
176.4068599619111
 21
40.78878873619118
 72
     1
 10
176.4068599619111
 20
40.78878873619118
 11
173.8577386713705
 21
40.7887887361912
 72
     1
 10
173.8577386713705
 20
40.7887887361912
 11
173.8577386713705
 21
35.53234701839971
 72
     1
 10
173.8577386713705
 20
35.53234701839971
 11
175.2534567564767
 21
35.5323470183997
 72
     1
 10
175.2534567564767
 20
35.5323470183997
 11
175.2534567564767
 21
39.78397004924694
 72
     1
 10
175.2534567564767
 20
39.78397004924694
 11
176.1576246130663
 21
39.78397004924695
 72
     1
 10
176.1576246130663
 20
39.78397004924695
 11
176.2589290341562
 21
39.78171486896078
 72
     1
 10
176.2589290341562
 20
39.78171486896078
 11
176.3510526174439
 21
39.77011577462304
 72
     1
 10
176.3510526174439
 20
39.77011577462304
 11
176.4341212530998
 21
39.75082352601168
 72
     1
 10
176.4341212530998
 20
39.75082352601168
 11
176.5082608312942
 21
39.72548888290466
 72
     1
 10
176.5082608312942
 20
39.72548888290466
 11
176.5735972421976
 21
39.69576260507992
 72
     1
 10
176.5735972421976
 20
39.69576260507992
 11
176.6302563759805
 21
39.66329545231538
 72
     1
 10
176.6302563759805
 20
39.66329545231538
 11
176.6892700245421
 21
39.62078010791478
 72
     1
 10
176.6892700245421
 20
39.62078010791478
 11
176.7382853941597
 21
39.57478732787796
 72
     1
 10
176.7382853941597
 20
39.57478732787796
 11
176.7805153891441
 21
39.52352381403737
 72
     1
 10
176.7805153891441
 20
39.52352381403737
 11
176.809667746029
 21
39.48053847866927
 72
     1
 10
176.809667746029
 20
39.48053847866927
 11
176.8381660323639
 21
39.43282307765289
 72
     1
 10
176.8381660323639
 20
39.43282307765289
 11
176.867645119821
 21
39.37786513497936
 72
     1
 10
176.867645119821
 20
39.37786513497936
 11
176.8959925298107
 21
39.31516419887387
 72
     1
 10
176.8959925298107
 20
39.31516419887387
 11
176.9213355767503
 21
39.24277393808777
 72
     1
 10
176.9213355767503
 20
39.24277393808777
 11
176.9418015750573
 21
39.15874802137247
 72
     1
 10
176.9418015750573
 20
39.15874802137247
 11
176.9555178391489
 21
39.06114011747932
 72
     1
 10
176.9555178391489
 20
39.06114011747932
 11
176.9606116834426
 21
38.94800389515972
 72
     1
 10
176.9606116834426
 20
38.94800389515972
 11
176.9555178391489
 21
38.83486767284018
 72
     1
 10
176.9555178391489
 20
38.83486767284018
 11
176.9418015750573
 21
38.7372597689471
 72
     1
 10
176.9418015750573
 20
38.7372597689471
 11
176.9213355767503
 21
38.65323385223184
 72
     1
 10
176.9213355767503
 20
38.65323385223184
 11
176.8959925298107
 21
38.58084359144576
 72
     1
 10
176.8959925298107
 20
38.58084359144576
 11
176.867645119821
 21
38.51814265534028
 72
     1
 10
176.867645119821
 20
38.51814265534028
 11
176.8381660323639
 21
38.46318471266676
 72
     1
 10
176.8381660323639
 20
38.46318471266676
 11
176.8000899037461
 21
38.40065266405635
 72
     1
 10
176.8000899037461
 20
38.40065266405635
 11
176.7600477569616
 21
38.34608129650103
 72
     1
 10
176.7600477569616
 20
38.34608129650103
 11
176.7148266876995
 21
38.29767731183325
 72
     1
 10
176.7148266876995
 20
38.29767731183325
 11
176.6755794551274
 21
38.26434288742347
 72
     1
 10
176.6755794551274
 20
38.26434288742347
 11
176.6302563759805
 21
38.23271233800426
 72
     1
 10
176.6302563759805
 20
38.23271233800426
 11
176.5807801808744
 21
38.20399108997234
 72
     1
 10
176.5807801808744
 20
38.20399108997234
 11
176.5245776008662
 21
38.17724587688336
 72
     1
 10
176.5245776008662
 20
38.17724587688336
 11
176.4615624943485
 21
38.15360624761472
 72
     1
 10
176.4615624943485
 20
38.15360624761472
 11
176.3916487197139
 21
38.1342017510439
 72
     1
 10
176.3916487197139
 20
38.1342017510439
 11
176.3147501353551
 21
38.1201619360483
 72
     1
 10
176.3147501353551
 20
38.1201619360483
 11
176.2307805996647
 21
38.1126163515054
 72
     1
 10
176.2307805996647
 20
38.1126163515054
 11
175.4289184586045
 21
38.11261635147373
 72
     1
 10
175.4289184586045
 20
38.11261635147373
 11
177.3589971820088
 21
35.5323470183997
 72
     1
 10
177.3589971820088
 20
35.5323470183997
 11
179.0897132710516
 21
35.5323470183997
 72
     1
 10
179.0897132710516
 20
35.5323470183997
 11
177.3293117683367
 21
37.64133527362854
 72
     1
 10
177.3293117683367
 20
37.64133527362854
 11
177.4378413884242
 21
37.68626314565116
 72
     1
 10
177.4378413884242
 20
37.68626314565116
 11
177.535229079756
 21
37.73363996137686
 72
     1
 10
177.535229079756
 20
37.73363996137686
 11
177.6434341705854
 21
37.79593524191246
 72
     1
 10
177.6434341705854
 20
37.79593524191246
 11
177.7371336818544
 21
37.86158624571191
 72
     1
 10
177.7371336818544
 20
37.86158624571191
 11
177.8195636236612
 21
37.93208296741202
 72
     1
 10
177.8195636236612
 20
37.93208296741202
 11
177.893960006104
 21
38.00891540164967
 72
     1
 10
177.893960006104
 20
38.00891540164967
 11
177.9635588392812
 21
38.09357354306162
 72
     1
 10
177.9635588392812
 20
38.09357354306162
 11
178.031596133291
 21
38.18754738628473
 72
     1
 10
178.031596133291
 20
38.18754738628473
 11
178.1019750085993
 21
38.29578516651197
 72
     1
 10
178.1019750085993
 20
38.29578516651197
 11
178.1696520978538
 21
38.41927250632281
 72
     1
 10
178.1696520978538
 20
38.41927250632281
 11
178.2110613224162
 21
38.51196233141494
 72
     1
 10
178.2110613224162
 20
38.51196233141494
 11
178.2479579891439
 21
38.61426917005198
 72
     1
 10
178.2479579891439
 20
38.61426917005198
 11
178.2790173924239
 21
38.727328794837
 72
     1
 10
178.2790173924239
 20
38.727328794837
 11
178.3029148266429
 21
38.8522769783731
 72
     1
 10
178.3029148266429
 20
38.8522769783731
 11
178.3183255861878
 21
38.99024949326337
 72
     1
 10
178.3183255861878
 20
38.99024949326337
 11
178.3239249654455
 21
39.14238211211093
 97
        0
 75
     0
 76
     1
 98
        0
  0
HATCH
  5
1A2
330
1F
100
AcDbEntity
  8
Standard
  6
Continuous
 62
     7
100
AcDbHatch
 10
0.0
 20
0.0
 30
0.0
210
0.0
220
0.0
230
1.0
  2
SOLID
 70
     1
 71
     0
 91
        2
 92
        1
 93
        4
 72
     2
 10
182.4154915065637
 20
38.84820993797686
 40
3.546040280182366
 50
230.1970191603569
 51
309.8029746803541
 73
     1
 72
     2
 10
182.9869162298897
 20
38.16243781293264
 40
2.653398346417479
 50
309.8029728303363
 51
410.5588426068978
 73
     1
 72
     2
 10
182.4164995693563
 20
37.53020458050485
 40
3.504250792424207
 50
49.92326879874655
 51
130.3963479626625
 73
     1
 72
     2
 10
181.8793224024342
 20
38.16146713411548
 40
2.67536496177354
 50
130.3963479626626
 51
229.6036520373374
 73
     1
 97
        0
 92
        1
 93
        8
 72
     2
 10
182.7188850629272
 20
38.16282151090785
 40
2.101293158218851
 50
143.9338781609766
 51
217.0345979970568
 73
     1
 72
     2
 10
181.8964309250819
 20
37.54227885885737
 40
1.070999999999976
 50
217.0345979970573
 51
240.1494482366618
 73
     1
 72
     2
 10
182.4148919479661
 20
38.44571359377819
 40
2.112631485944757
 50
240.1494482366606
 51
298.6550551869541
 73
     1
 72
     2
 10
182.91439100011
 20
37.5316584261768
 40
1.071000000000003
 50
298.6550551869533
 51
326.0793919107382
 73
     1
 72
     2
 10
181.973764256272
 20
38.16422457804732
 40
2.20454250370927
 50
326.0793919107389
 51
392.9337797450882
 73
     1
 72
     2
 10
182.9251458907381
 20
38.78049691501871
 40
1.070999999999999
 50
32.93377974508775
 51
59.70433099434491
 73
     1
 72
     2
 10
182.4148919479661
 20
37.90715040035985
 40
2.08248070707313
 50
59.70433099434629
 51
121.5222523772517
 73
     1
 72
     2
 10
181.8860598223169
 20
38.76937415534602
 40
1.07100000000001
 50
121.5222523772514
 51
143.9338781609769
 73
     1
 97
        0
 75
     0
 76
     1
 98
        0
  0
ARC
  5
1A3
330
1F
100
AcDbEntity
  8
Standard
  6
Continuous
 62
     7
100
AcDbCircle
 10
182.4154915066
 20
38.848209938
 30
0.0
 40
3.546040280182366
100
AcDbArc
 50
230.1970191604
 51
309.8029746804
  0
ARC
  5
1A4
330
1F
100
AcDbEntity
  8
Standard
  6
Continuous
 62
     7
100
AcDbCircle
 10
182.9869162299
 20
38.1624378129
 30
0.0
 40
2.653398346417479
100
AcDbArc
 50
309.8029728303
 51
50.5588426069
  0
ARC
  5
1A5
330
1F
100
AcDbEntity
  8
Standard
  6
Continuous
 62
     7
100
AcDbCircle
 10
182.4164995694
 20
37.5302045805
 30
0.0
 40
3.504250792424207
100
AcDbArc
 50
49.9232687987
 51
130.3963479627
  0
ARC
  5
1A6
330
1F
100
AcDbEntity
  8
Standard
  6
Continuous
 62
     7
100
AcDbCircle
 10
181.8793224024
 20
38.1614671341
 30
0.0
 40
2.67536496177354
100
AcDbArc
 50
130.3963479627
 51
229.6036520373
  0
ARC
  5
1A7
330
1F
100
AcDbEntity
  8
Standard
  6
Continuous
 62
     7
100
AcDbCircle
 10
182.7188850629
 20
38.1628215109
 30
0.0
 40
2.101293158218851
100
AcDbArc
 50
143.933878161
 51
217.0345979971
  0
ARC
  5
1A8
330
1F
100
AcDbEntity
  8
Standard
  6
Continuous
 62
     7
100
AcDbCircle
 10
181.8964309251
 20
37.5422788589
 30
0.0
 40
1.070999999999976
100
AcDbArc
 50
217.0345979971
 51
240.1494482367
  0
ARC
  5
1A9
330
1F
100
AcDbEntity
  8
Standard
  6
Continuous
 62
     7
100
AcDbCircle
 10
182.414891948
 20
38.4457135938
 30
0.0
 40
2.112631485944757
100
AcDbArc
 50
240.1494482367
 51
298.655055187
  0
ARC
  5
1AA
330
1F
100
AcDbEntity
  8
Standard
  6
Continuous
 62
     7
100
AcDbCircle
 10
182.9143910001
 20
37.5316584262
 30
0.0
 40
1.071000000000003
100
AcDbArc
 50
298.655055187
 51
326.0793919107
  0
ARC
  5
1AB
330
1F
100
AcDbEntity
  8
Standard
  6
Continuous
 62
     7
100
AcDbCircle
 10
181.9737642563
 20
38.164224578
 30
0.0
 40
2.20454250370927
100
AcDbArc
 50
326.0793919107
 51
32.9337797451
  0
ARC
  5
1AC
330
1F
100
AcDbEntity
  8
Standard
  6
Continuous
 62
     7
100
AcDbCircle
 10
182.9251458907
 20
38.780496915
 30
0.0
 40
1.070999999999999
100
AcDbArc
 50
32.9337797451
 51
59.7043309943
  0
ARC
  5
1AD
330
1F
100
AcDbEntity
  8
Standard
  6
Continuous
 62
     7
100
AcDbCircle
 10
182.414891948
 20
37.9071504004
 30
0.0
 40
2.08248070707313
100
AcDbArc
 50
59.7043309943
 51
121.5222523773
  0
ARC
  5
1AE
330
1F
100
AcDbEntity
  8
Standard
  6
Continuous
 62
     7
100
AcDbCircle
 10
181.8860598223
 20
38.7693741553
 30
0.0
 40
1.07100000000001
100
AcDbArc
 50
121.5222523773
 51
143.933878161
  0
SPLINE
  5
1AF
330
1F
100
AcDbEntity
  8
Standard
  6
Continuous
 62
     7
100
AcDbSpline
210
0.0
220
0.0
230
1.0
 70
    11
 71
     1
 72
   142
 73
   140
 74
     0
 42
0.000000001
 43
0.0000000001
 40
0.0
 40
0.0
 40
0.0071942446043165
 40
0.0143884892086331
 40
0.0215827338129496
 40
0.0287769784172662
 40
0.0359712230215827
 40
0.0431654676258993
 40
0.0503597122302158
 40
0.0575539568345324
 40
0.0647482014388489
 40
0.0719424460431655
 40
0.079136690647482
 40
0.0863309352517986
 40
0.0935251798561151
 40
0.1007194244604317
 40
0.1079136690647482
 40
0.1151079136690648
 40
0.1223021582733813
 40
0.1294964028776978
 40
0.1366906474820144
 40
0.1438848920863309
 40
0.1510791366906475
 40
0.158273381294964
 40
0.1654676258992806
 40
0.1726618705035971
 40
0.1798561151079137
 40
0.1870503597122302
 40
0.1942446043165468
 40
0.2014388489208633
 40
0.2086330935251799
 40
0.2158273381294964
 40
0.223021582733813
 40
0.2302158273381295
 40
0.2374100719424461
 40
0.2446043165467626
 40
0.2517985611510791
 40
0.2589928057553957
 40
0.2661870503597122
 40
0.2733812949640288
 40
0.2805755395683454
 40
0.2877697841726619
 40
0.2949640287769784
 40
0.302158273381295
 40
0.3093525179856115
 40
0.3165467625899281
 40
0.3237410071942446
 40
0.3309352517985611
 40
0.3381294964028777
 40
0.3453237410071943
 40
0.3525179856115108
 40
0.3597122302158274
 40
0.3669064748201439
 40
0.3741007194244604
 40
0.381294964028777
 40
0.3884892086330936
 40
0.3956834532374101
 40
0.4028776978417267
 40
0.4100719424460432
 40
0.4172661870503597
 40
0.4244604316546763
 40
0.4316546762589928
 40
0.4388489208633094
 40
0.4460431654676259
 40
0.4532374100719425
 40
0.460431654676259
 40
0.4676258992805756
 40
0.4748201438848921
 40
0.4820143884892086
 40
0.4892086330935252
 40
0.4964028776978417
 40
0.5035971223021583
 40
0.5107913669064749
 40
0.5179856115107914
 40
0.525179856115108
 40
0.5323741007194245
 40
0.539568345323741
 40
0.5467625899280576
 40
0.5539568345323741
 40
0.5611510791366907
 40
0.5683453237410072
 40
0.5755395683453237
 40
0.5827338129496403
 40
0.5899280575539568
 40
0.5971223021582734
 40
0.60431654676259
 40
0.6115107913669066
 40
0.6187050359712231
 40
0.6258992805755396
 40
0.6330935251798562
 40
0.6402877697841727
 40
0.6474820143884893
 40
0.6546762589928058
 40
0.6618705035971223
 40
0.6690647482014389
 40
0.6762589928057554
 40
0.683453237410072
 40
0.6906474820143885
 40
0.697841726618705
 40
0.7050359712230216
 40
0.7122302158273381
 40
0.7194244604316548
 40
0.7266187050359713
 40
0.7338129496402878
 40
0.7410071942446044
 40
0.7482014388489209
 40
0.7553956834532375
 40
0.762589928057554
 40
0.7697841726618705
 40
0.7769784172661871
 40
0.7841726618705036
 40
0.7913669064748202
 40
0.7985611510791367
 40
0.8057553956834533
 40
0.8129496402877698
 40
0.8201438848920863
 40
0.827338129496403
 40
0.8345323741007195
 40
0.8417266187050361
 40
0.8489208633093526
 40
0.8561151079136691
 40
0.8633093525179857
 40
0.8705035971223022
 40
0.8776978417266188
 40
0.8848920863309353
 40
0.8920863309352518
 40
0.8992805755395684
 40
0.9064748201438849
 40
0.9136690647482015
 40
0.920863309352518
 40
0.9280575539568345
 40
0.9352517985611511
 40
0.9424460431654677
 40
0.9496402877697843
 40
0.9568345323741008
 40
0.9640287769784173
 40
0.9712230215827339
 40
0.9784172661870504
 40
0.985611510791367
 40
0.9928057553956835
 40
1.0
 40
1.0
 10
172.7172376075405
 20
36.00717426027418
 30
0.0
 10
172.7172376075405
 20
38.16056787729543
 30
0.0
 10
171.3135439905194
 20
38.16056787729543
 30
0.0
 10
171.3135439905194
 20
36.61701935882525
 30
0.0
 10
171.1917076643315
 20
36.5611499033753
 30
0.0
 10
171.0666502755375
 20
36.51126995692736
 30
0.0
 10
170.9388185719342
 20
36.46764219434532
 30
0.0
 10
170.8086865832739
 20
36.43048421156423
 30
0.0
 10
170.6767498485449
 20
36.39996513139732
 30
0.0
 10
170.5435191598414
 20
36.37620310823803
 30
0.0
 10
170.4095139875734
 20
36.35926380720596
 30
0.0
 10
170.2752557640552
 20
36.34915989868774
 30
0.0
 10
170.141261206663
 20
36.34585157274731
 30
0.0
 10
170.0152684750314
 20
36.34668446771455
 30
0.0
 10
169.8968082340686
 20
36.35706328170605
 30
0.0
 10
169.7858119386887
 20
36.37592624282478
 30
0.0
 10
169.6822110438061
 20
36.40221157917369
 30
0.0
 10
169.5859370043348
 20
36.43485751885568
 30
0.0
 10
169.496921275189
 20
36.47280228997371
 30
0.0
 10
169.3768570709555
 20
36.53733212956858
 30
0.0
 10
169.2727384988467
 20
36.60781187297363
 30
0.0
 10
169.1894514104418
 20
36.67647551794381
 30
0.0
 10
169.1173294851355
 20
36.74883793734485
 30
0.0
 10
169.0538819172082
 20
36.82654144600173
 30
0.0
 10
168.9966179009403
 20
36.91122835873944
 30
0.0
 10
168.9430466306121
 20
37.00454099038299
 30
0.0
 10
168.8906773005039
 20
37.10812165575732
 30
0.0
 10
168.836505619997
 20
37.22742444161827
 30
0.0
 10
168.7844135449151
 20
37.36353572944269
 30
0.0
 10
168.7525402409839
 20
37.46570111320462
 30
0.0
 10
168.7241403207949
 20
37.57846664513256
 30
0.0
 10
168.7002334302138
 20
37.70308420636606
 30
0.0
 10
168.6818392151061
 20
37.84080567804467
 30
0.0
 10
168.6699773213378
 20
37.99288294130795
 30
0.0
 10
168.6656673947745
 20
38.16056787729547
 30
0.0
 10
168.6712120570559
 20
38.32825281328298
 30
0.0
 10
168.686472223093
 20
38.48033007654627
 30
0.0
 10
168.7101361322584
 20
38.61805154822488
 30
0.0
 10
168.740892023925
 20
38.74266910945838
 30
0.0
 10
168.7774281374655
 20
38.8554346413863
 30
0.0
 10
168.8184327122526
 20
38.95760002514824
 30
0.0
 10
168.8854484628985
 20
39.09371131297266
 30
0.0
 10
168.955139597821
 20
39.2130140988336
 30
0.0
 10
169.0225120333115
 20
39.31659476420789
 30
0.0
 10
169.0914307486526
 20
39.4099073958514
 30
0.0
 10
169.1651001317433
 20
39.4945943085891
 30
0.0
 10
169.2467245704821
 20
39.57229781724597
 30
0.0
 10
169.3395084527681
 20
39.64466023664699
 30
0.0
 10
169.4466561664998
 20
39.71332388161716
 30
0.0
 10
169.5336896386445
 20
39.76079451607121
 30
0.0
 10
169.6297962819564
 20
39.80615163724154
 30
0.0
 10
169.7350642787605
 20
39.84833347569219
 30
0.0
 10
169.849581811382
 20
39.88627826198729
 30
0.0
 10
169.9734370621461
 20
39.91892422669089
 30
0.0
 10
170.1067182133778
 20
39.94520960036712
 30
0.0
 10
170.2495134474023
 20
39.96407261358002
 30
0.0
 10
170.4019109465447
 20
39.97445149689372
 30
0.0
 10
170.5639988931302
 20
39.97528448087226
 30
0.0
 10
170.7940677015586
 20
39.96791705452002
 30
0.0
 10
171.0248685653708
 20
39.94564911414763
 30
0.0
 10
171.2549550680946
 20
39.90833871893881
 30
0.0
 10
171.4828592819786
 20
39.8560316822272
 30
0.0
 10
171.7071223381179
 20
39.78896457142685
 30
0.0
 10
171.9263252902625
 20
39.70756173025599
 30
0.0
 10
172.1391189154063
 20
39.6124263667062
 30
0.0
 10
172.3442511450613
 20
39.50432609735185
 30
0.0
 10
172.5405909692427
 20
39.38417365663604
 30
0.0
 10
172.5405909692427
 20
40.41797801232769
 30
0.0
 10
172.3015900069624
 20
40.52611532128243
 30
0.0
 10
172.0564343849309
 20
40.6226451417334
 30
0.0
 10
171.8059791867947
 20
40.70707201125296
 30
0.0
 10
171.5511302914853
 20
40.7789856498396
 30
0.0
 10
171.2928336083978
 20
40.83806719739523
 30
0.0
 10
171.032063435777
 20
40.88409379760048
 30
0.0
 10
170.769810241229
 20
40.91694139294221
 30
0.0
 10
170.5070681849877
 20
40.93658565755333
 30
0.0
 10
170.2448227139236
 20
40.94310105971638
 30
0.0
 10
169.9860473983418
 20
40.94182396144203
 30
0.0
 10
169.742742996224
 20
40.92591146575024
 30
0.0
 10
169.5147687234499
 20
40.89699143578041
 30
0.0
 10
169.3019837958987
 20
40.85669173467197
 30
0.0
 10
169.10424742945
 20
40.80664022556437
 30
0.0
 10
168.9214188399832
 20
40.748464771597
 30
0.0
 10
168.7533572433777
 20
40.68379323590929
 30
0.0
 10
168.5999218555129
 20
40.6142534816407
 30
0.0
 10
168.4609718922684
 20
40.54147337193057
 30
0.0
 10
168.3441295306047
 20
40.4717975202572
 30
0.0
 10
168.2382370831932
 20
40.39997433318328
 30
0.0
 10
168.1417787446954
 20
40.32525775663572
 30
0.0
 10
168.0532387097728
 20
40.24690173654134
 30
0.0
 10
167.9711011730867
 20
40.16416021882696
 30
0.0
 10
167.8938503292988
 20
40.07628714941943
 30
0.0
 10
167.7838207886228
 20
39.93322389259848
 30
0.0
 10
167.6762599019385
 20
39.77441809030643
 30
0.0
 10
167.601959210119
 20
39.6550213233442
 30
0.0
 10
167.5285097454347
 20
39.52513083089987
 30
0.0
 10
167.4580057491749
 20
39.38282727804717
 30
0.0
 10
167.3925414626295
 20
39.22619132985976
 30
0.0
 10
167.334211127088
 20
39.05330365141138
 30
0.0
 10
167.2851089838399
 20
38.8622449077757
 30
0.0
 10
167.247329274175
 20
38.65109576402647
 30
0.0
 10
167.2229662393827
 20
38.41793688523737
 30
0.0
 10
167.2141141207528
 20
38.16084893648212
 30
0.0
 10
167.2141138140291
 20
38.16056786286189
 30
0.0
 10
167.2141141207528
 20
38.1602868181087
 30
0.0
 10
167.2229662393827
 20
37.90319886935345
 30
0.0
 10
167.247329274175
 20
37.67003999056436
 30
0.0
 10
167.2851089838399
 20
37.45889084681512
 30
0.0
 10
167.334211127088
 20
37.26783210317947
 30
0.0
 10
167.3925414626295
 20
37.09494442473109
 30
0.0
 10
167.4580057491749
 20
36.9383084765437
 30
0.0
 10
167.5285097454346
 20
36.796004923691
 30
0.0
 10
167.601959210119
 20
36.66611443124668
 30
0.0
 10
167.6762599019385
 20
36.54671766428446
 30
0.0
 10
167.7838207886228
 20
36.38791186199242
 30
0.0
 10
167.8938503292988
 20
36.24484860517147
 30
0.0
 10
167.9711011730867
 20
36.15697553576395
 30
0.0
 10
168.0532387097727
 20
36.07423401804957
 30
0.0
 10
168.1417787446954
 20
35.99587799795518
 30
0.0
 10
168.2382370831932
 20
35.9211614214076
 30
0.0
 10
168.3441295306047
 20
35.84933823433372
 30
0.0
 10
168.4609718922684
 20
35.77966238266035
 30
0.0
 10
168.5999218555129
 20
35.70688227295025
 30
0.0
 10
168.7533572433776
 20
35.63734251868161
 30
0.0
 10
168.9214188399831
 20
35.57267098299393
 30
0.0
 10
169.10424742945
 20
35.51449552902657
 30
0.0
 10
169.3019837958987
 20
35.46444401991895
 30
0.0
 10
169.5147687234499
 20
35.42414431881054
 30
0.0
 10
169.742742996224
 20
35.39522428884071
 30
0.0
 10
169.9860473983418
 20
35.37931179314892
 30
0.0
 10
170.2448227139236
 20
35.37803469487456
 30
0.0
 10
170.5290512572761
 20
35.38584952449677
 30
0.0
 10
170.8139423257373
 20
35.40943858022688
 30
0.0
 10
171.0981835120091
 20
35.4489119638496
 30
0.0
 10
171.3804481219209
 20
35.50423387728592
 30
0.0
 10
171.6594155003299
 20
35.57522091739236
 30
0.0
 10
171.9337914998247
 20
35.66154377077486
 30
0.0
 10
172.2023284311315
 20
35.76273229044097
 30
0.0
 10
172.4638438523356
 20
35.87818379069809
 30
0.0
 10
172.7172376075405
 20
36.00717426027418
 30
0.0
  0
SPLINE
  5
1B0
330
1F
100
AcDbEntity
  8
Standard
  6
Continuous
 62
     7
100
AcDbSpline
210
0.0
220
0.0
230
1.0
 70
    11
 71
     1
 72
    84
 73
    82
 74
     0
 42
0.000000001
 43
0.0000000001
 40
0.0
 40
0.0
 40
0.0123456790123457
 40
0.0246913580246914
 40
0.037037037037037
 40
0.0493827160493827
 40
0.0617283950617284
 40
0.0740740740740741
 40
0.0864197530864197
 40
0.0987654320987654
 40
0.1111111111111111
 40
0.1234567901234568
 40
0.1358024691358025
 40
0.1481481481481481
 40
0.1604938271604938
 40
0.1728395061728395
 40
0.1851851851851852
 40
0.1975308641975309
 40
0.2098765432098765
 40
0.2222222222222222
 40
0.2345679012345679
 40
0.2469135802469136
 40
0.2592592592592592
 40
0.2716049382716049
 40
0.2839506172839506
 40
0.2962962962962963
 40
0.308641975308642
 40
0.3209876543209876
 40
0.3333333333333333
 40
0.345679012345679
 40
0.3580246913580247
 40
0.3703703703703703
 40
0.382716049382716
 40
0.3950617283950617
 40
0.4074074074074074
 40
0.4197530864197531
 40
0.4320987654320987
 40
0.4444444444444444
 40
0.4567901234567901
 40
0.4691358024691358
 40
0.4814814814814815
 40
0.4938271604938271
 40
0.5061728395061729
 40
0.5185185185185185
 40
0.5308641975308641
 40
0.5432098765432098
 40
0.5555555555555556
 40
0.5679012345679012
 40
0.5802469135802468
 40
0.5925925925925926
 40
0.6049382716049383
 40
0.6172839506172839
 40
0.6296296296296295
 40
0.6419753086419753
 40
0.654320987654321
 40
0.6666666666666666
 40
0.6790123456790123
 40
0.691358024691358
 40
0.7037037037037037
 40
0.7160493827160493
 40
0.728395061728395
 40
0.7407407407407407
 40
0.7530864197530864
 40
0.7654320987654321
 40
0.7777777777777777
 40
0.7901234567901234
 40
0.8024691358024691
 40
0.8148148148148148
 40
0.8271604938271604
 40
0.8395061728395061
 40
0.8518518518518519
 40
0.8641975308641975
 40
0.8765432098765431
 40
0.8888888888888888
 40
0.9012345679012346
 40
0.9135802469135802
 40
0.9259259259259258
 40
0.9382716049382716
 40
0.9506172839506173
 40
0.9629629629629629
 40
0.9753086419753085
 40
0.9876543209876543
 40
1.0
 40
1.0
 10
178.3239249654455
 20
39.14238211211093
 30
0.0
 10
178.3183255861878
 20
39.29451473095851
 30
0.0
 10
178.3029148266429
 20
39.43248724584884
 30
0.0
 10
178.2790173924239
 20
39.55743542938495
 30
0.0
 10
178.2479579891439
 20
39.67049505417
 30
0.0
 10
178.2110613224162
 20
39.77280189280702
 30
0.0
 10
178.1696520978538
 20
39.86549171789918
 30
0.0
 10
178.1019750085993
 20
39.98897905770999
 30
0.0
 10
178.031596133291
 20
40.09721683793724
 30
0.0
 10
177.9635588392812
 20
40.19119068116036
 30
0.0
 10
177.893960006104
 20
40.27584882257234
 30
0.0
 10
177.8195636236611
 20
40.35268125680999
 30
0.0
 10
177.7371336818543
 20
40.42317797851011
 30
0.0
 10
177.6434341705854
 20
40.48882898230956
 30
0.0
 10
177.535229079756
 20
40.55112426284511
 30
0.0
 10
177.3999600990802
 20
40.61506720493097
 30
0.0
 10
177.2439748392668
 20
40.67361208797514
 30
0.0
 10
177.1283272011856
 20
40.70803759958527
 30
0.0
 10
177.003249696572
 20
40.73765574074933
 30
0.0
 10
176.8686532728818
 20
40.76150321822963
 30
0.0
 10
176.724448877571
 20
40.77861673878849
 30
0.0
 10
176.5705474580954
 20
40.78803300918823
 30
0.0
 10
176.4068599619111
 20
40.78878873619118
 30
0.0
 10
173.8577386713705
 20
40.7887887361912
 30
0.0
 10
173.8577386713705
 20
35.53234701839971
 30
0.0
 10
175.2534567564767
 20
35.5323470183997
 30
0.0
 10
175.2534567564767
 20
39.78397004924694
 30
0.0
 10
176.1576246130663
 20
39.78397004924695
 30
0.0
 10
176.2589290341562
 20
39.78171486896078
 30
0.0
 10
176.3510526174439
 20
39.77011577462304
 30
0.0
 10
176.4341212530998
 20
39.75082352601168
 30
0.0
 10
176.5082608312942
 20
39.72548888290466
 30
0.0
 10
176.5735972421976
 20
39.69576260507992
 30
0.0
 10
176.6302563759805
 20
39.66329545231538
 30
0.0
 10
176.6892700245421
 20
39.62078010791478
 30
0.0
 10
176.7382853941597
 20
39.57478732787796
 30
0.0
 10
176.7805153891441
 20
39.52352381403737
 30
0.0
 10
176.809667746029
 20
39.48053847866927
 30
0.0
 10
176.8381660323639
 20
39.43282307765289
 30
0.0
 10
176.867645119821
 20
39.37786513497936
 30
0.0
 10
176.8959925298107
 20
39.31516419887387
 30
0.0
 10
176.9213355767503
 20
39.24277393808777
 30
0.0
 10
176.9418015750573
 20
39.15874802137247
 30
0.0
 10
176.9555178391489
 20
39.06114011747932
 30
0.0
 10
176.9606116834426
 20
38.94800389515972
 30
0.0
 10
176.9555178391489
 20
38.83486767284018
 30
0.0
 10
176.9418015750573
 20
38.7372597689471
 30
0.0
 10
176.9213355767503
 20
38.65323385223184
 30
0.0
 10
176.8959925298107
 20
38.58084359144576
 30
0.0
 10
176.867645119821
 20
38.51814265534028
 30
0.0
 10
176.8381660323639
 20
38.46318471266676
 30
0.0
 10
176.8000899037461
 20
38.40065266405635
 30
0.0
 10
176.7600477569616
 20
38.34608129650103
 30
0.0
 10
176.7148266876995
 20
38.29767731183325
 30
0.0
 10
176.6755794551274
 20
38.26434288742347
 30
0.0
 10
176.6302563759805
 20
38.23271233800426
 30
0.0
 10
176.5807801808744
 20
38.20399108997234
 30
0.0
 10
176.5245776008662
 20
38.17724587688336
 30
0.0
 10
176.4615624943485
 20
38.15360624761472
 30
0.0
 10
176.3916487197139
 20
38.1342017510439
 30
0.0
 10
176.3147501353551
 20
38.1201619360483
 30
0.0
 10
176.2307805996647
 20
38.1126163515054
 30
0.0
 10
175.4289184586045
 20
38.11261635147373
 30
0.0
 10
177.3589971820088
 20
35.5323470183997
 30
0.0
 10
179.0897132710516
 20
35.5323470183997
 30
0.0
 10
177.3293117683367
 20
37.64133527362854
 30
0.0
 10
177.4378413884242
 20
37.68626314565116
 30
0.0
 10
177.535229079756
 20
37.73363996137686
 30
0.0
 10
177.6434341705854
 20
37.79593524191246
 30
0.0
 10
177.7371336818544
 20
37.86158624571191
 30
0.0
 10
177.8195636236612
 20
37.93208296741202
 30
0.0
 10
177.893960006104
 20
38.00891540164967
 30
0.0
 10
177.9635588392812
 20
38.09357354306162
 30
0.0
 10
178.031596133291
 20
38.18754738628473
 30
0.0
 10
178.1019750085993
 20
38.29578516651197
 30
0.0
 10
178.1696520978538
 20
38.41927250632281
 30
0.0
 10
178.2110613224162
 20
38.51196233141494
 30
0.0
 10
178.2479579891439
 20
38.61426917005198
 30
0.0
 10
178.2790173924239
 20
38.727328794837
 30
0.0
 10
178.3029148266429
 20
38.8522769783731
 30
0.0
 10
178.3183255861878
 20
38.99024949326337
 30
0.0
 10
178.3239249654455
 20
39.14238211211093
 30
0.0
  0
SPLINE
  5
1B1
330
1F
100
AcDbEntity
  8
Standard
  6
Continuous
 62
     7
100
AcDbSpline
210
0.0
220
0.0
230
1.0
 70
    11
 71
     1
 72
    89
 73
    87
 74
     0
 42
0.000000001
 43
0.0000000001
 40
0.0
 40
0.0
 40
0.0116279069767442
 40
0.0232558139534884
 40
0.0348837209302326
 40
0.0465116279069767
 40
0.0581395348837209
 40
0.0697674418604651
 40
0.0813953488372093
 40
0.0930232558139535
 40
0.1046511627906977
 40
0.1162790697674419
 40
0.1279069767441861
 40
0.1395348837209302
 40
0.1511627906976744
 40
0.1627906976744186
 40
0.1744186046511628
 40
0.186046511627907
 40
0.1976744186046512
 40
0.2093023255813953
 40
0.2209302325581395
 40
0.2325581395348837
 40
0.2441860465116279
 40
0.2558139534883721
 40
0.2674418604651163
 40
0.2790697674418605
 40
0.2906976744186047
 40
0.3023255813953488
 40
0.313953488372093
 40
0.3255813953488372
 40
0.3372093023255814
 40
0.3488372093023256
 40
0.3604651162790697
 40
0.3720930232558139
 40
0.3837209302325582
 40
0.3953488372093023
 40
0.4069767441860465
 40
0.4186046511627907
 40
0.4302325581395349
 40
0.4418604651162791
 40
0.4534883720930232
 40
0.4651162790697674
 40
0.4767441860465116
 40
0.4883720930232558
 40
0.5
 40
0.5116279069767442
 40
0.5232558139534884
 40
0.5348837209302325
 40
0.5465116279069767
 40
0.5581395348837209
 40
0.5697674418604651
 40
0.5813953488372093
 40
0.5930232558139534
 40
0.6046511627906976
 40
0.6162790697674418
 40
0.627906976744186
 40
0.6395348837209303
 40
0.6511627906976745
 40
0.6627906976744186
 40
0.6744186046511628
 40
0.686046511627907
 40
0.6976744186046512
 40
0.7093023255813954
 40
0.7209302325581395
 40
0.7325581395348837
 40
0.7441860465116279
 40
0.7558139534883721
 40
0.7674418604651163
 40
0.7790697674418604
 40
0.7906976744186046
 40
0.8023255813953488
 40
0.813953488372093
 40
0.8255813953488372
 40
0.8372093023255813
 40
0.8488372093023255
 40
0.8604651162790697
 40
0.872093023255814
 40
0.8837209302325582
 40
0.8953488372093024
 40
0.9069767441860465
 40
0.9186046511627907
 40
0.9302325581395349
 40
0.9418604651162791
 40
0.9534883720930233
 40
0.9651162790697674
 40
0.9767441860465116
 40
0.9883720930232558
 40
1.0
 40
1.0
 10
182.423459947966
 20
28.25293596718546
 30
0.0
 10
182.8539625981961
 20
28.27503684142309
 30
0.0
 10
183.2844646292467
 20
28.3302547538267
 30
0.0
 10
183.7149654779771
 20
28.41345757346127
 30
0.0
 10
184.1454645812468
 20
28.51951316939178
 30
0.0
 10
184.5759613759153
 20
28.64328941068323
 30
0.0
 10
185.2934493739534
 20
28.87502323702411
 30
0.0
 10
186.0109267877985
 20
29.11796529355262
 30
0.0
 10
186.7283910103185
 20
29.34835571482897
 30
0.0
 10
187.1588621274273
 20
29.47068107865071
 30
0.0
 10
187.5893269939509
 20
29.57480217128829
 30
0.0
 10
188.0197850467487
 20
29.6555868618067
 30
0.0
 10
188.45023572268
 20
29.7079030192709
 30
0.0
 10
188.8806784586044
 20
29.7266185127459
 30
0.0
 10
189.1366338681093
 20
29.7200716233551
 30
0.0
 10
189.3925868629529
 20
29.70090570054506
 30
0.0
 10
189.6485380351785
 20
29.67019758805393
 30
0.0
 10
189.9044879768289
 20
29.62902412961984
 30
0.0
 10
190.1604372799475
 20
29.57846216898094
 30
0.0
 10
190.4163865365774
 20
29.51958854987537
 30
0.0
 10
190.8003116294502
 20
29.41804935726918
 30
0.0
 10
191.1842399479659
 20
29.30386617914003
 30
0.0
 10
191.9125199479662
 20
29.66473885236154
 30
0.0
 10
191.4143414984801
 20
29.82941892453889
 30
0.0
 10
190.9161734823822
 20
29.98191597883798
 30
0.0
 10
190.5840651125878
 20
30.072892015286
 30
0.0
 10
190.2519581467708
 20
30.152572892393
 30
0.0
 10
189.9198512916976
 20
30.21860641626755
 30
0.0
 10
189.5877432541345
 20
30.26864039301828
 30
0.0
 10
189.2556327408481
 20
30.30032262875378
 30
0.0
 10
188.9235184586045
 20
30.31130092958268
 30
0.0
 10
188.490220093844
 20
30.29234564294898
 30
0.0
 10
188.0569136871629
 20
30.23938090540868
 30
0.0
 10
187.6235998129844
 20
30.15764105077553
 30
0.0
 10
187.1902790457312
 20
30.05236041286331
 30
0.0
 10
186.7569519598263
 20
29.92877332548577
 30
0.0
 10
186.0347276686974
 20
29.69633055683516
 30
0.0
 10
185.3124900807424
 20
29.45180938273463
 30
0.0
 10
184.5902418553266
 20
29.21944283009975
 30
0.0
 10
184.1568889203918
 20
29.0959380560192
 30
0.0
 10
183.7235336877655
 20
28.99076716916963
 30
0.0
 10
183.2901767318705
 20
28.90916450336482
 30
0.0
 10
182.8568186271297
 20
28.8563643924185
 30
0.0
 10
182.4234599479661
 20
28.83760117014445
 30
0.0
 10
181.9901012688025
 20
28.8563643924185
 30
0.0
 10
181.5567431640617
 20
28.90916450336482
 30
0.0
 10
181.1233862081667
 20
28.99076716916963
 30
0.0
 10
180.6900309755404
 20
29.0959380560192
 30
0.0
 10
180.2566780406056
 20
29.21944283009976
 30
0.0
 10
179.5344298151898
 20
29.45180938273463
 30
0.0
 10
178.8121922272349
 20
29.69633055683516
 30
0.0
 10
178.089967936106
 20
29.92877332548578
 30
0.0
 10
177.6566408502011
 20
30.05236041286334
 30
0.0
 10
177.2233200829479
 20
30.15764105077556
 30
0.0
 10
176.7900062087694
 20
30.2393809054087
 30
0.0
 10
176.3566998020884
 20
30.29234564294901
 30
0.0
 10
175.9234014373278
 20
30.31130092958271
 30
0.0
 10
175.5912871550605
 20
30.30032262874577
 30
0.0
 10
175.2591766416072
 20
30.26864039295397
 30
0.0
 10
174.9270686035914
 20
30.21860641605047
 30
0.0
 10
174.5949617476365
 20
30.15257289187836
 30
0.0
 10
174.2628547803659
 20
30.07289201428083
 30
0.0
 10
173.930746408403
 20
29.981915977101
 30
0.0
 10
173.4325783873993
 20
29.82941892114634
 30
0.0
 10
172.9343999305946
 20
29.66473884649919
 30
0.0
 10
173.6626799479662
 20
29.30386617914019
 30
0.0
 10
174.046608266482
 20
29.4180493572693
 30
0.0
 10
174.4305333593549
 20
29.51958854987545
 30
0.0
 10
174.6864826159848
 20
29.578462168981
 30
0.0
 10
174.9424319191034
 20
29.62902412961988
 30
0.0
 10
175.1983818607539
 20
29.67019758805398
 30
0.0
 10
175.4543330329794
 20
29.70090570054511
 30
0.0
 10
175.710286027823
 20
29.72007162335515
 30
0.0
 10
175.9662414373279
 20
29.72661851274596
 30
0.0
 10
176.3966841732523
 20
29.70790301927095
 30
0.0
 10
176.8271348491837
 20
29.65558686180674
 30
0.0
 10
177.2575929019814
 20
29.57480217128832
 30
0.0
 10
177.688057768505
 20
29.47068107865074
 30
0.0
 10
178.1185288856139
 20
29.34835571482901
 30
0.0
 10
178.8359931081338
 20
29.11796529355265
 30
0.0
 10
179.553470521979
 20
28.87502323702412
 30
0.0
 10
180.270958520017
 20
28.64328941068324
 30
0.0
 10
180.7014553146854
 20
28.5195131693918
 30
0.0
 10
181.1319544179551
 20
28.41345757346128
 30
0.0
 10
181.5624552666855
 20
28.3302547538267
 30
0.0
 10
181.992957297736
 20
28.27503684142309
 30
0.0
 10
182.423459947966
 20
28.25293596718546
 30
0.0
  0
HATCH
  5
1B2
330
1F
100
AcDbEntity
  8
Standard
  6
Continuous
 62
     7
100
AcDbHatch
 10
0.0
 20
0.0
 30
0.0
210
0.0
220
0.0
230
1.0
  2
SOLID
 70
     1
 71
     0
 91
        1
 92
        1
 93
       86
 72
     1
 10
182.423459947966
 20
28.25293596718546
 11
182.8539625981961
 21
28.27503684142309
 72
     1
 10
182.8539625981961
 20
28.27503684142309
 11
183.2844646292467
 21
28.3302547538267
 72
     1
 10
183.2844646292467
 20
28.3302547538267
 11
183.7149654779771
 21
28.41345757346127
 72
     1
 10
183.7149654779771
 20
28.41345757346127
 11
184.1454645812468
 21
28.51951316939178
 72
     1
 10
184.1454645812468
 20
28.51951316939178
 11
184.5759613759153
 21
28.64328941068323
 72
     1
 10
184.5759613759153
 20
28.64328941068323
 11
185.2934493739534
 21
28.87502323702411
 72
     1
 10
185.2934493739534
 20
28.87502323702411
 11
186.0109267877985
 21
29.11796529355262
 72
     1
 10
186.0109267877985
 20
29.11796529355262
 11
186.7283910103185
 21
29.34835571482897
 72
     1
 10
186.7283910103185
 20
29.34835571482897
 11
187.1588621274273
 21
29.47068107865071
 72
     1
 10
187.1588621274273
 20
29.47068107865071
 11
187.5893269939509
 21
29.57480217128829
 72
     1
 10
187.5893269939509
 20
29.57480217128829
 11
188.0197850467487
 21
29.6555868618067
 72
     1
 10
188.0197850467487
 20
29.6555868618067
 11
188.45023572268
 21
29.7079030192709
 72
     1
 10
188.45023572268
 20
29.7079030192709
 11
188.8806784586044
 21
29.7266185127459
 72
     1
 10
188.8806784586044
 20
29.7266185127459
 11
189.1366338681093
 21
29.7200716233551
 72
     1
 10
189.1366338681093
 20
29.7200716233551
 11
189.3925868629529
 21
29.70090570054506
 72
     1
 10
189.3925868629529
 20
29.70090570054506
 11
189.6485380351785
 21
29.67019758805393
 72
     1
 10
189.6485380351785
 20
29.67019758805393
 11
189.9044879768289
 21
29.62902412961984
 72
     1
 10
189.9044879768289
 20
29.62902412961984
 11
190.1604372799475
 21
29.57846216898094
 72
     1
 10
190.1604372799475
 20
29.57846216898094
 11
190.4163865365774
 21
29.51958854987537
 72
     1
 10
190.4163865365774
 20
29.51958854987537
 11
190.8003116294502
 21
29.41804935726918
 72
     1
 10
190.8003116294502
 20
29.41804935726918
 11
191.1842399479659
 21
29.30386617914003
 72
     1
 10
191.1842399479659
 20
29.30386617914003
 11
191.9125199479662
 21
29.66473885236154
 72
     1
 10
191.9125199479662
 20
29.66473885236154
 11
191.4143414984801
 21
29.82941892453889
 72
     1
 10
191.4143414984801
 20
29.82941892453889
 11
190.9161734823822
 21
29.98191597883798
 72
     1
 10
190.9161734823822
 20
29.98191597883798
 11
190.5840651125878
 21
30.072892015286
 72
     1
 10
190.5840651125878
 20
30.072892015286
 11
190.2519581467708
 21
30.152572892393
 72
     1
 10
190.2519581467708
 20
30.152572892393
 11
189.9198512916976
 21
30.21860641626755
 72
     1
 10
189.9198512916976
 20
30.21860641626755
 11
189.5877432541345
 21
30.26864039301828
 72
     1
 10
189.5877432541345
 20
30.26864039301828
 11
189.2556327408481
 21
30.30032262875378
 72
     1
 10
189.2556327408481
 20
30.30032262875378
 11
188.9235184586045
 21
30.31130092958268
 72
     1
 10
188.9235184586045
 20
30.31130092958268
 11
188.490220093844
 21
30.29234564294898
 72
     1
 10
188.490220093844
 20
30.29234564294898
 11
188.0569136871629
 21
30.23938090540868
 72
     1
 10
188.0569136871629
 20
30.23938090540868
 11
187.6235998129844
 21
30.15764105077553
 72
     1
 10
187.6235998129844
 20
30.15764105077553
 11
187.1902790457312
 21
30.05236041286331
 72
     1
 10
187.1902790457312
 20
30.05236041286331
 11
186.7569519598263
 21
29.92877332548577
 72
     1
 10
186.7569519598263
 20
29.92877332548577
 11
186.0347276686974
 21
29.69633055683516
 72
     1
 10
186.0347276686974
 20
29.69633055683516
 11
185.3124900807424
 21
29.45180938273463
 72
     1
 10
185.3124900807424
 20
29.45180938273463
 11
184.5902418553266
 21
29.21944283009975
 72
     1
 10
184.5902418553266
 20
29.21944283009975
 11
184.1568889203918
 21
29.0959380560192
 72
     1
 10
184.1568889203918
 20
29.0959380560192
 11
183.7235336877655
 21
28.99076716916963
 72
     1
 10
183.7235336877655
 20
28.99076716916963
 11
183.2901767318705
 21
28.90916450336482
 72
     1
 10
183.2901767318705
 20
28.90916450336482
 11
182.8568186271297
 21
28.8563643924185
 72
     1
 10
182.8568186271297
 20
28.8563643924185
 11
182.4234599479661
 21
28.83760117014445
 72
     1
 10
182.4234599479661
 20
28.83760117014445
 11
181.9901012688025
 21
28.8563643924185
 72
     1
 10
181.9901012688025
 20
28.8563643924185
 11
181.5567431640617
 21
28.90916450336482
 72
     1
 10
181.5567431640617
 20
28.90916450336482
 11
181.1233862081667
 21
28.99076716916963
 72
     1
 10
181.1233862081667
 20
28.99076716916963
 11
180.6900309755404
 21
29.0959380560192
 72
     1
 10
180.6900309755404
 20
29.0959380560192
 11
180.2566780406056
 21
29.21944283009976
 72
     1
 10
180.2566780406056
 20
29.21944283009976
 11
179.5344298151898
 21
29.45180938273463
 72
     1
 10
179.5344298151898
 20
29.45180938273463
 11
178.8121922272349
 21
29.69633055683516
 72
     1
 10
178.8121922272349
 20
29.69633055683516
 11
178.089967936106
 21
29.92877332548578
 72
     1
 10
178.089967936106
 20
29.92877332548578
 11
177.6566408502011
 21
30.05236041286334
 72
     1
 10
177.6566408502011
 20
30.05236041286334
 11
177.2233200829479
 21
30.15764105077556
 72
     1
 10
177.2233200829479
 20
30.15764105077556
 11
176.7900062087694
 21
30.2393809054087
 72
     1
 10
176.7900062087694
 20
30.2393809054087
 11
176.3566998020884
 21
30.29234564294901
 72
     1
 10
176.3566998020884
 20
30.29234564294901
 11
175.9234014373278
 21
30.31130092958271
 72
     1
 10
175.9234014373278
 20
30.31130092958271
 11
175.5912871550605
 21
30.30032262874577
 72
     1
 10
175.5912871550605
 20
30.30032262874577
 11
175.2591766416072
 21
30.26864039295397
 72
     1
 10
175.2591766416072
 20
30.26864039295397
 11
174.9270686035914
 21
30.21860641605047
 72
     1
 10
174.9270686035914
 20
30.21860641605047
 11
174.5949617476365
 21
30.15257289187836
 72
     1
 10
174.5949617476365
 20
30.15257289187836
 11
174.2628547803659
 21
30.07289201428083
 72
     1
 10
174.2628547803659
 20
30.07289201428083
 11
173.930746408403
 21
29.981915977101
 72
     1
 10
173.930746408403
 20
29.981915977101
 11
173.4325783873993
 21
29.82941892114634
 72
     1
 10
173.4325783873993
 20
29.82941892114634
 11
172.9343999305946
 21
29.66473884649919
 72
     1
 10
172.9343999305946
 20
29.66473884649919
 11
173.6626799479662
 21
29.30386617914019
 72
     1
 10
173.6626799479662
 20
29.30386617914019
 11
174.046608266482
 21
29.4180493572693
 72
     1
 10
174.046608266482
 20
29.4180493572693
 11
174.4305333593549
 21
29.51958854987545
 72
     1
 10
174.4305333593549
 20
29.51958854987545
 11
174.6864826159848
 21
29.578462168981
 72
     1
 10
174.6864826159848
 20
29.578462168981
 11
174.9424319191034
 21
29.62902412961988
 72
     1
 10
174.9424319191034
 20
29.62902412961988
 11
175.1983818607539
 21
29.67019758805398
 72
     1
 10
175.1983818607539
 20
29.67019758805398
 11
175.4543330329794
 21
29.70090570054511
 72
     1
 10
175.4543330329794
 20
29.70090570054511
 11
175.710286027823
 21
29.72007162335515
 72
     1
 10
175.710286027823
 20
29.72007162335515
 11
175.9662414373279
 21
29.72661851274596
 72
     1
 10
175.9662414373279
 20
29.72661851274596
 11
176.3966841732523
 21
29.70790301927095
 72
     1
 10
176.3966841732523
 20
29.70790301927095
 11
176.8271348491837
 21
29.65558686180674
 72
     1
 10
176.8271348491837
 20
29.65558686180674
 11
177.2575929019814
 21
29.57480217128832
 72
     1
 10
177.2575929019814
 20
29.57480217128832
 11
177.688057768505
 21
29.47068107865074
 72
     1
 10
177.688057768505
 20
29.47068107865074
 11
178.1185288856139
 21
29.34835571482901
 72
     1
 10
178.1185288856139
 20
29.34835571482901
 11
178.8359931081338
 21
29.11796529355265
 72
     1
 10
178.8359931081338
 20
29.11796529355265
 11
179.553470521979
 21
28.87502323702412
 72
     1
 10
179.553470521979
 20
28.87502323702412
 11
180.270958520017
 21
28.64328941068324
 72
     1
 10
180.270958520017
 20
28.64328941068324
 11
180.7014553146854
 21
28.5195131693918
 72
     1
 10
180.7014553146854
 20
28.5195131693918
 11
181.1319544179551
 21
28.41345757346128
 72
     1
 10
181.1319544179551
 20
28.41345757346128
 11
181.5624552666855
 21
28.3302547538267
 72
     1
 10
181.5624552666855
 20
28.3302547538267
 11
181.992957297736
 21
28.27503684142309
 72
     1
 10
181.992957297736
 20
28.27503684142309
 11
182.423459947966
 21
28.25293596718546
 97
        0
 75
     0
 76
     1
 98
        0
  0
SPLINE
  5
1B3
330
1F
100
AcDbEntity
  8
Standard
  6
Continuous
 62
     7
100
AcDbSpline
210
0.0
220
0.0
230
1.0
 70
    11
 71
     1
 72
    99
 73
    97
 74
     0
 42
0.000000001
 43
0.0000000001
 40
0.0
 40
0.0
 40
0.0104166666666667
 40
0.0208333333333333
 40
0.03125
 40
0.0416666666666667
 40
0.0520833333333333
 40
0.0625
 40
0.0729166666666667
 40
0.0833333333333333
 40
0.09375
 40
0.1041666666666667
 40
0.1145833333333333
 40
0.125
 40
0.1354166666666667
 40
0.1458333333333333
 40
0.15625
 40
0.1666666666666667
 40
0.1770833333333333
 40
0.1875
 40
0.1979166666666667
 40
0.2083333333333333
 40
0.21875
 40
0.2291666666666667
 40
0.2395833333333333
 40
0.25
 40
0.2604166666666666
 40
0.2708333333333333
 40
0.28125
 40
0.2916666666666666
 40
0.3020833333333333
 40
0.3125
 40
0.3229166666666666
 40
0.3333333333333333
 40
0.34375
 40
0.3541666666666666
 40
0.3645833333333333
 40
0.375
 40
0.3854166666666666
 40
0.3958333333333333
 40
0.40625
 40
0.4166666666666666
 40
0.4270833333333333
 40
0.4375
 40
0.4479166666666666
 40
0.4583333333333333
 40
0.46875
 40
0.4791666666666666
 40
0.4895833333333333
 40
0.5
 40
0.5104166666666666
 40
0.5208333333333333
 40
0.53125
 40
0.5416666666666666
 40
0.5520833333333333
 40
0.5625
 40
0.5729166666666666
 40
0.5833333333333333
 40
0.59375
 40
0.6041666666666666
 40
0.6145833333333333
 40
0.625
 40
0.6354166666666666
 40
0.6458333333333333
 40
0.65625
 40
0.6666666666666666
 40
0.6770833333333333
 40
0.6875
 40
0.6979166666666666
 40
0.7083333333333333
 40
0.71875
 40
0.7291666666666666
 40
0.7395833333333333
 40
0.75
 40
0.7604166666666666
 40
0.7708333333333333
 40
0.78125
 40
0.7916666666666666
 40
0.8020833333333333
 40
0.8125
 40
0.8229166666666666
 40
0.8333333333333333
 40
0.84375
 40
0.8541666666666666
 40
0.8645833333333333
 40
0.875
 40
0.8854166666666666
 40
0.8958333333333333
 40
0.90625
 40
0.9166666666666666
 40
0.9270833333333333
 40
0.9375
 40
0.9479166666666666
 40
0.9583333333333333
 40
0.96875
 40
0.9791666666666666
 40
0.9895833333333333
 40
1.0
 40
1.0
 10
182.423459947966
 20
30.31062320122798
 30
0.0
 10
182.8539625981961
 20
30.33272407546561
 30
0.0
 10
183.2844646292467
 20
30.3879419878692
 30
0.0
 10
183.7149654779771
 20
30.47114480750378
 30
0.0
 10
184.1454645812468
 20
30.57720040343427
 30
0.0
 10
184.5759613759152
 20
30.70097664472572
 30
0.0
 10
185.2934493739533
 20
30.93271047106657
 30
0.0
 10
186.0109267877985
 20
31.17565252759512
 30
0.0
 10
186.7283910103184
 20
31.40604294887146
 30
0.0
 10
187.1588621274273
 20
31.52836831269319
 30
0.0
 10
187.5893269939509
 20
31.63248940533079
 30
0.0
 10
188.0197850467487
 20
31.71327409584917
 30
0.0
 10
188.45023572268
 20
31.7655902533134
 30
0.0
 10
188.8806784586045
 20
31.7843057467884
 30
0.0
 10
189.1186825108234
 20
31.77864203141938
 30
0.0
 10
189.3566844393055
 20
31.76200198124325
 30
0.0
 10
189.5946847200574
 20
31.73525138579977
 30
0.0
 10
189.8326838290856
 20
31.69925603462866
 30
0.0
 10
190.0706822423969
 20
31.65488171726969
 30
0.0
 10
190.3086804359978
 20
31.60299422326261
 30
0.0
 10
190.6656783557067
 20
31.51296969065495
 30
0.0
 10
191.0226784586044
 20
31.4109105767501
 30
0.0
 10
193.7332199479662
 20
30.59773391431092
 30
0.0
 10
193.9134027517615
 20
30.7385815601617
 30
0.0
 10
194.0850648096406
 20
30.89000228723946
 30
0.0
 10
194.1674135499361
 20
30.96943185794425
 30
0.0
 10
194.247299947966
 20
31.05119677231163
 30
0.0
 10
191.0226784586044
 20
32.00842131150859
 30
0.0
 10
190.672818642646
 20
32.10727516492544
 30
0.0
 10
190.3229607691327
 20
32.19429176937082
 30
0.0
 10
190.0897225192373
 20
32.24436862577464
 30
0.0
 10
189.8564840126164
 20
32.28714753693884
 30
0.0
 10
189.6232448012564
 20
32.32181372458469
 30
0.0
 10
189.3900044371436
 20
32.34755241043352
 30
0.0
 10
189.1567624722642
 20
32.36354881620657
 30
0.0
 10
188.9235184586045
 20
32.36898816362518
 30
0.0
 10
188.4902200938439
 20
32.35003287699149
 30
0.0
 10
188.0569136871629
 20
32.29706813945118
 30
0.0
 10
187.6235998129843
 20
32.21532828481804
 30
0.0
 10
187.1902790457312
 20
32.11004764690581
 30
0.0
 10
186.7569519598263
 20
31.98646055952827
 30
0.0
 10
186.0347276686974
 20
31.75401779087763
 30
0.0
 10
185.3124900807424
 20
31.50949661677712
 30
0.0
 10
184.5902418553266
 20
31.27713006414223
 30
0.0
 10
184.1568889203918
 20
31.15362529006169
 30
0.0
 10
183.7235336877655
 20
31.04845440321211
 30
0.0
 10
183.2901767318705
 20
30.96685173740729
 30
0.0
 10
182.8568186271297
 20
30.91405162646099
 30
0.0
 10
182.4234599479661
 20
30.89528840418694
 30
0.0
 10
181.9901012688025
 20
30.91405162646099
 30
0.0
 10
181.5567431640617
 20
30.96685173740731
 30
0.0
 10
181.1233862081667
 20
31.04845440321215
 30
0.0
 10
180.6900309755404
 20
31.15362529006171
 30
0.0
 10
180.2566780406056
 20
31.27713006414227
 30
0.0
 10
179.5344298151898
 20
31.50949661677716
 30
0.0
 10
178.8121922272349
 20
31.75401779087771
 30
0.0
 10
178.089967936106
 20
31.98646055952832
 30
0.0
 10
177.6566408502011
 20
32.11004764690586
 30
0.0
 10
177.2233200829479
 20
32.21532828481809
 30
0.0
 10
176.7900062087694
 20
32.29706813945124
 30
0.0
 10
176.3566998020884
 20
32.35003287699154
 30
0.0
 10
175.9234014373279
 20
32.36898816362524
 30
0.0
 10
175.6901574236682
 20
32.36354881620662
 30
0.0
 10
175.4569154587888
 20
32.34755241043356
 30
0.0
 10
175.2236750946759
 20
32.32181372458474
 30
0.0
 10
174.990435883316
 20
32.28714753693889
 30
0.0
 10
174.7571973766951
 20
32.2443686257747
 30
0.0
 10
174.5239591267996
 20
32.19429176937087
 30
0.0
 10
174.1741012532864
 20
32.10727516492549
 30
0.0
 10
173.8242414373279
 20
32.00842131150865
 30
0.0
 10
170.5996199479661
 20
31.05119677231171
 30
0.0
 10
170.7618550862918
 20
30.89000228723954
 30
0.0
 10
170.9335171441709
 20
30.73858156016177
 30
0.0
 10
171.0226036689285
 20
30.6667904546038
 30
0.0
 10
171.1136999479661
 20
30.59773391431098
 30
0.0
 10
173.8242414373279
 20
31.41091057675016
 30
0.0
 10
174.1812415402257
 20
31.51296969065499
 30
0.0
 10
174.5382394599345
 20
31.60299422326264
 30
0.0
 10
174.7762376535354
 20
31.65488171726974
 30
0.0
 10
175.0142360668466
 20
31.69925603462869
 30
0.0
 10
175.2522351758749
 20
31.7352513857998
 30
0.0
 10
175.4902354566268
 20
31.76200198124328
 30
0.0
 10
175.7282373851089
 20
31.77864203141941
 30
0.0
 10
175.9662414373279
 20
31.78430574678842
 30
0.0
 10
176.3966841732523
 20
31.76559025331342
 30
0.0
 10
176.8271348491837
 20
31.7132740958492
 30
0.0
 10
177.2575929019814
 20
31.6324894053308
 30
0.0
 10
177.688057768505
 20
31.52836831269321
 30
0.0
 10
178.1185288856139
 20
31.40604294887146
 30
0.0
 10
178.8359931081339
 20
31.17565252759513
 30
0.0
 10
179.553470521979
 20
30.9327104710666
 30
0.0
 10
180.270958520017
 20
30.70097664472574
 30
0.0
 10
180.7014553146854
 20
30.57720040343429
 30
0.0
 10
181.1319544179551
 20
30.47114480750379
 30
0.0
 10
181.5624552666855
 20
30.38794198786921
 30
0.0
 10
181.992957297736
 20
30.33272407546561
 30
0.0
 10
182.423459947966
 20
30.31062320122798
 30
0.0
  0
HATCH
  5
1B4
330
1F
100
AcDbEntity
  8
Standard
  6
Continuous
 62
     7
100
AcDbHatch
 10
0.0
 20
0.0
 30
0.0
210
0.0
220
0.0
230
1.0
  2
SOLID
 70
     1
 71
     0
 91
        1
 92
        1
 93
       96
 72
     1
 10
182.423459947966
 20
30.31062320122798
 11
182.8539625981961
 21
30.33272407546561
 72
     1
 10
182.8539625981961
 20
30.33272407546561
 11
183.2844646292467
 21
30.3879419878692
 72
     1
 10
183.2844646292467
 20
30.3879419878692
 11
183.7149654779771
 21
30.47114480750378
 72
     1
 10
183.7149654779771
 20
30.47114480750378
 11
184.1454645812468
 21
30.57720040343427
 72
     1
 10
184.1454645812468
 20
30.57720040343427
 11
184.5759613759152
 21
30.70097664472572
 72
     1
 10
184.5759613759152
 20
30.70097664472572
 11
185.2934493739533
 21
30.93271047106657
 72
     1
 10
185.2934493739533
 20
30.93271047106657
 11
186.0109267877985
 21
31.17565252759512
 72
     1
 10
186.0109267877985
 20
31.17565252759512
 11
186.7283910103184
 21
31.40604294887146
 72
     1
 10
186.7283910103184
 20
31.40604294887146
 11
187.1588621274273
 21
31.52836831269319
 72
     1
 10
187.1588621274273
 20
31.52836831269319
 11
187.5893269939509
 21
31.63248940533079
 72
     1
 10
187.5893269939509
 20
31.63248940533079
 11
188.0197850467487
 21
31.71327409584917
 72
     1
 10
188.0197850467487
 20
31.71327409584917
 11
188.45023572268
 21
31.7655902533134
 72
     1
 10
188.45023572268
 20
31.7655902533134
 11
188.8806784586045
 21
31.7843057467884
 72
     1
 10
188.8806784586045
 20
31.7843057467884
 11
189.1186825108234
 21
31.77864203141938
 72
     1
 10
189.1186825108234
 20
31.77864203141938
 11
189.3566844393055
 21
31.76200198124325
 72
     1
 10
189.3566844393055
 20
31.76200198124325
 11
189.5946847200574
 21
31.73525138579977
 72
     1
 10
189.5946847200574
 20
31.73525138579977
 11
189.8326838290856
 21
31.69925603462866
 72
     1
 10
189.8326838290856
 20
31.69925603462866
 11
190.0706822423969
 21
31.65488171726969
 72
     1
 10
190.0706822423969
 20
31.65488171726969
 11
190.3086804359978
 21
31.60299422326261
 72
     1
 10
190.3086804359978
 20
31.60299422326261
 11
190.6656783557067
 21
31.51296969065495
 72
     1
 10
190.6656783557067
 20
31.51296969065495
 11
191.0226784586044
 21
31.4109105767501
 72
     1
 10
191.0226784586044
 20
31.4109105767501
 11
193.7332199479662
 21
30.59773391431092
 72
     1
 10
193.7332199479662
 20
30.59773391431092
 11
193.9134027517615
 21
30.7385815601617
 72
     1
 10
193.9134027517615
 20
30.7385815601617
 11
194.0850648096406
 21
30.89000228723946
 72
     1
 10
194.0850648096406
 20
30.89000228723946
 11
194.1674135499361
 21
30.96943185794425
 72
     1
 10
194.1674135499361
 20
30.96943185794425
 11
194.247299947966
 21
31.05119677231163
 72
     1
 10
194.247299947966
 20
31.05119677231163
 11
191.0226784586044
 21
32.00842131150859
 72
     1
 10
191.0226784586044
 20
32.00842131150859
 11
190.672818642646
 21
32.10727516492544
 72
     1
 10
190.672818642646
 20
32.10727516492544
 11
190.3229607691327
 21
32.19429176937082
 72
     1
 10
190.3229607691327
 20
32.19429176937082
 11
190.0897225192373
 21
32.24436862577464
 72
     1
 10
190.0897225192373
 20
32.24436862577464
 11
189.8564840126164
 21
32.28714753693884
 72
     1
 10
189.8564840126164
 20
32.28714753693884
 11
189.6232448012564
 21
32.32181372458469
 72
     1
 10
189.6232448012564
 20
32.32181372458469
 11
189.3900044371436
 21
32.34755241043352
 72
     1
 10
189.3900044371436
 20
32.34755241043352
 11
189.1567624722642
 21
32.36354881620657
 72
     1
 10
189.1567624722642
 20
32.36354881620657
 11
188.9235184586045
 21
32.36898816362518
 72
     1
 10
188.9235184586045
 20
32.36898816362518
 11
188.4902200938439
 21
32.35003287699149
 72
     1
 10
188.4902200938439
 20
32.35003287699149
 11
188.0569136871629
 21
32.29706813945118
 72
     1
 10
188.0569136871629
 20
32.29706813945118
 11
187.6235998129843
 21
32.21532828481804
 72
     1
 10
187.6235998129843
 20
32.21532828481804
 11
187.1902790457312
 21
32.11004764690581
 72
     1
 10
187.1902790457312
 20
32.11004764690581
 11
186.7569519598263
 21
31.98646055952827
 72
     1
 10
186.7569519598263
 20
31.98646055952827
 11
186.0347276686974
 21
31.75401779087763
 72
     1
 10
186.0347276686974
 20
31.75401779087763
 11
185.3124900807424
 21
31.50949661677712
 72
     1
 10
185.3124900807424
 20
31.50949661677712
 11
184.5902418553266
 21
31.27713006414223
 72
     1
 10
184.5902418553266
 20
31.27713006414223
 11
184.1568889203918
 21
31.15362529006169
 72
     1
 10
184.1568889203918
 20
31.15362529006169
 11
183.7235336877655
 21
31.04845440321211
 72
     1
 10
183.7235336877655
 20
31.04845440321211
 11
183.2901767318705
 21
30.96685173740729
 72
     1
 10
183.2901767318705
 20
30.96685173740729
 11
182.8568186271297
 21
30.91405162646099
 72
     1
 10
182.8568186271297
 20
30.91405162646099
 11
182.4234599479661
 21
30.89528840418694
 72
     1
 10
182.4234599479661
 20
30.89528840418694
 11
181.9901012688025
 21
30.91405162646099
 72
     1
 10
181.9901012688025
 20
30.91405162646099
 11
181.5567431640617
 21
30.96685173740731
 72
     1
 10
181.5567431640617
 20
30.96685173740731
 11
181.1233862081667
 21
31.04845440321215
 72
     1
 10
181.1233862081667
 20
31.04845440321215
 11
180.6900309755404
 21
31.15362529006171
 72
     1
 10
180.6900309755404
 20
31.15362529006171
 11
180.2566780406056
 21
31.27713006414227
 72
     1
 10
180.2566780406056
 20
31.27713006414227
 11
179.5344298151898
 21
31.50949661677716
 72
     1
 10
179.5344298151898
 20
31.50949661677716
 11
178.8121922272349
 21
31.75401779087771
 72
     1
 10
178.8121922272349
 20
31.75401779087771
 11
178.089967936106
 21
31.98646055952832
 72
     1
 10
178.089967936106
 20
31.98646055952832
 11
177.6566408502011
 21
32.11004764690586
 72
     1
 10
177.6566408502011
 20
32.11004764690586
 11
177.2233200829479
 21
32.21532828481809
 72
     1
 10
177.2233200829479
 20
32.21532828481809
 11
176.7900062087694
 21
32.29706813945124
 72
     1
 10
176.7900062087694
 20
32.29706813945124
 11
176.3566998020884
 21
32.35003287699154
 72
     1
 10
176.3566998020884
 20
32.35003287699154
 11
175.9234014373279
 21
32.36898816362524
 72
     1
 10
175.9234014373279
 20
32.36898816362524
 11
175.6901574236682
 21
32.36354881620662
 72
     1
 10
175.6901574236682
 20
32.36354881620662
 11
175.4569154587888
 21
32.34755241043356
 72
     1
 10
175.4569154587888
 20
32.34755241043356
 11
175.2236750946759
 21
32.32181372458474
 72
     1
 10
175.2236750946759
 20
32.32181372458474
 11
174.990435883316
 21
32.28714753693889
 72
     1
 10
174.990435883316
 20
32.28714753693889
 11
174.7571973766951
 21
32.2443686257747
 72
     1
 10
174.7571973766951
 20
32.2443686257747
 11
174.5239591267996
 21
32.19429176937087
 72
     1
 10
174.5239591267996
 20
32.19429176937087
 11
174.1741012532864
 21
32.10727516492549
 72
     1
 10
174.1741012532864
 20
32.10727516492549
 11
173.8242414373279
 21
32.00842131150865
 72
     1
 10
173.8242414373279
 20
32.00842131150865
 11
170.5996199479661
 21
31.05119677231171
 72
     1
 10
170.5996199479661
 20
31.05119677231171
 11
170.7618550862918
 21
30.89000228723954
 72
     1
 10
170.7618550862918
 20
30.89000228723954
 11
170.9335171441709
 21
30.73858156016177
 72
     1
 10
170.9335171441709
 20
30.73858156016177
 11
171.0226036689285
 21
30.6667904546038
 72
     1
 10
171.0226036689285
 20
30.6667904546038
 11
171.1136999479661
 21
30.59773391431098
 72
     1
 10
171.1136999479661
 20
30.59773391431098
 11
173.8242414373279
 21
31.41091057675016
 72
     1
 10
173.8242414373279
 20
31.41091057675016
 11
174.1812415402257
 21
31.51296969065499
 72
     1
 10
174.1812415402257
 20
31.51296969065499
 11
174.5382394599345
 21
31.60299422326264
 72
     1
 10
174.5382394599345
 20
31.60299422326264
 11
174.7762376535354
 21
31.65488171726974
 72
     1
 10
174.7762376535354
 20
31.65488171726974
 11
175.0142360668466
 21
31.69925603462869
 72
     1
 10
175.0142360668466
 20
31.69925603462869
 11
175.2522351758749
 21
31.7352513857998
 72
     1
 10
175.2522351758749
 20
31.7352513857998
 11
175.4902354566268
 21
31.76200198124328
 72
     1
 10
175.4902354566268
 20
31.76200198124328
 11
175.7282373851089
 21
31.77864203141941
 72
     1
 10
175.7282373851089
 20
31.77864203141941
 11
175.9662414373279
 21
31.78430574678842
 72
     1
 10
175.9662414373279
 20
31.78430574678842
 11
176.3966841732523
 21
31.76559025331342
 72
     1
 10
176.3966841732523
 20
31.76559025331342
 11
176.8271348491837
 21
31.7132740958492
 72
     1
 10
176.8271348491837
 20
31.7132740958492
 11
177.2575929019814
 21
31.6324894053308
 72
     1
 10
177.2575929019814
 20
31.6324894053308
 11
177.688057768505
 21
31.52836831269321
 72
     1
 10
177.688057768505
 20
31.52836831269321
 11
178.1185288856139
 21
31.40604294887146
 72
     1
 10
178.1185288856139
 20
31.40604294887146
 11
178.8359931081339
 21
31.17565252759513
 72
     1
 10
178.8359931081339
 20
31.17565252759513
 11
179.553470521979
 21
30.9327104710666
 72
     1
 10
179.553470521979
 20
30.9327104710666
 11
180.270958520017
 21
30.70097664472574
 72
     1
 10
180.270958520017
 20
30.70097664472574
 11
180.7014553146854
 21
30.57720040343429
 72
     1
 10
180.7014553146854
 20
30.57720040343429
 11
181.1319544179551
 21
30.47114480750379
 72
     1
 10
181.1319544179551
 20
30.47114480750379
 11
181.5624552666855
 21
30.38794198786921
 72
     1
 10
181.5624552666855
 20
30.38794198786921
 11
181.992957297736
 21
30.33272407546561
 72
     1
 10
181.992957297736
 20
30.33272407546561
 11
182.423459947966
 21
30.31062320122798
 97
        0
 75
     0
 76
     1
 98
        0
  0
HATCH
  5
1B5
330
1F
100
AcDbEntity
  8
Standard
  6
Continuous
 62
     7
100
AcDbHatch
 10
0.0
 20
0.0
 30
0.0
210
0.0
220
0.0
230
1.0
  2
SOLID
 70
     1
 71
     0
 91
        1
 92
        1
 93
      130
 72
     1
 10
195.943763947996
 20
32.39814532300313
 11
196.0283332547601
 21
32.49838474015061
 72
     1
 10
196.0283332547601
 20
32.49838474015061
 11
196.1095365653352
 21
32.60156356987058
 72
     1
 10
196.1095365653352
 20
32.60156356987058
 11
196.2123136419326
 21
32.74340889913487
 72
     1
 10
196.2123136419326
 20
32.74340889913487
 11
196.3085180849766
 21
32.88973765533247
 72
     1
 10
196.3085180849766
 20
32.88973765533247
 11
196.3978679479661
 21
33.04008744503379
 72
     1
 10
196.3978679479661
 20
33.04008744503379
 11
196.2354792869609
 21
33.01434715218897
 72
     1
 10
196.2354792869609
 20
33.01434715218897
 11
196.0730925936986
 21
32.99273259903379
 72
     1
 10
196.0730925936986
 20
32.99273259903379
 11
195.8565810549507
 21
32.97080146871989
 72
     1
 10
195.8565810549507
 20
32.97080146871989
 11
195.6400753936169
 21
32.95733408257838
 72
     1
 10
195.6400753936169
 20
32.95733408257838
 11
195.4235769692428
 21
32.95297563822946
 72
     1
 10
195.4235769692428
 20
32.95297563822946
 11
194.9901057031935
 21
32.97248150936083
 72
     1
 10
194.9901057031935
 20
32.97248150936083
 11
194.5566660304029
 21
33.02587061767675
 72
     1
 10
194.5566660304029
 20
33.02587061767675
 11
194.1232550787566
 21
33.10791960446969
 72
     1
 10
194.1232550787566
 20
33.10791960446969
 11
193.6898699761402
 21
33.21340511103223
 72
     1
 10
193.6898699761402
 20
33.21340511103223
 11
193.2565078504393
 21
33.33710377865683
 72
     1
 10
193.2565078504393
 20
33.33710377865683
 11
192.5342808999452
 21
33.56955501575364
 72
     1
 10
192.5342808999452
 20
33.56955501575364
 11
191.8120964992945
 21
33.81390682093032
 72
     1
 10
191.8120964992945
 20
33.81390682093032
 11
191.0899413516612
 21
34.04597697794846
 72
     1
 10
191.0899413516612
 20
34.04597697794846
 11
190.6566567730499
 21
34.16926407908807
 72
     1
 10
190.6566567730499
 20
34.16926407908807
 11
190.2233750665529
 21
34.27420083033731
 72
     1
 10
190.2233750665529
 20
34.27420083033731
 11
189.790093360056
 21
34.35556387298867
 72
     1
 10
189.790093360056
 20
34.35556387298867
 11
189.3568087814447
 21
34.40812984833464
 72
     1
 10
189.3568087814447
 20
34.40812984833464
 11
188.9235184586045
 21
34.42667539766776
 72
     1
 10
188.9235184586045
 20
34.42667539766776
 11
188.4902200938439
 21
34.40772011103405
 72
     1
 10
188.4902200938439
 20
34.40772011103405
 11
188.0569136871629
 21
34.35475537349375
 72
     1
 10
188.0569136871629
 20
34.35475537349375
 11
187.6235998129844
 21
34.2730155188606
 72
     1
 10
187.6235998129844
 20
34.2730155188606
 11
187.1902790457312
 21
34.16773488094837
 72
     1
 10
187.1902790457312
 20
34.16773488094837
 11
186.7569519598263
 21
34.04414779357082
 72
     1
 10
186.7569519598263
 20
34.04414779357082
 11
186.0347276686974
 21
33.81170502492019
 72
     1
 10
186.0347276686974
 20
33.81170502492019
 11
185.3124900807424
 21
33.56718385081967
 72
     1
 10
185.3124900807424
 20
33.56718385081967
 11
184.5902418553266
 21
33.33481729818478
 72
     1
 10
184.5902418553266
 20
33.33481729818478
 11
184.1568889203918
 21
33.21131252410422
 72
     1
 10
184.1568889203918
 20
33.21131252410422
 11
183.7235336877655
 21
33.10614163725464
 72
     1
 10
183.7235336877655
 20
33.10614163725464
 11
183.2901767318705
 21
33.02453897144982
 72
     1
 10
183.2901767318705
 20
33.02453897144982
 11
182.8568186271297
 21
32.97173886050351
 72
     1
 10
182.8568186271297
 20
32.97173886050351
 11
182.4234599479661
 21
32.95297563822946
 72
     1
 10
182.4234599479661
 20
32.95297563822946
 11
181.9901012688025
 21
32.97173886050351
 72
     1
 10
181.9901012688025
 20
32.97173886050351
 11
181.5567431640617
 21
33.02453897144984
 72
     1
 10
181.5567431640617
 20
33.02453897144984
 11
181.1233862081667
 21
33.10614163725466
 72
     1
 10
181.1233862081667
 20
33.10614163725466
 11
180.6900309755404
 21
33.21131252410422
 72
     1
 10
180.6900309755404
 20
33.21131252410422
 11
180.2566780406056
 21
33.33481729818479
 72
     1
 10
180.2566780406056
 20
33.33481729818479
 11
179.5344298151899
 21
33.56718385081968
 72
     1
 10
179.5344298151899
 20
33.56718385081968
 11
178.8121922272349
 21
33.81170502492023
 72
     1
 10
178.8121922272349
 20
33.81170502492023
 11
178.089967936106
 21
34.04414779357084
 72
     1
 10
178.089967936106
 20
34.04414779357084
 11
177.6566408502011
 21
34.16773488094841
 72
     1
 10
177.6566408502011
 20
34.16773488094841
 11
177.2233200829479
 21
34.27301551886063
 72
     1
 10
177.2233200829479
 20
34.27301551886063
 11
176.7900062087694
 21
34.35475537349379
 72
     1
 10
176.7900062087694
 20
34.35475537349379
 11
176.3566998020884
 21
34.40772011103407
 72
     1
 10
176.3566998020884
 20
34.40772011103407
 11
175.9234014373278
 21
34.4266753976678
 72
     1
 10
175.9234014373278
 20
34.4266753976678
 11
175.4901111144876
 21
34.40812984833468
 72
     1
 10
175.4901111144876
 20
34.40812984833468
 11
175.0568265358763
 21
34.3555638729887
 72
     1
 10
175.0568265358763
 20
34.3555638729887
 11
174.6235448293794
 21
34.27420083033735
 72
     1
 10
174.6235448293794
 20
34.27420083033735
 11
174.1902631228824
 21
34.16926407908812
 72
     1
 10
174.1902631228824
 20
34.16926407908812
 11
173.7569785442711
 21
34.04597697794849
 72
     1
 10
173.7569785442711
 20
34.04597697794849
 11
173.0348233966377
 21
33.81390682093036
 72
     1
 10
173.0348233966377
 20
33.81390682093036
 11
172.312638995987
 21
33.56955501575368
 72
     1
 10
172.312638995987
 20
33.56955501575368
 11
171.5904120454929
 21
33.33710377865685
 72
     1
 10
171.5904120454929
 20
33.33710377865685
 11
171.157049919792
 21
33.21340511103227
 72
     1
 10
171.157049919792
 20
33.21340511103227
 11
170.7236648171756
 21
33.10791960446978
 72
     1
 10
170.7236648171756
 20
33.10791960446978
 11
170.2902538655293
 21
33.0258706176768
 72
     1
 10
170.2902538655293
 20
33.0258706176768
 11
169.8568141927388
 21
32.9724815093609
 72
     1
 10
169.8568141927388
 20
32.9724815093609
 11
169.4233429266895
 21
32.95297563822953
 72
     1
 10
169.4233429266895
 20
32.95297563822953
 11
169.2609698399812
 21
32.95536530516614
 72
     1
 10
169.2609698399812
 20
32.95536530516614
 11
169.0985924912969
 21
32.9629694827764
 72
     1
 10
169.0985924912969
 20
32.9629694827764
 11
168.8820837213129
 21
32.98074939070661
 72
     1
 10
168.8820837213129
 20
32.98074939070661
 11
168.6655697536875
 21
33.00667044399911
 72
     1
 10
168.6655697536875
 20
33.00667044399911
 11
168.4490519479663
 21
33.04008744503376
 72
     1
 10
168.4490519479663
 20
33.04008744503376
 11
168.5154116562073
 21
32.92696672402679
 72
     1
 10
168.5154116562073
 20
32.92696672402679
 11
168.5856638368062
 21
32.8160411648753
 72
     1
 10
168.5856638368062
 20
32.8160411648753
 11
168.6851924704777
 21
32.67189791672561
 72
     1
 10
168.6851924704777
 20
32.67189791672561
 11
168.7911372160355
 21
32.53245936166769
 72
     1
 10
168.7911372160355
 20
32.53245936166769
 11
168.9031559479066
 21
32.39814532300638
 72
     1
 10
168.9031559479066
 20
32.39814532300638
 11
169.0908365911667
 21
32.38150684614995
 72
     1
 10
169.0908365911667
 20
32.38150684614995
 11
169.2785125459489
 21
32.37135809082082
 72
     1
 10
169.2785125459489
 20
32.37135809082082
 11
169.4661829266895
 21
32.36811936736319
 72
     1
 10
169.4661829266895
 20
32.36811936736319
 11
169.8996541927388
 21
32.38762753962426
 72
     1
 10
169.8996541927388
 20
32.38762753962426
 11
170.3330938655294
 21
32.44102294631375
 72
     1
 10
170.3330938655294
 20
32.44102294631375
 11
170.7665048171756
 21
32.5230816125186
 72
     1
 10
170.7665048171756
 20
32.5230816125186
 11
171.199889919792
 21
32.62857956332578
 72
     1
 10
171.199889919792
 20
32.62857956332578
 11
171.633252045493
 21
32.75229282382227
 72
     1
 10
171.633252045493
 20
32.75229282382227
 11
172.3554789959871
 21
32.98477148345477
 72
     1
 10
172.3554789959871
 20
32.98477148345477
 11
173.0776633966378
 21
33.22915211509063
 72
     1
 10
173.0776633966378
 20
33.22915211509063
 11
173.7998185442711
 21
33.46124964968801
 72
     1
 10
173.7998185442711
 20
33.46124964968801
 11
174.2331031228825
 21
33.58455129514658
 72
     1
 10
174.2331031228825
 20
33.58455129514658
 11
174.6663848293794
 21
33.68950042590319
 72
     1
 10
174.6663848293794
 20
33.68950042590319
 11
175.0996665358763
 21
33.77087306704484
 72
     1
 10
175.0996665358763
 20
33.77087306704484
 11
175.5329511144877
 21
33.82344524365846
 72
     1
 10
175.5329511144877
 20
33.82344524365846
 11
175.9662414373279
 21
33.84199298083104
 72
     1
 10
175.9662414373279
 20
33.84199298083104
 11
176.3966841732523
 21
33.82327748735603
 72
     1
 10
176.3966841732523
 20
33.82327748735603
 11
176.8271348491837
 21
33.77096132989182
 72
     1
 10
176.8271348491837
 20
33.77096132989182
 11
177.2575929019814
 21
33.69017663937343
 72
     1
 10
177.2575929019814
 20
33.69017663937343
 11
177.688057768505
 21
33.58605554673584
 72
     1
 10
177.688057768505
 20
33.58605554673584
 11
178.1185288856139
 21
33.4637301829141
 72
     1
 10
178.1185288856139
 20
33.4637301829141
 11
178.8359931081339
 21
33.23333976163777
 72
     1
 10
178.8359931081339
 20
33.23333976163777
 11
179.553470521979
 21
32.99039770510925
 72
     1
 10
179.553470521979
 20
32.99039770510925
 11
180.270958520017
 21
32.75866387876839
 72
     1
 10
180.270958520017
 20
32.75866387876839
 11
180.7014553146854
 21
32.63488763747694
 72
     1
 10
180.7014553146854
 20
32.63488763747694
 11
181.1319544179551
 21
32.52883204154644
 72
     1
 10
181.1319544179551
 20
32.52883204154644
 11
181.5624552666855
 21
32.44562922191187
 72
     1
 10
181.5624552666855
 20
32.44562922191187
 11
181.992957297736
 21
32.39041130950827
 72
     1
 10
181.992957297736
 20
32.39041130950827
 11
182.4234599479661
 21
32.36831043527062
 72
     1
 10
182.4234599479661
 20
32.36831043527062
 11
182.8539625981962
 21
32.39041130950825
 72
     1
 10
182.8539625981962
 20
32.39041130950825
 11
183.2844646292467
 21
32.44562922191184
 72
     1
 10
183.2844646292467
 20
32.44562922191184
 11
183.7149654779771
 21
32.52883204154642
 72
     1
 10
183.7149654779771
 20
32.52883204154642
 11
184.1454645812468
 21
32.63488763747692
 72
     1
 10
184.1454645812468
 20
32.63488763747692
 11
184.5759613759153
 21
32.75866387876836
 72
     1
 10
184.5759613759153
 20
32.75866387876836
 11
185.2934493739533
 21
32.99039770510921
 72
     1
 10
185.2934493739533
 20
32.99039770510921
 11
186.0109267877985
 21
33.23333976163773
 72
     1
 10
186.0109267877985
 20
33.23333976163773
 11
186.7283910103185
 21
33.46373018291405
 72
     1
 10
186.7283910103185
 20
33.46373018291405
 11
187.1588621274273
 21
33.5860555467358
 72
     1
 10
187.1588621274273
 20
33.5860555467358
 11
187.5893269939509
 21
33.69017663937338
 72
     1
 10
187.5893269939509
 20
33.69017663937338
 11
188.0197850467487
 21
33.77096132989178
 72
     1
 10
188.0197850467487
 20
33.77096132989178
 11
188.4502357226801
 21
33.82327748735599
 72
     1
 10
188.4502357226801
 20
33.82327748735599
 11
188.8806784586045
 21
33.84199298083099
 72
     1
 10
188.8806784586045
 20
33.84199298083099
 11
189.3139687814447
 21
33.82344524365841
 72
     1
 10
189.3139687814447
 20
33.82344524365841
 11
189.747253360056
 21
33.77087306704479
 72
     1
 10
189.747253360056
 20
33.77087306704479
 11
190.1805350665529
 21
33.68950042590315
 72
     1
 10
190.1805350665529
 20
33.68950042590315
 11
190.6138167730499
 21
33.58455129514653
 72
     1
 10
190.6138167730499
 20
33.58455129514653
 11
191.0471013516612
 21
33.46124964968796
 72
     1
 10
191.0471013516612
 20
33.46124964968796
 11
191.7692564992946
 21
33.22915211509058
 72
     1
 10
191.7692564992946
 20
33.22915211509058
 11
192.4914408999453
 21
32.98477148345472
 72
     1
 10
192.4914408999453
 20
32.98477148345472
 11
193.2136678504394
 21
32.75229282382221
 72
     1
 10
193.2136678504394
 20
32.75229282382221
 11
193.6470299761404
 21
32.62857956332573
 72
     1
 10
193.6470299761404
 20
32.62857956332573
 11
194.0804150787567
 21
32.52308161251853
 72
     1
 10
194.0804150787567
 20
32.52308161251853
 11
194.513826030403
 21
32.44102294631368
 72
     1
 10
194.513826030403
 20
32.44102294631368
 11
194.9472657031936
 21
32.38762753962421
 72
     1
 10
194.9472657031936
 20
32.38762753962421
 11
195.3807369692428
 21
32.36811936736313
 72
     1
 10
195.3807369692428
 20
32.36811936736313
 11
195.5684073499824
 21
32.37135809082063
 72
     1
 10
195.5684073499824
 20
32.37135809082063
 11
195.7560833047569
 21
32.38150684614894
 72
     1
 10
195.7560833047569
 20
32.38150684614894
 11
195.943763947996
 21
32.39814532300313
 97
        0
 75
     0
 76
     1
 98
        0
  0
SPLINE
  5
1B6
330
1F
100
AcDbEntity
  8
Standard
  6
Continuous
 62
     7
100
AcDbSpline
210
0.0
220
0.0
230
1.0
 70
    11
 71
     1
 72
   133
 73
   131
 74
     0
 42
0.000000001
 43
0.0000000001
 40
0.0
 40
0.0
 40
0.0076923076923077
 40
0.0153846153846154
 40
0.0230769230769231
 40
0.0307692307692308
 40
0.0384615384615385
 40
0.0461538461538462
 40
0.0538461538461538
 40
0.0615384615384615
 40
0.0692307692307692
 40
0.0769230769230769
 40
0.0846153846153846
 40
0.0923076923076923
 40
0.1
 40
0.1076923076923077
 40
0.1153846153846154
 40
0.1230769230769231
 40
0.1307692307692308
 40
0.1384615384615385
 40
0.1461538461538462
 40
0.1538461538461539
 40
0.1615384615384615
 40
0.1692307692307692
 40
0.1769230769230769
 40
0.1846153846153846
 40
0.1923076923076923
 40
0.2
 40
0.2076923076923077
 40
0.2153846153846154
 40
0.2230769230769231
 40
0.2307692307692308
 40
0.2384615384615385
 40
0.2461538461538462
 40
0.2538461538461538
 40
0.2615384615384616
 40
0.2692307692307693
 40
0.2769230769230769
 40
0.2846153846153846
 40
0.2923076923076923
 40
0.3
 40
0.3076923076923077
 40
0.3153846153846154
 40
0.3230769230769231
 40
0.3307692307692308
 40
0.3384615384615385
 40
0.3461538461538461
 40
0.3538461538461539
 40
0.3615384615384616
 40
0.3692307692307693
 40
0.3769230769230769
 40
0.3846153846153846
 40
0.3923076923076924
 40
0.4
 40
0.4076923076923077
 40
0.4153846153846154
 40
0.4230769230769231
 40
0.4307692307692308
 40
0.4384615384615385
 40
0.4461538461538462
 40
0.4538461538461539
 40
0.4615384615384616
 40
0.4692307692307692
 40
0.4769230769230769
 40
0.4846153846153847
 40
0.4923076923076923
 40
0.5
 40
0.5076923076923077
 40
0.5153846153846154
 40
0.5230769230769231
 40
0.5307692307692308
 40
0.5384615384615385
 40
0.5461538461538462
 40
0.5538461538461539
 40
0.5615384615384615
 40
0.5692307692307692
 40
0.576923076923077
 40
0.5846153846153846
 40
0.5923076923076923
 40
0.6000000000000001
 40
0.6076923076923078
 40
0.6153846153846154
 40
0.6230769230769231
 40
0.6307692307692307
 40
0.6384615384615385
 40
0.6461538461538462
 40
0.6538461538461539
 40
0.6615384615384616
 40
0.6692307692307693
 40
0.676923076923077
 40
0.6846153846153846
 40
0.6923076923076923
 40
0.7000000000000001
 40
0.7076923076923077
 40
0.7153846153846154
 40
0.7230769230769232
 40
0.7307692307692308
 40
0.7384615384615385
 40
0.7461538461538462
 40
0.7538461538461538
 40
0.7615384615384616
 40
0.7692307692307693
 40
0.7769230769230769
 40
0.7846153846153847
 40
0.7923076923076924
 40
0.8
 40
0.8076923076923077
 40
0.8153846153846154
 40
0.8230769230769232
 40
0.8307692307692308
 40
0.8384615384615385
 40
0.8461538461538463
 40
0.8538461538461539
 40
0.8615384615384616
 40
0.8692307692307693
 40
0.8769230769230769
 40
0.8846153846153847
 40
0.8923076923076924
 40
0.9
 40
0.9076923076923078
 40
0.9153846153846155
 40
0.9230769230769231
 40
0.9307692307692308
 40
0.9384615384615385
 40
0.9461538461538462
 40
0.9538461538461539
 40
0.9615384615384616
 40
0.9692307692307693
 40
0.976923076923077
 40
0.9846153846153847
 40
0.9923076923076923
 40
1.0
 40
1.0
 10
195.943763947996
 20
32.39814532300313
 30
0.0
 10
195.7560833047569
 20
32.38150684614894
 30
0.0
 10
195.5684073499824
 20
32.37135809082063
 30
0.0
 10
195.3807369692428
 20
32.36811936736313
 30
0.0
 10
194.9472657031936
 20
32.38762753962421
 30
0.0
 10
194.513826030403
 20
32.44102294631368
 30
0.0
 10
194.0804150787567
 20
32.52308161251853
 30
0.0
 10
193.6470299761404
 20
32.62857956332573
 30
0.0
 10
193.2136678504394
 20
32.75229282382221
 30
0.0
 10
192.4914408999453
 20
32.98477148345472
 30
0.0
 10
191.7692564992946
 20
33.22915211509058
 30
0.0
 10
191.0471013516612
 20
33.46124964968796
 30
0.0
 10
190.6138167730499
 20
33.58455129514653
 30
0.0
 10
190.1805350665529
 20
33.68950042590315
 30
0.0
 10
189.747253360056
 20
33.77087306704479
 30
0.0
 10
189.3139687814447
 20
33.82344524365841
 30
0.0
 10
188.8806784586045
 20
33.84199298083099
 30
0.0
 10
188.4502357226801
 20
33.82327748735599
 30
0.0
 10
188.0197850467487
 20
33.77096132989178
 30
0.0
 10
187.5893269939509
 20
33.69017663937338
 30
0.0
 10
187.1588621274273
 20
33.5860555467358
 30
0.0
 10
186.7283910103185
 20
33.46373018291405
 30
0.0
 10
186.0109267877985
 20
33.23333976163773
 30
0.0
 10
185.2934493739533
 20
32.99039770510921
 30
0.0
 10
184.5759613759153
 20
32.75866387876836
 30
0.0
 10
184.1454645812468
 20
32.63488763747692
 30
0.0
 10
183.7149654779771
 20
32.52883204154642
 30
0.0
 10
183.2844646292467
 20
32.44562922191184
 30
0.0
 10
182.8539625981962
 20
32.39041130950825
 30
0.0
 10
182.4234599479661
 20
32.36831043527062
 30
0.0
 10
181.992957297736
 20
32.39041130950827
 30
0.0
 10
181.5624552666855
 20
32.44562922191187
 30
0.0
 10
181.1319544179551
 20
32.52883204154644
 30
0.0
 10
180.7014553146854
 20
32.63488763747694
 30
0.0
 10
180.270958520017
 20
32.75866387876839
 30
0.0
 10
179.553470521979
 20
32.99039770510925
 30
0.0
 10
178.8359931081339
 20
33.23333976163777
 30
0.0
 10
178.1185288856139
 20
33.4637301829141
 30
0.0
 10
177.688057768505
 20
33.58605554673584
 30
0.0
 10
177.2575929019814
 20
33.69017663937343
 30
0.0
 10
176.8271348491837
 20
33.77096132989182
 30
0.0
 10
176.3966841732523
 20
33.82327748735603
 30
0.0
 10
175.9662414373279
 20
33.84199298083104
 30
0.0
 10
175.5329511144877
 20
33.82344524365846
 30
0.0
 10
175.0996665358763
 20
33.77087306704484
 30
0.0
 10
174.6663848293794
 20
33.68950042590319
 30
0.0
 10
174.2331031228825
 20
33.58455129514658
 30
0.0
 10
173.7998185442711
 20
33.46124964968801
 30
0.0
 10
173.0776633966378
 20
33.22915211509063
 30
0.0
 10
172.3554789959871
 20
32.98477148345477
 30
0.0
 10
171.633252045493
 20
32.75229282382227
 30
0.0
 10
171.199889919792
 20
32.62857956332578
 30
0.0
 10
170.7665048171756
 20
32.5230816125186
 30
0.0
 10
170.3330938655294
 20
32.44102294631375
 30
0.0
 10
169.8996541927388
 20
32.38762753962426
 30
0.0
 10
169.4661829266895
 20
32.36811936736319
 30
0.0
 10
169.2785125459489
 20
32.37135809082082
 30
0.0
 10
169.0908365911667
 20
32.38150684614995
 30
0.0
 10
168.9031559479066
 20
32.39814532300638
 30
0.0
 10
168.7911372160355
 20
32.53245936166769
 30
0.0
 10
168.6851924704777
 20
32.67189791672561
 30
0.0
 10
168.5856638368062
 20
32.8160411648753
 30
0.0
 10
168.5154116562073
 20
32.92696672402679
 30
0.0
 10
168.4490519479663
 20
33.04008744503376
 30
0.0
 10
168.6655697536875
 20
33.00667044399911
 30
0.0
 10
168.8820837213129
 20
32.98074939070661
 30
0.0
 10
169.0985924912969
 20
32.9629694827764
 30
0.0
 10
169.2609698399812
 20
32.95536530516614
 30
0.0
 10
169.4233429266895
 20
32.95297563822953
 30
0.0
 10
169.8568141927388
 20
32.9724815093609
 30
0.0
 10
170.2902538655293
 20
33.0258706176768
 30
0.0
 10
170.7236648171756
 20
33.10791960446978
 30
0.0
 10
171.157049919792
 20
33.21340511103227
 30
0.0
 10
171.5904120454929
 20
33.33710377865685
 30
0.0
 10
172.312638995987
 20
33.56955501575368
 30
0.0
 10
173.0348233966377
 20
33.81390682093036
 30
0.0
 10
173.7569785442711
 20
34.04597697794849
 30
0.0
 10
174.1902631228824
 20
34.16926407908812
 30
0.0
 10
174.6235448293794
 20
34.27420083033735
 30
0.0
 10
175.0568265358763
 20
34.3555638729887
 30
0.0
 10
175.4901111144876
 20
34.40812984833468
 30
0.0
 10
175.9234014373278
 20
34.4266753976678
 30
0.0
 10
176.3566998020884
 20
34.40772011103407
 30
0.0
 10
176.7900062087694
 20
34.35475537349379
 30
0.0
 10
177.2233200829479
 20
34.27301551886063
 30
0.0
 10
177.6566408502011
 20
34.16773488094841
 30
0.0
 10
178.089967936106
 20
34.04414779357084
 30
0.0
 10
178.8121922272349
 20
33.81170502492023
 30
0.0
 10
179.5344298151899
 20
33.56718385081968
 30
0.0
 10
180.2566780406056
 20
33.33481729818479
 30
0.0
 10
180.6900309755404
 20
33.21131252410422
 30
0.0
 10
181.1233862081667
 20
33.10614163725466
 30
0.0
 10
181.5567431640617
 20
33.02453897144984
 30
0.0
 10
181.9901012688025
 20
32.97173886050351
 30
0.0
 10
182.4234599479661
 20
32.95297563822946
 30
0.0
 10
182.8568186271297
 20
32.97173886050351
 30
0.0
 10
183.2901767318705
 20
33.02453897144982
 30
0.0
 10
183.7235336877655
 20
33.10614163725464
 30
0.0
 10
184.1568889203918
 20
33.21131252410422
 30
0.0
 10
184.5902418553266
 20
33.33481729818478
 30
0.0
 10
185.3124900807424
 20
33.56718385081967
 30
0.0
 10
186.0347276686974
 20
33.81170502492019
 30
0.0
 10
186.7569519598263
 20
34.04414779357082
 30
0.0
 10
187.1902790457312
 20
34.16773488094837
 30
0.0
 10
187.6235998129844
 20
34.2730155188606
 30
0.0
 10
188.0569136871629
 20
34.35475537349375
 30
0.0
 10
188.4902200938439
 20
34.40772011103405
 30
0.0
 10
188.9235184586045
 20
34.42667539766776
 30
0.0
 10
189.3568087814447
 20
34.40812984833464
 30
0.0
 10
189.790093360056
 20
34.35556387298867
 30
0.0
 10
190.2233750665529
 20
34.27420083033731
 30
0.0
 10
190.6566567730499
 20
34.16926407908807
 30
0.0
 10
191.0899413516612
 20
34.04597697794846
 30
0.0
 10
191.8120964992945
 20
33.81390682093032
 30
0.0
 10
192.5342808999452
 20
33.56955501575364
 30
0.0
 10
193.2565078504393
 20
33.33710377865683
 30
0.0
 10
193.6898699761402
 20
33.21340511103223
 30
0.0
 10
194.1232550787566
 20
33.10791960446969
 30
0.0
 10
194.5566660304029
 20
33.02587061767675
 30
0.0
 10
194.9901057031935
 20
32.97248150936083
 30
0.0
 10
195.4235769692428
 20
32.95297563822946
 30
0.0
 10
195.6400753936169
 20
32.95733408257838
 30
0.0
 10
195.8565810549507
 20
32.97080146871989
 30
0.0
 10
196.0730925936986
 20
32.99273259903379
 30
0.0
 10
196.2354792869609
 20
33.01434715218897
 30
0.0
 10
196.3978679479661
 20
33.04008744503379
 30
0.0
 10
196.3085180849766
 20
32.88973765533247
 30
0.0
 10
196.2123136419326
 20
32.74340889913487
 30
0.0
 10
196.1095365653352
 20
32.60156356987058
 30
0.0
 10
196.0283332547601
 20
32.49838474015061
 30
0.0
 10
195.943763947996
 20
32.39814532300313
 30
0.0
  0
HATCH
  5
1B7
330
1F
100
AcDbEntity
  8
Standard
  6
Continuous
 62
     7
100
AcDbHatch
 10
0.0
 20
0.0
 30
0.0
210
0.0
220
0.0
230
1.0
  2
SOLID
 70
     1
 71
     0
 91
        1
 92
        1
 93
       12
 72
     1
 10
191.7769814798811
 20
40.78878873619113
 11
190.4096107139236
 21
40.78878873619114
 72
     1
 10
190.4096107139236
 20
40.78878873619114
 11
190.4096107139236
 21
38.8501682949955
 72
     1
 10
190.4096107139236
 20
38.8501682949955
 11
187.986233947966
 21
38.85016829499551
 72
     1
 10
187.986233947966
 20
38.85016829499551
 11
187.986233947966
 21
40.78878873619115
 72
     1
 10
187.986233947966
 20
40.78878873619115
 11
186.6274311820089
 21
40.78878873619115
 72
     1
 10
186.6274311820089
 20
40.78878873619115
 11
186.6274311820088
 21
35.53234701839965
 72
     1
 10
186.6274311820088
 20
35.53234701839965
 11
187.986233947966
 21
35.53234701839965
 72
     1
 10
187.986233947966
 20
35.53234701839965
 11
187.986233947966
 21
37.76549595456993
 72
     1
 10
187.986233947966
 20
37.76549595456993
 11
190.4096107139236
 21
37.76549595456992
 72
     1
 10
190.4096107139236
 20
37.76549595456992
 11
190.4096107139236
 21
35.53234701839965
 72
     1
 10
190.4096107139236
 20
35.53234701839965
 11
191.7769814798811
 21
35.53234701839964
 72
     1
 10
191.7769814798811
 20
35.53234701839964
 11
191.7769814798811
 21
40.78878873619113
 97
        0
 75
     0
 76
     1
 98
        0
  0
SPLINE
  5
1B8
330
1F
100
AcDbEntity
  8
Standard
  6
Continuous
 62
     7
100
AcDbSpline
210
0.0
220
0.0
230
1.0
 70
    11
 71
     1
 72
    15
 73
    13
 74
     0
 42
0.000000001
 43
0.0000000001
 40
0.0
 40
0.0
 40
0.0833333333333333
 40
0.1666666666666667
 40
0.25
 40
0.3333333333333333
 40
0.4166666666666666
 40
0.5
 40
0.5833333333333333
 40
0.6666666666666666
 40
0.75
 40
0.8333333333333333
 40
0.9166666666666666
 40
1.0
 40
1.0
 10
191.7769814798811
 20
40.78878873619113
 30
0.0
 10
190.4096107139236
 20
40.78878873619114
 30
0.0
 10
190.4096107139236
 20
38.8501682949955
 30
0.0
 10
187.986233947966
 20
38.85016829499551
 30
0.0
 10
187.986233947966
 20
40.78878873619115
 30
0.0
 10
186.6274311820089
 20
40.78878873619115
 30
0.0
 10
186.6274311820088
 20
35.53234701839965
 30
0.0
 10
187.986233947966
 20
35.53234701839965
 30
0.0
 10
187.986233947966
 20
37.76549595456993
 30
0.0
 10
190.4096107139236
 20
37.76549595456992
 30
0.0
 10
190.4096107139236
 20
35.53234701839965
 30
0.0
 10
191.7769814798811
 20
35.53234701839964
 30
0.0
 10
191.7769814798811
 20
40.78878873619113
 30
0.0
  0
HATCH
  5
1B9
330
1F
100
AcDbEntity
  8
Standard
  6
Continuous
 62
     7
100
AcDbHatch
 10
0.0
 20
0.0
 30
0.0
210
0.0
220
0.0
230
1.0
  2
SOLID
 70
     1
 71
     0
 91
        1
 92
        1
 93
       12
 72
     1
 10
197.2021205862642
 20
35.53234701839963
 11
197.2021205862642
 21
36.53726403967632
 72
     1
 10
197.2021205862642
 20
36.53726403967632
 11
194.6210105862641
 21
36.53726403967633
 72
     1
 10
194.6210105862641
 20
36.53726403967633
 11
194.6210105862641
 21
37.82930020988904
 72
     1
 10
194.6210105862641
 20
37.82930020988904
 11
196.4922982458385
 21
37.82930020988903
 72
     1
 10
196.4922982458385
 20
37.82930020988903
 11
196.4922982458385
 21
38.8023151035061
 72
     1
 10
196.4922982458385
 20
38.8023151035061
 11
194.6210105862641
 21
38.8023151035061
 72
     1
 10
194.6210105862641
 20
38.8023151035061
 11
194.6210105862641
 21
39.78387171491456
 72
     1
 10
194.6210105862641
 20
39.78387171491456
 11
196.8511971820087
 21
39.78387171491455
 72
     1
 10
196.8511971820087
 20
39.78387171491455
 11
196.8511971820087
 21
40.78878873619112
 72
     1
 10
196.8511971820087
 20
40.78878873619112
 11
193.2622078203067
 21
40.78878873619113
 72
     1
 10
193.2622078203067
 20
40.78878873619113
 11
193.2622078203067
 21
35.53234701839964
 72
     1
 10
193.2622078203067
 20
35.53234701839964
 11
197.2021205862642
 21
35.53234701839963
 97
        0
 75
     0
 76
     1
 98
        0
  0
SPLINE
  5
1BA
330
1F
100
AcDbEntity
  8
Standard
  6
Continuous
 62
     7
100
AcDbSpline
210
0.0
220
0.0
230
1.0
 70
    11
 71
     1
 72
    15
 73
    13
 74
     0
 42
0.000000001
 43
0.0000000001
 40
0.0
 40
0.0
 40
0.0833333333333333
 40
0.1666666666666667
 40
0.25
 40
0.3333333333333333
 40
0.4166666666666666
 40
0.5
 40
0.5833333333333333
 40
0.6666666666666666
 40
0.75
 40
0.8333333333333333
 40
0.9166666666666666
 40
1.0
 40
1.0
 10
197.2021205862642
 20
35.53234701839963
 30
0.0
 10
193.2622078203067
 20
35.53234701839964
 30
0.0
 10
193.2622078203067
 20
40.78878873619113
 30
0.0
 10
196.8511971820087
 20
40.78878873619112
 30
0.0
 10
196.8511971820087
 20
39.78387171491455
 30
0.0
 10
194.6210105862641
 20
39.78387171491456
 30
0.0
 10
194.6210105862641
 20
38.8023151035061
 30
0.0
 10
196.4922982458385
 20
38.8023151035061
 30
0.0
 10
196.4922982458385
 20
37.82930020988903
 30
0.0
 10
194.6210105862641
 20
37.82930020988904
 30
0.0
 10
194.6210105862641
 20
36.53726403967633
 30
0.0
 10
197.2021205862642
 20
36.53726403967632
 30
0.0
 10
197.2021205862642
 20
35.53234701839963
 30
0.0
  0
LINE
  5
1BB
330
1F
100
AcDbEntity
  8
Default
  6
Continuous
 62
     7
100
AcDbLine
 10
6.6
 20
45.0
 30
0.0
 11
203.0048694642
 21
45.0
 31
0.0
  0
LINE
  5
1BC
330
1F
100
AcDbEntity
  8
Default
  6
Continuous
 62
     7
100
AcDbLine
 10
6.6
 20
25.0
 30
0.0
 11
203.0048694642
 21
25.0
 31
0.0
  0
LINE
  5
1BD
330
1F
100
AcDbEntity
  8
Default
  6
Continuous
 62
     7
100
AcDbLine
 10
6.6
 20
40.0
 30
0.0
 11
105.0
 21
40.0
 31
0.0
  0
LINE
  5
1BE
330
1F
100
AcDbEntity
  8
Default
  6
Continuous
 62
     7
100
AcDbLine
 10
25.0
 20
35.0
 30
0.0
 11
105.0
 21
35.0
 31
0.0
  0
LINE
  5
1BF
330
1F
100
AcDbEntity
  8
Default
  6
Continuous
 62
     7
100
AcDbLine
 10
25.0
 20
30.0
 30
0.0
 11
85.0
 21
30.0
 31
0.0
  0
LINE
  5
1C0
330
1F
100
AcDbEntity
  8
Default
  6
Continuous
 62
     7
100
AcDbLine
 10
25.0
 20
45.0
 30
0.0
 11
25.0
 21
5.0
 31
0.0
  0
LINE
  5
1C1
330
1F
100
AcDbEntity
  8
Default
  6
Continuous
 62
     7
100
AcDbLine
 10
45.0
 20
45.0
 30
0.0
 11
45.0
 21
5.0
 31
0.0
  0
LINE
  5
1C2
330
1F
100
AcDbEntity
  8
Default
  6
Continuous
 62
     7
100
AcDbLine
 10
65.0
 20
45.0
 30
0.0
 11
65.0
 21
25.0
 31
0.0
  0
LINE
  5
1C3
330
1F
100
AcDbEntity
  8
Default
  6
Continuous
 62
     7
100
AcDbLine
 10
85.0
 20
45.0
 30
0.0
 11
85.0
 21
25.0
 31
0.0
  0
LINE
  5
1C4
330
1F
100
AcDbEntity
  8
Default
  6
Continuous
 62
     7
100
AcDbLine
 10
105.0
 20
45.0
 30
0.0
 11
105.0
 21
25.0
 31
0.0
  0
LINE
  5
1C5
330
1F
100
AcDbEntity
  8
Default
  6
Continuous
 62
     7
100
AcDbLine
 10
25.0
 20
12.0
 30
0.0
 11
203.0048694642
 21
12.0
 31
0.0
  0
LINE
  5
1C6
330
1F
100
AcDbEntity
  8
Default
  6
Continuous
 62
     7
100
AcDbLine
 10
6.6
 20
20.0
 30
0.0
 11
25.0
 21
20.0
 31
0.0
  0
LINE
  5
1C7
330
1F
100
AcDbEntity
  8
Default
  6
Continuous
 62
     7
100
AcDbLine
 10
163.0
 20
25.0
 30
0.0
 11
163.0
 21
5.0
 31
0.0
  0
MTEXT
  5
1C8
330
1F
100
AcDbEntity
  8
Default
100
AcDbMText
 10
6.9540142599
 20
43.7920376842
 30
0.0
 40
2.5
 41
18.4529619592
 71
     1
 72
     1
  1
{\fArial|b0||i0||c0|p34;\C7;\H2.;\W0.9;Ma\U+00DFstab / Scale}
  7
SEACAD_Arial
 73
     1
 44
1.0
1001
ACAD
1000
ACAD_MTEXT_DEFINED_HEIGHT_BEGIN
1070
    46
1040
3.1304447826
1000
ACAD_MTEXT_DEFINED_HEIGHT_END
  0
MTEXT
  5
1C9
330
1F
100
AcDbEntity
  8
Default
100
AcDbMText
 10
26.9540142599
 20
43.7920376842
 30
0.0
 40
2.5
 41
18.4529619592
 71
     1
 72
     1
  1
{\fArial|b0||i0||c0|p34;\C7;\H2.;\W0.9;\U+00C4M-Nr. / ECN}
  7
SEACAD_Arial
 73
     1
 44
1.0
1001
ACAD
1000
ACAD_MTEXT_DEFINED_HEIGHT_BEGIN
1070
    46
1040
3.1304447826
1000
ACAD_MTEXT_DEFINED_HEIGHT_END
  0
MTEXT
  5
1CA
330
1F
100
AcDbEntity
  8
Default
100
AcDbMText
 10
26.9540142599
 20
38.7920376842
 30
0.0
 40
2.5
 41
18.4529619592
 71
     1
 72
     1
  1
{\fArial|b0||i0||c0|p34;\C7;\H2.;\W0.9;Datum / Date}
  7
SEACAD_Arial
 73
     1
 44
1.0
1001
ACAD
1000
ACAD_MTEXT_DEFINED_HEIGHT_BEGIN
1070
    46
1040
3.1304447826
1000
ACAD_MTEXT_DEFINED_HEIGHT_END
  0
MTEXT
  5
1CB
330
1F
100
AcDbEntity
  8
Default
100
AcDbMText
 10
25.5253978501
 20
33.6729863168
 30
0.0
 40
2.5
 41
20.0012594728
 71
     1
 72
     1
  1
{\fArial|b0||i0||c0|p34;\C7;\H2.;\W0.8;Verantw. / Respons.}
  7
SEACAD_Arial
 73
     1
 44
1.0
1001
ACAD
1000
ACAD_MTEXT_DEFINED_HEIGHT_BEGIN
1070
    46
1040
3.4528045251
1000
ACAD_MTEXT_DEFINED_HEIGHT_END
  0
MTEXT
  5
1CC
330
1F
100
AcDbEntity
  8
Default
100
AcDbMText
 10
25.6444492176
 20
28.7920376842
 30
0.0
 40
2.5
 41
18.3913143478
 71
     1
 72
     1
  1
{\fArial|b0||i0||c0|p34;\C7;\H2.;\W0.8;Gepr\U+00FCft / Approved}
  7
SEACAD_Arial
 73
     1
 44
1.0
1001
ACAD
1000
ACAD_MTEXT_DEFINED_HEIGHT_BEGIN
1070
    46
1040
3.1304447826
1000
ACAD_MTEXT_DEFINED_HEIGHT_END
  0
MTEXT
  5
1CD
330
1F
100
AcDbEntity
  8
Default
100
AcDbMText
 10
15.5292897758
 20
22.8214279273
 30
0.0
 40
2.5
 41
18.4529619592
 71
     5
 72
     1
  1
{\fArial|b0||i0||c0|p34;\C7;\H2.;\W1.;Status}
 73
     1
 44
1.0
1001
ACAD
1000
ACAD_MTEXT_DEFINED_HEIGHT_BEGIN
1070
    46
1040
4.7620546991
1000
ACAD_MTEXT_DEFINED_HEIGHT_END
  0
MTEXT
  5
1CE
330
1F
100
AcDbEntity
  8
Default
100
AcDbMText
 10
25.8842381149
 20
17.7084237573
 30
0.0
 40
2.5
 41
20.1196811039
 71
     4
 72
     1
  1
{\fArial|b0||i0||c0|p34;\C7;\H2.;\W1.;Benennung /\P}{\fArial|b0||i0||c0|p34;\C7;\H2.;\W1.;Title}
 73
     1
 44
1.0
1001
ACAD
1000
ACAD_MTEXT_DEFINED_HEIGHT_BEGIN
1070
    46
1040
15.0004723023
1000
ACAD_MTEXT_DEFINED_HEIGHT_END
  0
MTEXT
  5
1CF
330
1F
100
AcDbEntity
  8
Default
100
AcDbMText
 10
25.8272330627
 20
8.2971610949
 30
0.0
 40
2.5
 41
20.0006297364
 71
     4
 72
     1
  1
{\fArial|b0||i0||c0|p34;\C7;\H2.;\W1.;Prod.-No. +\P}{\fArial|b0||i0||c0|p34;\C7;\H2.;\W1.;variants:}
 73
     1
 44
1.0
1001
ACAD
1000
ACAD_MTEXT_DEFINED_HEIGHT_BEGIN
1070
    46
1040
6.2608695652
1000
ACAD_MTEXT_DEFINED_HEIGHT_END
  0
MTEXT
  5
1D0
330
1F
100
AcDbEntity
  8
Default
100
AcDbMText
 10
94.7996622009
 20
30.2349931318
 30
0.0
 40
2.5
 41
19.9738722629
 71
     5
 72
     1
  1
{\fArial|b0||i0||c0|p34;\C7;\H2.;\W1.;Copyright\P}{\fArial|b0||i0||c0|p34;\C7;\H2.;\W1.;reserved}
 73
     1
 44
1.0
1001
ACAD
1000
ACAD_MTEXT_DEFINED_HEIGHT_BEGIN
1070
    46
1040
9.8176660275
1000
ACAD_MTEXT_DEFINED_HEIGHT_END
  0
MTEXT
  5
1D1
330
1F
100
AcDbEntity
  8
Default
100
AcDbMText
 10
107.8819338868
 20
35.2314665659
 30
0.0
 40
2.5
 41
35.2174885633
 71
     4
 72
     1
  3
{\fArial|b0||i0||c0|p34;\C7;\H2.;\W1.;Grohe Water Technology\P}{\fArial|b0||i0||c0|p34;\C7;\H2.;\W1.;AG & Co. KG\P}{\fArial|b0||i0||c0|p34;\C7;\H2.;\W1.;Hauptstra\U+00DF137\P}{\fArial|b0||i0||c0|p34;\C7;\H2.;\W1.;D-58675 Hemer\P}{\fArial|b0||i0||c0|
  1
p34;\C7;\H2.;\W1.;Tel. 02372 / 93-0}
 73
     1
 44
1.0
1001
ACAD
1000
ACAD_MTEXT_DEFINED_HEIGHT_BEGIN
1070
    46
1040
20.0099366837
1000
ACAD_MTEXT_DEFINED_HEIGHT_END
  0
MTEXT
  5
1D2
330
1F
100
AcDbEntity
  8
Default
100
AcDbMText
 10
163.7763570233
 20
23.3589041336
 30
0.0
 40
2.5
 41
36.0869665217
 71
     4
 72
     1
  1
{\fArial|b0||i0||c0|p34;\C7;\H2.;\W1.;Zeichnung Nr. / Drawing No.:}
 73
     1
 44
1.0
1001
ACAD
1000
ACAD_MTEXT_DEFINED_HEIGHT_BEGIN
1070
    46
1040
3.1304347826
1000
ACAD_MTEXT_DEFINED_HEIGHT_END
  0
MTEXT
  5
1D3
330
1F
100
AcDbEntity
  8
Default
100
AcDbMText
 10
177.9167122798
 20
10.4191450781
 30
0.0
 40
2.5
 41
28.4674013043
 71
     5
 72
     1
  1
{\fArial|b0||i0||c0|p34;\C7;\H1.5;\W1.;TPI-Referenz / TPI-Reference:}
 73
     1
 44
1.0
1001
ACAD
1000
ACAD_MTEXT_DEFINED_HEIGHT_BEGIN
1070
    46
1040
2.347826087
1000
ACAD_MTEXT_DEFINED_HEIGHT_END
  0
LINE
  5
1D4
330
1F
100
AcDbEntity
  8
Default
  6
Continuous
 62
     7
100
AcDbLine
 10
203.0048694642
 20
5.0
 30
0.0
 11
203.0048694642
 21
291.0
 31
0.0
  0
ENDSEC
  0
SECTION
  2
OBJECTS
  0
DICTIONARY
  5
C
330
0
100
AcDbDictionary
281
     1
  3
ACAD_GROUP
350
D
  3
ACAD_LAYOUT
350
1A
  3
ACAD_MATERIAL
350
43
  3
ACAD_MLEADERSTYLE
350
1D7
  3
ACAD_MLINESTYLE
350
17
  3
ACAD_PLOTSETTINGS
350
19
  3
ACAD_PLOTSTYLENAME
350
E
  3
ACAD_SCALELIST
350
47
  3
ACAD_VISUALSTYLE
350
2A
  3
AcDbVariableDictionary
350
1D5
  0
DICTIONARY
  5
D
102
{ACAD_REACTORS
330
C
102
}
330
C
100
AcDbDictionary
281
     1
  0
DICTIONARY
  5
1A
102
{ACAD_REACTORS
330
C
102
}
330
C
100
AcDbDictionary
281
     1
  3
Layout1
350
1E
  3
Model
350
22
  0
DICTIONARY
  5
43
102
{ACAD_REACTORS
330
C
102
}
330
C
100
AcDbDictionary
281
     1
  3
ByBlock
350
45
  3
ByLayer
350
44
  3
Global
350
46
  0
DICTIONARY
  5
1D7
102
{ACAD_REACTORS
330
C
102
}
330
C
100
AcDbDictionary
281
     1
  0
DICTIONARY
  5
17
102
{ACAD_REACTORS
330
C
102
}
330
C
100
AcDbDictionary
281
     1
  3
Standard
350
18
  0
DICTIONARY
  5
19
102
{ACAD_REACTORS
330
C
102
}
330
C
100
AcDbDictionary
281
     1
  0
ACDBDICTIONARYWDFLT
  5
E
102
{ACAD_REACTORS
330
C
102
}
330
C
100
AcDbDictionary
281
     1
  3
Normal
350
F
100
AcDbDictionaryWithDefault
340
F
  0
DICTIONARY
  5
47
102
{ACAD_REACTORS
330
C
102
}
330
C
100
AcDbDictionary
281
     1
  3
A0
350
48
  3
A1
350
49
  3
A2
350
4A
  3
A3
350
4B
  3
A4
350
4C
  3
A5
350
4D
  3
A6
350
4E
  3
A7
350
4F
  3
A8
350
50
  3
A9
350
51
  3
B0
350
52
  3
B1
350
53
  3
B2
350
54
  3
B3
350
55
  3
B4
350
56
  3
B5
350
57
  3
B6
350
58
  3
B7
350
59
  3
B8
350
5A
  3
B9
350
5B
  3
C0
350
5C
  3
C1
350
5D
  3
C2
350
5E
  3
C3
350
5F
  3
C4
350
60
  3
C5
350
61
  3
C6
350
62
  3
C7
350
63
  3
C8
350
64
  3
C9
350
65
  3
D0
350
66
  3
D1
350
67
  3
D2
350
68
  0
DICTIONARY
  5
2A
102
{ACAD_REACTORS
330
C
102
}
330
C
100
AcDbDictionary
281
     1
  3
2dWireframe
350
2F
  3
Basic
350
32
  3
Brighten
350
36
  3
ColorChange
350
3A
  3
Conceptual
350
34
  3
Dim
350
35
  3
EdgeColorOff
350
3D
  3
Facepattern
350
39
  3
Flat
350
2B
  3
FlatWithEdges
350
2C
  3
Gouraud
350
2D
  3
GouraudWithEdges
350
2E
  3
Hidden
350
31
  3
JitterOff
350
3B
  3
Linepattern
350
38
  3
OverhangOff
350
3C
  3
Realistic
350
33
  3
Shaded
350
42
  3
Shaded with edges
350
41
  3
Shades of Gray
350
3E
  3
Sketchy
350
3F
  3
Thicken
350
37
  3
Wireframe
350
30
  3
X-Ray
350
40
  0
DICTIONARY
  5
1D5
102
{ACAD_REACTORS
330
C
102
}
330
C
100
AcDbDictionary
281
     1
  3
CANNOSCALE
350
1DE
  3
DIMASSOC
350
1DC
  3
HIDETEXT
350
1DD
  3
MSLTSCALE
350
1DF
  3
PSOLHEIGHT
350
1D9
  3
PSOLWIDTH
350
1D8
  0
LAYOUT
  5
1E
102
{ACAD_REACTORS
330
1A
102
}
330
1A
100
AcDbPlotSettings
  1

  2
none_device
  4

  6

 40
0.0
 41
0.0
 42
0.0
 43
0.0
 44
0.0
 45
0.0
 46
0.0
 47
0.0
 48
0.0
 49
0.0
140
0.0
141
0.0
142
1.0
143
1.0
 70
   688
 72
     1
 73
     0
 74
     5
  7

 75
    16
147
1.0
148
0.0
149
0.0
100
AcDbLayout
  1
Layout1
 70
     1
 71
     1
 10
0.0
 20
0.0
 11
210.0
 21
297.0
 12
0.0
 22
0.0
 32
0.0
 14
0.0
 24
0.0
 34
0.0
 15
210.0
 25
297.0
 35
0.0
146
0.0
 13
0.0
 23
0.0
 33
0.0
 16
1.0
 26
0.0
 36
0.0
 17
0.0
 27
1.0
 37
0.0
 76
     0
330
1B
  0
LAYOUT
  5
22
102
{ACAD_REACTORS
330
1A
102
}
330
1A
100
AcDbPlotSettings
  1

  2
none_device
  4
Letter_(8.50_x_11.00_Inches)
  6

 40
6.35
 41
6.35
 42
6.35000508
 43
6.35000508
 44
215.9
 45
279.4
 46
0.0
 47
0.0
 48
0.0
 49
0.0
140
0.0
141
0.0
142
1.0
143
1.0
 70
  1712
 72
     1
 73
     0
 74
     0
  7

 75
     0
147
1.0
148
0.0
149
0.0
100
AcDbLayout
  1
Model
 70
     1
 71
     0
 10
0.0
 20
0.0
 11
210.0
 21
297.0
 12
0.0
 22
0.0
 32
0.0
 14
0.0
 24
0.0
 34
0.0
 15
210.0
 25
297.0
 35
0.0
146
0.0
 13
0.0
 23
0.0
 33
0.0
 16
1.0
 26
0.0
 36
0.0
 17
0.0
 27
1.0
 37
0.0
 76
     0
330
1F
331
29
  0
MATERIAL
  5
45
102
{ACAD_REACTORS
330
43
102
}
102
{ACAD_XDICTIONARY
360
212
102
}
330
43
100
AcDbMaterial
  1
ByBlock
  0
MATERIAL
  5
44
102
{ACAD_REACTORS
330
43
102
}
102
{ACAD_XDICTIONARY
360
210
102
}
330
43
100
AcDbMaterial
  1
ByLayer
  0
MATERIAL
  5
46
102
{ACAD_REACTORS
330
43
102
}
102
{ACAD_XDICTIONARY
360
214
102
}
330
43
100
AcDbMaterial
  1
Global
  0
MLINESTYLE
  5
18
102
{ACAD_REACTORS
330
17
102
}
330
17
100
AcDbMlineStyle
  2
Standard
 70
     0
  3

 62
   256
 51
90.0
 52
90.0
 71
     2
 49
0.5
 62
   256
  6
BYLAYER
 49
-0.5
 62
   256
  6
BYLAYER
  0
ACDBPLACEHOLDER
  5
F
102
{ACAD_REACTORS
330
E
102
}
330
E
  0
SCALE
  5
48
102
{ACAD_REACTORS
330
47
102
}
330
47
100
AcDbScale
 70
     0
300
1:1
140
1.0
141
1.0
290
     1
  0
SCALE
  5
49
102
{ACAD_REACTORS
330
47
102
}
330
47
100
AcDbScale
 70
     0
300
1:2
140
1.0
141
2.0
290
     0
  0
SCALE
  5
4A
102
{ACAD_REACTORS
330
47
102
}
330
47
100
AcDbScale
 70
     0
300
1:4
140
1.0
141
4.0
290
     0
  0
SCALE
  5
4B
102
{ACAD_REACTORS
330
47
102
}
330
47
100
AcDbScale
 70
     0
300
1:5
140
1.0
141
5.0
290
     0
  0
SCALE
  5
4C
102
{ACAD_REACTORS
330
47
102
}
330
47
100
AcDbScale
 70
     0
300
1:8
140
1.0
141
8.0
290
     0
  0
SCALE
  5
4D
102
{ACAD_REACTORS
330
47
102
}
330
47
100
AcDbScale
 70
     0
300
1:10
140
1.0
141
10.0
290
     0
  0
SCALE
  5
4E
102
{ACAD_REACTORS
330
47
102
}
330
47
100
AcDbScale
 70
     0
300
1:16
140
1.0
141
16.0
290
     0
  0
SCALE
  5
4F
102
{ACAD_REACTORS
330
47
102
}
330
47
100
AcDbScale
 70
     0
300
1:20
140
1.0
141
20.0
290
     0
  0
SCALE
  5
50
102
{ACAD_REACTORS
330
47
102
}
330
47
100
AcDbScale
 70
     0
300
1:30
140
1.0
141
30.0
290
     0
  0
SCALE
  5
51
102
{ACAD_REACTORS
330
47
102
}
330
47
100
AcDbScale
 70
     0
300
1:40
140
1.0
141
40.0
290
     0
  0
SCALE
  5
52
102
{ACAD_REACTORS
330
47
102
}
330
47
100
AcDbScale
 70
     0
300
1:50
140
1.0
141
50.0
290
     0
  0
SCALE
  5
53
102
{ACAD_REACTORS
330
47
102
}
330
47
100
AcDbScale
 70
     0
300
1:100
140
1.0
141
100.0
290
     0
  0
SCALE
  5
54
102
{ACAD_REACTORS
330
47
102
}
330
47
100
AcDbScale
 70
     0
300
2:1
140
2.0
141
1.0
290
     0
  0
SCALE
  5
55
102
{ACAD_REACTORS
330
47
102
}
330
47
100
AcDbScale
 70
     0
300
4:1
140
4.0
141
1.0
290
     0
  0
SCALE
  5
56
102
{ACAD_REACTORS
330
47
102
}
330
47
100
AcDbScale
 70
     0
300
8:1
140
8.0
141
1.0
290
     0
  0
SCALE
  5
57
102
{ACAD_REACTORS
330
47
102
}
330
47
100
AcDbScale
 70
     0
300
10:1
140
10.0
141
1.0
290
     0
  0
SCALE
  5
58
102
{ACAD_REACTORS
330
47
102
}
330
47
100
AcDbScale
 70
     0
300
100:1
140
100.0
141
1.0
290
     0
  0
SCALE
  5
59
102
{ACAD_REACTORS
330
47
102
}
330
47
100
AcDbScale
 70
     0
300
1/128" = 1'-0"
140
0.0078125
141
12.0
290
     0
  0
SCALE
  5
5A
102
{ACAD_REACTORS
330
47
102
}
330
47
100
AcDbScale
 70
     0
300
1/64" = 1'-0"
140
0.015625
141
12.0
290
     0
  0
SCALE
  5
5B
102
{ACAD_REACTORS
330
47
102
}
330
47
100
AcDbScale
 70
     0
300
1/32" = 1'-0"
140
0.03125
141
12.0
290
     0
  0
SCALE
  5
5C
102
{ACAD_REACTORS
330
47
102
}
330
47
100
AcDbScale
 70
     0
300
1/16" = 1'-0"
140
0.0625
141
12.0
290
     0
  0
SCALE
  5
5D
102
{ACAD_REACTORS
330
47
102
}
330
47
100
AcDbScale
 70
     0
300
3/32" = 1'-0"
140
0.09375
141
12.0
290
     0
  0
SCALE
  5
5E
102
{ACAD_REACTORS
330
47
102
}
330
47
100
AcDbScale
 70
     0
300
1/8" = 1'-0"
140
0.125
141
12.0
290
     0
  0
SCALE
  5
5F
102
{ACAD_REACTORS
330
47
102
}
330
47
100
AcDbScale
 70
     0
300
3/16" = 1'-0"
140
0.1875
141
12.0
290
     0
  0
SCALE
  5
60
102
{ACAD_REACTORS
330
47
102
}
330
47
100
AcDbScale
 70
     0
300
1/4" = 1'-0"
140
0.25
141
12.0
290
     0
  0
SCALE
  5
61
102
{ACAD_REACTORS
330
47
102
}
330
47
100
AcDbScale
 70
     0
300
3/8" = 1'-0"
140
0.375
141
12.0
290
     0
  0
SCALE
  5
62
102
{ACAD_REACTORS
330
47
102
}
330
47
100
AcDbScale
 70
     0
300
1/2" = 1'-0"
140
0.5
141
12.0
290
     0
  0
SCALE
  5
63
102
{ACAD_REACTORS
330
47
102
}
330
47
100
AcDbScale
 70
     0
300
3/4" = 1'-0"
140
0.75
141
12.0
290
     0
  0
SCALE
  5
64
102
{ACAD_REACTORS
330
47
102
}
330
47
100
AcDbScale
 70
     0
300
1" = 1'-0"
140
1.0
141
12.0
290
     0
  0
SCALE
  5
65
102
{ACAD_REACTORS
330
47
102
}
330
47
100
AcDbScale
 70
     0
300
1-1/2" = 1'-0"
140
1.5
141
12.0
290
     0
  0
SCALE
  5
66
102
{ACAD_REACTORS
330
47
102
}
330
47
100
AcDbScale
 70
     0
300
3" = 1'-0"
140
3.0
141
12.0
290
     0
  0
SCALE
  5
67
102
{ACAD_REACTORS
330
47
102
}
330
47
100
AcDbScale
 70
     0
300
6" = 1'-0"
140
6.0
141
12.0
290
     0
  0
SCALE
  5
68
102
{ACAD_REACTORS
330
47
102
}
330
47
100
AcDbScale
 70
     0
300
1'-0" = 1'-0"
140
12.0
141
12.0
290
     0
  0
VISUALSTYLE
  5
2F
102
{ACAD_REACTORS
330
2A
102
}
102
{ACAD_XDICTIONARY
360
1E8
102
}
330
2A
100
AcDbVisualStyle
  2
2dWireframe
 70
     4
 71
     0
 72
     2
 73
     0
 90
        0
 40
0.6
 41
30.0
 62
     5
 63
     7
 74
     1
 91
        4
 64
     7
 65
   257
 75
     1
175
     1
 42
1.0
 92
        0
 66
   257
 43
1.0
 76
     1
 77
     6
 78
     2
 67
     7
 79
     5
170
     0
171
     0
290
     0
174
     0
 93
        1
 44
0.0
173
     0
291
     0
 45
0.0
1001
ACAD
1000
AcDbSavedByObjectVersion
1070
     0
  0
VISUALSTYLE
  5
32
102
{ACAD_REACTORS
330
2A
102
}
102
{ACAD_XDICTIONARY
360
1EE
102
}
330
2A
100
AcDbVisualStyle
  2
Basic
 70
     7
 71
     1
 72
     0
 73
     1
 90
        0
 40
0.6
 41
30.0
 62
     5
 63
     7
 74
     0
 91
        4
 64
     7
 65
   257
 75
     1
175
     1
 42
1.0
 92
        8
 66
     7
 43
1.0
 76
     1
 77
     6
 78
     2
 67
     7
 79
     5
170
     0
171
     0
290
     0
174
     0
 93
        1
 44
0.0
173
     0
291
     1
 45
0.0
1001
ACAD
1000
AcDbSavedByObjectVersion
1070
     0
  0
VISUALSTYLE
  5
36
102
{ACAD_REACTORS
330
2A
102
}
102
{ACAD_XDICTIONARY
360
1F6
102
}
330
2A
100
AcDbVisualStyle
  2
Brighten
 70
    12
 71
     2
 72
     2
 73
     0
 90
        0
 40
0.6
 41
30.0
 62
     5
 63
     7
 74
     1
 91
        4
 64
     7
 65
   257
 75
     1
175
     1
 42
1.0
 92
        8
 66
     7
 43
1.0
 76
     1
 77
     6
 78
     2
 67
     7
 79
     5
170
     0
171
     0
290
     0
174
     0
 93
        1
 44
50.0
173
     0
291
     1
 45
0.0
1001
ACAD
1000
AcDbSavedByObjectVersion
1070
     0
  0
VISUALSTYLE
  5
3A
102
{ACAD_REACTORS
330
2A
102
}
102
{ACAD_XDICTIONARY
360
1FE
102
}
330
2A
100
AcDbVisualStyle
  2
ColorChange
 70
    16
 71
     2
 72
     2
 73
     3
 90
        0
 40
0.6
 41
30.0
 62
     5
 63
     8
 74
     1
 91
        4
 64
     7
 65
   257
 75
     1
175
     1
 42
1.0
 92
        8
 66
     8
 43
1.0
 76
     1
 77
     6
 78
     2
 67
     7
 79
     5
170
     0
171
     0
290
     0
174
     0
 93
        1
 44
0.0
173
     0
291
     1
 45
0.0
1001
ACAD
1000
AcDbSavedByObjectVersion
1070
     0
  0
VISUALSTYLE
  5
34
102
{ACAD_REACTORS
330
2A
102
}
102
{ACAD_XDICTIONARY
360
1F2
102
}
330
2A
100
AcDbVisualStyle
  2
Conceptual
 70
     9
 71
     3
 72
     2
 73
     0
 90
        0
 40
0.6
 41
30.0
 62
     5
 63
     7
 74
     2
 91
        2
 64
     7
 65
   257
 75
     1
175
     1
 42
179.0
 92
        8
 66
     7
 43
1.0
 76
     1
 77
     6
 78
     2
 67
     7
 79
     3
170
     0
171
     0
290
     0
174
     0
 93
        1
 44
0.0
173
     0
291
     0
 45
0.0
1001
ACAD
1000
AcDbSavedByObjectVersion
1070
     0
  0
VISUALSTYLE
  5
35
102
{ACAD_REACTORS
330
2A
102
}
102
{ACAD_XDICTIONARY
360
1F4
102
}
330
2A
100
AcDbVisualStyle
  2
Dim
 70
    11
 71
     2
 72
     2
 73
     0
 90
        0
 40
0.6
 41
30.0
 62
     5
 63
     7
 74
     1
 91
        4
 64
     7
 65
   257
 75
     1
175
     1
 42
1.0
 92
        8
 66
     7
 43
1.0
 76
     1
 77
     6
 78
     2
 67
     7
 79
     5
170
     0
171
     0
290
     0
174
     0
 93
        1
 44
-50.0
173
     0
291
     1
 45
0.0
1001
ACAD
1000
AcDbSavedByObjectVersion
1070
     0
  0
VISUALSTYLE
  5
3D
102
{ACAD_REACTORS
330
2A
102
}
102
{ACAD_XDICTIONARY
360
204
102
}
330
2A
100
AcDbVisualStyle
  2
EdgeColorOff
 70
    22
 71
     2
 72
     2
 73
     0
 90
        0
 40
0.6
 41
30.0
 62
     5
 63
     7
 74
     1
 91
        4
 64
     7
 65
   257
 75
     1
175
     1
 42
1.0
 92
        8
 66
     7
 43
1.0
 76
     1
 77
     6
 78
     2
 67
     7
 79
     5
170
     0
171
     0
290
     0
174
     0
 93
        1
 44
0.0
173
     0
291
     1
 45
0.0
1001
ACAD
1000
AcDbSavedByObjectVersion
1070
     0
  0
VISUALSTYLE
  5
39
102
{ACAD_REACTORS
330
2A
102
}
102
{ACAD_XDICTIONARY
360
1FC
102
}
330
2A
100
AcDbVisualStyle
  2
Facepattern
 70
    15
 71
     2
 72
     2
 73
     0
 90
        0
 40
0.6
 41
30.0
 62
     5
 63
     7
 74
     1
 91
        4
 64
     7
 65
   257
 75
     1
175
     1
 42
1.0
 92
        8
 66
     7
 43
1.0
 76
     1
 77
     6
 78
     2
 67
     7
 79
     5
170
     0
171
     0
290
     0
174
     0
 93
        1
 44
0.0
173
     0
291
     1
 45
0.0
1001
ACAD
1000
AcDbSavedByObjectVersion
1070
     0
  0
VISUALSTYLE
  5
2B
102
{ACAD_REACTORS
330
2A
102
}
102
{ACAD_XDICTIONARY
360
1E0
102
}
330
2A
100
AcDbVisualStyle
  2
Flat
 70
     0
 71
     2
 72
     1
 73
     1
 90
        2
 40
0.6
 41
30.0
 62
     5
 63
     7
 74
     0
 91
        0
 64
     7
 65
   257
 75
     1
175
     1
 42
1.0
 92
        8
 66
     7
 43
1.0
 76
     1
 77
     6
 78
     2
 67
     7
 79
     5
170
     0
171
     0
290
     0
174
     0
 93
       13
 44
0.0
173
     0
291
     1
 45
0.0
1001
ACAD
1000
AcDbSavedByObjectVersion
1070
     0
  0
VISUALSTYLE
  5
2C
102
{ACAD_REACTORS
330
2A
102
}
102
{ACAD_XDICTIONARY
360
1E2
102
}
330
2A
100
AcDbVisualStyle
  2
FlatWithEdges
 70
     1
 71
     2
 72
     1
 73
     1
 90
        2
 40
0.6
 41
30.0
 62
     5
 63
     7
 74
     1
 91
        0
 64
     7
 65
   257
 75
     1
175
     1
 42
1.0
 92
        0
 66
   257
 43
1.0
 76
     1
 77
     6
 78
     2
 67
     7
 79
     5
170
     0
171
     0
290
     0
174
     0
 93
       13
 44
0.0
173
     0
291
     1
 45
0.0
1001
ACAD
1000
AcDbSavedByObjectVersion
1070
     0
  0
VISUALSTYLE
  5
2D
102
{ACAD_REACTORS
330
2A
102
}
102
{ACAD_XDICTIONARY
360
1E4
102
}
330
2A
100
AcDbVisualStyle
  2
Gouraud
 70
     2
 71
     2
 72
     2
 73
     1
 90
        2
 40
0.6
 41
30.0
 62
     5
 63
     7
 74
     0
 91
        0
 64
     7
 65
   257
 75
     1
175
     1
 42
1.0
 92
        0
 66
     7
 43
1.0
 76
     1
 77
     6
 78
     2
 67
     7
 79
     5
170
     0
171
     0
290
     0
174
     0
 93
       13
 44
0.0
173
     0
291
     1
 45
0.0
1001
ACAD
1000
AcDbSavedByObjectVersion
1070
     0
  0
VISUALSTYLE
  5
2E
102
{ACAD_REACTORS
330
2A
102
}
102
{ACAD_XDICTIONARY
360
1E6
102
}
330
2A
100
AcDbVisualStyle
  2
GouraudWithEdges
 70
     3
 71
     2
 72
     2
 73
     1
 90
        2
 40
0.6
 41
30.0
 62
     5
 63
     7
 74
     1
 91
        0
 64
     7
 65
   257
 75
     1
175
     1
 42
1.0
 92
        0
 66
   257
 43
1.0
 76
     1
 77
     6
 78
     2
 67
     7
 79
     5
170
     0
171
     0
290
     0
174
     0
 93
       13
 44
0.0
173
     0
291
     1
 45
0.0
1001
ACAD
1000
AcDbSavedByObjectVersion
1070
     0
  0
VISUALSTYLE
  5
31
102
{ACAD_REACTORS
330
2A
102
}
102
{ACAD_XDICTIONARY
360
1EC
102
}
330
2A
100
AcDbVisualStyle
  2
Hidden
 70
     6
 71
     1
 72
     2
 73
     2
 90
        0
 40
0.6
 41
30.0
 62
     5
 63
     7
 74
     2
 91
        2
 64
     7
 65
   257
 75
     2
175
     1
 42
40.0
 92
        0
 66
   257
 43
1.0
 76
     1
 77
     6
 78
     2
 67
     7
 79
     3
170
     0
171
     0
290
     0
174
     0
 93
        1
 44
0.0
173
     0
291
     0
 45
0.0
1001
ACAD
1000
AcDbSavedByObjectVersion
1070
     0
  0
VISUALSTYLE
  5
3B
102
{ACAD_REACTORS
330
2A
102
}
102
{ACAD_XDICTIONARY
360
200
102
}
330
2A
100
AcDbVisualStyle
  2
JitterOff
 70
    20
 71
     2
 72
     2
 73
     0
 90
        0
 40
0.6
 41
30.0
 62
     5
 63
     7
 74
     1
 91
        4
 64
     7
 65
   257
 75
     1
175
     1
 42
1.0
 92
       10
 66
     7
 43
1.0
 76
     1
 77
     6
 78
     2
 67
     7
 79
     5
170
     0
171
     0
290
     0
174
     0
 93
        1
 44
0.0
173
     0
291
     1
 45
0.0
1001
ACAD
1000
AcDbSavedByObjectVersion
1070
     0
  0
VISUALSTYLE
  5
38
102
{ACAD_REACTORS
330
2A
102
}
102
{ACAD_XDICTIONARY
360
1FA
102
}
330
2A
100
AcDbVisualStyle
  2
Linepattern
 70
    14
 71
     2
 72
     2
 73
     0
 90
        0
 40
0.6
 41
30.0
 62
     5
 63
     7
 74
     1
 91
        4
 64
     7
 65
   257
 75
     7
175
     7
 42
1.0
 92
        8
 66
     7
 43
1.0
 76
     1
 77
     6
 78
     2
 67
     7
 79
     5
170
     0
171
     0
290
     0
174
     0
 93
        1
 44
0.0
173
     0
291
     1
 45
0.0
1001
ACAD
1000
AcDbSavedByObjectVersion
1070
     0
  0
VISUALSTYLE
  5
3C
102
{ACAD_REACTORS
330
2A
102
}
102
{ACAD_XDICTIONARY
360
202
102
}
330
2A
100
AcDbVisualStyle
  2
OverhangOff
 70
    21
 71
     2
 72
     2
 73
     0
 90
        0
 40
0.6
 41
30.0
 62
     5
 63
     7
 74
     1
 91
        4
 64
     7
 65
   257
 75
     1
175
     1
 42
1.0
 92
        9
 66
     7
 43
1.0
 76
     1
 77
     6
 78
     2
 67
     7
 79
     5
170
     0
171
     0
290
     0
174
     0
 93
        1
 44
0.0
173
     0
291
     1
 45
0.0
1001
ACAD
1000
AcDbSavedByObjectVersion
1070
     0
  0
VISUALSTYLE
  5
33
102
{ACAD_REACTORS
330
2A
102
}
102
{ACAD_XDICTIONARY
360
1F0
102
}
330
2A
100
AcDbVisualStyle
  2
Realistic
 70
     8
 71
     2
 72
     3
 73
     0
 90
        2
 40
0.6
 41
30.0
 62
     5
 63
     7
 74
     0
 91
        0
 64
     7
 65
   257
 75
     1
175
     1
 42
1.0
 92
        8
 66
   257
 43
1.0
 76
     1
 77
     6
 78
     2
 67
     7
 79
     3
170
     0
171
     0
290
     0
174
     0
 93
       13
 44
0.0
173
     0
291
     0
 45
0.0
1001
ACAD
1000
AcDbSavedByObjectVersion
1070
     0
  0
VISUALSTYLE
  5
42
102
{ACAD_REACTORS
330
2A
102
}
102
{ACAD_XDICTIONARY
360
20E
102
}
330
2A
100
AcDbVisualStyle
  2
Shaded
 70
    27
 71
     2
 72
     2
 73
     1
 90
        2
 40
0.6
 41
30.0
 62
     5
 63
     7
 74
     0
 91
        4
 64
     7
 65
   257
 75
     1
175
     1
 42
1.0
 92
        8
 66
   257
 43
1.0
 76
     1
 77
     6
 78
     2
 67
     8
 79
     3
170
     0
171
     0
290
     0
174
     0
 93
        5
 44
0.0
173
     0
291
     0
 45
0.0
1001
ACAD
1000
AcDbSavedByObjectVersion
1070
     0
  0
VISUALSTYLE
  5
41
102
{ACAD_REACTORS
330
2A
102
}
102
{ACAD_XDICTIONARY
360
20C
102
}
330
2A
100
AcDbVisualStyle
  2
Shaded with edges
 70
    26
 71
     2
 72
     2
 73
     1
 90
        2
 40
0.6
 41
30.0
 62
     5
 63
     7
 74
     1
 91
       10
 64
     7
 65
   257
 75
     2
175
     1
 42
1.0
 92
        8
 66
   257
 43
1.0
 76
     1
 77
     6
 78
     2
 67
     7
 79
     3
170
     0
171
     0
290
     0
174
     0
 93
        5
 44
0.0
173
     0
291
     0
 45
0.0
1001
ACAD
1000
AcDbSavedByObjectVersion
1070
     0
  0
VISUALSTYLE
  5
3E
102
{ACAD_REACTORS
330
2A
102
}
102
{ACAD_XDICTIONARY
360
206
102
}
330
2A
100
AcDbVisualStyle
  2
Shades of Gray
 70
    23
 71
     2
 72
     2
 73
     3
 90
        0
 40
0.6
 41
30.0
 62
     5
 63
     7
 74
     2
 91
        2
 64
     7
 65
     7
 75
     1
175
     1
 42
40.0
 92
        8
 66
     7
 43
1.0
 76
     1
 77
     6
 78
     2
 67
     7
 79
     3
170
     0
171
     0
290
     0
174
     0
 93
        1
 44
0.0
173
     0
291
     0
 45
0.0
1001
ACAD
1000
AcDbSavedByObjectVersion
1070
     0
  0
VISUALSTYLE
  5
3F
102
{ACAD_REACTORS
330
2A
102
}
102
{ACAD_XDICTIONARY
360
208
102
}
330
2A
100
AcDbVisualStyle
  2
Sketchy
 70
    24
 71
     1
 72
     2
 73
     2
 90
        0
 40
0.6
 41
30.0
 62
     5
 63
     7
 74
     2
 91
        2
 64
     7
 65
     7
 75
     1
175
     1
 42
40.0
 92
       11
 66
     7
 43
1.0
 76
     1
 77
     6
 78
     2
 67
     7
 79
     6
170
     0
171
     0
290
     0
174
     0
 93
        1
 44
0.0
173
     0
291
     0
 45
0.0
1001
ACAD
1000
AcDbSavedByObjectVersion
1070
     0
  0
VISUALSTYLE
  5
37
102
{ACAD_REACTORS
330
2A
102
}
102
{ACAD_XDICTIONARY
360
1F8
102
}
330
2A
100
AcDbVisualStyle
  2
Thicken
 70
    13
 71
     2
 72
     2
 73
     0
 90
        0
 40
0.6
 41
30.0
 62
     5
 63
     7
 74
     1
 91
        4
 64
     7
 65
   257
 75
     1
175
     1
 42
1.0
 92
       12
 66
     7
 43
1.0
 76
     1
 77
     6
 78
     2
 67
     7
 79
     5
170
     0
171
     0
290
     0
174
     0
 93
        1
 44
0.0
173
     0
291
     1
 45
0.0
1001
ACAD
1000
AcDbSavedByObjectVersion
1070
     0
  0
VISUALSTYLE
  5
30
102
{ACAD_REACTORS
330
2A
102
}
102
{ACAD_XDICTIONARY
360
1EA
102
}
330
2A
100
AcDbVisualStyle
  2
Wireframe
 70
     5
 71
     0
 72
     2
 73
     0
 90
        0
 40
0.6
 41
30.0
 62
     5
 63
     7
 74
     1
 91
        4
 64
     7
 65
   257
 75
     1
175
     1
 42
1.0
 92
        0
 66
   257
 43
1.0
 76
     1
 77
     6
 78
     2
 67
     7
 79
     3
170
     0
171
     0
290
     0
174
     0
 93
        1
 44
0.0
173
     0
291
     0
 45
0.0
1001
ACAD
1000
AcDbSavedByObjectVersion
1070
     0
  0
VISUALSTYLE
  5
40
102
{ACAD_REACTORS
330
2A
102
}
102
{ACAD_XDICTIONARY
360
20A
102
}
330
2A
100
AcDbVisualStyle
  2
X-Ray
 70
    25
 71
     2
 72
     2
 73
     1
 90
        1
 40
0.5
 41
30.0
 62
     5
 63
     7
 74
     1
 91
        0
 64
     7
 65
   257
 75
     1
175
     1
 42
1.0
 92
        8
 66
     7
 43
1.0
 76
     1
 77
     6
 78
     2
 67
     7
 79
     3
170
     0
171
     0
290
     0
174
     0
 93
       13
 44
0.0
173
     0
291
     0
 45
0.0
1001
ACAD
1000
AcDbSavedByObjectVersion
1070
     0
  0
DICTIONARYVAR
  5
1DE
102
{ACAD_REACTORS
330
1D5
102
}
330
1D5
100
DictionaryVariables
280
     0
  1
1:1
  0
DICTIONARYVAR
  5
1DC
102
{ACAD_REACTORS
330
1D5
102
}
330
1D5
100
DictionaryVariables
280
     0
  1
2
  0
DICTIONARYVAR
  5
1DD
102
{ACAD_REACTORS
330
1D5
102
}
330
1D5
100
DictionaryVariables
280
     0
  1
1
  0
DICTIONARYVAR
  5
1DF
102
{ACAD_REACTORS
330
1D5
102
}
330
1D5
100
DictionaryVariables
280
     0
  1
1
  0
DICTIONARYVAR
  5
1D9
102
{ACAD_REACTORS
330
1D5
102
}
330
1D5
100
DictionaryVariables
280
     0
  1
80.000000
  0
DICTIONARYVAR
  5
1D8
102
{ACAD_REACTORS
330
1D5
102
}
330
1D5
100
DictionaryVariables
280
     0
  1
5.000000
  0
DICTIONARY
  5
212
330
45
100
AcDbDictionary
280
     1
281
     1
  3
ACAD_XREC_ROUNDTRIP
360
213
  0
DICTIONARY
  5
210
330
44
100
AcDbDictionary
280
     1
281
     1
  3
ACAD_XREC_ROUNDTRIP
360
211
  0
DICTIONARY
  5
214
330
46
100
AcDbDictionary
280
     1
281
     1
  3
ACAD_XREC_ROUNDTRIP
360
215
  0
DICTIONARY
  5
1E8
330
2F
100
AcDbDictionary
280
     1
281
     1
  3
ACAD_XREC_ROUNDTRIP
360
1E9
  0
DICTIONARY
  5
1EE
330
32
100
AcDbDictionary
280
     1
281
     1
  3
ACAD_XREC_ROUNDTRIP
360
1EF
  0
DICTIONARY
  5
1F6
330
36
100
AcDbDictionary
280
     1
281
     1
  3
ACAD_XREC_ROUNDTRIP
360
1F7
  0
DICTIONARY
  5
1FE
330
3A
100
AcDbDictionary
280
     1
281
     1
  3
ACAD_XREC_ROUNDTRIP
360
1FF
  0
DICTIONARY
  5
1F2
330
34
100
AcDbDictionary
280
     1
281
     1
  3
ACAD_XREC_ROUNDTRIP
360
1F3
  0
DICTIONARY
  5
1F4
330
35
100
AcDbDictionary
280
     1
281
     1
  3
ACAD_XREC_ROUNDTRIP
360
1F5
  0
DICTIONARY
  5
204
330
3D
100
AcDbDictionary
280
     1
281
     1
  3
ACAD_XREC_ROUNDTRIP
360
205
  0
DICTIONARY
  5
1FC
330
39
100
AcDbDictionary
280
     1
281
     1
  3
ACAD_XREC_ROUNDTRIP
360
1FD
  0
DICTIONARY
  5
1E0
330
2B
100
AcDbDictionary
280
     1
281
     1
  3
ACAD_XREC_ROUNDTRIP
360
1E1
  0
DICTIONARY
  5
1E2
330
2C
100
AcDbDictionary
280
     1
281
     1
  3
ACAD_XREC_ROUNDTRIP
360
1E3
  0
DICTIONARY
  5
1E4
330
2D
100
AcDbDictionary
280
     1
281
     1
  3
ACAD_XREC_ROUNDTRIP
360
1E5
  0
DICTIONARY
  5
1E6
330
2E
100
AcDbDictionary
280
     1
281
     1
  3
ACAD_XREC_ROUNDTRIP
360
1E7
  0
DICTIONARY
  5
1EC
330
31
100
AcDbDictionary
280
     1
281
     1
  3
ACAD_XREC_ROUNDTRIP
360
1ED
  0
DICTIONARY
  5
200
330
3B
100
AcDbDictionary
280
     1
281
     1
  3
ACAD_XREC_ROUNDTRIP
360
201
  0
DICTIONARY
  5
1FA
330
38
100
AcDbDictionary
280
     1
281
     1
  3
ACAD_XREC_ROUNDTRIP
360
1FB
  0
DICTIONARY
  5
202
330
3C
100
AcDbDictionary
280
     1
281
     1
  3
ACAD_XREC_ROUNDTRIP
360
203
  0
DICTIONARY
  5
1F0
330
33
100
AcDbDictionary
280
     1
281
     1
  3
ACAD_XREC_ROUNDTRIP
360
1F1
  0
DICTIONARY
  5
20E
330
42
100
AcDbDictionary
280
     1
281
     1
  3
ACAD_XREC_ROUNDTRIP
360
20F
  0
DICTIONARY
  5
20C
330
41
100
AcDbDictionary
280
     1
281
     1
  3
ACAD_XREC_ROUNDTRIP
360
20D
  0
DICTIONARY
  5
206
330
3E
100
AcDbDictionary
280
     1
281
     1
  3
ACAD_XREC_ROUNDTRIP
360
207
  0
DICTIONARY
  5
208
330
3F
100
AcDbDictionary
280
     1
281
     1
  3
ACAD_XREC_ROUNDTRIP
360
209
  0
DICTIONARY
  5
1F8
330
37
100
AcDbDictionary
280
     1
281
     1
  3
ACAD_XREC_ROUNDTRIP
360
1F9
  0
DICTIONARY
  5
1EA
330
30
100
AcDbDictionary
280
     1
281
     1
  3
ACAD_XREC_ROUNDTRIP
360
1EB
  0
DICTIONARY
  5
20A
330
40
100
AcDbDictionary
280
     1
281
     1
  3
ACAD_XREC_ROUNDTRIP
360
20B
  0
XRECORD
  5
213
102
{ACAD_REACTORS
330
212
102
}
330
212
100
AcDbXrecord
280
     1
102
MATERIAL
148
0.0
149
0.0
149
0.0
 93
        0
 94
      127
282
     0
 72
     1
 77
     1
171
     1
175
     1
179
     1
273
     0
  0
XRECORD
  5
211
102
{ACAD_REACTORS
330
210
102
}
330
210
100
AcDbXrecord
280
     1
102
MATERIAL
148
0.0
149
0.0
149
0.0
 93
        0
 94
      127
282
     0
 72
     1
 77
     1
171
     1
175
     1
179
     1
273
     0
  0
XRECORD
  5
215
102
{ACAD_REACTORS
330
214
102
}
330
214
100
AcDbXrecord
280
     1
102
MATERIAL
148
0.0
149
0.0
149
0.0
 93
        0
 94
      127
282
     0
 72
     1
 77
     1
171
     1
175
     1
179
     1
273
     0
  0
XRECORD
  5
1E9
102
{ACAD_REACTORS
330
1E8
102
}
330
1E8
100
AcDbXrecord
280
     1
102
RTVSPropertyOp0
 70
     1
102
RTVSPropertyOp1
 70
     1
102
RTVSPropertyOp2
 70
     1
102
RTVSPropertyOp3
 70
     1
102
RTVSPropertyOp4
 70
     1
102
RTVSPropertyOp5
 70
     1
102
RTVSPropertyOp6
 70
     1
102
RTVSPropertyOp7
 70
     1
102
RTVSPropertyOp8
 70
     1
102
RTVSPropertyOp9
 70
     1
102
RTVSPropertyOp10
 70
     1
102
RTVSPropertyOp11
 70
     1
102
RTVSPropertyOp12
 70
     1
102
RTVSPropertyOp13
 70
     1
102
RTVSPropertyOp14
 70
     1
102
RTVSPropertyOp15
 70
     1
102
RTVSPropertyOp16
 70
     1
102
RTVSPropertyOp17
 70
     1
102
RTVSPropertyOp18
 70
     1
102
RTVSPropertyOp19
 70
     1
102
RTVSPropertyOp20
 70
     1
102
RTVSPropertyOp21
 70
     1
102
RTVSPropertyOp22
 70
     1
102
RTVSPropertyOp23
 70
     1
102
RTVSPropertyOp24
 70
     1
102
RTVSPropertyOp25
 70
     1
102
RTVSPropertyOp26
 70
     1
102
RTVSPropertyOp27
 70
     1
102
RTVSPropertyOp28
 70
     1
102
RTVSPropertyOp29
 70
     1
102
RTVSPropertyOp30
 70
     1
102
RTVSPropertyOp31
 70
     1
102
RTVSPropertyOp32
 70
     1
102
RTVSPropertyOp33
 70
     1
102
RTVSPropertyOp34
 70
     1
102
RTVSPropertyOp35
 70
     1
102
RTVSPropertyOp36
 70
     1
102
RTVSPropertyOp37
 70
     1
102
RTVSPropertyOp38
 70
     1
102
RTVSPropertyOp39
 70
     1
102
RTVSPropertyOp40
 70
     1
102
RTVSPropertyOp41
 70
     1
102
RTVSPropertyOp42
 70
     1
102
RTVSPropertyOp43
 70
     1
102
RTVSPropertyOp44
 70
     1
102
RTVSPropertyOp45
 70
     1
102
RTVSPropertyOp46
 70
     1
102
RTVSPropertyOp47
 70
     1
102
RTVSPropertyOp48
 70
     1
102
RTVSPropertyOp49
 70
     1
102
RTVSPropertyOp50
 70
     1
102
RTVSPropertyOp51
 70
     0
102
RTVSPropertyOp52
 70
     0
102
RTVSPropertyOp53
 70
     1
102
RTVSPropertyOp54
 70
     1
102
RTVSPropertyOp55
 70
     1
102
RTVSPropertyOp56
 70
     1
102
RTVSPropertyOp57
 70
     1
102
RTVSPost2010Prop28
280
     1
102
RTVSPost2010PropOp28
 70
     1
102
RTVSPost2010Prop29
280
     1
102
RTVSPost2010PropOp29
 70
     1
102
RTVSPost2010Prop30
280
     0
102
RTVSPost2010PropOp30
 70
     1
102
RTVSPost2010Prop31
280
     0
102
RTVSPost2010PropOp31
 70
     1
102
RTVSPost2010Prop32
280
     0
102
RTVSPost2010PropOp32
 70
     1
102
RTVSPost2010Prop33
280
     0
102
RTVSPost2010PropOp33
 70
     1
102
RTVSPost2010Prop34
280
     0
102
RTVSPost2010PropOp34
 70
     1
102
RTVSPost2010Prop35
280
     0
102
RTVSPost2010PropOp35
 70
     1
102
RTVSPost2010Prop36
280
     0
102
RTVSPost2010PropOp36
 70
     1
102
RTVSPost2010Prop37
 90
       50
102
RTVSPost2010PropOp37
 70
     1
102
RTVSPost2010Prop38
140
0.0
102
RTVSPost2010PropOp38
 70
     1
102
RTVSPost2010Prop39
140
1.0
102
RTVSPost2010PropOp39
 70
     1
102
RTVSPost2010Prop40
 90
        0
102
RTVSPost2010PropOp40
 70
     1
102
RTVSPost2010Prop41ColorIndex
 90
       18
102
RTVSPost2010Prop41ColorRGB
 90
        0
102
RTVSPost2010PropOp41
 70
     1
102
RTVSPost2010Prop42
 90
       50
102
RTVSPost2010PropOp42
 70
     1
102
RTVSPost2010Prop43
 90
        3
102
RTVSPost2010PropOp43
 70
     1
102
RTVSPost2010Prop44ColorIndex
 90
        5
102
RTVSPost2010Prop44ColorRGB
 90
      255
102
RTVSPost2010PropOp44
 70
     1
102
RTVSPost2010Prop45
280
     0
102
RTVSPost2010PropOp45
 70
     1
102
RTVSPost2010Prop46
 90
       50
102
RTVSPost2010PropOp46
 70
     1
102
RTVSPost2010Prop47
 90
       50
102
RTVSPost2010PropOp47
 70
     1
102
RTVSPost2010Prop48
 90
       50
102
RTVSPost2010PropOp48
 70
     1
102
RTVSPost2010Prop49
280
     0
102
RTVSPost2010PropOp49
 70
     1
102
RTVSPost2010Prop50
 90
       50
102
RTVSPost2010PropOp50
 70
     1
102
RTVSPost2010Prop51ColorIndex
 90
      256
102
RTVSPost2010Prop51ColorRGB
 90
-16777216
102
RTVSPost2010PropOp51
 70
     0
102
RTVSPost2010Prop52
140
1.0
102
RTVSPost2010PropOp52
 70
     0
102
RTVSPost2010Prop53
 90
        2
102
RTVSPost2010PropOp53
 70
     1
102
RTVSPost2010Prop54
  1
strokes_ogs.tif
102
RTVSPost2010PropOp54
 70
     1
102
RTVSPost2010Prop55
280
     0
102
RTVSPost2010PropOp55
 70
     1
102
RTVSPost2010Prop56
140
1.0
102
RTVSPost2010PropOp56
 70
     1
102
RTVSPost2010Prop57
140
1.0
102
RTVSPost2010PropOp57
 70
     1
  0
XRECORD
  5
1EF
102
{ACAD_REACTORS
330
1EE
102
}
330
1EE
100
AcDbXrecord
280
     1
102
RTVSPropertyOp0
 70
     1
102
RTVSPropertyOp1
 70
     1
102
RTVSPropertyOp2
 70
     1
102
RTVSPropertyOp3
 70
     1
102
RTVSPropertyOp4
 70
     1
102
RTVSPropertyOp5
 70
     1
102
RTVSPropertyOp6
 70
     1
102
RTVSPropertyOp7
 70
     1
102
RTVSPropertyOp8
 70
     1
102
RTVSPropertyOp9
 70
     1
102
RTVSPropertyOp10
 70
     1
102
RTVSPropertyOp11
 70
     1
102
RTVSPropertyOp12
 70
     1
102
RTVSPropertyOp13
 70
     1
102
RTVSPropertyOp14
 70
     1
102
RTVSPropertyOp15
 70
     1
102
RTVSPropertyOp16
 70
     1
102
RTVSPropertyOp17
 70
     1
102
RTVSPropertyOp18
 70
     1
102
RTVSPropertyOp19
 70
     1
102
RTVSPropertyOp20
 70
     1
102
RTVSPropertyOp21
 70
     1
102
RTVSPropertyOp22
 70
     1
102
RTVSPropertyOp23
 70
     1
102
RTVSPropertyOp24
 70
     1
102
RTVSPropertyOp25
 70
     1
102
RTVSPropertyOp26
 70
     1
102
RTVSPropertyOp27
 70
     1
102
RTVSPropertyOp28
 70
     1
102
RTVSPropertyOp29
 70
     1
102
RTVSPropertyOp30
 70
     1
102
RTVSPropertyOp31
 70
     1
102
RTVSPropertyOp32
 70
     1
102
RTVSPropertyOp33
 70
     1
102
RTVSPropertyOp34
 70
     1
102
RTVSPropertyOp35
 70
     1
102
RTVSPropertyOp36
 70
     1
102
RTVSPropertyOp37
 70
     1
102
RTVSPropertyOp38
 70
     1
102
RTVSPropertyOp39
 70
     1
102
RTVSPropertyOp40
 70
     1
102
RTVSPropertyOp41
 70
     1
102
RTVSPropertyOp42
 70
     1
102
RTVSPropertyOp43
 70
     1
102
RTVSPropertyOp44
 70
     1
102
RTVSPropertyOp45
 70
     1
102
RTVSPropertyOp46
 70
     1
102
RTVSPropertyOp47
 70
     1
102
RTVSPropertyOp48
 70
     1
102
RTVSPropertyOp49
 70
     1
102
RTVSPropertyOp50
 70
     1
102
RTVSPropertyOp51
 70
     0
102
RTVSPropertyOp52
 70
     0
102
RTVSPropertyOp53
 70
     1
102
RTVSPropertyOp54
 70
     1
102
RTVSPropertyOp55
 70
     1
102
RTVSPropertyOp56
 70
     1
102
RTVSPropertyOp57
 70
     1
102
RTVSPost2010Prop28
280
     0
102
RTVSPost2010PropOp28
 70
     1
102
RTVSPost2010Prop29
280
     1
102
RTVSPost2010PropOp29
 70
     1
102
RTVSPost2010Prop30
280
     1
102
RTVSPost2010PropOp30
 70
     1
102
RTVSPost2010Prop31
280
     0
102
RTVSPost2010PropOp31
 70
     1
102
RTVSPost2010Prop32
280
     0
102
RTVSPost2010PropOp32
 70
     1
102
RTVSPost2010Prop33
280
     0
102
RTVSPost2010PropOp33
 70
     1
102
RTVSPost2010Prop34
280
     0
102
RTVSPost2010PropOp34
 70
     1
102
RTVSPost2010Prop35
280
     0
102
RTVSPost2010PropOp35
 70
     1
102
RTVSPost2010Prop36
280
     0
102
RTVSPost2010PropOp36
 70
     1
102
RTVSPost2010Prop37
 90
       50
102
RTVSPost2010PropOp37
 70
     1
102
RTVSPost2010Prop38
140
0.0
102
RTVSPost2010PropOp38
 70
     1
102
RTVSPost2010Prop39
140
1.0
102
RTVSPost2010PropOp39
 70
     1
102
RTVSPost2010Prop40
 90
        0
102
RTVSPost2010PropOp40
 70
     1
102
RTVSPost2010Prop41ColorIndex
 90
       18
102
RTVSPost2010Prop41ColorRGB
 90
        0
102
RTVSPost2010PropOp41
 70
     1
102
RTVSPost2010Prop42
 90
       50
102
RTVSPost2010PropOp42
 70
     1
102
RTVSPost2010Prop43
 90
        3
102
RTVSPost2010PropOp43
 70
     1
102
RTVSPost2010Prop44ColorIndex
 90
        5
102
RTVSPost2010Prop44ColorRGB
 90
      255
102
RTVSPost2010PropOp44
 70
     1
102
RTVSPost2010Prop45
280
     0
102
RTVSPost2010PropOp45
 70
     1
102
RTVSPost2010Prop46
 90
       50
102
RTVSPost2010PropOp46
 70
     1
102
RTVSPost2010Prop47
 90
       50
102
RTVSPost2010PropOp47
 70
     1
102
RTVSPost2010Prop48
 90
       50
102
RTVSPost2010PropOp48
 70
     1
102
RTVSPost2010Prop49
280
     0
102
RTVSPost2010PropOp49
 70
     1
102
RTVSPost2010Prop50
 90
       50
102
RTVSPost2010PropOp50
 70
     1
102
RTVSPost2010Prop51ColorIndex
 90
      256
102
RTVSPost2010Prop51ColorRGB
 90
-16777216
102
RTVSPost2010PropOp51
 70
     0
102
RTVSPost2010Prop52
140
1.0
102
RTVSPost2010PropOp52
 70
     0
102
RTVSPost2010Prop53
 90
        2
102
RTVSPost2010PropOp53
 70
     1
102
RTVSPost2010Prop54
  1
strokes_ogs.tif
102
RTVSPost2010PropOp54
 70
     1
102
RTVSPost2010Prop55
280
     0
102
RTVSPost2010PropOp55
 70
     1
102
RTVSPost2010Prop56
140
1.0
102
RTVSPost2010PropOp56
 70
     1
102
RTVSPost2010Prop57
140
1.0
102
RTVSPost2010PropOp57
 70
     1
  0
XRECORD
  5
1F7
102
{ACAD_REACTORS
330
1F6
102
}
330
1F6
100
AcDbXrecord
280
     1
102
RTVSPropertyOp0
 70
     1
102
RTVSPropertyOp1
 70
     1
102
RTVSPropertyOp2
 70
     1
102
RTVSPropertyOp3
 70
     1
102
RTVSPropertyOp4
 70
     1
102
RTVSPropertyOp5
 70
     1
102
RTVSPropertyOp6
 70
     1
102
RTVSPropertyOp7
 70
     1
102
RTVSPropertyOp8
 70
     1
102
RTVSPropertyOp9
 70
     1
102
RTVSPropertyOp10
 70
     1
102
RTVSPropertyOp11
 70
     1
102
RTVSPropertyOp12
 70
     1
102
RTVSPropertyOp13
 70
     1
102
RTVSPropertyOp14
 70
     1
102
RTVSPropertyOp15
 70
     1
102
RTVSPropertyOp16
 70
     1
102
RTVSPropertyOp17
 70
     1
102
RTVSPropertyOp18
 70
     1
102
RTVSPropertyOp19
 70
     1
102
RTVSPropertyOp20
 70
     1
102
RTVSPropertyOp21
 70
     1
102
RTVSPropertyOp22
 70
     1
102
RTVSPropertyOp23
 70
     1
102
RTVSPropertyOp24
 70
     1
102
RTVSPropertyOp25
 70
     1
102
RTVSPropertyOp26
 70
     1
102
RTVSPropertyOp27
 70
     1
102
RTVSPropertyOp28
 70
     1
102
RTVSPropertyOp29
 70
     1
102
RTVSPropertyOp30
 70
     1
102
RTVSPropertyOp31
 70
     1
102
RTVSPropertyOp32
 70
     1
102
RTVSPropertyOp33
 70
     1
102
RTVSPropertyOp34
 70
     1
102
RTVSPropertyOp35
 70
     1
102
RTVSPropertyOp36
 70
     1
102
RTVSPropertyOp37
 70
     1
102
RTVSPropertyOp38
 70
     1
102
RTVSPropertyOp39
 70
     1
102
RTVSPropertyOp40
 70
     1
102
RTVSPropertyOp41
 70
     1
102
RTVSPropertyOp42
 70
     1
102
RTVSPropertyOp43
 70
     1
102
RTVSPropertyOp44
 70
     1
102
RTVSPropertyOp45
 70
     1
102
RTVSPropertyOp46
 70
     1
102
RTVSPropertyOp47
 70
     1
102
RTVSPropertyOp48
 70
     1
102
RTVSPropertyOp49
 70
     1
102
RTVSPropertyOp50
 70
     1
102
RTVSPropertyOp51
 70
     0
102
RTVSPropertyOp52
 70
     0
102
RTVSPropertyOp53
 70
     1
102
RTVSPropertyOp54
 70
     1
102
RTVSPropertyOp55
 70
     1
102
RTVSPropertyOp56
 70
     1
102
RTVSPropertyOp57
 70
     1
102
RTVSPost2010Prop28
280
     0
102
RTVSPost2010PropOp28
 70
     1
102
RTVSPost2010Prop29
280
     1
102
RTVSPost2010PropOp29
 70
     1
102
RTVSPost2010Prop30
280
     1
102
RTVSPost2010PropOp30
 70
     1
102
RTVSPost2010Prop31
280
     0
102
RTVSPost2010PropOp31
 70
     1
102
RTVSPost2010Prop32
280
     0
102
RTVSPost2010PropOp32
 70
     1
102
RTVSPost2010Prop33
280
     0
102
RTVSPost2010PropOp33
 70
     1
102
RTVSPost2010Prop34
280
     0
102
RTVSPost2010PropOp34
 70
     1
102
RTVSPost2010Prop35
280
     0
102
RTVSPost2010PropOp35
 70
     1
102
RTVSPost2010Prop36
280
     0
102
RTVSPost2010PropOp36
 70
     1
102
RTVSPost2010Prop37
 90
       50
102
RTVSPost2010PropOp37
 70
     1
102
RTVSPost2010Prop38
140
0.0
102
RTVSPost2010PropOp38
 70
     1
102
RTVSPost2010Prop39
140
1.0
102
RTVSPost2010PropOp39
 70
     1
102
RTVSPost2010Prop40
 90
        0
102
RTVSPost2010PropOp40
 70
     1
102
RTVSPost2010Prop41ColorIndex
 90
       18
102
RTVSPost2010Prop41ColorRGB
 90
        0
102
RTVSPost2010PropOp41
 70
     1
102
RTVSPost2010Prop42
 90
       50
102
RTVSPost2010PropOp42
 70
     1
102
RTVSPost2010Prop43
 90
        3
102
RTVSPost2010PropOp43
 70
     1
102
RTVSPost2010Prop44ColorIndex
 90
        5
102
RTVSPost2010Prop44ColorRGB
 90
      255
102
RTVSPost2010PropOp44
 70
     1
102
RTVSPost2010Prop45
280
     0
102
RTVSPost2010PropOp45
 70
     1
102
RTVSPost2010Prop46
 90
       50
102
RTVSPost2010PropOp46
 70
     1
102
RTVSPost2010Prop47
 90
       50
102
RTVSPost2010PropOp47
 70
     1
102
RTVSPost2010Prop48
 90
       50
102
RTVSPost2010PropOp48
 70
     1
102
RTVSPost2010Prop49
280
     0
102
RTVSPost2010PropOp49
 70
     1
102
RTVSPost2010Prop50
 90
       50
102
RTVSPost2010PropOp50
 70
     1
102
RTVSPost2010Prop51ColorIndex
 90
      256
102
RTVSPost2010Prop51ColorRGB
 90
-16777216
102
RTVSPost2010PropOp51
 70
     0
102
RTVSPost2010Prop52
140
1.0
102
RTVSPost2010PropOp52
 70
     0
102
RTVSPost2010Prop53
 90
        2
102
RTVSPost2010PropOp53
 70
     1
102
RTVSPost2010Prop54
  1
strokes_ogs.tif
102
RTVSPost2010PropOp54
 70
     1
102
RTVSPost2010Prop55
280
     0
102
RTVSPost2010PropOp55
 70
     1
102
RTVSPost2010Prop56
140
1.0
102
RTVSPost2010PropOp56
 70
     1
102
RTVSPost2010Prop57
140
1.0
102
RTVSPost2010PropOp57
 70
     1
  0
XRECORD
  5
1FF
102
{ACAD_REACTORS
330
1FE
102
}
330
1FE
100
AcDbXrecord
280
     1
102
RTVSPropertyOp0
 70
     1
102
RTVSPropertyOp1
 70
     1
102
RTVSPropertyOp2
 70
     1
102
RTVSPropertyOp3
 70
     1
102
RTVSPropertyOp4
 70
     1
102
RTVSPropertyOp5
 70
     1
102
RTVSPropertyOp6
 70
     1
102
RTVSPropertyOp7
 70
     1
102
RTVSPropertyOp8
 70
     1
102
RTVSPropertyOp9
 70
     1
102
RTVSPropertyOp10
 70
     1
102
RTVSPropertyOp11
 70
     1
102
RTVSPropertyOp12
 70
     1
102
RTVSPropertyOp13
 70
     1
102
RTVSPropertyOp14
 70
     1
102
RTVSPropertyOp15
 70
     1
102
RTVSPropertyOp16
 70
     1
102
RTVSPropertyOp17
 70
     1
102
RTVSPropertyOp18
 70
     1
102
RTVSPropertyOp19
 70
     1
102
RTVSPropertyOp20
 70
     1
102
RTVSPropertyOp21
 70
     1
102
RTVSPropertyOp22
 70
     1
102
RTVSPropertyOp23
 70
     1
102
RTVSPropertyOp24
 70
     1
102
RTVSPropertyOp25
 70
     1
102
RTVSPropertyOp26
 70
     1
102
RTVSPropertyOp27
 70
     1
102
RTVSPropertyOp28
 70
     1
102
RTVSPropertyOp29
 70
     1
102
RTVSPropertyOp30
 70
     1
102
RTVSPropertyOp31
 70
     1
102
RTVSPropertyOp32
 70
     1
102
RTVSPropertyOp33
 70
     1
102
RTVSPropertyOp34
 70
     1
102
RTVSPropertyOp35
 70
     1
102
RTVSPropertyOp36
 70
     1
102
RTVSPropertyOp37
 70
     1
102
RTVSPropertyOp38
 70
     1
102
RTVSPropertyOp39
 70
     1
102
RTVSPropertyOp40
 70
     1
102
RTVSPropertyOp41
 70
     1
102
RTVSPropertyOp42
 70
     1
102
RTVSPropertyOp43
 70
     1
102
RTVSPropertyOp44
 70
     1
102
RTVSPropertyOp45
 70
     1
102
RTVSPropertyOp46
 70
     1
102
RTVSPropertyOp47
 70
     1
102
RTVSPropertyOp48
 70
     1
102
RTVSPropertyOp49
 70
     1
102
RTVSPropertyOp50
 70
     1
102
RTVSPropertyOp51
 70
     0
102
RTVSPropertyOp52
 70
     0
102
RTVSPropertyOp53
 70
     1
102
RTVSPropertyOp54
 70
     1
102
RTVSPropertyOp55
 70
     1
102
RTVSPropertyOp56
 70
     1
102
RTVSPropertyOp57
 70
     1
102
RTVSPost2010Prop28
280
     0
102
RTVSPost2010PropOp28
 70
     1
102
RTVSPost2010Prop29
280
     1
102
RTVSPost2010PropOp29
 70
     1
102
RTVSPost2010Prop30
280
     1
102
RTVSPost2010PropOp30
 70
     1
102
RTVSPost2010Prop31
280
     0
102
RTVSPost2010PropOp31
 70
     1
102
RTVSPost2010Prop32
280
     0
102
RTVSPost2010PropOp32
 70
     1
102
RTVSPost2010Prop33
280
     0
102
RTVSPost2010PropOp33
 70
     1
102
RTVSPost2010Prop34
280
     0
102
RTVSPost2010PropOp34
 70
     1
102
RTVSPost2010Prop35
280
     0
102
RTVSPost2010PropOp35
 70
     1
102
RTVSPost2010Prop36
280
     0
102
RTVSPost2010PropOp36
 70
     1
102
RTVSPost2010Prop37
 90
       50
102
RTVSPost2010PropOp37
 70
     1
102
RTVSPost2010Prop38
140
0.0
102
RTVSPost2010PropOp38
 70
     1
102
RTVSPost2010Prop39
140
1.0
102
RTVSPost2010PropOp39
 70
     1
102
RTVSPost2010Prop40
 90
        0
102
RTVSPost2010PropOp40
 70
     1
102
RTVSPost2010Prop41ColorIndex
 90
       18
102
RTVSPost2010Prop41ColorRGB
 90
        0
102
RTVSPost2010PropOp41
 70
     1
102
RTVSPost2010Prop42
 90
       50
102
RTVSPost2010PropOp42
 70
     1
102
RTVSPost2010Prop43
 90
        3
102
RTVSPost2010PropOp43
 70
     1
102
RTVSPost2010Prop44ColorIndex
 90
        5
102
RTVSPost2010Prop44ColorRGB
 90
      255
102
RTVSPost2010PropOp44
 70
     1
102
RTVSPost2010Prop45
280
     0
102
RTVSPost2010PropOp45
 70
     1
102
RTVSPost2010Prop46
 90
       50
102
RTVSPost2010PropOp46
 70
     1
102
RTVSPost2010Prop47
 90
       50
102
RTVSPost2010PropOp47
 70
     1
102
RTVSPost2010Prop48
 90
       50
102
RTVSPost2010PropOp48
 70
     1
102
RTVSPost2010Prop49
280
     0
102
RTVSPost2010PropOp49
 70
     1
102
RTVSPost2010Prop50
 90
       50
102
RTVSPost2010PropOp50
 70
     1
102
RTVSPost2010Prop51ColorIndex
 90
      256
102
RTVSPost2010Prop51ColorRGB
 90
-16777216
102
RTVSPost2010PropOp51
 70
     0
102
RTVSPost2010Prop52
140
1.0
102
RTVSPost2010PropOp52
 70
     0
102
RTVSPost2010Prop53
 90
        2
102
RTVSPost2010PropOp53
 70
     1
102
RTVSPost2010Prop54
  1
strokes_ogs.tif
102
RTVSPost2010PropOp54
 70
     1
102
RTVSPost2010Prop55
280
     0
102
RTVSPost2010PropOp55
 70
     1
102
RTVSPost2010Prop56
140
1.0
102
RTVSPost2010PropOp56
 70
     1
102
RTVSPost2010Prop57
140
1.0
102
RTVSPost2010PropOp57
 70
     1
  0
XRECORD
  5
1F3
102
{ACAD_REACTORS
330
1F2
102
}
330
1F2
100
AcDbXrecord
280
     1
102
RTVSPropertyOp0
 70
     1
102
RTVSPropertyOp1
 70
     1
102
RTVSPropertyOp2
 70
     1
102
RTVSPropertyOp3
 70
     1
102
RTVSPropertyOp4
 70
     1
102
RTVSPropertyOp5
 70
     1
102
RTVSPropertyOp6
 70
     1
102
RTVSPropertyOp7
 70
     1
102
RTVSPropertyOp8
 70
     1
102
RTVSPropertyOp9
 70
     1
102
RTVSPropertyOp10
 70
     1
102
RTVSPropertyOp11
 70
     1
102
RTVSPropertyOp12
 70
     1
102
RTVSPropertyOp13
 70
     1
102
RTVSPropertyOp14
 70
     1
102
RTVSPropertyOp15
 70
     1
102
RTVSPropertyOp16
 70
     1
102
RTVSPropertyOp17
 70
     1
102
RTVSPropertyOp18
 70
     1
102
RTVSPropertyOp19
 70
     1
102
RTVSPropertyOp20
 70
     1
102
RTVSPropertyOp21
 70
     1
102
RTVSPropertyOp22
 70
     1
102
RTVSPropertyOp23
 70
     1
102
RTVSPropertyOp24
 70
     1
102
RTVSPropertyOp25
 70
     1
102
RTVSPropertyOp26
 70
     1
102
RTVSPropertyOp27
 70
     1
102
RTVSPropertyOp28
 70
     1
102
RTVSPropertyOp29
 70
     1
102
RTVSPropertyOp30
 70
     1
102
RTVSPropertyOp31
 70
     1
102
RTVSPropertyOp32
 70
     1
102
RTVSPropertyOp33
 70
     1
102
RTVSPropertyOp34
 70
     1
102
RTVSPropertyOp35
 70
     1
102
RTVSPropertyOp36
 70
     1
102
RTVSPropertyOp37
 70
     1
102
RTVSPropertyOp38
 70
     1
102
RTVSPropertyOp39
 70
     1
102
RTVSPropertyOp40
 70
     1
102
RTVSPropertyOp41
 70
     1
102
RTVSPropertyOp42
 70
     1
102
RTVSPropertyOp43
 70
     1
102
RTVSPropertyOp44
 70
     1
102
RTVSPropertyOp45
 70
     1
102
RTVSPropertyOp46
 70
     1
102
RTVSPropertyOp47
 70
     1
102
RTVSPropertyOp48
 70
     1
102
RTVSPropertyOp49
 70
     1
102
RTVSPropertyOp50
 70
     1
102
RTVSPropertyOp51
 70
     0
102
RTVSPropertyOp52
 70
     0
102
RTVSPropertyOp53
 70
     1
102
RTVSPropertyOp54
 70
     1
102
RTVSPropertyOp55
 70
     1
102
RTVSPropertyOp56
 70
     1
102
RTVSPropertyOp57
 70
     1
102
RTVSPost2010Prop28
280
     0
102
RTVSPost2010PropOp28
 70
     1
102
RTVSPost2010Prop29
280
     1
102
RTVSPost2010PropOp29
 70
     1
102
RTVSPost2010Prop30
280
     1
102
RTVSPost2010PropOp30
 70
     1
102
RTVSPost2010Prop31
280
     0
102
RTVSPost2010PropOp31
 70
     1
102
RTVSPost2010Prop32
280
     0
102
RTVSPost2010PropOp32
 70
     1
102
RTVSPost2010Prop33
280
     0
102
RTVSPost2010PropOp33
 70
     1
102
RTVSPost2010Prop34
280
     0
102
RTVSPost2010PropOp34
 70
     1
102
RTVSPost2010Prop35
280
     0
102
RTVSPost2010PropOp35
 70
     1
102
RTVSPost2010Prop36
280
     0
102
RTVSPost2010PropOp36
 70
     1
102
RTVSPost2010Prop37
 90
       50
102
RTVSPost2010PropOp37
 70
     1
102
RTVSPost2010Prop38
140
0.0
102
RTVSPost2010PropOp38
 70
     1
102
RTVSPost2010Prop39
140
1.0
102
RTVSPost2010PropOp39
 70
     1
102
RTVSPost2010Prop40
 90
        0
102
RTVSPost2010PropOp40
 70
     1
102
RTVSPost2010Prop41ColorIndex
 90
       18
102
RTVSPost2010Prop41ColorRGB
 90
        0
102
RTVSPost2010PropOp41
 70
     1
102
RTVSPost2010Prop42
 90
       50
102
RTVSPost2010PropOp42
 70
     1
102
RTVSPost2010Prop43
 90
        3
102
RTVSPost2010PropOp43
 70
     1
102
RTVSPost2010Prop44ColorIndex
 90
        5
102
RTVSPost2010Prop44ColorRGB
 90
      255
102
RTVSPost2010PropOp44
 70
     1
102
RTVSPost2010Prop45
280
     0
102
RTVSPost2010PropOp45
 70
     1
102
RTVSPost2010Prop46
 90
       50
102
RTVSPost2010PropOp46
 70
     1
102
RTVSPost2010Prop47
 90
       50
102
RTVSPost2010PropOp47
 70
     1
102
RTVSPost2010Prop48
 90
       50
102
RTVSPost2010PropOp48
 70
     1
102
RTVSPost2010Prop49
280
     0
102
RTVSPost2010PropOp49
 70
     1
102
RTVSPost2010Prop50
 90
       50
102
RTVSPost2010PropOp50
 70
     1
102
RTVSPost2010Prop51ColorIndex
 90
      256
102
RTVSPost2010Prop51ColorRGB
 90
-16777216
102
RTVSPost2010PropOp51
 70
     0
102
RTVSPost2010Prop52
140
1.0
102
RTVSPost2010PropOp52
 70
     0
102
RTVSPost2010Prop53
 90
        2
102
RTVSPost2010PropOp53
 70
     1
102
RTVSPost2010Prop54
  1
strokes_ogs.tif
102
RTVSPost2010PropOp54
 70
     1
102
RTVSPost2010Prop55
280
     0
102
RTVSPost2010PropOp55
 70
     1
102
RTVSPost2010Prop56
140
1.0
102
RTVSPost2010PropOp56
 70
     1
102
RTVSPost2010Prop57
140
1.0
102
RTVSPost2010PropOp57
 70
     1
  0
XRECORD
  5
1F5
102
{ACAD_REACTORS
330
1F4
102
}
330
1F4
100
AcDbXrecord
280
     1
102
RTVSPropertyOp0
 70
     1
102
RTVSPropertyOp1
 70
     1
102
RTVSPropertyOp2
 70
     1
102
RTVSPropertyOp3
 70
     1
102
RTVSPropertyOp4
 70
     1
102
RTVSPropertyOp5
 70
     1
102
RTVSPropertyOp6
 70
     1
102
RTVSPropertyOp7
 70
     1
102
RTVSPropertyOp8
 70
     1
102
RTVSPropertyOp9
 70
     1
102
RTVSPropertyOp10
 70
     1
102
RTVSPropertyOp11
 70
     1
102
RTVSPropertyOp12
 70
     1
102
RTVSPropertyOp13
 70
     1
102
RTVSPropertyOp14
 70
     1
102
RTVSPropertyOp15
 70
     1
102
RTVSPropertyOp16
 70
     1
102
RTVSPropertyOp17
 70
     1
102
RTVSPropertyOp18
 70
     1
102
RTVSPropertyOp19
 70
     1
102
RTVSPropertyOp20
 70
     1
102
RTVSPropertyOp21
 70
     1
102
RTVSPropertyOp22
 70
     1
102
RTVSPropertyOp23
 70
     1
102
RTVSPropertyOp24
 70
     1
102
RTVSPropertyOp25
 70
     1
102
RTVSPropertyOp26
 70
     1
102
RTVSPropertyOp27
 70
     1
102
RTVSPropertyOp28
 70
     1
102
RTVSPropertyOp29
 70
     1
102
RTVSPropertyOp30
 70
     1
102
RTVSPropertyOp31
 70
     1
102
RTVSPropertyOp32
 70
     1
102
RTVSPropertyOp33
 70
     1
102
RTVSPropertyOp34
 70
     1
102
RTVSPropertyOp35
 70
     1
102
RTVSPropertyOp36
 70
     1
102
RTVSPropertyOp37
 70
     1
102
RTVSPropertyOp38
 70
     1
102
RTVSPropertyOp39
 70
     1
102
RTVSPropertyOp40
 70
     1
102
RTVSPropertyOp41
 70
     1
102
RTVSPropertyOp42
 70
     1
102
RTVSPropertyOp43
 70
     1
102
RTVSPropertyOp44
 70
     1
102
RTVSPropertyOp45
 70
     1
102
RTVSPropertyOp46
 70
     1
102
RTVSPropertyOp47
 70
     1
102
RTVSPropertyOp48
 70
     1
102
RTVSPropertyOp49
 70
     1
102
RTVSPropertyOp50
 70
     1
102
RTVSPropertyOp51
 70
     0
102
RTVSPropertyOp52
 70
     0
102
RTVSPropertyOp53
 70
     1
102
RTVSPropertyOp54
 70
     1
102
RTVSPropertyOp55
 70
     1
102
RTVSPropertyOp56
 70
     1
102
RTVSPropertyOp57
 70
     1
102
RTVSPost2010Prop28
280
     0
102
RTVSPost2010PropOp28
 70
     1
102
RTVSPost2010Prop29
280
     1
102
RTVSPost2010PropOp29
 70
     1
102
RTVSPost2010Prop30
280
     1
102
RTVSPost2010PropOp30
 70
     1
102
RTVSPost2010Prop31
280
     0
102
RTVSPost2010PropOp31
 70
     1
102
RTVSPost2010Prop32
280
     0
102
RTVSPost2010PropOp32
 70
     1
102
RTVSPost2010Prop33
280
     0
102
RTVSPost2010PropOp33
 70
     1
102
RTVSPost2010Prop34
280
     0
102
RTVSPost2010PropOp34
 70
     1
102
RTVSPost2010Prop35
280
     0
102
RTVSPost2010PropOp35
 70
     1
102
RTVSPost2010Prop36
280
     0
102
RTVSPost2010PropOp36
 70
     1
102
RTVSPost2010Prop37
 90
       50
102
RTVSPost2010PropOp37
 70
     1
102
RTVSPost2010Prop38
140
0.0
102
RTVSPost2010PropOp38
 70
     1
102
RTVSPost2010Prop39
140
1.0
102
RTVSPost2010PropOp39
 70
     1
102
RTVSPost2010Prop40
 90
        0
102
RTVSPost2010PropOp40
 70
     1
102
RTVSPost2010Prop41ColorIndex
 90
       18
102
RTVSPost2010Prop41ColorRGB
 90
        0
102
RTVSPost2010PropOp41
 70
     1
102
RTVSPost2010Prop42
 90
       50
102
RTVSPost2010PropOp42
 70
     1
102
RTVSPost2010Prop43
 90
        3
102
RTVSPost2010PropOp43
 70
     1
102
RTVSPost2010Prop44ColorIndex
 90
        5
102
RTVSPost2010Prop44ColorRGB
 90
      255
102
RTVSPost2010PropOp44
 70
     1
102
RTVSPost2010Prop45
280
     0
102
RTVSPost2010PropOp45
 70
     1
102
RTVSPost2010Prop46
 90
       50
102
RTVSPost2010PropOp46
 70
     1
102
RTVSPost2010Prop47
 90
       50
102
RTVSPost2010PropOp47
 70
     1
102
RTVSPost2010Prop48
 90
       50
102
RTVSPost2010PropOp48
 70
     1
102
RTVSPost2010Prop49
280
     0
102
RTVSPost2010PropOp49
 70
     1
102
RTVSPost2010Prop50
 90
       50
102
RTVSPost2010PropOp50
 70
     1
102
RTVSPost2010Prop51ColorIndex
 90
      256
102
RTVSPost2010Prop51ColorRGB
 90
-16777216
102
RTVSPost2010PropOp51
 70
     0
102
RTVSPost2010Prop52
140
1.0
102
RTVSPost2010PropOp52
 70
     0
102
RTVSPost2010Prop53
 90
        2
102
RTVSPost2010PropOp53
 70
     1
102
RTVSPost2010Prop54
  1
strokes_ogs.tif
102
RTVSPost2010PropOp54
 70
     1
102
RTVSPost2010Prop55
280
     0
102
RTVSPost2010PropOp55
 70
     1
102
RTVSPost2010Prop56
140
1.0
102
RTVSPost2010PropOp56
 70
     1
102
RTVSPost2010Prop57
140
1.0
102
RTVSPost2010PropOp57
 70
     1
  0
XRECORD
  5
205
102
{ACAD_REACTORS
330
204
102
}
330
204
100
AcDbXrecord
280
     1
102
RTVSPropertyOp0
 70
     0
102
RTVSPropertyOp1
 70
     0
102
RTVSPropertyOp2
 70
     0
102
RTVSPropertyOp3
 70
     0
102
RTVSPropertyOp4
 70
     0
102
RTVSPropertyOp5
 70
     0
102
RTVSPropertyOp6
 70
     0
102
RTVSPropertyOp7
 70
     0
102
RTVSPropertyOp8
 70
     0
102
RTVSPropertyOp9
 70
     0
102
RTVSPropertyOp10
 70
     0
102
RTVSPropertyOp11
 70
     0
102
RTVSPropertyOp12
 70
     0
102
RTVSPropertyOp13
 70
     0
102
RTVSPropertyOp14
 70
     2
102
RTVSPropertyOp15
 70
     0
102
RTVSPropertyOp16
 70
     0
102
RTVSPropertyOp17
 70
     0
102
RTVSPropertyOp18
 70
     0
102
RTVSPropertyOp19
 70
     0
102
RTVSPropertyOp20
 70
     0
102
RTVSPropertyOp21
 70
     0
102
RTVSPropertyOp22
 70
     0
102
RTVSPropertyOp23
 70
     0
102
RTVSPropertyOp24
 70
     0
102
RTVSPropertyOp25
 70
     0
102
RTVSPropertyOp26
 70
     0
102
RTVSPropertyOp27
 70
     0
102
RTVSPropertyOp28
 70
     0
102
RTVSPropertyOp29
 70
     0
102
RTVSPropertyOp30
 70
     0
102
RTVSPropertyOp31
 70
     0
102
RTVSPropertyOp32
 70
     0
102
RTVSPropertyOp33
 70
     0
102
RTVSPropertyOp34
 70
     0
102
RTVSPropertyOp35
 70
     0
102
RTVSPropertyOp36
 70
     0
102
RTVSPropertyOp37
 70
     0
102
RTVSPropertyOp38
 70
     0
102
RTVSPropertyOp39
 70
     0
102
RTVSPropertyOp40
 70
     0
102
RTVSPropertyOp41
 70
     0
102
RTVSPropertyOp42
 70
     0
102
RTVSPropertyOp43
 70
     0
102
RTVSPropertyOp44
 70
     0
102
RTVSPropertyOp45
 70
     0
102
RTVSPropertyOp46
 70
     0
102
RTVSPropertyOp47
 70
     0
102
RTVSPropertyOp48
 70
     0
102
RTVSPropertyOp49
 70
     0
102
RTVSPropertyOp50
 70
     0
102
RTVSPropertyOp51
 70
     0
102
RTVSPropertyOp52
 70
     0
102
RTVSPropertyOp53
 70
     0
102
RTVSPropertyOp54
 70
     0
102
RTVSPropertyOp55
 70
     0
102
RTVSPropertyOp56
 70
     0
102
RTVSPropertyOp57
 70
     0
102
RTVSPost2010Prop28
280
     0
102
RTVSPost2010PropOp28
 70
     0
102
RTVSPost2010Prop29
280
     1
102
RTVSPost2010PropOp29
 70
     0
102
RTVSPost2010Prop30
280
     1
102
RTVSPost2010PropOp30
 70
     0
102
RTVSPost2010Prop31
280
     0
102
RTVSPost2010PropOp31
 70
     0
102
RTVSPost2010Prop32
280
     0
102
RTVSPost2010PropOp32
 70
     0
102
RTVSPost2010Prop33
280
     0
102
RTVSPost2010PropOp33
 70
     0
102
RTVSPost2010Prop34
280
     0
102
RTVSPost2010PropOp34
 70
     0
102
RTVSPost2010Prop35
280
     0
102
RTVSPost2010PropOp35
 70
     0
102
RTVSPost2010Prop36
280
     0
102
RTVSPost2010PropOp36
 70
     0
102
RTVSPost2010Prop37
 90
       50
102
RTVSPost2010PropOp37
 70
     0
102
RTVSPost2010Prop38
140
0.0
102
RTVSPost2010PropOp38
 70
     0
102
RTVSPost2010Prop39
140
1.0
102
RTVSPost2010PropOp39
 70
     0
102
RTVSPost2010Prop40
 90
        0
102
RTVSPost2010PropOp40
 70
     0
102
RTVSPost2010Prop41ColorIndex
 90
       18
102
RTVSPost2010Prop41ColorRGB
 90
        0
102
RTVSPost2010PropOp41
 70
     0
102
RTVSPost2010Prop42
 90
       50
102
RTVSPost2010PropOp42
 70
     0
102
RTVSPost2010Prop43
 90
        3
102
RTVSPost2010PropOp43
 70
     0
102
RTVSPost2010Prop44ColorIndex
 90
        5
102
RTVSPost2010Prop44ColorRGB
 90
      255
102
RTVSPost2010PropOp44
 70
     0
102
RTVSPost2010Prop45
280
     0
102
RTVSPost2010PropOp45
 70
     0
102
RTVSPost2010Prop46
 90
       50
102
RTVSPost2010PropOp46
 70
     0
102
RTVSPost2010Prop47
 90
       50
102
RTVSPost2010PropOp47
 70
     0
102
RTVSPost2010Prop48
 90
       50
102
RTVSPost2010PropOp48
 70
     0
102
RTVSPost2010Prop49
280
     0
102
RTVSPost2010PropOp49
 70
     0
102
RTVSPost2010Prop50
 90
       50
102
RTVSPost2010PropOp50
 70
     0
102
RTVSPost2010Prop51ColorIndex
 90
      256
102
RTVSPost2010Prop51ColorRGB
 90
-16777216
102
RTVSPost2010PropOp51
 70
     0
102
RTVSPost2010Prop52
140
1.0
102
RTVSPost2010PropOp52
 70
     0
102
RTVSPost2010Prop53
 90
        2
102
RTVSPost2010PropOp53
 70
     0
102
RTVSPost2010Prop54
  1
strokes_ogs.tif
102
RTVSPost2010PropOp54
 70
     0
102
RTVSPost2010Prop55
280
     0
102
RTVSPost2010PropOp55
 70
     0
102
RTVSPost2010Prop56
140
1.0
102
RTVSPost2010PropOp56
 70
     0
102
RTVSPost2010Prop57
140
1.0
102
RTVSPost2010PropOp57
 70
     0
  0
XRECORD
  5
1FD
102
{ACAD_REACTORS
330
1FC
102
}
330
1FC
100
AcDbXrecord
280
     1
102
RTVSPropertyOp0
 70
     1
102
RTVSPropertyOp1
 70
     1
102
RTVSPropertyOp2
 70
     1
102
RTVSPropertyOp3
 70
     1
102
RTVSPropertyOp4
 70
     1
102
RTVSPropertyOp5
 70
     1
102
RTVSPropertyOp6
 70
     1
102
RTVSPropertyOp7
 70
     1
102
RTVSPropertyOp8
 70
     1
102
RTVSPropertyOp9
 70
     1
102
RTVSPropertyOp10
 70
     1
102
RTVSPropertyOp11
 70
     1
102
RTVSPropertyOp12
 70
     1
102
RTVSPropertyOp13
 70
     1
102
RTVSPropertyOp14
 70
     1
102
RTVSPropertyOp15
 70
     1
102
RTVSPropertyOp16
 70
     1
102
RTVSPropertyOp17
 70
     1
102
RTVSPropertyOp18
 70
     1
102
RTVSPropertyOp19
 70
     1
102
RTVSPropertyOp20
 70
     1
102
RTVSPropertyOp21
 70
     1
102
RTVSPropertyOp22
 70
     1
102
RTVSPropertyOp23
 70
     1
102
RTVSPropertyOp24
 70
     1
102
RTVSPropertyOp25
 70
     1
102
RTVSPropertyOp26
 70
     1
102
RTVSPropertyOp27
 70
     1
102
RTVSPropertyOp28
 70
     1
102
RTVSPropertyOp29
 70
     1
102
RTVSPropertyOp30
 70
     1
102
RTVSPropertyOp31
 70
     1
102
RTVSPropertyOp32
 70
     1
102
RTVSPropertyOp33
 70
     1
102
RTVSPropertyOp34
 70
     1
102
RTVSPropertyOp35
 70
     1
102
RTVSPropertyOp36
 70
     1
102
RTVSPropertyOp37
 70
     1
102
RTVSPropertyOp38
 70
     1
102
RTVSPropertyOp39
 70
     1
102
RTVSPropertyOp40
 70
     1
102
RTVSPropertyOp41
 70
     1
102
RTVSPropertyOp42
 70
     1
102
RTVSPropertyOp43
 70
     1
102
RTVSPropertyOp44
 70
     1
102
RTVSPropertyOp45
 70
     1
102
RTVSPropertyOp46
 70
     1
102
RTVSPropertyOp47
 70
     1
102
RTVSPropertyOp48
 70
     1
102
RTVSPropertyOp49
 70
     1
102
RTVSPropertyOp50
 70
     1
102
RTVSPropertyOp51
 70
     0
102
RTVSPropertyOp52
 70
     0
102
RTVSPropertyOp53
 70
     1
102
RTVSPropertyOp54
 70
     1
102
RTVSPropertyOp55
 70
     1
102
RTVSPropertyOp56
 70
     1
102
RTVSPropertyOp57
 70
     1
102
RTVSPost2010Prop28
280
     0
102
RTVSPost2010PropOp28
 70
     1
102
RTVSPost2010Prop29
280
     1
102
RTVSPost2010PropOp29
 70
     1
102
RTVSPost2010Prop30
280
     1
102
RTVSPost2010PropOp30
 70
     1
102
RTVSPost2010Prop31
280
     0
102
RTVSPost2010PropOp31
 70
     1
102
RTVSPost2010Prop32
280
     0
102
RTVSPost2010PropOp32
 70
     1
102
RTVSPost2010Prop33
280
     0
102
RTVSPost2010PropOp33
 70
     1
102
RTVSPost2010Prop34
280
     0
102
RTVSPost2010PropOp34
 70
     1
102
RTVSPost2010Prop35
280
     0
102
RTVSPost2010PropOp35
 70
     1
102
RTVSPost2010Prop36
280
     0
102
RTVSPost2010PropOp36
 70
     1
102
RTVSPost2010Prop37
 90
       50
102
RTVSPost2010PropOp37
 70
     1
102
RTVSPost2010Prop38
140
0.0
102
RTVSPost2010PropOp38
 70
     1
102
RTVSPost2010Prop39
140
1.0
102
RTVSPost2010PropOp39
 70
     1
102
RTVSPost2010Prop40
 90
        0
102
RTVSPost2010PropOp40
 70
     1
102
RTVSPost2010Prop41ColorIndex
 90
       18
102
RTVSPost2010Prop41ColorRGB
 90
        0
102
RTVSPost2010PropOp41
 70
     1
102
RTVSPost2010Prop42
 90
       50
102
RTVSPost2010PropOp42
 70
     1
102
RTVSPost2010Prop43
 90
        3
102
RTVSPost2010PropOp43
 70
     1
102
RTVSPost2010Prop44ColorIndex
 90
        5
102
RTVSPost2010Prop44ColorRGB
 90
      255
102
RTVSPost2010PropOp44
 70
     1
102
RTVSPost2010Prop45
280
     0
102
RTVSPost2010PropOp45
 70
     1
102
RTVSPost2010Prop46
 90
       50
102
RTVSPost2010PropOp46
 70
     1
102
RTVSPost2010Prop47
 90
       50
102
RTVSPost2010PropOp47
 70
     1
102
RTVSPost2010Prop48
 90
       50
102
RTVSPost2010PropOp48
 70
     1
102
RTVSPost2010Prop49
280
     0
102
RTVSPost2010PropOp49
 70
     1
102
RTVSPost2010Prop50
 90
       50
102
RTVSPost2010PropOp50
 70
     1
102
RTVSPost2010Prop51ColorIndex
 90
      256
102
RTVSPost2010Prop51ColorRGB
 90
-16777216
102
RTVSPost2010PropOp51
 70
     0
102
RTVSPost2010Prop52
140
1.0
102
RTVSPost2010PropOp52
 70
     0
102
RTVSPost2010Prop53
 90
        2
102
RTVSPost2010PropOp53
 70
     1
102
RTVSPost2010Prop54
  1
strokes_ogs.tif
102
RTVSPost2010PropOp54
 70
     1
102
RTVSPost2010Prop55
280
     0
102
RTVSPost2010PropOp55
 70
     1
102
RTVSPost2010Prop56
140
1.0
102
RTVSPost2010PropOp56
 70
     1
102
RTVSPost2010Prop57
140
1.0
102
RTVSPost2010PropOp57
 70
     1
  0
XRECORD
  5
1E1
102
{ACAD_REACTORS
330
1E0
102
}
330
1E0
100
AcDbXrecord
280
     1
102
RTVSPropertyOp0
 70
     1
102
RTVSPropertyOp1
 70
     1
102
RTVSPropertyOp2
 70
     1
102
RTVSPropertyOp3
 70
     1
102
RTVSPropertyOp4
 70
     1
102
RTVSPropertyOp5
 70
     1
102
RTVSPropertyOp6
 70
     1
102
RTVSPropertyOp7
 70
     1
102
RTVSPropertyOp8
 70
     1
102
RTVSPropertyOp9
 70
     1
102
RTVSPropertyOp10
 70
     1
102
RTVSPropertyOp11
 70
     1
102
RTVSPropertyOp12
 70
     1
102
RTVSPropertyOp13
 70
     1
102
RTVSPropertyOp14
 70
     1
102
RTVSPropertyOp15
 70
     1
102
RTVSPropertyOp16
 70
     1
102
RTVSPropertyOp17
 70
     1
102
RTVSPropertyOp18
 70
     1
102
RTVSPropertyOp19
 70
     1
102
RTVSPropertyOp20
 70
     1
102
RTVSPropertyOp21
 70
     1
102
RTVSPropertyOp22
 70
     1
102
RTVSPropertyOp23
 70
     1
102
RTVSPropertyOp24
 70
     1
102
RTVSPropertyOp25
 70
     1
102
RTVSPropertyOp26
 70
     1
102
RTVSPropertyOp27
 70
     1
102
RTVSPropertyOp28
 70
     1
102
RTVSPropertyOp29
 70
     1
102
RTVSPropertyOp30
 70
     1
102
RTVSPropertyOp31
 70
     1
102
RTVSPropertyOp32
 70
     1
102
RTVSPropertyOp33
 70
     1
102
RTVSPropertyOp34
 70
     1
102
RTVSPropertyOp35
 70
     1
102
RTVSPropertyOp36
 70
     1
102
RTVSPropertyOp37
 70
     1
102
RTVSPropertyOp38
 70
     1
102
RTVSPropertyOp39
 70
     1
102
RTVSPropertyOp40
 70
     1
102
RTVSPropertyOp41
 70
     1
102
RTVSPropertyOp42
 70
     1
102
RTVSPropertyOp43
 70
     1
102
RTVSPropertyOp44
 70
     1
102
RTVSPropertyOp45
 70
     1
102
RTVSPropertyOp46
 70
     1
102
RTVSPropertyOp47
 70
     1
102
RTVSPropertyOp48
 70
     1
102
RTVSPropertyOp49
 70
     1
102
RTVSPropertyOp50
 70
     1
102
RTVSPropertyOp51
 70
     0
102
RTVSPropertyOp52
 70
     0
102
RTVSPropertyOp53
 70
     1
102
RTVSPropertyOp54
 70
     1
102
RTVSPropertyOp55
 70
     1
102
RTVSPropertyOp56
 70
     1
102
RTVSPropertyOp57
 70
     1
102
RTVSPost2010Prop28
280
     0
102
RTVSPost2010PropOp28
 70
     1
102
RTVSPost2010Prop29
280
     1
102
RTVSPost2010PropOp29
 70
     1
102
RTVSPost2010Prop30
280
     1
102
RTVSPost2010PropOp30
 70
     1
102
RTVSPost2010Prop31
280
     0
102
RTVSPost2010PropOp31
 70
     1
102
RTVSPost2010Prop32
280
     0
102
RTVSPost2010PropOp32
 70
     1
102
RTVSPost2010Prop33
280
     0
102
RTVSPost2010PropOp33
 70
     1
102
RTVSPost2010Prop34
280
     0
102
RTVSPost2010PropOp34
 70
     1
102
RTVSPost2010Prop35
280
     0
102
RTVSPost2010PropOp35
 70
     1
102
RTVSPost2010Prop36
280
     0
102
RTVSPost2010PropOp36
 70
     1
102
RTVSPost2010Prop37
 90
       50
102
RTVSPost2010PropOp37
 70
     1
102
RTVSPost2010Prop38
140
0.0
102
RTVSPost2010PropOp38
 70
     1
102
RTVSPost2010Prop39
140
1.0
102
RTVSPost2010PropOp39
 70
     1
102
RTVSPost2010Prop40
 90
        0
102
RTVSPost2010PropOp40
 70
     1
102
RTVSPost2010Prop41ColorIndex
 90
       18
102
RTVSPost2010Prop41ColorRGB
 90
        0
102
RTVSPost2010PropOp41
 70
     1
102
RTVSPost2010Prop42
 90
       50
102
RTVSPost2010PropOp42
 70
     1
102
RTVSPost2010Prop43
 90
        3
102
RTVSPost2010PropOp43
 70
     1
102
RTVSPost2010Prop44ColorIndex
 90
        5
102
RTVSPost2010Prop44ColorRGB
 90
      255
102
RTVSPost2010PropOp44
 70
     1
102
RTVSPost2010Prop45
280
     0
102
RTVSPost2010PropOp45
 70
     1
102
RTVSPost2010Prop46
 90
       50
102
RTVSPost2010PropOp46
 70
     1
102
RTVSPost2010Prop47
 90
       50
102
RTVSPost2010PropOp47
 70
     1
102
RTVSPost2010Prop48
 90
       50
102
RTVSPost2010PropOp48
 70
     1
102
RTVSPost2010Prop49
280
     0
102
RTVSPost2010PropOp49
 70
     1
102
RTVSPost2010Prop50
 90
       50
102
RTVSPost2010PropOp50
 70
     1
102
RTVSPost2010Prop51ColorIndex
 90
      256
102
RTVSPost2010Prop51ColorRGB
 90
-16777216
102
RTVSPost2010PropOp51
 70
     0
102
RTVSPost2010Prop52
140
1.0
102
RTVSPost2010PropOp52
 70
     0
102
RTVSPost2010Prop53
 90
        2
102
RTVSPost2010PropOp53
 70
     1
102
RTVSPost2010Prop54
  1
strokes_ogs.tif
102
RTVSPost2010PropOp54
 70
     1
102
RTVSPost2010Prop55
280
     0
102
RTVSPost2010PropOp55
 70
     1
102
RTVSPost2010Prop56
140
1.0
102
RTVSPost2010PropOp56
 70
     1
102
RTVSPost2010Prop57
140
1.0
102
RTVSPost2010PropOp57
 70
     1
  0
XRECORD
  5
1E3
102
{ACAD_REACTORS
330
1E2
102
}
330
1E2
100
AcDbXrecord
280
     1
102
RTVSPropertyOp0
 70
     1
102
RTVSPropertyOp1
 70
     1
102
RTVSPropertyOp2
 70
     1
102
RTVSPropertyOp3
 70
     1
102
RTVSPropertyOp4
 70
     1
102
RTVSPropertyOp5
 70
     1
102
RTVSPropertyOp6
 70
     1
102
RTVSPropertyOp7
 70
     1
102
RTVSPropertyOp8
 70
     1
102
RTVSPropertyOp9
 70
     1
102
RTVSPropertyOp10
 70
     1
102
RTVSPropertyOp11
 70
     1
102
RTVSPropertyOp12
 70
     1
102
RTVSPropertyOp13
 70
     1
102
RTVSPropertyOp14
 70
     1
102
RTVSPropertyOp15
 70
     1
102
RTVSPropertyOp16
 70
     1
102
RTVSPropertyOp17
 70
     1
102
RTVSPropertyOp18
 70
     1
102
RTVSPropertyOp19
 70
     1
102
RTVSPropertyOp20
 70
     1
102
RTVSPropertyOp21
 70
     1
102
RTVSPropertyOp22
 70
     1
102
RTVSPropertyOp23
 70
     1
102
RTVSPropertyOp24
 70
     1
102
RTVSPropertyOp25
 70
     1
102
RTVSPropertyOp26
 70
     1
102
RTVSPropertyOp27
 70
     1
102
RTVSPropertyOp28
 70
     1
102
RTVSPropertyOp29
 70
     1
102
RTVSPropertyOp30
 70
     1
102
RTVSPropertyOp31
 70
     1
102
RTVSPropertyOp32
 70
     1
102
RTVSPropertyOp33
 70
     1
102
RTVSPropertyOp34
 70
     1
102
RTVSPropertyOp35
 70
     1
102
RTVSPropertyOp36
 70
     1
102
RTVSPropertyOp37
 70
     1
102
RTVSPropertyOp38
 70
     1
102
RTVSPropertyOp39
 70
     1
102
RTVSPropertyOp40
 70
     1
102
RTVSPropertyOp41
 70
     1
102
RTVSPropertyOp42
 70
     1
102
RTVSPropertyOp43
 70
     1
102
RTVSPropertyOp44
 70
     1
102
RTVSPropertyOp45
 70
     1
102
RTVSPropertyOp46
 70
     1
102
RTVSPropertyOp47
 70
     1
102
RTVSPropertyOp48
 70
     1
102
RTVSPropertyOp49
 70
     1
102
RTVSPropertyOp50
 70
     1
102
RTVSPropertyOp51
 70
     0
102
RTVSPropertyOp52
 70
     0
102
RTVSPropertyOp53
 70
     1
102
RTVSPropertyOp54
 70
     1
102
RTVSPropertyOp55
 70
     1
102
RTVSPropertyOp56
 70
     1
102
RTVSPropertyOp57
 70
     1
102
RTVSPost2010Prop28
280
     0
102
RTVSPost2010PropOp28
 70
     1
102
RTVSPost2010Prop29
280
     1
102
RTVSPost2010PropOp29
 70
     1
102
RTVSPost2010Prop30
280
     1
102
RTVSPost2010PropOp30
 70
     1
102
RTVSPost2010Prop31
280
     0
102
RTVSPost2010PropOp31
 70
     1
102
RTVSPost2010Prop32
280
     0
102
RTVSPost2010PropOp32
 70
     1
102
RTVSPost2010Prop33
280
     0
102
RTVSPost2010PropOp33
 70
     1
102
RTVSPost2010Prop34
280
     0
102
RTVSPost2010PropOp34
 70
     1
102
RTVSPost2010Prop35
280
     0
102
RTVSPost2010PropOp35
 70
     1
102
RTVSPost2010Prop36
280
     0
102
RTVSPost2010PropOp36
 70
     1
102
RTVSPost2010Prop37
 90
       50
102
RTVSPost2010PropOp37
 70
     1
102
RTVSPost2010Prop38
140
0.0
102
RTVSPost2010PropOp38
 70
     1
102
RTVSPost2010Prop39
140
1.0
102
RTVSPost2010PropOp39
 70
     1
102
RTVSPost2010Prop40
 90
        0
102
RTVSPost2010PropOp40
 70
     1
102
RTVSPost2010Prop41ColorIndex
 90
       18
102
RTVSPost2010Prop41ColorRGB
 90
        0
102
RTVSPost2010PropOp41
 70
     1
102
RTVSPost2010Prop42
 90
       50
102
RTVSPost2010PropOp42
 70
     1
102
RTVSPost2010Prop43
 90
        3
102
RTVSPost2010PropOp43
 70
     1
102
RTVSPost2010Prop44ColorIndex
 90
        5
102
RTVSPost2010Prop44ColorRGB
 90
      255
102
RTVSPost2010PropOp44
 70
     1
102
RTVSPost2010Prop45
280
     0
102
RTVSPost2010PropOp45
 70
     1
102
RTVSPost2010Prop46
 90
       50
102
RTVSPost2010PropOp46
 70
     1
102
RTVSPost2010Prop47
 90
       50
102
RTVSPost2010PropOp47
 70
     1
102
RTVSPost2010Prop48
 90
       50
102
RTVSPost2010PropOp48
 70
     1
102
RTVSPost2010Prop49
280
     0
102
RTVSPost2010PropOp49
 70
     1
102
RTVSPost2010Prop50
 90
       50
102
RTVSPost2010PropOp50
 70
     1
102
RTVSPost2010Prop51ColorIndex
 90
      256
102
RTVSPost2010Prop51ColorRGB
 90
-16777216
102
RTVSPost2010PropOp51
 70
     0
102
RTVSPost2010Prop52
140
1.0
102
RTVSPost2010PropOp52
 70
     0
102
RTVSPost2010Prop53
 90
        2
102
RTVSPost2010PropOp53
 70
     1
102
RTVSPost2010Prop54
  1
strokes_ogs.tif
102
RTVSPost2010PropOp54
 70
     1
102
RTVSPost2010Prop55
280
     0
102
RTVSPost2010PropOp55
 70
     1
102
RTVSPost2010Prop56
140
1.0
102
RTVSPost2010PropOp56
 70
     1
102
RTVSPost2010Prop57
140
1.0
102
RTVSPost2010PropOp57
 70
     1
  0
XRECORD
  5
1E5
102
{ACAD_REACTORS
330
1E4
102
}
330
1E4
100
AcDbXrecord
280
     1
102
RTVSPropertyOp0
 70
     1
102
RTVSPropertyOp1
 70
     1
102
RTVSPropertyOp2
 70
     1
102
RTVSPropertyOp3
 70
     1
102
RTVSPropertyOp4
 70
     1
102
RTVSPropertyOp5
 70
     1
102
RTVSPropertyOp6
 70
     1
102
RTVSPropertyOp7
 70
     1
102
RTVSPropertyOp8
 70
     1
102
RTVSPropertyOp9
 70
     1
102
RTVSPropertyOp10
 70
     1
102
RTVSPropertyOp11
 70
     1
102
RTVSPropertyOp12
 70
     1
102
RTVSPropertyOp13
 70
     1
102
RTVSPropertyOp14
 70
     1
102
RTVSPropertyOp15
 70
     1
102
RTVSPropertyOp16
 70
     1
102
RTVSPropertyOp17
 70
     1
102
RTVSPropertyOp18
 70
     1
102
RTVSPropertyOp19
 70
     1
102
RTVSPropertyOp20
 70
     1
102
RTVSPropertyOp21
 70
     1
102
RTVSPropertyOp22
 70
     1
102
RTVSPropertyOp23
 70
     1
102
RTVSPropertyOp24
 70
     1
102
RTVSPropertyOp25
 70
     1
102
RTVSPropertyOp26
 70
     1
102
RTVSPropertyOp27
 70
     1
102
RTVSPropertyOp28
 70
     1
102
RTVSPropertyOp29
 70
     1
102
RTVSPropertyOp30
 70
     1
102
RTVSPropertyOp31
 70
     1
102
RTVSPropertyOp32
 70
     1
102
RTVSPropertyOp33
 70
     1
102
RTVSPropertyOp34
 70
     1
102
RTVSPropertyOp35
 70
     1
102
RTVSPropertyOp36
 70
     1
102
RTVSPropertyOp37
 70
     1
102
RTVSPropertyOp38
 70
     1
102
RTVSPropertyOp39
 70
     1
102
RTVSPropertyOp40
 70
     1
102
RTVSPropertyOp41
 70
     1
102
RTVSPropertyOp42
 70
     1
102
RTVSPropertyOp43
 70
     1
102
RTVSPropertyOp44
 70
     1
102
RTVSPropertyOp45
 70
     1
102
RTVSPropertyOp46
 70
     1
102
RTVSPropertyOp47
 70
     1
102
RTVSPropertyOp48
 70
     1
102
RTVSPropertyOp49
 70
     1
102
RTVSPropertyOp50
 70
     1
102
RTVSPropertyOp51
 70
     0
102
RTVSPropertyOp52
 70
     0
102
RTVSPropertyOp53
 70
     1
102
RTVSPropertyOp54
 70
     1
102
RTVSPropertyOp55
 70
     1
102
RTVSPropertyOp56
 70
     1
102
RTVSPropertyOp57
 70
     1
102
RTVSPost2010Prop28
280
     0
102
RTVSPost2010PropOp28
 70
     1
102
RTVSPost2010Prop29
280
     1
102
RTVSPost2010PropOp29
 70
     1
102
RTVSPost2010Prop30
280
     1
102
RTVSPost2010PropOp30
 70
     1
102
RTVSPost2010Prop31
280
     0
102
RTVSPost2010PropOp31
 70
     1
102
RTVSPost2010Prop32
280
     0
102
RTVSPost2010PropOp32
 70
     1
102
RTVSPost2010Prop33
280
     0
102
RTVSPost2010PropOp33
 70
     1
102
RTVSPost2010Prop34
280
     0
102
RTVSPost2010PropOp34
 70
     1
102
RTVSPost2010Prop35
280
     0
102
RTVSPost2010PropOp35
 70
     1
102
RTVSPost2010Prop36
280
     0
102
RTVSPost2010PropOp36
 70
     1
102
RTVSPost2010Prop37
 90
       50
102
RTVSPost2010PropOp37
 70
     1
102
RTVSPost2010Prop38
140
0.0
102
RTVSPost2010PropOp38
 70
     1
102
RTVSPost2010Prop39
140
1.0
102
RTVSPost2010PropOp39
 70
     1
102
RTVSPost2010Prop40
 90
        0
102
RTVSPost2010PropOp40
 70
     1
102
RTVSPost2010Prop41ColorIndex
 90
       18
102
RTVSPost2010Prop41ColorRGB
 90
        0
102
RTVSPost2010PropOp41
 70
     1
102
RTVSPost2010Prop42
 90
       50
102
RTVSPost2010PropOp42
 70
     1
102
RTVSPost2010Prop43
 90
        3
102
RTVSPost2010PropOp43
 70
     1
102
RTVSPost2010Prop44ColorIndex
 90
        5
102
RTVSPost2010Prop44ColorRGB
 90
      255
102
RTVSPost2010PropOp44
 70
     1
102
RTVSPost2010Prop45
280
     0
102
RTVSPost2010PropOp45
 70
     1
102
RTVSPost2010Prop46
 90
       50
102
RTVSPost2010PropOp46
 70
     1
102
RTVSPost2010Prop47
 90
       50
102
RTVSPost2010PropOp47
 70
     1
102
RTVSPost2010Prop48
 90
       50
102
RTVSPost2010PropOp48
 70
     1
102
RTVSPost2010Prop49
280
     0
102
RTVSPost2010PropOp49
 70
     1
102
RTVSPost2010Prop50
 90
       50
102
RTVSPost2010PropOp50
 70
     1
102
RTVSPost2010Prop51ColorIndex
 90
      256
102
RTVSPost2010Prop51ColorRGB
 90
-16777216
102
RTVSPost2010PropOp51
 70
     0
102
RTVSPost2010Prop52
140
1.0
102
RTVSPost2010PropOp52
 70
     0
102
RTVSPost2010Prop53
 90
        2
102
RTVSPost2010PropOp53
 70
     1
102
RTVSPost2010Prop54
  1
strokes_ogs.tif
102
RTVSPost2010PropOp54
 70
     1
102
RTVSPost2010Prop55
280
     0
102
RTVSPost2010PropOp55
 70
     1
102
RTVSPost2010Prop56
140
1.0
102
RTVSPost2010PropOp56
 70
     1
102
RTVSPost2010Prop57
140
1.0
102
RTVSPost2010PropOp57
 70
     1
  0
XRECORD
  5
1E7
102
{ACAD_REACTORS
330
1E6
102
}
330
1E6
100
AcDbXrecord
280
     1
102
RTVSPropertyOp0
 70
     1
102
RTVSPropertyOp1
 70
     1
102
RTVSPropertyOp2
 70
     1
102
RTVSPropertyOp3
 70
     1
102
RTVSPropertyOp4
 70
     1
102
RTVSPropertyOp5
 70
     1
102
RTVSPropertyOp6
 70
     1
102
RTVSPropertyOp7
 70
     1
102
RTVSPropertyOp8
 70
     1
102
RTVSPropertyOp9
 70
     1
102
RTVSPropertyOp10
 70
     1
102
RTVSPropertyOp11
 70
     1
102
RTVSPropertyOp12
 70
     1
102
RTVSPropertyOp13
 70
     1
102
RTVSPropertyOp14
 70
     1
102
RTVSPropertyOp15
 70
     1
102
RTVSPropertyOp16
 70
     1
102
RTVSPropertyOp17
 70
     1
102
RTVSPropertyOp18
 70
     1
102
RTVSPropertyOp19
 70
     1
102
RTVSPropertyOp20
 70
     1
102
RTVSPropertyOp21
 70
     1
102
RTVSPropertyOp22
 70
     1
102
RTVSPropertyOp23
 70
     1
102
RTVSPropertyOp24
 70
     1
102
RTVSPropertyOp25
 70
     1
102
RTVSPropertyOp26
 70
     1
102
RTVSPropertyOp27
 70
     1
102
RTVSPropertyOp28
 70
     1
102
RTVSPropertyOp29
 70
     1
102
RTVSPropertyOp30
 70
     1
102
RTVSPropertyOp31
 70
     1
102
RTVSPropertyOp32
 70
     1
102
RTVSPropertyOp33
 70
     1
102
RTVSPropertyOp34
 70
     1
102
RTVSPropertyOp35
 70
     1
102
RTVSPropertyOp36
 70
     1
102
RTVSPropertyOp37
 70
     1
102
RTVSPropertyOp38
 70
     1
102
RTVSPropertyOp39
 70
     1
102
RTVSPropertyOp40
 70
     1
102
RTVSPropertyOp41
 70
     1
102
RTVSPropertyOp42
 70
     1
102
RTVSPropertyOp43
 70
     1
102
RTVSPropertyOp44
 70
     1
102
RTVSPropertyOp45
 70
     1
102
RTVSPropertyOp46
 70
     1
102
RTVSPropertyOp47
 70
     1
102
RTVSPropertyOp48
 70
     1
102
RTVSPropertyOp49
 70
     1
102
RTVSPropertyOp50
 70
     1
102
RTVSPropertyOp51
 70
     0
102
RTVSPropertyOp52
 70
     0
102
RTVSPropertyOp53
 70
     1
102
RTVSPropertyOp54
 70
     1
102
RTVSPropertyOp55
 70
     1
102
RTVSPropertyOp56
 70
     1
102
RTVSPropertyOp57
 70
     1
102
RTVSPost2010Prop28
280
     0
102
RTVSPost2010PropOp28
 70
     1
102
RTVSPost2010Prop29
280
     1
102
RTVSPost2010PropOp29
 70
     1
102
RTVSPost2010Prop30
280
     1
102
RTVSPost2010PropOp30
 70
     1
102
RTVSPost2010Prop31
280
     0
102
RTVSPost2010PropOp31
 70
     1
102
RTVSPost2010Prop32
280
     0
102
RTVSPost2010PropOp32
 70
     1
102
RTVSPost2010Prop33
280
     0
102
RTVSPost2010PropOp33
 70
     1
102
RTVSPost2010Prop34
280
     0
102
RTVSPost2010PropOp34
 70
     1
102
RTVSPost2010Prop35
280
     0
102
RTVSPost2010PropOp35
 70
     1
102
RTVSPost2010Prop36
280
     0
102
RTVSPost2010PropOp36
 70
     1
102
RTVSPost2010Prop37
 90
       50
102
RTVSPost2010PropOp37
 70
     1
102
RTVSPost2010Prop38
140
0.0
102
RTVSPost2010PropOp38
 70
     1
102
RTVSPost2010Prop39
140
1.0
102
RTVSPost2010PropOp39
 70
     1
102
RTVSPost2010Prop40
 90
        0
102
RTVSPost2010PropOp40
 70
     1
102
RTVSPost2010Prop41ColorIndex
 90
       18
102
RTVSPost2010Prop41ColorRGB
 90
        0
102
RTVSPost2010PropOp41
 70
     1
102
RTVSPost2010Prop42
 90
       50
102
RTVSPost2010PropOp42
 70
     1
102
RTVSPost2010Prop43
 90
        3
102
RTVSPost2010PropOp43
 70
     1
102
RTVSPost2010Prop44ColorIndex
 90
        5
102
RTVSPost2010Prop44ColorRGB
 90
      255
102
RTVSPost2010PropOp44
 70
     1
102
RTVSPost2010Prop45
280
     0
102
RTVSPost2010PropOp45
 70
     1
102
RTVSPost2010Prop46
 90
       50
102
RTVSPost2010PropOp46
 70
     1
102
RTVSPost2010Prop47
 90
       50
102
RTVSPost2010PropOp47
 70
     1
102
RTVSPost2010Prop48
 90
       50
102
RTVSPost2010PropOp48
 70
     1
102
RTVSPost2010Prop49
280
     0
102
RTVSPost2010PropOp49
 70
     1
102
RTVSPost2010Prop50
 90
       50
102
RTVSPost2010PropOp50
 70
     1
102
RTVSPost2010Prop51ColorIndex
 90
      256
102
RTVSPost2010Prop51ColorRGB
 90
-16777216
102
RTVSPost2010PropOp51
 70
     0
102
RTVSPost2010Prop52
140
1.0
102
RTVSPost2010PropOp52
 70
     0
102
RTVSPost2010Prop53
 90
        2
102
RTVSPost2010PropOp53
 70
     1
102
RTVSPost2010Prop54
  1
strokes_ogs.tif
102
RTVSPost2010PropOp54
 70
     1
102
RTVSPost2010Prop55
280
     0
102
RTVSPost2010PropOp55
 70
     1
102
RTVSPost2010Prop56
140
1.0
102
RTVSPost2010PropOp56
 70
     1
102
RTVSPost2010Prop57
140
1.0
102
RTVSPost2010PropOp57
 70
     1
  0
XRECORD
  5
1ED
102
{ACAD_REACTORS
330
1EC
102
}
330
1EC
100
AcDbXrecord
280
     1
102
RTVSPropertyOp0
 70
     1
102
RTVSPropertyOp1
 70
     1
102
RTVSPropertyOp2
 70
     1
102
RTVSPropertyOp3
 70
     1
102
RTVSPropertyOp4
 70
     1
102
RTVSPropertyOp5
 70
     1
102
RTVSPropertyOp6
 70
     1
102
RTVSPropertyOp7
 70
     1
102
RTVSPropertyOp8
 70
     1
102
RTVSPropertyOp9
 70
     1
102
RTVSPropertyOp10
 70
     1
102
RTVSPropertyOp11
 70
     1
102
RTVSPropertyOp12
 70
     1
102
RTVSPropertyOp13
 70
     1
102
RTVSPropertyOp14
 70
     1
102
RTVSPropertyOp15
 70
     1
102
RTVSPropertyOp16
 70
     1
102
RTVSPropertyOp17
 70
     1
102
RTVSPropertyOp18
 70
     1
102
RTVSPropertyOp19
 70
     1
102
RTVSPropertyOp20
 70
     1
102
RTVSPropertyOp21
 70
     1
102
RTVSPropertyOp22
 70
     1
102
RTVSPropertyOp23
 70
     1
102
RTVSPropertyOp24
 70
     1
102
RTVSPropertyOp25
 70
     1
102
RTVSPropertyOp26
 70
     1
102
RTVSPropertyOp27
 70
     1
102
RTVSPropertyOp28
 70
     1
102
RTVSPropertyOp29
 70
     1
102
RTVSPropertyOp30
 70
     1
102
RTVSPropertyOp31
 70
     1
102
RTVSPropertyOp32
 70
     1
102
RTVSPropertyOp33
 70
     1
102
RTVSPropertyOp34
 70
     1
102
RTVSPropertyOp35
 70
     1
102
RTVSPropertyOp36
 70
     1
102
RTVSPropertyOp37
 70
     1
102
RTVSPropertyOp38
 70
     1
102
RTVSPropertyOp39
 70
     1
102
RTVSPropertyOp40
 70
     1
102
RTVSPropertyOp41
 70
     1
102
RTVSPropertyOp42
 70
     1
102
RTVSPropertyOp43
 70
     1
102
RTVSPropertyOp44
 70
     1
102
RTVSPropertyOp45
 70
     1
102
RTVSPropertyOp46
 70
     1
102
RTVSPropertyOp47
 70
     1
102
RTVSPropertyOp48
 70
     1
102
RTVSPropertyOp49
 70
     1
102
RTVSPropertyOp50
 70
     1
102
RTVSPropertyOp51
 70
     0
102
RTVSPropertyOp52
 70
     0
102
RTVSPropertyOp53
 70
     1
102
RTVSPropertyOp54
 70
     1
102
RTVSPropertyOp55
 70
     1
102
RTVSPropertyOp56
 70
     1
102
RTVSPropertyOp57
 70
     1
102
RTVSPost2010Prop28
280
     0
102
RTVSPost2010PropOp28
 70
     1
102
RTVSPost2010Prop29
280
     1
102
RTVSPost2010PropOp29
 70
     1
102
RTVSPost2010Prop30
280
     1
102
RTVSPost2010PropOp30
 70
     1
102
RTVSPost2010Prop31
280
     0
102
RTVSPost2010PropOp31
 70
     1
102
RTVSPost2010Prop32
280
     0
102
RTVSPost2010PropOp32
 70
     1
102
RTVSPost2010Prop33
280
     0
102
RTVSPost2010PropOp33
 70
     1
102
RTVSPost2010Prop34
280
     0
102
RTVSPost2010PropOp34
 70
     1
102
RTVSPost2010Prop35
280
     0
102
RTVSPost2010PropOp35
 70
     1
102
RTVSPost2010Prop36
280
     0
102
RTVSPost2010PropOp36
 70
     1
102
RTVSPost2010Prop37
 90
       50
102
RTVSPost2010PropOp37
 70
     1
102
RTVSPost2010Prop38
140
0.0
102
RTVSPost2010PropOp38
 70
     1
102
RTVSPost2010Prop39
140
1.0
102
RTVSPost2010PropOp39
 70
     1
102
RTVSPost2010Prop40
 90
        0
102
RTVSPost2010PropOp40
 70
     1
102
RTVSPost2010Prop41ColorIndex
 90
       18
102
RTVSPost2010Prop41ColorRGB
 90
        0
102
RTVSPost2010PropOp41
 70
     1
102
RTVSPost2010Prop42
 90
       50
102
RTVSPost2010PropOp42
 70
     1
102
RTVSPost2010Prop43
 90
        3
102
RTVSPost2010PropOp43
 70
     1
102
RTVSPost2010Prop44ColorIndex
 90
        5
102
RTVSPost2010Prop44ColorRGB
 90
      255
102
RTVSPost2010PropOp44
 70
     1
102
RTVSPost2010Prop45
280
     0
102
RTVSPost2010PropOp45
 70
     1
102
RTVSPost2010Prop46
 90
       50
102
RTVSPost2010PropOp46
 70
     1
102
RTVSPost2010Prop47
 90
       50
102
RTVSPost2010PropOp47
 70
     1
102
RTVSPost2010Prop48
 90
       50
102
RTVSPost2010PropOp48
 70
     1
102
RTVSPost2010Prop49
280
     0
102
RTVSPost2010PropOp49
 70
     1
102
RTVSPost2010Prop50
 90
       50
102
RTVSPost2010PropOp50
 70
     1
102
RTVSPost2010Prop51ColorIndex
 90
      256
102
RTVSPost2010Prop51ColorRGB
 90
-16777216
102
RTVSPost2010PropOp51
 70
     0
102
RTVSPost2010Prop52
140
1.0
102
RTVSPost2010PropOp52
 70
     0
102
RTVSPost2010Prop53
 90
        2
102
RTVSPost2010PropOp53
 70
     1
102
RTVSPost2010Prop54
  1
strokes_ogs.tif
102
RTVSPost2010PropOp54
 70
     1
102
RTVSPost2010Prop55
280
     0
102
RTVSPost2010PropOp55
 70
     1
102
RTVSPost2010Prop56
140
1.0
102
RTVSPost2010PropOp56
 70
     1
102
RTVSPost2010Prop57
140
1.0
102
RTVSPost2010PropOp57
 70
     1
  0
XRECORD
  5
201
102
{ACAD_REACTORS
330
200
102
}
330
200
100
AcDbXrecord
280
     1
102
RTVSPropertyOp0
 70
     0
102
RTVSPropertyOp1
 70
     0
102
RTVSPropertyOp2
 70
     0
102
RTVSPropertyOp3
 70
     0
102
RTVSPropertyOp4
 70
     0
102
RTVSPropertyOp5
 70
     0
102
RTVSPropertyOp6
 70
     0
102
RTVSPropertyOp7
 70
     0
102
RTVSPropertyOp8
 70
     0
102
RTVSPropertyOp9
 70
     0
102
RTVSPropertyOp10
 70
     0
102
RTVSPropertyOp11
 70
     0
102
RTVSPropertyOp12
 70
     0
102
RTVSPropertyOp13
 70
     0
102
RTVSPropertyOp14
 70
     2
102
RTVSPropertyOp15
 70
     0
102
RTVSPropertyOp16
 70
     0
102
RTVSPropertyOp17
 70
     0
102
RTVSPropertyOp18
 70
     0
102
RTVSPropertyOp19
 70
     0
102
RTVSPropertyOp20
 70
     0
102
RTVSPropertyOp21
 70
     0
102
RTVSPropertyOp22
 70
     0
102
RTVSPropertyOp23
 70
     0
102
RTVSPropertyOp24
 70
     0
102
RTVSPropertyOp25
 70
     0
102
RTVSPropertyOp26
 70
     0
102
RTVSPropertyOp27
 70
     0
102
RTVSPropertyOp28
 70
     0
102
RTVSPropertyOp29
 70
     0
102
RTVSPropertyOp30
 70
     0
102
RTVSPropertyOp31
 70
     0
102
RTVSPropertyOp32
 70
     0
102
RTVSPropertyOp33
 70
     0
102
RTVSPropertyOp34
 70
     0
102
RTVSPropertyOp35
 70
     0
102
RTVSPropertyOp36
 70
     0
102
RTVSPropertyOp37
 70
     0
102
RTVSPropertyOp38
 70
     0
102
RTVSPropertyOp39
 70
     0
102
RTVSPropertyOp40
 70
     0
102
RTVSPropertyOp41
 70
     0
102
RTVSPropertyOp42
 70
     0
102
RTVSPropertyOp43
 70
     0
102
RTVSPropertyOp44
 70
     0
102
RTVSPropertyOp45
 70
     0
102
RTVSPropertyOp46
 70
     0
102
RTVSPropertyOp47
 70
     0
102
RTVSPropertyOp48
 70
     0
102
RTVSPropertyOp49
 70
     0
102
RTVSPropertyOp50
 70
     0
102
RTVSPropertyOp51
 70
     0
102
RTVSPropertyOp52
 70
     0
102
RTVSPropertyOp53
 70
     0
102
RTVSPropertyOp54
 70
     0
102
RTVSPropertyOp55
 70
     0
102
RTVSPropertyOp56
 70
     0
102
RTVSPropertyOp57
 70
     0
102
RTVSPost2010Prop28
280
     0
102
RTVSPost2010PropOp28
 70
     0
102
RTVSPost2010Prop29
280
     1
102
RTVSPost2010PropOp29
 70
     0
102
RTVSPost2010Prop30
280
     1
102
RTVSPost2010PropOp30
 70
     0
102
RTVSPost2010Prop31
280
     0
102
RTVSPost2010PropOp31
 70
     0
102
RTVSPost2010Prop32
280
     0
102
RTVSPost2010PropOp32
 70
     0
102
RTVSPost2010Prop33
280
     0
102
RTVSPost2010PropOp33
 70
     0
102
RTVSPost2010Prop34
280
     0
102
RTVSPost2010PropOp34
 70
     0
102
RTVSPost2010Prop35
280
     0
102
RTVSPost2010PropOp35
 70
     0
102
RTVSPost2010Prop36
280
     0
102
RTVSPost2010PropOp36
 70
     0
102
RTVSPost2010Prop37
 90
       50
102
RTVSPost2010PropOp37
 70
     0
102
RTVSPost2010Prop38
140
0.0
102
RTVSPost2010PropOp38
 70
     0
102
RTVSPost2010Prop39
140
1.0
102
RTVSPost2010PropOp39
 70
     0
102
RTVSPost2010Prop40
 90
        0
102
RTVSPost2010PropOp40
 70
     0
102
RTVSPost2010Prop41ColorIndex
 90
       18
102
RTVSPost2010Prop41ColorRGB
 90
        0
102
RTVSPost2010PropOp41
 70
     0
102
RTVSPost2010Prop42
 90
       50
102
RTVSPost2010PropOp42
 70
     0
102
RTVSPost2010Prop43
 90
        3
102
RTVSPost2010PropOp43
 70
     0
102
RTVSPost2010Prop44ColorIndex
 90
        5
102
RTVSPost2010Prop44ColorRGB
 90
      255
102
RTVSPost2010PropOp44
 70
     0
102
RTVSPost2010Prop45
280
     0
102
RTVSPost2010PropOp45
 70
     0
102
RTVSPost2010Prop46
 90
       50
102
RTVSPost2010PropOp46
 70
     0
102
RTVSPost2010Prop47
 90
       50
102
RTVSPost2010PropOp47
 70
     0
102
RTVSPost2010Prop48
 90
       50
102
RTVSPost2010PropOp48
 70
     0
102
RTVSPost2010Prop49
280
     0
102
RTVSPost2010PropOp49
 70
     0
102
RTVSPost2010Prop50
 90
       50
102
RTVSPost2010PropOp50
 70
     0
102
RTVSPost2010Prop51ColorIndex
 90
      256
102
RTVSPost2010Prop51ColorRGB
 90
-16777216
102
RTVSPost2010PropOp51
 70
     0
102
RTVSPost2010Prop52
140
1.0
102
RTVSPost2010PropOp52
 70
     0
102
RTVSPost2010Prop53
 90
        2
102
RTVSPost2010PropOp53
 70
     0
102
RTVSPost2010Prop54
  1
strokes_ogs.tif
102
RTVSPost2010PropOp54
 70
     0
102
RTVSPost2010Prop55
280
     0
102
RTVSPost2010PropOp55
 70
     0
102
RTVSPost2010Prop56
140
1.0
102
RTVSPost2010PropOp56
 70
     0
102
RTVSPost2010Prop57
140
1.0
102
RTVSPost2010PropOp57
 70
     0
  0
XRECORD
  5
1FB
102
{ACAD_REACTORS
330
1FA
102
}
330
1FA
100
AcDbXrecord
280
     1
102
RTVSPropertyOp0
 70
     1
102
RTVSPropertyOp1
 70
     1
102
RTVSPropertyOp2
 70
     1
102
RTVSPropertyOp3
 70
     1
102
RTVSPropertyOp4
 70
     1
102
RTVSPropertyOp5
 70
     1
102
RTVSPropertyOp6
 70
     1
102
RTVSPropertyOp7
 70
     1
102
RTVSPropertyOp8
 70
     1
102
RTVSPropertyOp9
 70
     1
102
RTVSPropertyOp10
 70
     1
102
RTVSPropertyOp11
 70
     1
102
RTVSPropertyOp12
 70
     1
102
RTVSPropertyOp13
 70
     1
102
RTVSPropertyOp14
 70
     1
102
RTVSPropertyOp15
 70
     1
102
RTVSPropertyOp16
 70
     1
102
RTVSPropertyOp17
 70
     1
102
RTVSPropertyOp18
 70
     1
102
RTVSPropertyOp19
 70
     1
102
RTVSPropertyOp20
 70
     1
102
RTVSPropertyOp21
 70
     1
102
RTVSPropertyOp22
 70
     1
102
RTVSPropertyOp23
 70
     1
102
RTVSPropertyOp24
 70
     1
102
RTVSPropertyOp25
 70
     1
102
RTVSPropertyOp26
 70
     1
102
RTVSPropertyOp27
 70
     1
102
RTVSPropertyOp28
 70
     1
102
RTVSPropertyOp29
 70
     1
102
RTVSPropertyOp30
 70
     1
102
RTVSPropertyOp31
 70
     1
102
RTVSPropertyOp32
 70
     1
102
RTVSPropertyOp33
 70
     1
102
RTVSPropertyOp34
 70
     1
102
RTVSPropertyOp35
 70
     1
102
RTVSPropertyOp36
 70
     1
102
RTVSPropertyOp37
 70
     1
102
RTVSPropertyOp38
 70
     1
102
RTVSPropertyOp39
 70
     1
102
RTVSPropertyOp40
 70
     1
102
RTVSPropertyOp41
 70
     1
102
RTVSPropertyOp42
 70
     1
102
RTVSPropertyOp43
 70
     1
102
RTVSPropertyOp44
 70
     1
102
RTVSPropertyOp45
 70
     1
102
RTVSPropertyOp46
 70
     1
102
RTVSPropertyOp47
 70
     1
102
RTVSPropertyOp48
 70
     1
102
RTVSPropertyOp49
 70
     1
102
RTVSPropertyOp50
 70
     1
102
RTVSPropertyOp51
 70
     0
102
RTVSPropertyOp52
 70
     0
102
RTVSPropertyOp53
 70
     1
102
RTVSPropertyOp54
 70
     1
102
RTVSPropertyOp55
 70
     1
102
RTVSPropertyOp56
 70
     1
102
RTVSPropertyOp57
 70
     1
102
RTVSPost2010Prop28
280
     0
102
RTVSPost2010PropOp28
 70
     1
102
RTVSPost2010Prop29
280
     1
102
RTVSPost2010PropOp29
 70
     1
102
RTVSPost2010Prop30
280
     1
102
RTVSPost2010PropOp30
 70
     1
102
RTVSPost2010Prop31
280
     0
102
RTVSPost2010PropOp31
 70
     1
102
RTVSPost2010Prop32
280
     0
102
RTVSPost2010PropOp32
 70
     1
102
RTVSPost2010Prop33
280
     0
102
RTVSPost2010PropOp33
 70
     1
102
RTVSPost2010Prop34
280
     0
102
RTVSPost2010PropOp34
 70
     1
102
RTVSPost2010Prop35
280
     0
102
RTVSPost2010PropOp35
 70
     1
102
RTVSPost2010Prop36
280
     0
102
RTVSPost2010PropOp36
 70
     1
102
RTVSPost2010Prop37
 90
       50
102
RTVSPost2010PropOp37
 70
     1
102
RTVSPost2010Prop38
140
0.0
102
RTVSPost2010PropOp38
 70
     1
102
RTVSPost2010Prop39
140
1.0
102
RTVSPost2010PropOp39
 70
     1
102
RTVSPost2010Prop40
 90
        0
102
RTVSPost2010PropOp40
 70
     1
102
RTVSPost2010Prop41ColorIndex
 90
       18
102
RTVSPost2010Prop41ColorRGB
 90
        0
102
RTVSPost2010PropOp41
 70
     1
102
RTVSPost2010Prop42
 90
       50
102
RTVSPost2010PropOp42
 70
     1
102
RTVSPost2010Prop43
 90
        3
102
RTVSPost2010PropOp43
 70
     1
102
RTVSPost2010Prop44ColorIndex
 90
        5
102
RTVSPost2010Prop44ColorRGB
 90
      255
102
RTVSPost2010PropOp44
 70
     1
102
RTVSPost2010Prop45
280
     0
102
RTVSPost2010PropOp45
 70
     1
102
RTVSPost2010Prop46
 90
       50
102
RTVSPost2010PropOp46
 70
     1
102
RTVSPost2010Prop47
 90
       50
102
RTVSPost2010PropOp47
 70
     1
102
RTVSPost2010Prop48
 90
       50
102
RTVSPost2010PropOp48
 70
     1
102
RTVSPost2010Prop49
280
     0
102
RTVSPost2010PropOp49
 70
     1
102
RTVSPost2010Prop50
 90
       50
102
RTVSPost2010PropOp50
 70
     1
102
RTVSPost2010Prop51ColorIndex
 90
      256
102
RTVSPost2010Prop51ColorRGB
 90
-16777216
102
RTVSPost2010PropOp51
 70
     0
102
RTVSPost2010Prop52
140
1.0
102
RTVSPost2010PropOp52
 70
     0
102
RTVSPost2010Prop53
 90
        2
102
RTVSPost2010PropOp53
 70
     1
102
RTVSPost2010Prop54
  1
strokes_ogs.tif
102
RTVSPost2010PropOp54
 70
     1
102
RTVSPost2010Prop55
280
     0
102
RTVSPost2010PropOp55
 70
     1
102
RTVSPost2010Prop56
140
1.0
102
RTVSPost2010PropOp56
 70
     1
102
RTVSPost2010Prop57
140
1.0
102
RTVSPost2010PropOp57
 70
     1
  0
XRECORD
  5
203
102
{ACAD_REACTORS
330
202
102
}
330
202
100
AcDbXrecord
280
     1
102
RTVSPropertyOp0
 70
     0
102
RTVSPropertyOp1
 70
     0
102
RTVSPropertyOp2
 70
     0
102
RTVSPropertyOp3
 70
     0
102
RTVSPropertyOp4
 70
     0
102
RTVSPropertyOp5
 70
     0
102
RTVSPropertyOp6
 70
     0
102
RTVSPropertyOp7
 70
     0
102
RTVSPropertyOp8
 70
     0
102
RTVSPropertyOp9
 70
     0
102
RTVSPropertyOp10
 70
     0
102
RTVSPropertyOp11
 70
     0
102
RTVSPropertyOp12
 70
     0
102
RTVSPropertyOp13
 70
     0
102
RTVSPropertyOp14
 70
     2
102
RTVSPropertyOp15
 70
     0
102
RTVSPropertyOp16
 70
     0
102
RTVSPropertyOp17
 70
     0
102
RTVSPropertyOp18
 70
     0
102
RTVSPropertyOp19
 70
     0
102
RTVSPropertyOp20
 70
     0
102
RTVSPropertyOp21
 70
     0
102
RTVSPropertyOp22
 70
     0
102
RTVSPropertyOp23
 70
     0
102
RTVSPropertyOp24
 70
     0
102
RTVSPropertyOp25
 70
     0
102
RTVSPropertyOp26
 70
     0
102
RTVSPropertyOp27
 70
     0
102
RTVSPropertyOp28
 70
     0
102
RTVSPropertyOp29
 70
     0
102
RTVSPropertyOp30
 70
     0
102
RTVSPropertyOp31
 70
     0
102
RTVSPropertyOp32
 70
     0
102
RTVSPropertyOp33
 70
     0
102
RTVSPropertyOp34
 70
     0
102
RTVSPropertyOp35
 70
     0
102
RTVSPropertyOp36
 70
     0
102
RTVSPropertyOp37
 70
     0
102
RTVSPropertyOp38
 70
     0
102
RTVSPropertyOp39
 70
     0
102
RTVSPropertyOp40
 70
     0
102
RTVSPropertyOp41
 70
     0
102
RTVSPropertyOp42
 70
     0
102
RTVSPropertyOp43
 70
     0
102
RTVSPropertyOp44
 70
     0
102
RTVSPropertyOp45
 70
     0
102
RTVSPropertyOp46
 70
     0
102
RTVSPropertyOp47
 70
     0
102
RTVSPropertyOp48
 70
     0
102
RTVSPropertyOp49
 70
     0
102
RTVSPropertyOp50
 70
     0
102
RTVSPropertyOp51
 70
     0
102
RTVSPropertyOp52
 70
     0
102
RTVSPropertyOp53
 70
     0
102
RTVSPropertyOp54
 70
     0
102
RTVSPropertyOp55
 70
     0
102
RTVSPropertyOp56
 70
     0
102
RTVSPropertyOp57
 70
     0
102
RTVSPost2010Prop28
280
     0
102
RTVSPost2010PropOp28
 70
     0
102
RTVSPost2010Prop29
280
     1
102
RTVSPost2010PropOp29
 70
     0
102
RTVSPost2010Prop30
280
     1
102
RTVSPost2010PropOp30
 70
     0
102
RTVSPost2010Prop31
280
     0
102
RTVSPost2010PropOp31
 70
     0
102
RTVSPost2010Prop32
280
     0
102
RTVSPost2010PropOp32
 70
     0
102
RTVSPost2010Prop33
280
     0
102
RTVSPost2010PropOp33
 70
     0
102
RTVSPost2010Prop34
280
     0
102
RTVSPost2010PropOp34
 70
     0
102
RTVSPost2010Prop35
280
     0
102
RTVSPost2010PropOp35
 70
     0
102
RTVSPost2010Prop36
280
     0
102
RTVSPost2010PropOp36
 70
     0
102
RTVSPost2010Prop37
 90
       50
102
RTVSPost2010PropOp37
 70
     0
102
RTVSPost2010Prop38
140
0.0
102
RTVSPost2010PropOp38
 70
     0
102
RTVSPost2010Prop39
140
1.0
102
RTVSPost2010PropOp39
 70
     0
102
RTVSPost2010Prop40
 90
        0
102
RTVSPost2010PropOp40
 70
     0
102
RTVSPost2010Prop41ColorIndex
 90
       18
102
RTVSPost2010Prop41ColorRGB
 90
        0
102
RTVSPost2010PropOp41
 70
     0
102
RTVSPost2010Prop42
 90
       50
102
RTVSPost2010PropOp42
 70
     0
102
RTVSPost2010Prop43
 90
        3
102
RTVSPost2010PropOp43
 70
     0
102
RTVSPost2010Prop44ColorIndex
 90
        5
102
RTVSPost2010Prop44ColorRGB
 90
      255
102
RTVSPost2010PropOp44
 70
     0
102
RTVSPost2010Prop45
280
     0
102
RTVSPost2010PropOp45
 70
     0
102
RTVSPost2010Prop46
 90
       50
102
RTVSPost2010PropOp46
 70
     0
102
RTVSPost2010Prop47
 90
       50
102
RTVSPost2010PropOp47
 70
     0
102
RTVSPost2010Prop48
 90
       50
102
RTVSPost2010PropOp48
 70
     0
102
RTVSPost2010Prop49
280
     0
102
RTVSPost2010PropOp49
 70
     0
102
RTVSPost2010Prop50
 90
       50
102
RTVSPost2010PropOp50
 70
     0
102
RTVSPost2010Prop51ColorIndex
 90
      256
102
RTVSPost2010Prop51ColorRGB
 90
-16777216
102
RTVSPost2010PropOp51
 70
     0
102
RTVSPost2010Prop52
140
1.0
102
RTVSPost2010PropOp52
 70
     0
102
RTVSPost2010Prop53
 90
        2
102
RTVSPost2010PropOp53
 70
     0
102
RTVSPost2010Prop54
  1
strokes_ogs.tif
102
RTVSPost2010PropOp54
 70
     0
102
RTVSPost2010Prop55
280
     0
102
RTVSPost2010PropOp55
 70
     0
102
RTVSPost2010Prop56
140
1.0
102
RTVSPost2010PropOp56
 70
     0
102
RTVSPost2010Prop57
140
1.0
102
RTVSPost2010PropOp57
 70
     0
  0
XRECORD
  5
1F1
102
{ACAD_REACTORS
330
1F0
102
}
330
1F0
100
AcDbXrecord
280
     1
102
RTVSPropertyOp0
 70
     1
102
RTVSPropertyOp1
 70
     1
102
RTVSPropertyOp2
 70
     1
102
RTVSPropertyOp3
 70
     1
102
RTVSPropertyOp4
 70
     1
102
RTVSPropertyOp5
 70
     1
102
RTVSPropertyOp6
 70
     1
102
RTVSPropertyOp7
 70
     1
102
RTVSPropertyOp8
 70
     1
102
RTVSPropertyOp9
 70
     1
102
RTVSPropertyOp10
 70
     1
102
RTVSPropertyOp11
 70
     1
102
RTVSPropertyOp12
 70
     1
102
RTVSPropertyOp13
 70
     1
102
RTVSPropertyOp14
 70
     1
102
RTVSPropertyOp15
 70
     1
102
RTVSPropertyOp16
 70
     1
102
RTVSPropertyOp17
 70
     1
102
RTVSPropertyOp18
 70
     1
102
RTVSPropertyOp19
 70
     1
102
RTVSPropertyOp20
 70
     1
102
RTVSPropertyOp21
 70
     1
102
RTVSPropertyOp22
 70
     1
102
RTVSPropertyOp23
 70
     1
102
RTVSPropertyOp24
 70
     1
102
RTVSPropertyOp25
 70
     1
102
RTVSPropertyOp26
 70
     1
102
RTVSPropertyOp27
 70
     1
102
RTVSPropertyOp28
 70
     1
102
RTVSPropertyOp29
 70
     1
102
RTVSPropertyOp30
 70
     1
102
RTVSPropertyOp31
 70
     1
102
RTVSPropertyOp32
 70
     1
102
RTVSPropertyOp33
 70
     1
102
RTVSPropertyOp34
 70
     1
102
RTVSPropertyOp35
 70
     1
102
RTVSPropertyOp36
 70
     1
102
RTVSPropertyOp37
 70
     1
102
RTVSPropertyOp38
 70
     1
102
RTVSPropertyOp39
 70
     1
102
RTVSPropertyOp40
 70
     1
102
RTVSPropertyOp41
 70
     1
102
RTVSPropertyOp42
 70
     1
102
RTVSPropertyOp43
 70
     1
102
RTVSPropertyOp44
 70
     1
102
RTVSPropertyOp45
 70
     1
102
RTVSPropertyOp46
 70
     1
102
RTVSPropertyOp47
 70
     1
102
RTVSPropertyOp48
 70
     1
102
RTVSPropertyOp49
 70
     1
102
RTVSPropertyOp50
 70
     1
102
RTVSPropertyOp51
 70
     0
102
RTVSPropertyOp52
 70
     0
102
RTVSPropertyOp53
 70
     1
102
RTVSPropertyOp54
 70
     1
102
RTVSPropertyOp55
 70
     1
102
RTVSPropertyOp56
 70
     1
102
RTVSPropertyOp57
 70
     1
102
RTVSPost2010Prop28
280
     0
102
RTVSPost2010PropOp28
 70
     1
102
RTVSPost2010Prop29
280
     1
102
RTVSPost2010PropOp29
 70
     1
102
RTVSPost2010Prop30
280
     1
102
RTVSPost2010PropOp30
 70
     1
102
RTVSPost2010Prop31
280
     0
102
RTVSPost2010PropOp31
 70
     1
102
RTVSPost2010Prop32
280
     0
102
RTVSPost2010PropOp32
 70
     1
102
RTVSPost2010Prop33
280
     0
102
RTVSPost2010PropOp33
 70
     1
102
RTVSPost2010Prop34
280
     0
102
RTVSPost2010PropOp34
 70
     1
102
RTVSPost2010Prop35
280
     0
102
RTVSPost2010PropOp35
 70
     1
102
RTVSPost2010Prop36
280
     0
102
RTVSPost2010PropOp36
 70
     1
102
RTVSPost2010Prop37
 90
       50
102
RTVSPost2010PropOp37
 70
     1
102
RTVSPost2010Prop38
140
0.0
102
RTVSPost2010PropOp38
 70
     1
102
RTVSPost2010Prop39
140
1.0
102
RTVSPost2010PropOp39
 70
     1
102
RTVSPost2010Prop40
 90
        0
102
RTVSPost2010PropOp40
 70
     1
102
RTVSPost2010Prop41ColorIndex
 90
       18
102
RTVSPost2010Prop41ColorRGB
 90
        0
102
RTVSPost2010PropOp41
 70
     1
102
RTVSPost2010Prop42
 90
       50
102
RTVSPost2010PropOp42
 70
     1
102
RTVSPost2010Prop43
 90
        3
102
RTVSPost2010PropOp43
 70
     1
102
RTVSPost2010Prop44ColorIndex
 90
        5
102
RTVSPost2010Prop44ColorRGB
 90
      255
102
RTVSPost2010PropOp44
 70
     1
102
RTVSPost2010Prop45
280
     0
102
RTVSPost2010PropOp45
 70
     1
102
RTVSPost2010Prop46
 90
       50
102
RTVSPost2010PropOp46
 70
     1
102
RTVSPost2010Prop47
 90
       50
102
RTVSPost2010PropOp47
 70
     1
102
RTVSPost2010Prop48
 90
       50
102
RTVSPost2010PropOp48
 70
     1
102
RTVSPost2010Prop49
280
     0
102
RTVSPost2010PropOp49
 70
     1
102
RTVSPost2010Prop50
 90
       50
102
RTVSPost2010PropOp50
 70
     1
102
RTVSPost2010Prop51ColorIndex
 90
      256
102
RTVSPost2010Prop51ColorRGB
 90
-16777216
102
RTVSPost2010PropOp51
 70
     0
102
RTVSPost2010Prop52
140
1.0
102
RTVSPost2010PropOp52
 70
     0
102
RTVSPost2010Prop53
 90
        2
102
RTVSPost2010PropOp53
 70
     1
102
RTVSPost2010Prop54
  1
strokes_ogs.tif
102
RTVSPost2010PropOp54
 70
     1
102
RTVSPost2010Prop55
280
     0
102
RTVSPost2010PropOp55
 70
     1
102
RTVSPost2010Prop56
140
1.0
102
RTVSPost2010PropOp56
 70
     1
102
RTVSPost2010Prop57
140
1.0
102
RTVSPost2010PropOp57
 70
     1
  0
XRECORD
  5
20F
102
{ACAD_REACTORS
330
20E
102
}
330
20E
100
AcDbXrecord
280
     1
102
RTVSPropertyOp0
 70
     1
102
RTVSPropertyOp1
 70
     1
102
RTVSPropertyOp2
 70
     1
102
RTVSPropertyOp3
 70
     1
102
RTVSPropertyOp4
 70
     1
102
RTVSPropertyOp5
 70
     1
102
RTVSPropertyOp6
 70
     1
102
RTVSPropertyOp7
 70
     1
102
RTVSPropertyOp8
 70
     1
102
RTVSPropertyOp9
 70
     1
102
RTVSPropertyOp10
 70
     1
102
RTVSPropertyOp11
 70
     1
102
RTVSPropertyOp12
 70
     1
102
RTVSPropertyOp13
 70
     1
102
RTVSPropertyOp14
 70
     1
102
RTVSPropertyOp15
 70
     1
102
RTVSPropertyOp16
 70
     1
102
RTVSPropertyOp17
 70
     1
102
RTVSPropertyOp18
 70
     1
102
RTVSPropertyOp19
 70
     1
102
RTVSPropertyOp20
 70
     1
102
RTVSPropertyOp21
 70
     1
102
RTVSPropertyOp22
 70
     1
102
RTVSPropertyOp23
 70
     1
102
RTVSPropertyOp24
 70
     1
102
RTVSPropertyOp25
 70
     1
102
RTVSPropertyOp26
 70
     1
102
RTVSPropertyOp27
 70
     1
102
RTVSPropertyOp28
 70
     1
102
RTVSPropertyOp29
 70
     1
102
RTVSPropertyOp30
 70
     1
102
RTVSPropertyOp31
 70
     1
102
RTVSPropertyOp32
 70
     1
102
RTVSPropertyOp33
 70
     1
102
RTVSPropertyOp34
 70
     1
102
RTVSPropertyOp35
 70
     1
102
RTVSPropertyOp36
 70
     1
102
RTVSPropertyOp37
 70
     1
102
RTVSPropertyOp38
 70
     1
102
RTVSPropertyOp39
 70
     1
102
RTVSPropertyOp40
 70
     1
102
RTVSPropertyOp41
 70
     1
102
RTVSPropertyOp42
 70
     1
102
RTVSPropertyOp43
 70
     1
102
RTVSPropertyOp44
 70
     1
102
RTVSPropertyOp45
 70
     1
102
RTVSPropertyOp46
 70
     1
102
RTVSPropertyOp47
 70
     1
102
RTVSPropertyOp48
 70
     1
102
RTVSPropertyOp49
 70
     1
102
RTVSPropertyOp50
 70
     1
102
RTVSPropertyOp51
 70
     0
102
RTVSPropertyOp52
 70
     0
102
RTVSPropertyOp53
 70
     1
102
RTVSPropertyOp54
 70
     1
102
RTVSPropertyOp55
 70
     1
102
RTVSPropertyOp56
 70
     1
102
RTVSPropertyOp57
 70
     1
102
RTVSPost2010Prop28
280
     0
102
RTVSPost2010PropOp28
 70
     1
102
RTVSPost2010Prop29
280
     1
102
RTVSPost2010PropOp29
 70
     1
102
RTVSPost2010Prop30
280
     1
102
RTVSPost2010PropOp30
 70
     1
102
RTVSPost2010Prop31
280
     0
102
RTVSPost2010PropOp31
 70
     1
102
RTVSPost2010Prop32
280
     0
102
RTVSPost2010PropOp32
 70
     1
102
RTVSPost2010Prop33
280
     0
102
RTVSPost2010PropOp33
 70
     1
102
RTVSPost2010Prop34
280
     0
102
RTVSPost2010PropOp34
 70
     1
102
RTVSPost2010Prop35
280
     0
102
RTVSPost2010PropOp35
 70
     1
102
RTVSPost2010Prop36
280
     0
102
RTVSPost2010PropOp36
 70
     1
102
RTVSPost2010Prop37
 90
       50
102
RTVSPost2010PropOp37
 70
     1
102
RTVSPost2010Prop38
140
0.0
102
RTVSPost2010PropOp38
 70
     1
102
RTVSPost2010Prop39
140
1.0
102
RTVSPost2010PropOp39
 70
     1
102
RTVSPost2010Prop40
 90
        0
102
RTVSPost2010PropOp40
 70
     1
102
RTVSPost2010Prop41ColorIndex
 90
       18
102
RTVSPost2010Prop41ColorRGB
 90
        0
102
RTVSPost2010PropOp41
 70
     1
102
RTVSPost2010Prop42
 90
       50
102
RTVSPost2010PropOp42
 70
     1
102
RTVSPost2010Prop43
 90
        3
102
RTVSPost2010PropOp43
 70
     1
102
RTVSPost2010Prop44ColorIndex
 90
        5
102
RTVSPost2010Prop44ColorRGB
 90
      255
102
RTVSPost2010PropOp44
 70
     1
102
RTVSPost2010Prop45
280
     0
102
RTVSPost2010PropOp45
 70
     1
102
RTVSPost2010Prop46
 90
       50
102
RTVSPost2010PropOp46
 70
     1
102
RTVSPost2010Prop47
 90
       50
102
RTVSPost2010PropOp47
 70
     1
102
RTVSPost2010Prop48
 90
       50
102
RTVSPost2010PropOp48
 70
     1
102
RTVSPost2010Prop49
280
     0
102
RTVSPost2010PropOp49
 70
     1
102
RTVSPost2010Prop50
 90
       50
102
RTVSPost2010PropOp50
 70
     1
102
RTVSPost2010Prop51ColorIndex
 90
      256
102
RTVSPost2010Prop51ColorRGB
 90
-16777216
102
RTVSPost2010PropOp51
 70
     0
102
RTVSPost2010Prop52
140
1.0
102
RTVSPost2010PropOp52
 70
     0
102
RTVSPost2010Prop53
 90
        2
102
RTVSPost2010PropOp53
 70
     1
102
RTVSPost2010Prop54
  1
strokes_ogs.tif
102
RTVSPost2010PropOp54
 70
     1
102
RTVSPost2010Prop55
280
     0
102
RTVSPost2010PropOp55
 70
     1
102
RTVSPost2010Prop56
140
1.0
102
RTVSPost2010PropOp56
 70
     1
102
RTVSPost2010Prop57
140
1.0
102
RTVSPost2010PropOp57
 70
     1
  0
XRECORD
  5
20D
102
{ACAD_REACTORS
330
20C
102
}
330
20C
100
AcDbXrecord
280
     1
102
RTVSPropertyOp0
 70
     1
102
RTVSPropertyOp1
 70
     1
102
RTVSPropertyOp2
 70
     1
102
RTVSPropertyOp3
 70
     1
102
RTVSPropertyOp4
 70
     1
102
RTVSPropertyOp5
 70
     1
102
RTVSPropertyOp6
 70
     1
102
RTVSPropertyOp7
 70
     1
102
RTVSPropertyOp8
 70
     1
102
RTVSPropertyOp9
 70
     1
102
RTVSPropertyOp10
 70
     1
102
RTVSPropertyOp11
 70
     1
102
RTVSPropertyOp12
 70
     1
102
RTVSPropertyOp13
 70
     1
102
RTVSPropertyOp14
 70
     1
102
RTVSPropertyOp15
 70
     1
102
RTVSPropertyOp16
 70
     1
102
RTVSPropertyOp17
 70
     1
102
RTVSPropertyOp18
 70
     1
102
RTVSPropertyOp19
 70
     1
102
RTVSPropertyOp20
 70
     1
102
RTVSPropertyOp21
 70
     1
102
RTVSPropertyOp22
 70
     1
102
RTVSPropertyOp23
 70
     1
102
RTVSPropertyOp24
 70
     1
102
RTVSPropertyOp25
 70
     1
102
RTVSPropertyOp26
 70
     1
102
RTVSPropertyOp27
 70
     1
102
RTVSPropertyOp28
 70
     1
102
RTVSPropertyOp29
 70
     1
102
RTVSPropertyOp30
 70
     1
102
RTVSPropertyOp31
 70
     1
102
RTVSPropertyOp32
 70
     1
102
RTVSPropertyOp33
 70
     1
102
RTVSPropertyOp34
 70
     1
102
RTVSPropertyOp35
 70
     1
102
RTVSPropertyOp36
 70
     1
102
RTVSPropertyOp37
 70
     1
102
RTVSPropertyOp38
 70
     1
102
RTVSPropertyOp39
 70
     1
102
RTVSPropertyOp40
 70
     1
102
RTVSPropertyOp41
 70
     1
102
RTVSPropertyOp42
 70
     1
102
RTVSPropertyOp43
 70
     1
102
RTVSPropertyOp44
 70
     1
102
RTVSPropertyOp45
 70
     1
102
RTVSPropertyOp46
 70
     1
102
RTVSPropertyOp47
 70
     1
102
RTVSPropertyOp48
 70
     1
102
RTVSPropertyOp49
 70
     1
102
RTVSPropertyOp50
 70
     1
102
RTVSPropertyOp51
 70
     0
102
RTVSPropertyOp52
 70
     0
102
RTVSPropertyOp53
 70
     1
102
RTVSPropertyOp54
 70
     1
102
RTVSPropertyOp55
 70
     1
102
RTVSPropertyOp56
 70
     1
102
RTVSPropertyOp57
 70
     1
102
RTVSPost2010Prop28
280
     0
102
RTVSPost2010PropOp28
 70
     1
102
RTVSPost2010Prop29
280
     1
102
RTVSPost2010PropOp29
 70
     1
102
RTVSPost2010Prop30
280
     1
102
RTVSPost2010PropOp30
 70
     1
102
RTVSPost2010Prop31
280
     0
102
RTVSPost2010PropOp31
 70
     1
102
RTVSPost2010Prop32
280
     0
102
RTVSPost2010PropOp32
 70
     1
102
RTVSPost2010Prop33
280
     0
102
RTVSPost2010PropOp33
 70
     1
102
RTVSPost2010Prop34
280
     0
102
RTVSPost2010PropOp34
 70
     1
102
RTVSPost2010Prop35
280
     0
102
RTVSPost2010PropOp35
 70
     1
102
RTVSPost2010Prop36
280
     0
102
RTVSPost2010PropOp36
 70
     1
102
RTVSPost2010Prop37
 90
       50
102
RTVSPost2010PropOp37
 70
     1
102
RTVSPost2010Prop38
140
0.0
102
RTVSPost2010PropOp38
 70
     1
102
RTVSPost2010Prop39
140
1.0
102
RTVSPost2010PropOp39
 70
     1
102
RTVSPost2010Prop40
 90
        0
102
RTVSPost2010PropOp40
 70
     1
102
RTVSPost2010Prop41ColorIndex
 90
       18
102
RTVSPost2010Prop41ColorRGB
 90
        0
102
RTVSPost2010PropOp41
 70
     1
102
RTVSPost2010Prop42
 90
       50
102
RTVSPost2010PropOp42
 70
     1
102
RTVSPost2010Prop43
 90
        3
102
RTVSPost2010PropOp43
 70
     1
102
RTVSPost2010Prop44ColorIndex
 90
        5
102
RTVSPost2010Prop44ColorRGB
 90
      255
102
RTVSPost2010PropOp44
 70
     1
102
RTVSPost2010Prop45
280
     0
102
RTVSPost2010PropOp45
 70
     1
102
RTVSPost2010Prop46
 90
       50
102
RTVSPost2010PropOp46
 70
     1
102
RTVSPost2010Prop47
 90
       50
102
RTVSPost2010PropOp47
 70
     1
102
RTVSPost2010Prop48
 90
       50
102
RTVSPost2010PropOp48
 70
     1
102
RTVSPost2010Prop49
280
     0
102
RTVSPost2010PropOp49
 70
     1
102
RTVSPost2010Prop50
 90
       50
102
RTVSPost2010PropOp50
 70
     1
102
RTVSPost2010Prop51ColorIndex
 90
      256
102
RTVSPost2010Prop51ColorRGB
 90
-16777216
102
RTVSPost2010PropOp51
 70
     0
102
RTVSPost2010Prop52
140
1.0
102
RTVSPost2010PropOp52
 70
     0
102
RTVSPost2010Prop53
 90
        2
102
RTVSPost2010PropOp53
 70
     1
102
RTVSPost2010Prop54
  1
strokes_ogs.tif
102
RTVSPost2010PropOp54
 70
     1
102
RTVSPost2010Prop55
280
     0
102
RTVSPost2010PropOp55
 70
     1
102
RTVSPost2010Prop56
140
1.0
102
RTVSPost2010PropOp56
 70
     1
102
RTVSPost2010Prop57
140
1.0
102
RTVSPost2010PropOp57
 70
     1
  0
XRECORD
  5
207
102
{ACAD_REACTORS
330
206
102
}
330
206
100
AcDbXrecord
280
     1
102
RTVSPropertyOp0
 70
     1
102
RTVSPropertyOp1
 70
     1
102
RTVSPropertyOp2
 70
     1
102
RTVSPropertyOp3
 70
     1
102
RTVSPropertyOp4
 70
     1
102
RTVSPropertyOp5
 70
     1
102
RTVSPropertyOp6
 70
     1
102
RTVSPropertyOp7
 70
     1
102
RTVSPropertyOp8
 70
     1
102
RTVSPropertyOp9
 70
     1
102
RTVSPropertyOp10
 70
     1
102
RTVSPropertyOp11
 70
     1
102
RTVSPropertyOp12
 70
     1
102
RTVSPropertyOp13
 70
     1
102
RTVSPropertyOp14
 70
     1
102
RTVSPropertyOp15
 70
     1
102
RTVSPropertyOp16
 70
     1
102
RTVSPropertyOp17
 70
     1
102
RTVSPropertyOp18
 70
     1
102
RTVSPropertyOp19
 70
     1
102
RTVSPropertyOp20
 70
     1
102
RTVSPropertyOp21
 70
     1
102
RTVSPropertyOp22
 70
     1
102
RTVSPropertyOp23
 70
     1
102
RTVSPropertyOp24
 70
     1
102
RTVSPropertyOp25
 70
     1
102
RTVSPropertyOp26
 70
     1
102
RTVSPropertyOp27
 70
     1
102
RTVSPropertyOp28
 70
     1
102
RTVSPropertyOp29
 70
     1
102
RTVSPropertyOp30
 70
     1
102
RTVSPropertyOp31
 70
     1
102
RTVSPropertyOp32
 70
     1
102
RTVSPropertyOp33
 70
     1
102
RTVSPropertyOp34
 70
     1
102
RTVSPropertyOp35
 70
     1
102
RTVSPropertyOp36
 70
     1
102
RTVSPropertyOp37
 70
     1
102
RTVSPropertyOp38
 70
     1
102
RTVSPropertyOp39
 70
     1
102
RTVSPropertyOp40
 70
     1
102
RTVSPropertyOp41
 70
     1
102
RTVSPropertyOp42
 70
     1
102
RTVSPropertyOp43
 70
     1
102
RTVSPropertyOp44
 70
     1
102
RTVSPropertyOp45
 70
     1
102
RTVSPropertyOp46
 70
     1
102
RTVSPropertyOp47
 70
     1
102
RTVSPropertyOp48
 70
     1
102
RTVSPropertyOp49
 70
     1
102
RTVSPropertyOp50
 70
     1
102
RTVSPropertyOp51
 70
     0
102
RTVSPropertyOp52
 70
     0
102
RTVSPropertyOp53
 70
     1
102
RTVSPropertyOp54
 70
     1
102
RTVSPropertyOp55
 70
     1
102
RTVSPropertyOp56
 70
     1
102
RTVSPropertyOp57
 70
     1
102
RTVSPost2010Prop28
280
     0
102
RTVSPost2010PropOp28
 70
     1
102
RTVSPost2010Prop29
280
     1
102
RTVSPost2010PropOp29
 70
     1
102
RTVSPost2010Prop30
280
     1
102
RTVSPost2010PropOp30
 70
     1
102
RTVSPost2010Prop31
280
     0
102
RTVSPost2010PropOp31
 70
     1
102
RTVSPost2010Prop32
280
     0
102
RTVSPost2010PropOp32
 70
     1
102
RTVSPost2010Prop33
280
     0
102
RTVSPost2010PropOp33
 70
     1
102
RTVSPost2010Prop34
280
     0
102
RTVSPost2010PropOp34
 70
     1
102
RTVSPost2010Prop35
280
     0
102
RTVSPost2010PropOp35
 70
     1
102
RTVSPost2010Prop36
280
     0
102
RTVSPost2010PropOp36
 70
     1
102
RTVSPost2010Prop37
 90
       50
102
RTVSPost2010PropOp37
 70
     1
102
RTVSPost2010Prop38
140
0.0
102
RTVSPost2010PropOp38
 70
     1
102
RTVSPost2010Prop39
140
1.0
102
RTVSPost2010PropOp39
 70
     1
102
RTVSPost2010Prop40
 90
        0
102
RTVSPost2010PropOp40
 70
     1
102
RTVSPost2010Prop41ColorIndex
 90
       18
102
RTVSPost2010Prop41ColorRGB
 90
        0
102
RTVSPost2010PropOp41
 70
     1
102
RTVSPost2010Prop42
 90
       50
102
RTVSPost2010PropOp42
 70
     1
102
RTVSPost2010Prop43
 90
        3
102
RTVSPost2010PropOp43
 70
     1
102
RTVSPost2010Prop44ColorIndex
 90
        5
102
RTVSPost2010Prop44ColorRGB
 90
      255
102
RTVSPost2010PropOp44
 70
     1
102
RTVSPost2010Prop45
280
     0
102
RTVSPost2010PropOp45
 70
     1
102
RTVSPost2010Prop46
 90
       50
102
RTVSPost2010PropOp46
 70
     1
102
RTVSPost2010Prop47
 90
       50
102
RTVSPost2010PropOp47
 70
     1
102
RTVSPost2010Prop48
 90
       50
102
RTVSPost2010PropOp48
 70
     1
102
RTVSPost2010Prop49
280
     0
102
RTVSPost2010PropOp49
 70
     1
102
RTVSPost2010Prop50
 90
       50
102
RTVSPost2010PropOp50
 70
     1
102
RTVSPost2010Prop51ColorIndex
 90
      256
102
RTVSPost2010Prop51ColorRGB
 90
-16777216
102
RTVSPost2010PropOp51
 70
     0
102
RTVSPost2010Prop52
140
1.0
102
RTVSPost2010PropOp52
 70
     0
102
RTVSPost2010Prop53
 90
        2
102
RTVSPost2010PropOp53
 70
     1
102
RTVSPost2010Prop54
  1
strokes_ogs.tif
102
RTVSPost2010PropOp54
 70
     1
102
RTVSPost2010Prop55
280
     0
102
RTVSPost2010PropOp55
 70
     1
102
RTVSPost2010Prop56
140
1.0
102
RTVSPost2010PropOp56
 70
     1
102
RTVSPost2010Prop57
140
1.0
102
RTVSPost2010PropOp57
 70
     1
  0
XRECORD
  5
209
102
{ACAD_REACTORS
330
208
102
}
330
208
100
AcDbXrecord
280
     1
102
RTVSPropertyOp0
 70
     1
102
RTVSPropertyOp1
 70
     1
102
RTVSPropertyOp2
 70
     1
102
RTVSPropertyOp3
 70
     1
102
RTVSPropertyOp4
 70
     1
102
RTVSPropertyOp5
 70
     1
102
RTVSPropertyOp6
 70
     1
102
RTVSPropertyOp7
 70
     1
102
RTVSPropertyOp8
 70
     1
102
RTVSPropertyOp9
 70
     1
102
RTVSPropertyOp10
 70
     1
102
RTVSPropertyOp11
 70
     1
102
RTVSPropertyOp12
 70
     1
102
RTVSPropertyOp13
 70
     1
102
RTVSPropertyOp14
 70
     1
102
RTVSPropertyOp15
 70
     1
102
RTVSPropertyOp16
 70
     1
102
RTVSPropertyOp17
 70
     1
102
RTVSPropertyOp18
 70
     1
102
RTVSPropertyOp19
 70
     1
102
RTVSPropertyOp20
 70
     1
102
RTVSPropertyOp21
 70
     1
102
RTVSPropertyOp22
 70
     1
102
RTVSPropertyOp23
 70
     1
102
RTVSPropertyOp24
 70
     1
102
RTVSPropertyOp25
 70
     1
102
RTVSPropertyOp26
 70
     1
102
RTVSPropertyOp27
 70
     1
102
RTVSPropertyOp28
 70
     1
102
RTVSPropertyOp29
 70
     1
102
RTVSPropertyOp30
 70
     1
102
RTVSPropertyOp31
 70
     1
102
RTVSPropertyOp32
 70
     1
102
RTVSPropertyOp33
 70
     1
102
RTVSPropertyOp34
 70
     1
102
RTVSPropertyOp35
 70
     1
102
RTVSPropertyOp36
 70
     1
102
RTVSPropertyOp37
 70
     1
102
RTVSPropertyOp38
 70
     1
102
RTVSPropertyOp39
 70
     1
102
RTVSPropertyOp40
 70
     1
102
RTVSPropertyOp41
 70
     1
102
RTVSPropertyOp42
 70
     1
102
RTVSPropertyOp43
 70
     1
102
RTVSPropertyOp44
 70
     1
102
RTVSPropertyOp45
 70
     1
102
RTVSPropertyOp46
 70
     1
102
RTVSPropertyOp47
 70
     1
102
RTVSPropertyOp48
 70
     1
102
RTVSPropertyOp49
 70
     1
102
RTVSPropertyOp50
 70
     1
102
RTVSPropertyOp51
 70
     0
102
RTVSPropertyOp52
 70
     0
102
RTVSPropertyOp53
 70
     1
102
RTVSPropertyOp54
 70
     1
102
RTVSPropertyOp55
 70
     1
102
RTVSPropertyOp56
 70
     1
102
RTVSPropertyOp57
 70
     1
102
RTVSPost2010Prop28
280
     0
102
RTVSPost2010PropOp28
 70
     1
102
RTVSPost2010Prop29
280
     1
102
RTVSPost2010PropOp29
 70
     1
102
RTVSPost2010Prop30
280
     1
102
RTVSPost2010PropOp30
 70
     1
102
RTVSPost2010Prop31
280
     0
102
RTVSPost2010PropOp31
 70
     1
102
RTVSPost2010Prop32
280
     0
102
RTVSPost2010PropOp32
 70
     1
102
RTVSPost2010Prop33
280
     0
102
RTVSPost2010PropOp33
 70
     1
102
RTVSPost2010Prop34
280
     0
102
RTVSPost2010PropOp34
 70
     1
102
RTVSPost2010Prop35
280
     0
102
RTVSPost2010PropOp35
 70
     1
102
RTVSPost2010Prop36
280
     0
102
RTVSPost2010PropOp36
 70
     1
102
RTVSPost2010Prop37
 90
       50
102
RTVSPost2010PropOp37
 70
     1
102
RTVSPost2010Prop38
140
0.0
102
RTVSPost2010PropOp38
 70
     1
102
RTVSPost2010Prop39
140
1.0
102
RTVSPost2010PropOp39
 70
     1
102
RTVSPost2010Prop40
 90
        0
102
RTVSPost2010PropOp40
 70
     1
102
RTVSPost2010Prop41ColorIndex
 90
       18
102
RTVSPost2010Prop41ColorRGB
 90
        0
102
RTVSPost2010PropOp41
 70
     1
102
RTVSPost2010Prop42
 90
       50
102
RTVSPost2010PropOp42
 70
     1
102
RTVSPost2010Prop43
 90
        3
102
RTVSPost2010PropOp43
 70
     1
102
RTVSPost2010Prop44ColorIndex
 90
        5
102
RTVSPost2010Prop44ColorRGB
 90
      255
102
RTVSPost2010PropOp44
 70
     1
102
RTVSPost2010Prop45
280
     0
102
RTVSPost2010PropOp45
 70
     1
102
RTVSPost2010Prop46
 90
       50
102
RTVSPost2010PropOp46
 70
     1
102
RTVSPost2010Prop47
 90
       50
102
RTVSPost2010PropOp47
 70
     1
102
RTVSPost2010Prop48
 90
       50
102
RTVSPost2010PropOp48
 70
     1
102
RTVSPost2010Prop49
280
     0
102
RTVSPost2010PropOp49
 70
     1
102
RTVSPost2010Prop50
 90
       50
102
RTVSPost2010PropOp50
 70
     1
102
RTVSPost2010Prop51ColorIndex
 90
      256
102
RTVSPost2010Prop51ColorRGB
 90
-16777216
102
RTVSPost2010PropOp51
 70
     0
102
RTVSPost2010Prop52
140
1.0
102
RTVSPost2010PropOp52
 70
     0
102
RTVSPost2010Prop53
 90
        2
102
RTVSPost2010PropOp53
 70
     1
102
RTVSPost2010Prop54
  1
strokes_ogs.tif
102
RTVSPost2010PropOp54
 70
     1
102
RTVSPost2010Prop55
280
     0
102
RTVSPost2010PropOp55
 70
     1
102
RTVSPost2010Prop56
140
1.0
102
RTVSPost2010PropOp56
 70
     1
102
RTVSPost2010Prop57
140
1.0
102
RTVSPost2010PropOp57
 70
     1
  0
XRECORD
  5
1F9
102
{ACAD_REACTORS
330
1F8
102
}
330
1F8
100
AcDbXrecord
280
     1
102
RTVSPropertyOp0
 70
     1
102
RTVSPropertyOp1
 70
     1
102
RTVSPropertyOp2
 70
     1
102
RTVSPropertyOp3
 70
     1
102
RTVSPropertyOp4
 70
     1
102
RTVSPropertyOp5
 70
     1
102
RTVSPropertyOp6
 70
     1
102
RTVSPropertyOp7
 70
     1
102
RTVSPropertyOp8
 70
     1
102
RTVSPropertyOp9
 70
     1
102
RTVSPropertyOp10
 70
     1
102
RTVSPropertyOp11
 70
     1
102
RTVSPropertyOp12
 70
     1
102
RTVSPropertyOp13
 70
     1
102
RTVSPropertyOp14
 70
     1
102
RTVSPropertyOp15
 70
     1
102
RTVSPropertyOp16
 70
     1
102
RTVSPropertyOp17
 70
     1
102
RTVSPropertyOp18
 70
     1
102
RTVSPropertyOp19
 70
     1
102
RTVSPropertyOp20
 70
     1
102
RTVSPropertyOp21
 70
     1
102
RTVSPropertyOp22
 70
     1
102
RTVSPropertyOp23
 70
     1
102
RTVSPropertyOp24
 70
     1
102
RTVSPropertyOp25
 70
     1
102
RTVSPropertyOp26
 70
     1
102
RTVSPropertyOp27
 70
     1
102
RTVSPropertyOp28
 70
     1
102
RTVSPropertyOp29
 70
     1
102
RTVSPropertyOp30
 70
     1
102
RTVSPropertyOp31
 70
     1
102
RTVSPropertyOp32
 70
     1
102
RTVSPropertyOp33
 70
     1
102
RTVSPropertyOp34
 70
     1
102
RTVSPropertyOp35
 70
     1
102
RTVSPropertyOp36
 70
     1
102
RTVSPropertyOp37
 70
     1
102
RTVSPropertyOp38
 70
     1
102
RTVSPropertyOp39
 70
     1
102
RTVSPropertyOp40
 70
     1
102
RTVSPropertyOp41
 70
     1
102
RTVSPropertyOp42
 70
     1
102
RTVSPropertyOp43
 70
     1
102
RTVSPropertyOp44
 70
     1
102
RTVSPropertyOp45
 70
     1
102
RTVSPropertyOp46
 70
     1
102
RTVSPropertyOp47
 70
     1
102
RTVSPropertyOp48
 70
     1
102
RTVSPropertyOp49
 70
     1
102
RTVSPropertyOp50
 70
     1
102
RTVSPropertyOp51
 70
     0
102
RTVSPropertyOp52
 70
     0
102
RTVSPropertyOp53
 70
     1
102
RTVSPropertyOp54
 70
     1
102
RTVSPropertyOp55
 70
     1
102
RTVSPropertyOp56
 70
     1
102
RTVSPropertyOp57
 70
     1
102
RTVSPost2010Prop28
280
     0
102
RTVSPost2010PropOp28
 70
     1
102
RTVSPost2010Prop29
280
     1
102
RTVSPost2010PropOp29
 70
     1
102
RTVSPost2010Prop30
280
     1
102
RTVSPost2010PropOp30
 70
     1
102
RTVSPost2010Prop31
280
     0
102
RTVSPost2010PropOp31
 70
     1
102
RTVSPost2010Prop32
280
     0
102
RTVSPost2010PropOp32
 70
     1
102
RTVSPost2010Prop33
280
     0
102
RTVSPost2010PropOp33
 70
     1
102
RTVSPost2010Prop34
280
     0
102
RTVSPost2010PropOp34
 70
     1
102
RTVSPost2010Prop35
280
     0
102
RTVSPost2010PropOp35
 70
     1
102
RTVSPost2010Prop36
280
     0
102
RTVSPost2010PropOp36
 70
     1
102
RTVSPost2010Prop37
 90
       50
102
RTVSPost2010PropOp37
 70
     1
102
RTVSPost2010Prop38
140
0.0
102
RTVSPost2010PropOp38
 70
     1
102
RTVSPost2010Prop39
140
1.0
102
RTVSPost2010PropOp39
 70
     1
102
RTVSPost2010Prop40
 90
        0
102
RTVSPost2010PropOp40
 70
     1
102
RTVSPost2010Prop41ColorIndex
 90
       18
102
RTVSPost2010Prop41ColorRGB
 90
        0
102
RTVSPost2010PropOp41
 70
     1
102
RTVSPost2010Prop42
 90
       50
102
RTVSPost2010PropOp42
 70
     1
102
RTVSPost2010Prop43
 90
        3
102
RTVSPost2010PropOp43
 70
     1
102
RTVSPost2010Prop44ColorIndex
 90
        5
102
RTVSPost2010Prop44ColorRGB
 90
      255
102
RTVSPost2010PropOp44
 70
     1
102
RTVSPost2010Prop45
280
     0
102
RTVSPost2010PropOp45
 70
     1
102
RTVSPost2010Prop46
 90
       50
102
RTVSPost2010PropOp46
 70
     1
102
RTVSPost2010Prop47
 90
       50
102
RTVSPost2010PropOp47
 70
     1
102
RTVSPost2010Prop48
 90
       50
102
RTVSPost2010PropOp48
 70
     1
102
RTVSPost2010Prop49
280
     0
102
RTVSPost2010PropOp49
 70
     1
102
RTVSPost2010Prop50
 90
       50
102
RTVSPost2010PropOp50
 70
     1
102
RTVSPost2010Prop51ColorIndex
 90
      256
102
RTVSPost2010Prop51ColorRGB
 90
-16777216
102
RTVSPost2010PropOp51
 70
     0
102
RTVSPost2010Prop52
140
1.0
102
RTVSPost2010PropOp52
 70
     0
102
RTVSPost2010Prop53
 90
        2
102
RTVSPost2010PropOp53
 70
     1
102
RTVSPost2010Prop54
  1
strokes_ogs.tif
102
RTVSPost2010PropOp54
 70
     1
102
RTVSPost2010Prop55
280
     0
102
RTVSPost2010PropOp55
 70
     1
102
RTVSPost2010Prop56
140
1.0
102
RTVSPost2010PropOp56
 70
     1
102
RTVSPost2010Prop57
140
1.0
102
RTVSPost2010PropOp57
 70
     1
  0
XRECORD
  5
1EB
102
{ACAD_REACTORS
330
1EA
102
}
330
1EA
100
AcDbXrecord
280
     1
102
RTVSPropertyOp0
 70
     1
102
RTVSPropertyOp1
 70
     1
102
RTVSPropertyOp2
 70
     1
102
RTVSPropertyOp3
 70
     1
102
RTVSPropertyOp4
 70
     1
102
RTVSPropertyOp5
 70
     1
102
RTVSPropertyOp6
 70
     1
102
RTVSPropertyOp7
 70
     1
102
RTVSPropertyOp8
 70
     1
102
RTVSPropertyOp9
 70
     1
102
RTVSPropertyOp10
 70
     1
102
RTVSPropertyOp11
 70
     1
102
RTVSPropertyOp12
 70
     1
102
RTVSPropertyOp13
 70
     1
102
RTVSPropertyOp14
 70
     1
102
RTVSPropertyOp15
 70
     1
102
RTVSPropertyOp16
 70
     1
102
RTVSPropertyOp17
 70
     1
102
RTVSPropertyOp18
 70
     1
102
RTVSPropertyOp19
 70
     1
102
RTVSPropertyOp20
 70
     1
102
RTVSPropertyOp21
 70
     1
102
RTVSPropertyOp22
 70
     1
102
RTVSPropertyOp23
 70
     1
102
RTVSPropertyOp24
 70
     1
102
RTVSPropertyOp25
 70
     1
102
RTVSPropertyOp26
 70
     1
102
RTVSPropertyOp27
 70
     1
102
RTVSPropertyOp28
 70
     1
102
RTVSPropertyOp29
 70
     1
102
RTVSPropertyOp30
 70
     1
102
RTVSPropertyOp31
 70
     1
102
RTVSPropertyOp32
 70
     1
102
RTVSPropertyOp33
 70
     1
102
RTVSPropertyOp34
 70
     1
102
RTVSPropertyOp35
 70
     1
102
RTVSPropertyOp36
 70
     1
102
RTVSPropertyOp37
 70
     1
102
RTVSPropertyOp38
 70
     1
102
RTVSPropertyOp39
 70
     1
102
RTVSPropertyOp40
 70
     1
102
RTVSPropertyOp41
 70
     1
102
RTVSPropertyOp42
 70
     1
102
RTVSPropertyOp43
 70
     1
102
RTVSPropertyOp44
 70
     1
102
RTVSPropertyOp45
 70
     1
102
RTVSPropertyOp46
 70
     1
102
RTVSPropertyOp47
 70
     1
102
RTVSPropertyOp48
 70
     1
102
RTVSPropertyOp49
 70
     1
102
RTVSPropertyOp50
 70
     1
102
RTVSPropertyOp51
 70
     0
102
RTVSPropertyOp52
 70
     0
102
RTVSPropertyOp53
 70
     1
102
RTVSPropertyOp54
 70
     1
102
RTVSPropertyOp55
 70
     1
102
RTVSPropertyOp56
 70
     1
102
RTVSPropertyOp57
 70
     1
102
RTVSPost2010Prop28
280
     0
102
RTVSPost2010PropOp28
 70
     1
102
RTVSPost2010Prop29
280
     1
102
RTVSPost2010PropOp29
 70
     1
102
RTVSPost2010Prop30
280
     1
102
RTVSPost2010PropOp30
 70
     1
102
RTVSPost2010Prop31
280
     0
102
RTVSPost2010PropOp31
 70
     1
102
RTVSPost2010Prop32
280
     0
102
RTVSPost2010PropOp32
 70
     1
102
RTVSPost2010Prop33
280
     0
102
RTVSPost2010PropOp33
 70
     1
102
RTVSPost2010Prop34
280
     0
102
RTVSPost2010PropOp34
 70
     1
102
RTVSPost2010Prop35
280
     0
102
RTVSPost2010PropOp35
 70
     1
102
RTVSPost2010Prop36
280
     0
102
RTVSPost2010PropOp36
 70
     1
102
RTVSPost2010Prop37
 90
       50
102
RTVSPost2010PropOp37
 70
     1
102
RTVSPost2010Prop38
140
0.0
102
RTVSPost2010PropOp38
 70
     1
102
RTVSPost2010Prop39
140
1.0
102
RTVSPost2010PropOp39
 70
     1
102
RTVSPost2010Prop40
 90
        0
102
RTVSPost2010PropOp40
 70
     1
102
RTVSPost2010Prop41ColorIndex
 90
       18
102
RTVSPost2010Prop41ColorRGB
 90
        0
102
RTVSPost2010PropOp41
 70
     1
102
RTVSPost2010Prop42
 90
       50
102
RTVSPost2010PropOp42
 70
     1
102
RTVSPost2010Prop43
 90
        3
102
RTVSPost2010PropOp43
 70
     1
102
RTVSPost2010Prop44ColorIndex
 90
        5
102
RTVSPost2010Prop44ColorRGB
 90
      255
102
RTVSPost2010PropOp44
 70
     1
102
RTVSPost2010Prop45
280
     0
102
RTVSPost2010PropOp45
 70
     1
102
RTVSPost2010Prop46
 90
       50
102
RTVSPost2010PropOp46
 70
     1
102
RTVSPost2010Prop47
 90
       50
102
RTVSPost2010PropOp47
 70
     1
102
RTVSPost2010Prop48
 90
       50
102
RTVSPost2010PropOp48
 70
     1
102
RTVSPost2010Prop49
280
     0
102
RTVSPost2010PropOp49
 70
     1
102
RTVSPost2010Prop50
 90
       50
102
RTVSPost2010PropOp50
 70
     1
102
RTVSPost2010Prop51ColorIndex
 90
      256
102
RTVSPost2010Prop51ColorRGB
 90
-16777216
102
RTVSPost2010PropOp51
 70
     0
102
RTVSPost2010Prop52
140
1.0
102
RTVSPost2010PropOp52
 70
     0
102
RTVSPost2010Prop53
 90
        2
102
RTVSPost2010PropOp53
 70
     1
102
RTVSPost2010Prop54
  1
strokes_ogs.tif
102
RTVSPost2010PropOp54
 70
     1
102
RTVSPost2010Prop55
280
     0
102
RTVSPost2010PropOp55
 70
     1
102
RTVSPost2010Prop56
140
1.0
102
RTVSPost2010PropOp56
 70
     1
102
RTVSPost2010Prop57
140
1.0
102
RTVSPost2010PropOp57
 70
     1
  0
XRECORD
  5
20B
102
{ACAD_REACTORS
330
20A
102
}
330
20A
100
AcDbXrecord
280
     1
102
RTVSPropertyOp0
 70
     1
102
RTVSPropertyOp1
 70
     1
102
RTVSPropertyOp2
 70
     1
102
RTVSPropertyOp3
 70
     1
102
RTVSPropertyOp4
 70
     1
102
RTVSPropertyOp5
 70
     1
102
RTVSPropertyOp6
 70
     1
102
RTVSPropertyOp7
 70
     1
102
RTVSPropertyOp8
 70
     1
102
RTVSPropertyOp9
 70
     1
102
RTVSPropertyOp10
 70
     1
102
RTVSPropertyOp11
 70
     1
102
RTVSPropertyOp12
 70
     1
102
RTVSPropertyOp13
 70
     1
102
RTVSPropertyOp14
 70
     1
102
RTVSPropertyOp15
 70
     1
102
RTVSPropertyOp16
 70
     1
102
RTVSPropertyOp17
 70
     1
102
RTVSPropertyOp18
 70
     1
102
RTVSPropertyOp19
 70
     1
102
RTVSPropertyOp20
 70
     1
102
RTVSPropertyOp21
 70
     1
102
RTVSPropertyOp22
 70
     1
102
RTVSPropertyOp23
 70
     1
102
RTVSPropertyOp24
 70
     1
102
RTVSPropertyOp25
 70
     1
102
RTVSPropertyOp26
 70
     1
102
RTVSPropertyOp27
 70
     1
102
RTVSPropertyOp28
 70
     1
102
RTVSPropertyOp29
 70
     1
102
RTVSPropertyOp30
 70
     1
102
RTVSPropertyOp31
 70
     1
102
RTVSPropertyOp32
 70
     1
102
RTVSPropertyOp33
 70
     1
102
RTVSPropertyOp34
 70
     1
102
RTVSPropertyOp35
 70
     1
102
RTVSPropertyOp36
 70
     1
102
RTVSPropertyOp37
 70
     1
102
RTVSPropertyOp38
 70
     1
102
RTVSPropertyOp39
 70
     1
102
RTVSPropertyOp40
 70
     1
102
RTVSPropertyOp41
 70
     1
102
RTVSPropertyOp42
 70
     1
102
RTVSPropertyOp43
 70
     1
102
RTVSPropertyOp44
 70
     1
102
RTVSPropertyOp45
 70
     1
102
RTVSPropertyOp46
 70
     1
102
RTVSPropertyOp47
 70
     1
102
RTVSPropertyOp48
 70
     1
102
RTVSPropertyOp49
 70
     1
102
RTVSPropertyOp50
 70
     1
102
RTVSPropertyOp51
 70
     0
102
RTVSPropertyOp52
 70
     0
102
RTVSPropertyOp53
 70
     1
102
RTVSPropertyOp54
 70
     1
102
RTVSPropertyOp55
 70
     1
102
RTVSPropertyOp56
 70
     1
102
RTVSPropertyOp57
 70
     1
102
RTVSPost2010Prop28
280
     0
102
RTVSPost2010PropOp28
 70
     1
102
RTVSPost2010Prop29
280
     1
102
RTVSPost2010PropOp29
 70
     1
102
RTVSPost2010Prop30
280
     1
102
RTVSPost2010PropOp30
 70
     1
102
RTVSPost2010Prop31
280
     0
102
RTVSPost2010PropOp31
 70
     1
102
RTVSPost2010Prop32
280
     0
102
RTVSPost2010PropOp32
 70
     1
102
RTVSPost2010Prop33
280
     0
102
RTVSPost2010PropOp33
 70
     1
102
RTVSPost2010Prop34
280
     0
102
RTVSPost2010PropOp34
 70
     1
102
RTVSPost2010Prop35
280
     0
102
RTVSPost2010PropOp35
 70
     1
102
RTVSPost2010Prop36
280
     0
102
RTVSPost2010PropOp36
 70
     1
102
RTVSPost2010Prop37
 90
       50
102
RTVSPost2010PropOp37
 70
     1
102
RTVSPost2010Prop38
140
0.0
102
RTVSPost2010PropOp38
 70
     1
102
RTVSPost2010Prop39
140
1.0
102
RTVSPost2010PropOp39
 70
     1
102
RTVSPost2010Prop40
 90
        0
102
RTVSPost2010PropOp40
 70
     1
102
RTVSPost2010Prop41ColorIndex
 90
       18
102
RTVSPost2010Prop41ColorRGB
 90
        0
102
RTVSPost2010PropOp41
 70
     1
102
RTVSPost2010Prop42
 90
       50
102
RTVSPost2010PropOp42
 70
     1
102
RTVSPost2010Prop43
 90
        3
102
RTVSPost2010PropOp43
 70
     1
102
RTVSPost2010Prop44ColorIndex
 90
        5
102
RTVSPost2010Prop44ColorRGB
 90
      255
102
RTVSPost2010PropOp44
 70
     1
102
RTVSPost2010Prop45
280
     0
102
RTVSPost2010PropOp45
 70
     1
102
RTVSPost2010Prop46
 90
       50
102
RTVSPost2010PropOp46
 70
     1
102
RTVSPost2010Prop47
 90
       50
102
RTVSPost2010PropOp47
 70
     1
102
RTVSPost2010Prop48
 90
       50
102
RTVSPost2010PropOp48
 70
     1
102
RTVSPost2010Prop49
280
     0
102
RTVSPost2010PropOp49
 70
     1
102
RTVSPost2010Prop50
 90
       50
102
RTVSPost2010PropOp50
 70
     1
102
RTVSPost2010Prop51ColorIndex
 90
      256
102
RTVSPost2010Prop51ColorRGB
 90
-16777216
102
RTVSPost2010PropOp51
 70
     0
102
RTVSPost2010Prop52
140
1.0
102
RTVSPost2010PropOp52
 70
     0
102
RTVSPost2010Prop53
 90
        2
102
RTVSPost2010PropOp53
 70
     1
102
RTVSPost2010Prop54
  1
strokes_ogs.tif
102
RTVSPost2010PropOp54
 70
     1
102
RTVSPost2010Prop55
280
     0
102
RTVSPost2010PropOp55
 70
     1
102
RTVSPost2010Prop56
140
1.0
102
RTVSPost2010PropOp56
 70
     1
102
RTVSPost2010Prop57
140
1.0
102
RTVSPost2010PropOp57
 70
     1
  0
ENDSEC
  0
EOF
