  0
SECTION
  2
HEADER
  9
$ACADVER
  1
AC1015
  9
$ACADMAINTVER
 70
     6
  9
$DWGCODEPAGE
  3
ANSI_932
  9
$INSBASE
 10
0.0
 20
0.0
 30
0.0
  9
$EXTMIN
 10
0.0
 20
0.0
 30
0.0
  9
$EXTMAX
 10
209.0
 20
296.0
 30
0.0
  9
$LIMMIN
 10
0.0
 20
0.0
  9
$LIMMAX
 10
209.0
 20
296.0
  9
$ORTHOMODE
 70
     0
  9
$REGENMODE
 70
     1
  9
$FILLMODE
 70
     1
  9
$QTEXTMODE
 70
     0
  9
$MIRRTEXT
 70
     1
  9
$LTSCALE
 40
1.0
  9
$ATTMODE
 70
     1
  9
$TEXTSIZE
 40
2.5
  9
$TRACEWID
 40
1.0
  9
$TEXTSTYLE
  7
Standard
  9
$CLAYER
  8
0
  9
$CELTYPE
  6
ByLayer
  9
$CECOLOR
 62
   256
  9
$CELTSCALE
 40
1.0
  9
$DISPSILH
 70
     0
  9
$DIMSCALE
 40
1.0
  9
$DIMASZ
 40
2.5
  9
$DIMEXO
 40
0.625
  9
$DIMDLI
 40
3.75
  9
$DIMRND
 40
0.0
  9
$DIMDLE
 40
0.0
  9
$DIMEXE
 40
1.25
  9
$DIMTP
 40
0.0
  9
$DIMTM
 40
0.0
  9
$DIMTXT
 40
2.5
  9
$DIMCEN
 40
2.5
  9
$DIMTSZ
 40
0.0
  9
$DIMTOL
 70
     0
  9
$DIMLIM
 70
     0
  9
$DIMTIH
 70
     0
  9
$DIMTOH
 70
     0
  9
$DIMSE1
 70
     0
  9
$DIMSE2
 70
     0
  9
$DIMTAD
 70
     1
  9
$DIMZIN
 70
     8
  9
$DIMBLK
  1

  9
$DIMASO
 70
     1
  9
$DIMSHO
 70
     1
  9
$DIMPOST
  1

  9
$DIMAPOST
  1

  9
$DIMALT
 70
     0
  9
$DIMALTD
 70
     3
  9
$DIMALTF
 40
0.0393700787
  9
$DIMLFAC
 40
1.0
  9
$DIMTOFL
 70
     1
  9
$DIMTVP
 40
0.0
  9
$DIMTIX
 70
     0
  9
$DIMSOXD
 70
     0
  9
$DIMSAH
 70
     0
  9
$DIMBLK1
  1

  9
$DIMBLK2
  1

  9
$DIMSTYLE
  2
ISO-25
  9
$DIMCLRD
 70
     0
  9
$DIMCLRE
 70
     0
  9
$DIMCLRT
 70
     0
  9
$DIMTFAC
 40
1.0
  9
$DIMGAP
 40
0.625
  9
$DIMJUST
 70
     0
  9
$DIMSD1
 70
     0
  9
$DIMSD2
 70
     0
  9
$DIMTOLJ
 70
     0
  9
$DIMTZIN
 70
     8
  9
$DIMALTZ
 70
     0
  9
$DIMALTTZ
 70
     0
  9
$DIMUPT
 70
     0
  9
$DIMDEC
 70
     2
  9
$DIMTDEC
 70
     2
  9
$DIMALTU
 70
     2
  9
$DIMALTTD
 70
     3
  9
$DIMTXSTY
  7
Standard
  9
$DIMAUNIT
 70
     0
  9
$DIMADEC
 70
     0
  9
$DIMALTRND
 40
0.0
  9
$DIMAZIN
 70
     0
  9
$DIMDSEP
 70
    44
  9
$DIMATFIT
 70
     3
  9
$DIMFRAC
 70
     0
  9
$DIMLDRBLK
  1

  9
$DIMLUNIT
 70
     2
  9
$DIMLWD
 70
    -2
  9
$DIMLWE
 70
    -2
  9
$DIMTMOVE
 70
     0
  9
$LUNITS
 70
     2
  9
$LUPREC
 70
     4
  9
$SKETCHINC
 40
1.0
  9
$FILLETRAD
 40
10.0
  9
$AUNITS
 70
     0
  9
$AUPREC
 70
     0
  9
$MENU
  1
.
  9
$ELEVATION
 40
0.0
  9
$PELEVATION
 40
0.0
  9
$THICKNESS
 40
0.0
  9
$LIMCHECK
 70
     0
  9
$CHAMFERA
 40
0.0
  9
$CHAMFERB
 40
0.0
  9
$CHAMFERC
 40
0.0
  9
$CHAMFERD
 40
0.0
  9
$SKPOLY
 70
     0
  9
$TDCREATE
 40
2458131.701129965
  9
$TDUCREATE
 40
2458131.326129965
  9
$TDUPDATE
 40
2458131.701132315
  9
$TDUUPDATE
 40
2458131.326132315
  9
$TDINDWG
 40
0.0000000116
  9
$TDUSRTIMER
 40
0.0000000116
  9
$USRTIMER
 70
     1
  9
$ANGBASE
 50
0.0
  9
$ANGDIR
 70
     0
  9
$PDMODE
 70
     0
  9
$PDSIZE
 40
0.0
  9
$PLINEWID
 40
0.0
  9
$SPLFRAME
 70
     0
  9
$SPLINETYPE
 70
     6
  9
$SPLINESEGS
 70
     8
  9
$HANDSEED
  5
42C
  9
$SURFTAB1
 70
     6
  9
$SURFTAB2
 70
     6
  9
$SURFTYPE
 70
     6
  9
$SURFU
 70
     6
  9
$SURFV
 70
     6
  9
$UCSBASE
  2

  9
$UCSNAME
  2

  9
$UCSORG
 10
0.0
 20
0.0
 30
0.0
  9
$UCSXDIR
 10
1.0
 20
0.0
 30
0.0
  9
$UCSYDIR
 10
0.0
 20
1.0
 30
0.0
  9
$UCSORTHOREF
  2

  9
$UCSORTHOVIEW
 70
     0
  9
$UCSORGTOP
 10
0.0
 20
0.0
 30
0.0
  9
$UCSORGBOTTOM
 10
0.0
 20
0.0
 30
0.0
  9
$UCSORGLEFT
 10
0.0
 20
0.0
 30
0.0
  9
$UCSORGRIGHT
 10
0.0
 20
0.0
 30
0.0
  9
$UCSORGFRONT
 10
0.0
 20
0.0
 30
0.0
  9
$UCSORGBACK
 10
0.0
 20
0.0
 30
0.0
  9
$PUCSBASE
  2

  9
$PUCSNAME
  2

  9
$PUCSORG
 10
0.0
 20
0.0
 30
0.0
  9
$PUCSXDIR
 10
1.0
 20
0.0
 30
0.0
  9
$PUCSYDIR
 10
0.0
 20
1.0
 30
0.0
  9
$PUCSORTHOREF
  2

  9
$PUCSORTHOVIEW
 70
     0
  9
$PUCSORGTOP
 10
0.0
 20
0.0
 30
0.0
  9
$PUCSORGBOTTOM
 10
0.0
 20
0.0
 30
0.0
  9
$PUCSORGLEFT
 10
0.0
 20
0.0
 30
0.0
  9
$PUCSORGRIGHT
 10
0.0
 20
0.0
 30
0.0
  9
$PUCSORGFRONT
 10
0.0
 20
0.0
 30
0.0
  9
$PUCSORGBACK
 10
0.0
 20
0.0
 30
0.0
  9
$USERI1
 70
     0
  9
$USERI2
 70
     0
  9
$USERI3
 70
     0
  9
$USERI4
 70
     0
  9
$USERI5
 70
     0
  9
$USERR1
 40
0.0
  9
$USERR2
 40
0.0
  9
$USERR3
 40
0.0
  9
$USERR4
 40
0.0
  9
$USERR5
 40
0.0
  9
$WORLDVIEW
 70
     1
  9
$SHADEDGE
 70
     3
  9
$SHADEDIF
 70
    70
  9
$TILEMODE
 70
     1
  9
$MAXACTVP
 70
    64
  9
$PINSBASE
 10
0.0
 20
0.0
 30
0.0
  9
$PLIMCHECK
 70
     0
  9
$PEXTMIN
 10
0.0
 20
0.0
 30
0.0
  9
$PEXTMAX
 10
209.0
 20
296.0
 30
0.0
  9
$PLIMMIN
 10
0.0
 20
0.0
  9
$PLIMMAX
 10
209.0
 20
296.0
  9
$UNITMODE
 70
     0
  9
$VISRETAIN
 70
     1
  9
$PLINEGEN
 70
     0
  9
$PSLTSCALE
 70
     1
  9
$TREEDEPTH
 70
  3020
  9
$CMLSTYLE
  2
Standard
  9
$CMLJUST
 70
     0
  9
$CMLSCALE
 40
20.0
  9
$PROXYGRAPHICS
 70
     1
  9
$MEASUREMENT
 70
     1
  9
$CELWEIGHT
370
    -1
  9
$ENDCAPS
280
     0
  9
$JOINSTYLE
280
     0
  9
$LWDISPLAY
290
     0
  9
$INSUNITS
 70
     4
  9
$HYPERLINKBASE
  1

  9
$STYLESHEET
  1

  9
$XEDIT
290
     1
  9
$CEPSNTYPE
380
     0
  9
$PSTYLEMODE
290
     1
  9
$FINGERPRINTGUID
  2
{98A31553-06BB-4903-979D-EA88834A3A58}
  9
$VERSIONGUID
  2
{FAEB1C32-E019-11D5-929B-00C0DF256EC4}
  9
$EXTNAMES
290
     1
  9
$PSVPSCALE
 40
0.0
  9
$OLESTARTUP
290
     0
  0
ENDSEC
  0
SECTION
  2
CLASSES
  0
CLASS
  1
ACDBDICTIONARYWDFLT
  2
AcDbDictionaryWithDefault
  3
ObjectDBX Classes
 90
        0
280
     0
281
     0
  0
CLASS
  1
VISUALSTYLE
  2
AcDbVisualStyle
  3
ObjectDBX Classes
 90
     4095
280
     0
281
     0
  0
CLASS
  1
MATERIAL
  2
AcDbMaterial
  3
ObjectDBX Classes
 90
     1153
280
     0
281
     0
  0
CLASS
  1
SCALE
  2
AcDbScale
  3
ObjectDBX Classes
 90
     1153
280
     0
281
     0
  0
CLASS
  1
SUN
  2
AcDbSun
  3
SCENEOE
 90
     1153
280
     0
281
     0
  0
CLASS
  1
DICTIONARYVAR
  2
AcDbDictionaryVar
  3
ObjectDBX Classes
 90
        0
280
     0
281
     0
  0
CLASS
  1
ACDBPLACEHOLDER
  2
AcDbPlaceHolder
  3
ObjectDBX Classes
 90
        0
280
     0
281
     0
  0
CLASS
  1
LAYOUT
  2
AcDbLayout
  3
ObjectDBX Classes
 90
        0
280
     0
281
     0
  0
ENDSEC
  0
SECTION
  2
TABLES
  0
TABLE
  2
VPORT
  5
8
330
0
100
AcDbSymbolTable
 70
     1
  0
VPORT
  5
29
330
8
100
AcDbSymbolTableRecord
100
AcDbViewportTableRecord
  2
*Active
 70
     0
 10
0.0
 20
0.0
 11
1.0
 21
1.0
 12
344.1869158879
 22
148.5
 13
0.0
 23
0.0
 14
10.0
 24
10.0
 15
10.0
 25
10.0
 16
0.0
 26
0.0
 36
1.0
 17
0.0
 27
0.0
 37
0.0
 40
297.0
 41
1.9729729729
 42
50.0
 43
0.0
 44
0.0
 50
0.0
 51
0.0
 71
     0
 72
   100
 73
     1
 74
     3
 75
     0
 76
     0
 77
     0
 78
     0
281
     0
 65
     1
110
0.0
120
0.0
130
0.0
111
1.0
121
0.0
131
0.0
112
0.0
122
1.0
132
0.0
 79
     0
146
0.0
  0
ENDTAB
  0
TABLE
  2
LTYPE
  5
5
330
0
100
AcDbSymbolTable
 70
     2
  0
LTYPE
  5
14
330
5
100
AcDbSymbolTableRecord
100
AcDbLinetypeTableRecord
  2
ByBlock
 70
     0
  3

 72
    65
 73
     0
 40
0.0
  0
LTYPE
  5
15
330
5
100
AcDbSymbolTableRecord
100
AcDbLinetypeTableRecord
  2
ByLayer
 70
     0
  3

 72
    65
 73
     0
 40
0.0
  0
LTYPE
  5
16
330
5
100
AcDbSymbolTableRecord
100
AcDbLinetypeTableRecord
  2
Continuous
 70
     0
  3
Solid line
 72
    65
 73
     0
 40
0.0
  0
LTYPE
  5
7A
330
5
100
AcDbSymbolTableRecord
100
AcDbLinetypeTableRecord
  2
CENTER2
 70
     0
  3
Center (.5x) ___ _ ___ _ ___ _ ___ _ ___ _ ___
 72
    65
 73
     4
 40
28.575
 49
19.05
 74
     4
 75
     0
340
0
 46
0.0
 50
0.0
 44
0.0
 45
0.0
 49
-3.175
 74
     4
 75
     0
340
0
 46
0.0
 50
0.0
 44
0.0
 45
0.0
 49
3.175
 74
     4
 75
     0
340
0
 46
0.0
 50
0.0
 44
0.0
 45
0.0
 49
-3.175
 74
     4
 75
     0
340
0
 46
0.0
 50
0.0
 44
0.0
 45
0.0
  0
ENDTAB
  0
TABLE
  2
LAYER
  5
2
330
0
100
AcDbSymbolTable
 70
     7
  0
LAYER
  5
10
330
2
100
AcDbSymbolTableRecord
100
AcDbLayerTableRecord
  2
0
 70
     0
 62
     7
  6
Continuous
370
    -3
390
F
  0
LAYER
  5
6A
330
2
100
AcDbSymbolTableRecord
100
AcDbLayerTableRecord
  2
Default
 70
     0
 62
     7
  6
Continuous
370
    -3
390
F
  0
LAYER
  5
77
330
2
100
AcDbSymbolTableRecord
100
AcDbLayerTableRecord
  2
DV1_Standard
 70
     0
 62
     7
  6
Continuous
370
    -3
390
F
  0
LAYER
  5
7C
330
2
100
AcDbSymbolTableRecord
100
AcDbLayerTableRecord
  2
DV1_0
 70
     0
 62
     7
  6
Continuous
370
    -3
390
F
  0
LAYER
  5
341
330
2
100
AcDbSymbolTableRecord
100
AcDbLayerTableRecord
  2
Layer3
 70
     0
 62
     7
  6
Continuous
370
    -3
390
F
  0
LAYER
  5
38B
330
2
100
AcDbSymbolTableRecord
100
AcDbLayerTableRecord
  2
Standard
 70
     0
 62
     7
  6
Continuous
370
    -3
390
F
  0
LAYER
  5
3A9
330
2
100
AcDbSymbolTableRecord
100
AcDbLayerTableRecord
  2
Layer1
 70
     0
 62
     7
  6
Continuous
370
    -3
390
F
  0
ENDTAB
  0
TABLE
  2
STYLE
  5
3
330
0
100
AcDbSymbolTable
 70
     2
  0
STYLE
  5
11
330
3
100
AcDbSymbolTableRecord
100
AcDbTextStyleTableRecord
  2
Standard
 70
     0
 40
0.0
 41
1.0
 50
0.0
 71
     0
 42
2.5
  3
txt
  4

  0
STYLE
  5
354
330
3
100
AcDbSymbolTableRecord
100
AcDbTextStyleTableRecord
  2
SEACAD_Arial
 70
     0
 40
0.0
 41
1.0
 50
0.0
 71
     0
 42
2.5
  3
arial.ttf
  4

1001
ACAD
1000
Arial
1071
        0
  0
ENDTAB
  0
TABLE
  2
VIEW
  5
6
330
0
100
AcDbSymbolTable
 70
     0
  0
ENDTAB
  0
TABLE
  2
UCS
  5
7
330
0
100
AcDbSymbolTable
 70
     0
  0
ENDTAB
  0
TABLE
  2
APPID
  5
9
330
0
100
AcDbSymbolTable
 70
     1
  0
APPID
  5
12
330
9
100
AcDbSymbolTableRecord
100
AcDbRegAppTableRecord
  2
ACAD
 70
     0
  0
ENDTAB
  0
TABLE
  2
DIMSTYLE
  5
A
330
0
100
AcDbSymbolTable
 70
     2
100
AcDbDimStyleTable
  0
DIMSTYLE
105
27
330
A
100
AcDbSymbolTableRecord
100
AcDbDimStyleTableRecord
  2
ISO-25
 70
     0
 41
2.5
 42
0.625
 43
3.75
 44
1.25
 73
     0
 74
     0
 77
     1
 78
     8
140
2.5
141
2.5
143
0.0393700787
147
0.625
171
     3
172
     1
178
     0
271
     2
272
     2
274
     3
278
    44
283
     0
284
     8
340
11
  0
DIMSTYLE
105
342
102
{ACAD_REACTORS
330
355
330
360
330
36B
330
375
330
380
102
}
330
A
100
AcDbSymbolTableRecord
100
AcDbDimStyleTableRecord
  2
Standard
 70
     0
178
     0
340
11
  0
ENDTAB
  0
TABLE
  2
BLOCK_RECORD
  5
1
330
0
100
AcDbSymbolTable
 70
    11
  0
BLOCK_RECORD
  5
1F
330
1
100
AcDbSymbolTableRecord
100
AcDbBlockTableRecord
  2
*Model_Space
340
22
  0
BLOCK_RECORD
  5
1B
330
1
100
AcDbSymbolTableRecord
100
AcDbBlockTableRecord
  2
*Paper_Space
340
1E
  0
BLOCK_RECORD
  5
75
330
1
100
AcDbSymbolTableRecord
100
AcDbBlockTableRecord
  2
SE
340
0
102
{BLKREFS
331
76
102
}
  0
BLOCK_RECORD
  5
343
330
1
100
AcDbSymbolTableRecord
100
AcDbBlockTableRecord
  2
_OBLIQUE
340
0
  0
BLOCK_RECORD
  5
347
330
1
100
AcDbSymbolTableRecord
100
AcDbBlockTableRecord
  2
_DOT
340
0
  0
BLOCK_RECORD
  5
34F
330
1
100
AcDbSymbolTableRecord
100
AcDbBlockTableRecord
  2
_SE_FILLED
340
0
  0
BLOCK_RECORD
  5
356
330
1
100
AcDbSymbolTableRecord
100
AcDbBlockTableRecord
  2
DMBLK21
340
0
  0
BLOCK_RECORD
  5
361
330
1
100
AcDbSymbolTableRecord
100
AcDbBlockTableRecord
  2
DMBLK22
340
0
  0
BLOCK_RECORD
  5
36C
330
1
100
AcDbSymbolTableRecord
100
AcDbBlockTableRecord
  2
DMBLK23
340
0
  0
BLOCK_RECORD
  5
376
330
1
100
AcDbSymbolTableRecord
100
AcDbBlockTableRecord
  2
DMBLK24
340
0
  0
BLOCK_RECORD
  5
381
330
1
100
AcDbSymbolTableRecord
100
AcDbBlockTableRecord
  2
DMBLK25
340
0
  0
BLOCK_RECORD
  5
3AA
330
1
100
AcDbSymbolTableRecord
100
AcDbBlockTableRecord
  2
symb_tb_GroheLogo2013_ori
340
0
102
{BLKREFS
331
3EA
102
}
  0
ENDTAB
  0
ENDSEC
  0
SECTION
  2
BLOCKS
  0
BLOCK
  5
20
330
1F
100
AcDbEntity
  8
0
100
AcDbBlockBegin
  2
*Model_Space
 70
     0
 10
0.0
 20
0.0
 30
0.0
  3
*Model_Space
  1
*Model_Space
  0
ENDBLK
  5
21
330
1F
100
AcDbEntity
  8
0
100
AcDbBlockEnd
  0
BLOCK
  5
1C
330
1B
100
AcDbEntity
 67
     1
  8
0
100
AcDbBlockBegin
  2
*Paper_Space
 70
     0
 10
0.0
 20
0.0
 30
0.0
  3
*Paper_Space
  1
*Paper_Space
  0
ENDBLK
  5
1D
330
1B
100
AcDbEntity
 67
     1
  8
0
100
AcDbBlockEnd
  0
BLOCK
  5
33F
330
75
100
AcDbEntity
  8
0
100
AcDbBlockBegin
  2
SE
 70
     0
 10
0.0
 20
0.0
 30
0.0
  3
SE
  1
SE
  0
LINE
  5
78
330
75
100
AcDbEntity
  8
DV1_Standard
  6
Continuous
 62
     7
100
AcDbLine
 10
102.2968953526
 20
121.8508181113
 30
0.0
 11
106.6557942962
 21
124.8508181113
 31
0.0
  0
LINE
  5
79
330
75
100
AcDbEntity
  8
DV1_Standard
  6
Continuous
 62
     7
100
AcDbLine
 10
102.2968953526
 20
124.8508181113
 30
0.0
 11
106.6557942962
 21
121.8508181113
 31
0.0
  0
LINE
  5
7B
330
75
100
AcDbEntity
  8
DV1_Standard
  6
CENTER2
 62
     7
100
AcDbLine
 10
104.4763448244
 20
115.6691956086
 30
0.0
 11
104.4763448244
 21
235.5057311397
 31
0.0
  0
LINE
  5
7D
330
75
100
AcDbEntity
  8
DV1_0
  6
Continuous
 62
     7
100
AcDbLine
 10
110.4763448244
 20
127.2008181113
 30
0.0
 11
98.4763448244
 21
127.2008181113
 31
0.0
  0
LINE
  5
7E
330
75
100
AcDbEntity
  8
DV1_0
  6
Continuous
 62
     7
100
AcDbLine
 10
107.9763448244
 20
119.3508181113
 30
0.0
 11
100.9763448244
 21
119.3508181113
 31
0.0
  0
LINE
  5
7F
330
75
100
AcDbEntity
  8
DV1_0
  6
Continuous
 62
     7
100
AcDbLine
 10
108.9763448244
 20
124.8508181113
 30
0.0
 11
109.4763448244
 21
124.8508181113
 31
0.0
  0
LINE
  5
80
330
75
100
AcDbEntity
  8
DV1_0
  6
Continuous
 62
     7
100
AcDbLine
 10
108.9763448244
 20
121.8508181113
 30
0.0
 11
108.9763448244
 21
124.8508181113
 31
0.0
  0
LINE
  5
81
330
75
100
AcDbEntity
  8
DV1_0
  6
Continuous
 62
     7
100
AcDbLine
 10
108.9763448244
 20
121.8508181113
 30
0.0
 11
109.4763448244
 21
121.8508181113
 31
0.0
  0
LINE
  5
82
330
75
100
AcDbEntity
  8
DV1_0
  6
Continuous
 62
     7
100
AcDbLine
 10
99.9763448244
 20
124.8508181113
 30
0.0
 11
99.4763448244
 21
124.8508181113
 31
0.0
  0
LINE
  5
83
330
75
100
AcDbEntity
  8
DV1_0
  6
Continuous
 62
     7
100
AcDbLine
 10
99.9763448244
 20
121.8508181113
 30
0.0
 11
99.4763448244
 21
121.8508181113
 31
0.0
  0
LINE
  5
84
330
75
100
AcDbEntity
  8
DV1_0
  6
Continuous
 62
     7
100
AcDbLine
 10
99.9763448244
 20
124.8508181113
 30
0.0
 11
99.9763448244
 21
121.8508181113
 31
0.0
  0
LINE
  5
85
330
75
100
AcDbEntity
  8
DV1_0
  6
Continuous
 62
     7
100
AcDbLine
 10
102.2968953526
 20
124.8508181113
 30
0.0
 11
106.6557942962
 21
124.8508181113
 31
0.0
  0
LINE
  5
86
330
75
100
AcDbEntity
  8
DV1_0
  6
Continuous
 62
     7
100
AcDbLine
 10
102.2968953526
 20
121.8508181113
 30
0.0
 11
106.6557942962
 21
121.8508181113
 31
0.0
  0
LINE
  5
87
330
75
100
AcDbEntity
  8
DV1_0
  6
Continuous
 62
     7
100
AcDbLine
 10
106.6557942962
 20
124.8508181113
 30
0.0
 11
106.6557942962
 21
121.8508181113
 31
0.0
  0
LINE
  5
88
330
75
100
AcDbEntity
  8
DV1_0
  6
Continuous
 62
     7
100
AcDbLine
 10
102.2968953526
 20
121.8508181113
 30
0.0
 11
102.2968953526
 21
124.8508181113
 31
0.0
  0
LINE
  5
89
330
75
100
AcDbEntity
  8
DV1_0
  6
Continuous
 62
     7
100
AcDbLine
 10
111.9763448244
 20
128.7008181113
 30
0.0
 11
111.9763448244
 21
130.5508181113
 31
0.0
  0
LINE
  5
8A
330
75
100
AcDbEntity
  8
DV1_0
  6
Continuous
 62
     7
100
AcDbLine
 10
96.9763448244
 20
130.5508181113
 30
0.0
 11
96.9763448244
 21
128.7008181113
 31
0.0
  0
LINE
  5
8B
330
75
100
AcDbEntity
  8
DV1_0
  6
Continuous
 62
     7
100
AcDbLine
 10
109.4763448244
 20
124.8508181113
 30
0.0
 11
109.4763448244
 21
127.2008181113
 31
0.0
  0
LINE
  5
8C
330
75
100
AcDbEntity
  8
DV1_0
  6
Continuous
 62
     7
100
AcDbLine
 10
109.4763448244
 20
120.8508181113
 30
0.0
 11
109.4763448244
 21
121.8508181113
 31
0.0
  0
LINE
  5
8D
330
75
100
AcDbEntity
  8
DV1_0
  6
Continuous
 62
     7
100
AcDbLine
 10
99.4763448244
 20
121.8508181113
 30
0.0
 11
99.4763448244
 21
120.8508181113
 31
0.0
  0
LINE
  5
8E
330
75
100
AcDbEntity
  8
DV1_0
  6
Continuous
 62
     7
100
AcDbLine
 10
99.4763448244
 20
127.2008181113
 30
0.0
 11
99.4763448244
 21
124.8508181113
 31
0.0
  0
ARC
  5
8F
330
75
100
AcDbEntity
  8
DV1_0
  6
Continuous
 62
     7
100
AcDbCircle
 10
110.4763448244
 20
128.7008181113
 30
0.0
 40
1.499999999999998
100
AcDbArc
 50
270.0
 51
0.0
  0
ARC
  5
90
330
75
100
AcDbEntity
  8
DV1_0
  6
Continuous
 62
     7
100
AcDbCircle
 10
98.4763448244
 20
128.7008181113
 30
0.0
 40
1.5
100
AcDbArc
 50
180.0
 51
270.0
  0
ARC
  5
91
330
75
100
AcDbEntity
  8
DV1_0
  6
Continuous
 62
     7
100
AcDbCircle
 10
107.9763448244
 20
120.8508181113
 30
0.0
 40
1.500000000000001
100
AcDbArc
 50
270.0
 51
0.0
  0
ARC
  5
92
330
75
100
AcDbEntity
  8
DV1_0
  6
Continuous
 62
     7
100
AcDbCircle
 10
100.9763448244
 20
120.8508181113
 30
0.0
 40
1.5
100
AcDbArc
 50
180.0
 51
270.0
  0
LINE
  5
93
330
75
100
AcDbEntity
  8
DV1_0
  6
Continuous
 62
     7
100
AcDbLine
 10
119.4763448244
 20
149.1865247116
 30
0.0
 11
89.4763448244
 21
149.1865247116
 31
0.0
  0
LINE
  5
94
330
75
100
AcDbEntity
  8
DV1_0
  6
Continuous
 62
     7
100
AcDbLine
 10
119.4763448244
 20
144.8008181113
 30
0.0
 11
89.4763448244
 21
144.8008181113
 31
0.0
  0
LINE
  5
95
330
75
100
AcDbEntity
  8
DV1_0
  6
Continuous
 62
     7
100
AcDbLine
 10
119.4763448244
 20
140.8008181113
 30
0.0
 11
89.4763448244
 21
140.8008181113
 31
0.0
  0
LINE
  5
96
330
75
100
AcDbEntity
  8
DV1_0
  6
Continuous
 62
     7
100
AcDbLine
 10
119.4763448244
 20
136.4151115111
 30
0.0
 11
89.4763448244
 21
136.4151115111
 31
0.0
  0
LINE
  5
97
330
75
100
AcDbEntity
  8
DV1_0
  6
Continuous
 62
     7
100
AcDbLine
 10
119.3763448244
 20
144.3008181113
 30
0.0
 11
89.5763448244
 21
144.3008181113
 31
0.0
  0
LINE
  5
98
330
75
100
AcDbEntity
  8
DV1_0
  6
Continuous
 62
     7
100
AcDbLine
 10
119.3763448244
 20
141.3008181113
 30
0.0
 11
89.5763448244
 21
141.3008181113
 31
0.0
  0
LINE
  5
99
330
75
100
AcDbEntity
  8
DV1_0
  6
Continuous
 62
     7
100
AcDbLine
 10
119.4763448244
 20
154.8508181113
 30
0.0
 11
89.4763448244
 21
154.8508181113
 31
0.0
  0
LINE
  5
9A
330
75
100
AcDbEntity
  8
DV1_0
  6
Continuous
 62
     7
100
AcDbLine
 10
119.2763448244
 20
130.5508181113
 30
0.0
 11
89.6763448244
 21
130.5508181113
 31
0.0
  0
LINE
  5
9B
330
75
100
AcDbEntity
  8
DV1_0
  6
Continuous
 62
     7
100
AcDbLine
 10
119.4763448244
 20
130.7508181113
 30
0.0
 11
89.4763448244
 21
130.7508181113
 31
0.0
  0
LINE
  5
9C
330
75
100
AcDbEntity
  8
DV1_0
  6
Continuous
 62
     7
100
AcDbLine
 10
119.4763448244
 20
149.1865247116
 30
0.0
 11
119.4763448244
 21
154.8508181113
 31
0.0
  0
LINE
  5
9D
330
75
100
AcDbEntity
  8
DV1_0
  6
Continuous
 62
     7
100
AcDbLine
 10
89.4763448244
 20
154.8508181113
 30
0.0
 11
89.4763448244
 21
149.1865247116
 31
0.0
  0
LINE
  5
9E
330
75
100
AcDbEntity
  8
DV1_0
  6
Continuous
 62
     7
100
AcDbLine
 10
89.4763448244
 20
149.1865247116
 30
0.0
 11
90.1916151889
 21
145.1300248975
 31
0.0
  0
LINE
  5
9F
330
75
100
AcDbEntity
  8
DV1_0
  6
Continuous
 62
     7
100
AcDbLine
 10
118.76107446
 20
145.1300248975
 30
0.0
 11
119.4763448244
 21
149.1865247116
 31
0.0
  0
LINE
  5
A0
330
75
100
AcDbEntity
  8
DV1_0
  6
Continuous
 62
     7
100
AcDbLine
 10
119.4763448244
 20
144.8008181113
 30
0.0
 11
118.923306375
 21
144.8983337113
 31
0.0
  0
LINE
  5
A1
330
75
100
AcDbEntity
  8
DV1_0
  6
Continuous
 62
     7
100
AcDbLine
 10
90.0293832738
 20
144.8983337113
 30
0.0
 11
89.4763448244
 21
144.8008181113
 31
0.0
  0
LINE
  5
A2
330
75
100
AcDbEntity
  8
DV1_0
  6
Continuous
 62
     7
100
AcDbLine
 10
119.4763448244
 20
144.4008181113
 30
0.0
 11
119.4763448244
 21
144.8008181113
 31
0.0
  0
LINE
  5
A3
330
75
100
AcDbEntity
  8
DV1_0
  6
Continuous
 62
     7
100
AcDbLine
 10
89.4763448244
 20
144.8008181113
 30
0.0
 11
89.4763448244
 21
144.4008181113
 31
0.0
  0
LINE
  5
A4
330
75
100
AcDbEntity
  8
DV1_0
  6
Continuous
 62
     7
100
AcDbLine
 10
117.9013448244
 20
141.5008181113
 30
0.0
 11
117.9013448244
 21
144.1008181113
 31
0.0
  0
LINE
  5
A5
330
75
100
AcDbEntity
  8
DV1_0
  6
Continuous
 62
     7
100
AcDbLine
 10
91.0513448244
 20
144.1008181113
 30
0.0
 11
91.0513448244
 21
141.5008181113
 31
0.0
  0
LINE
  5
A6
330
75
100
AcDbEntity
  8
DV1_0
  6
Continuous
 62
     7
100
AcDbLine
 10
119.4763448244
 20
140.8008181113
 30
0.0
 11
119.4763448244
 21
141.2008181113
 31
0.0
  0
LINE
  5
A7
330
75
100
AcDbEntity
  8
DV1_0
  6
Continuous
 62
     7
100
AcDbLine
 10
89.4763448244
 20
141.2008181113
 30
0.0
 11
89.4763448244
 21
140.8008181113
 31
0.0
  0
LINE
  5
A8
330
75
100
AcDbEntity
  8
DV1_0
  6
Continuous
 62
     7
100
AcDbLine
 10
89.4763448244
 20
140.8008181113
 30
0.0
 11
90.0293832738
 21
140.7033025113
 31
0.0
  0
LINE
  5
A9
330
75
100
AcDbEntity
  8
DV1_0
  6
Continuous
 62
     7
100
AcDbLine
 10
118.923306375
 20
140.7033025113
 30
0.0
 11
119.4763448244
 21
140.8008181113
 31
0.0
  0
LINE
  5
AA
330
75
100
AcDbEntity
  8
DV1_0
  6
Continuous
 62
     7
100
AcDbLine
 10
119.4763448244
 20
136.4151115111
 30
0.0
 11
118.76107446
 21
140.4716113252
 31
0.0
  0
LINE
  5
AB
330
75
100
AcDbEntity
  8
DV1_0
  6
Continuous
 62
     7
100
AcDbLine
 10
90.1916151889
 20
140.4716113252
 30
0.0
 11
89.4763448244
 21
136.4151115111
 31
0.0
  0
LINE
  5
AC
330
75
100
AcDbEntity
  8
DV1_0
  6
Continuous
 62
     7
100
AcDbLine
 10
119.4763448244
 20
130.7508181113
 30
0.0
 11
119.4763448244
 21
136.4151115111
 31
0.0
  0
LINE
  5
AD
330
75
100
AcDbEntity
  8
DV1_0
  6
Continuous
 62
     7
100
AcDbLine
 10
89.4763448244
 20
136.4151115111
 30
0.0
 11
89.4763448244
 21
130.7508181113
 31
0.0
  0
ARC
  5
AE
330
75
100
AcDbEntity
  8
DV1_0
  6
Continuous
 62
     7
100
AcDbCircle
 10
118.1013448244
 20
144.1008181113
 30
0.0
 40
0.2000000000000005
100
AcDbArc
 50
90.0
 51
180.0
  0
ARC
  5
AF
330
75
100
AcDbEntity
  8
DV1_0
  6
Continuous
 62
     7
100
AcDbCircle
 10
90.8513448244
 20
144.1008181113
 30
0.0
 40
0.1999999999999988
100
AcDbArc
 50
0.0
 51
90.0
  0
ARC
  5
B0
330
75
100
AcDbEntity
  8
DV1_0
  6
Continuous
 62
     7
100
AcDbCircle
 10
118.9580360106
 20
145.0952952619
 30
0.0
 40
0.1999999999999954
100
AcDbArc
 50
170.0
 51
260.0
  0
ARC
  5
B1
330
75
100
AcDbEntity
  8
DV1_0
  6
Continuous
 62
     7
100
AcDbCircle
 10
89.9946536383
 20
145.0952952619
 30
0.0
 40
0.1999999999999996
100
AcDbArc
 50
280.0
 51
10.0
  0
ARC
  5
B2
330
75
100
AcDbEntity
  8
DV1_0
  6
Continuous
 62
     7
100
AcDbCircle
 10
90.8513448244
 20
141.5008181113
 30
0.0
 40
0.2000000000000005
100
AcDbArc
 50
270.0
 51
0.0
  0
ARC
  5
B3
330
75
100
AcDbEntity
  8
DV1_0
  6
Continuous
 62
     7
100
AcDbCircle
 10
118.1013448244
 20
141.5008181113
 30
0.0
 40
0.1999999999999988
100
AcDbArc
 50
180.0
 51
270.0
  0
ARC
  5
B4
330
75
100
AcDbEntity
  8
DV1_0
  6
Continuous
 62
     7
100
AcDbCircle
 10
118.9580360106
 20
140.5063409607
 30
0.0
 40
0.1999999999999996
100
AcDbArc
 50
100.0
 51
190.0
  0
ARC
  5
B5
330
75
100
AcDbEntity
  8
DV1_0
  6
Continuous
 62
     7
100
AcDbCircle
 10
89.9946536383
 20
140.5063409607
 30
0.0
 40
0.1999999999999952
100
AcDbArc
 50
350.0
 51
80.0
  0
ARC
  5
B6
330
75
100
AcDbEntity
  8
DV1_0
  6
Continuous
 62
     7
100
AcDbCircle
 10
119.3763448244
 20
144.4008181113
 30
0.0
 40
0.0999999999999959
100
AcDbArc
 50
270.0
 51
0.0
  0
ARC
  5
B7
330
75
100
AcDbEntity
  8
DV1_0
  6
Continuous
 62
     7
100
AcDbCircle
 10
89.5763448244
 20
144.4008181113
 30
0.0
 40
0.0999999999999994
100
AcDbArc
 50
180.0
 51
270.0
  0
ARC
  5
B8
330
75
100
AcDbEntity
  8
DV1_0
  6
Continuous
 62
     7
100
AcDbCircle
 10
89.5763448244
 20
141.2008181113
 30
0.0
 40
0.1000000000000029
100
AcDbArc
 50
90.0
 51
180.0
  0
ARC
  5
B9
330
75
100
AcDbEntity
  8
DV1_0
  6
Continuous
 62
     7
100
AcDbCircle
 10
119.3763448244
 20
141.2008181113
 30
0.0
 40
0.0999999999999994
100
AcDbArc
 50
0.0
 51
90.0
  0
LINE
  5
BA
330
75
100
AcDbEntity
  8
DV1_0
  6
Continuous
 62
     7
100
AcDbLine
 10
119.4763448244
 20
154.8508181113
 30
0.0
 11
119.2763448244
 21
155.0508181113
 31
0.0
  0
LINE
  5
BB
330
75
100
AcDbEntity
  8
DV1_0
  6
Continuous
 62
     7
100
AcDbLine
 10
89.6763448244
 20
155.0508181113
 30
0.0
 11
89.4763448244
 21
154.8508181113
 31
0.0
  0
LINE
  5
BC
330
75
100
AcDbEntity
  8
DV1_0
  6
Continuous
 62
     7
100
AcDbLine
 10
89.4763448244
 20
130.7508181113
 30
0.0
 11
89.6763448244
 21
130.5508181113
 31
0.0
  0
LINE
  5
BD
330
75
100
AcDbEntity
  8
DV1_0
  6
Continuous
 62
     7
100
AcDbLine
 10
119.2763448244
 20
130.5508181113
 30
0.0
 11
119.4763448244
 21
130.7508181113
 31
0.0
  0
LINE
  5
BE
330
75
100
AcDbEntity
  8
DV1_0
  6
Continuous
 62
     7
100
AcDbLine
 10
122.4763448244
 20
183.2008181113
 30
0.0
 11
86.4763448244
 21
183.2008181113
 31
0.0
  0
LINE
  5
BF
330
75
100
AcDbEntity
  8
DV1_0
  6
Continuous
 62
     7
100
AcDbLine
 10
124.4763448244
 20
189.8508181113
 30
0.0
 11
84.4763448244
 21
189.8508181113
 31
0.0
  0
LINE
  5
C0
330
75
100
AcDbEntity
  8
DV1_0
  6
Continuous
 62
     7
100
AcDbLine
 10
112.9763448244
 20
207.2508181113
 30
0.0
 11
95.9763448244
 21
207.2508181113
 31
0.0
  0
LINE
  5
C1
330
75
100
AcDbEntity
  8
DV1_0
  6
Continuous
 62
     7
100
AcDbLine
 10
115.4763448244
 20
209.7508181113
 30
0.0
 11
93.4763448244
 21
209.7508181113
 31
0.0
  0
LINE
  5
C2
330
75
100
AcDbEntity
  8
DV1_0
  6
Continuous
 62
     7
100
AcDbLine
 10
115.4763448244
 20
223.3508181114
 30
0.0
 11
93.4763448244
 21
223.3508181114
 31
0.0
  0
LINE
  5
C3
330
75
100
AcDbEntity
  8
DV1_0
  6
Continuous
 62
     7
100
AcDbLine
 10
113.9763448244
 20
224.8508181113
 30
0.0
 11
94.9763448244
 21
224.8508181113
 31
0.0
  0
LINE
  5
C4
330
75
100
AcDbEntity
  8
DV1_0
  6
Continuous
 62
     7
100
AcDbLine
 10
112.9763448244
 20
206.2508181113
 30
0.0
 11
95.9763448244
 21
206.2508181113
 31
0.0
  0
LINE
  5
C5
330
75
100
AcDbEntity
  8
DV1_0
  6
Continuous
 62
     7
100
AcDbLine
 10
124.4763448244
 20
191.8508181113
 30
0.0
 11
84.4763448244
 21
191.8508181113
 31
0.0
  0
LINE
  5
C6
330
75
100
AcDbEntity
  8
DV1_0
  6
Continuous
 62
     7
100
AcDbLine
 10
92.4763448244
 20
203.0508181113
 30
0.0
 11
96.6076144055
 21
203.0508181113
 31
0.0
  0
LINE
  5
C7
330
75
100
AcDbEntity
  8
DV1_0
  6
Continuous
 62
     7
100
AcDbLine
 10
122.9513448244
 20
188.79770922
 30
0.0
 11
86.0013448244
 21
188.79770922
 31
0.0
  0
LINE
  5
C8
330
75
100
AcDbEntity
  8
DV1_0
  6
Continuous
 62
     7
100
AcDbLine
 10
122.7763448244
 20
189.4508181113
 30
0.0
 11
86.1763448244
 21
189.4508181113
 31
0.0
  0
LINE
  5
C9
330
75
100
AcDbEntity
  8
DV1_0
  6
Continuous
 62
     7
100
AcDbLine
 10
89.0763448244
 20
197.8508181113
 30
0.0
 11
119.8763448244
 21
197.8508181113
 31
0.0
  0
LINE
  5
CA
330
75
100
AcDbEntity
  8
DV1_0
  6
Continuous
 62
     7
100
AcDbLine
 10
119.9763448244
 20
194.8508181113
 30
0.0
 11
88.9763448244
 21
194.8508181113
 31
0.0
  0
LINE
  5
CB
330
75
100
AcDbEntity
  8
DV1_0
  6
Continuous
 62
     7
100
AcDbLine
 10
112.9763448244
 20
228.3508181113
 30
0.0
 11
95.9763448244
 21
228.3508181113
 31
0.0
  0
LINE
  5
CC
330
75
100
AcDbEntity
  8
DV1_0
  6
Continuous
 62
     7
100
AcDbLine
 10
96.4763448244
 20
228.8508181113
 30
0.0
 11
112.4763448244
 21
228.8508181113
 31
0.0
  0
LINE
  5
CD
330
75
100
AcDbEntity
  8
DV1_0
  6
Continuous
 62
     7
100
AcDbLine
 10
120.9763448244
 20
177.8508181113
 30
0.0
 11
87.9763448244
 21
177.8508181113
 31
0.0
  0
LINE
  5
CE
330
75
100
AcDbEntity
  8
DV1_0
  6
Continuous
 62
     7
100
AcDbLine
 10
122.4763448244
 20
179.3508181113
 30
0.0
 11
86.4763448244
 21
179.3508181113
 31
0.0
  0
LINE
  5
CF
330
75
100
AcDbEntity
  8
DV1_0
  6
Continuous
 62
     7
100
AcDbLine
 10
119.3263448244
 20
155.0508181113
 30
0.0
 11
89.6263448244
 21
155.0508181113
 31
0.0
  0
LINE
  5
D0
330
75
100
AcDbEntity
  8
DV1_0
  6
Continuous
 62
     7
100
AcDbLine
 10
92.4763448244
 20
203.0536441788
 30
0.0
 11
92.4763448244
 21
201.5508181113
 31
0.0
  0
LINE
  5
D1
330
75
100
AcDbEntity
  8
DV1_0
  6
Continuous
 62
     7
100
AcDbLine
 10
92.4763448244
 20
197.8508181113
 30
0.0
 11
92.4763448244
 21
198.8508181113
 31
0.0
  0
LINE
  5
D2
330
75
100
AcDbEntity
  8
DV1_0
  6
Continuous
 62
     7
100
AcDbLine
 10
92.4763448244
 20
198.8508181113
 30
0.0
 11
92.4763448244
 21
201.0508181113
 31
0.0
  0
LINE
  5
D3
330
75
100
AcDbEntity
  8
DV1_0
  6
Continuous
 62
     7
100
AcDbLine
 10
92.4763448244
 20
201.0508181113
 30
0.0
 11
92.4763448244
 21
201.5508181113
 31
0.0
  0
LINE
  5
D4
330
75
100
AcDbEntity
  8
DV1_0
  6
Continuous
 62
     7
100
AcDbLine
 10
98.4763448244
 20
203.0508181113
 30
0.0
 11
110.4763448244
 21
203.0508181113
 31
0.0
  0
LINE
  5
D5
330
75
100
AcDbEntity
  8
DV1_0
  6
Continuous
 62
     7
100
AcDbLine
 10
93.120273503
 20
201.0508181113
 30
0.0
 11
92.4763448244
 21
201.0508181113
 31
0.0
  0
LINE
  5
D6
330
75
100
AcDbEntity
  8
DV1_0
  6
Continuous
 62
     7
100
AcDbLine
 10
93.120273503
 20
198.8508181113
 30
0.0
 11
92.4763448244
 21
198.8508181113
 31
0.0
  0
LINE
  5
D7
330
75
100
AcDbEntity
  8
DV1_0
  6
Continuous
 62
     7
100
AcDbLine
 10
93.120273503
 20
198.8508181113
 30
0.0
 11
93.120273503
 21
197.8508181113
 31
0.0
  0
LINE
  5
D8
330
75
100
AcDbEntity
  8
DV1_0
  6
Continuous
 62
     7
100
AcDbLine
 10
103.8324161458
 20
197.8508181113
 30
0.0
 11
103.8324161458
 21
198.8508181113
 31
0.0
  0
LINE
  5
D9
330
75
100
AcDbEntity
  8
DV1_0
  6
Continuous
 62
     7
100
AcDbLine
 10
103.8324161458
 20
198.8508181113
 30
0.0
 11
102.3338051288
 21
198.8508181113
 31
0.0
  0
LINE
  5
DA
330
75
100
AcDbEntity
  8
DV1_0
  6
Continuous
 62
     7
100
AcDbLine
 10
102.3338051288
 20
198.8508181113
 30
0.0
 11
102.3338051288
 21
201.0508181113
 31
0.0
  0
LINE
  5
DB
330
75
100
AcDbEntity
  8
DV1_0
  6
Continuous
 62
     7
100
AcDbLine
 10
102.3338051288
 20
201.0508181113
 30
0.0
 11
103.8324161458
 21
201.0508181113
 31
0.0
  0
LINE
  5
DC
330
75
100
AcDbEntity
  8
DV1_0
  6
Continuous
 62
     7
100
AcDbLine
 10
103.8324161458
 20
201.0508181113
 30
0.0
 11
103.8324161458
 21
201.5508181113
 31
0.0
  0
SPLINE
  5
DD
330
75
100
AcDbEntity
  8
DV1_0
  6
Continuous
 62
     7
100
AcDbSpline
210
0.0
220
0.0
230
1.0
 70
     8
 71
     3
 72
    14
 73
    10
 74
     0
 42
0.000000001
 43
0.0000000001
 40
0.0
 40
0.0
 40
0.0
 40
0.0
 40
0.4999999999999992
 40
0.4999999999999992
 40
0.749999999999999
 40
0.749999999999999
 40
0.8749999999999996
 40
0.8749999999999996
 40
1.0
 40
1.0
 40
1.0
 40
1.0
 10
98.47634482441853
 20
203.050818111347
 30
0.0
 10
99.45229526407958
 20
203.0508181113472
 30
0.0
 10
100.4309637691305
 20
203.0759420148822
 30
0.0
 10
101.888635416537
 20
202.9265839312973
 30
0.0
 10
102.3771821080676
 20
202.8445026465412
 30
0.0
 10
103.0640712000553
 20
202.5637175895698
 30
0.0
 10
103.2894725308248
 20
202.4425141855738
 30
0.0
 10
103.6736542506266
 20
202.0867451594873
 30
0.0
 10
103.8324161458411
 20
201.8328863382159
 30
0.0
 10
103.8324161458411
 20
201.550818111347
 30
0.0
  0
SPLINE
  5
DE
330
75
100
AcDbEntity
  8
DV1_0
  6
Continuous
 62
     7
100
AcDbSpline
210
0.0
220
0.0
230
1.0
 70
     8
 71
     3
 72
    14
 73
    10
 74
     0
 42
0.000000001
 43
0.0000000001
 40
0.0
 40
0.0
 40
0.0
 40
0.0
 40
0.1249999999999999
 40
0.1249999999999999
 40
0.2499999999999998
 40
0.2499999999999998
 40
0.4999999999999996
 40
0.4999999999999996
 40
1.0
 40
1.0
 40
1.0
 40
1.0
 10
93.120273502996
 20
201.550818111347
 30
0.0
 10
93.12027350299599
 20
201.8333242387541
 30
0.0
 10
93.28267065050788
 20
202.0912714816315
 30
0.0
 10
93.66679204211331
 20
202.4446427697625
 30
0.0
 10
93.89339659579728
 20
202.5662201874918
 30
0.0
 10
94.58367532572848
 20
202.8467211979491
 30
0.0
 10
95.07358581273562
 20
202.9280062710638
 30
0.0
 10
96.52838472748847
 20
203.0757209617856
 30
0.0
 10
97.49453502995566
 20
203.0508181113472
 30
0.0
 10
98.47634482441853
 20
203.050818111347
 30
0.0
  0
LINE
  5
DF
330
75
100
AcDbEntity
  8
DV1_0
  6
Continuous
 62
     7
100
AcDbLine
 10
93.120273503
 20
201.5508181113
 30
0.0
 11
93.120273503
 21
201.0508181113
 31
0.0
  0
LINE
  5
E0
330
75
100
AcDbEntity
  8
DV1_0
  6
Continuous
 62
     7
100
AcDbLine
 10
93.120273503
 20
201.0508181113
 30
0.0
 11
94.61888452
 21
201.0508181113
 31
0.0
  0
LINE
  5
E1
330
75
100
AcDbEntity
  8
DV1_0
  6
Continuous
 62
     7
100
AcDbLine
 10
94.61888452
 20
201.0508181113
 30
0.0
 11
94.61888452
 21
198.8508181113
 31
0.0
  0
LINE
  5
E2
330
75
100
AcDbEntity
  8
DV1_0
  6
Continuous
 62
     7
100
AcDbLine
 10
94.61888452
 20
198.8508181113
 30
0.0
 11
93.120273503
 21
198.8508181113
 31
0.0
  0
LINE
  5
E3
330
75
100
AcDbEntity
  8
DV1_0
  6
Continuous
 62
     7
100
AcDbLine
 10
110.4763448244
 20
203.0508181113
 30
0.0
 11
116.4763448244
 21
203.0508181113
 31
0.0
  0
LINE
  5
E4
330
75
100
AcDbEntity
  8
DV1_0
  6
Continuous
 62
     7
100
AcDbLine
 10
105.120273503
 20
201.0508181113
 30
0.0
 11
103.8324161458
 21
201.0508181113
 31
0.0
  0
LINE
  5
E5
330
75
100
AcDbEntity
  8
DV1_0
  6
Continuous
 62
     7
100
AcDbLine
 10
105.120273503
 20
198.8508181113
 30
0.0
 11
103.8324161458
 21
198.8508181113
 31
0.0
  0
LINE
  5
E6
330
75
100
AcDbEntity
  8
DV1_0
  6
Continuous
 62
     7
100
AcDbLine
 10
105.120273503
 20
198.8508181113
 30
0.0
 11
105.120273503
 21
197.8508181113
 31
0.0
  0
LINE
  5
E7
330
75
100
AcDbEntity
  8
DV1_0
  6
Continuous
 62
     7
100
AcDbLine
 10
115.8324161458
 20
197.8508181113
 30
0.0
 11
115.8324161458
 21
198.8508181113
 31
0.0
  0
LINE
  5
E8
330
75
100
AcDbEntity
  8
DV1_0
  6
Continuous
 62
     7
100
AcDbLine
 10
115.8324161458
 20
198.8508181113
 30
0.0
 11
114.3338051288
 21
198.8508181113
 31
0.0
  0
LINE
  5
E9
330
75
100
AcDbEntity
  8
DV1_0
  6
Continuous
 62
     7
100
AcDbLine
 10
114.3338051288
 20
198.8508181113
 30
0.0
 11
114.3338051288
 21
201.0508181113
 31
0.0
  0
LINE
  5
EA
330
75
100
AcDbEntity
  8
DV1_0
  6
Continuous
 62
     7
100
AcDbLine
 10
114.3338051288
 20
201.0508181113
 30
0.0
 11
115.8324161458
 21
201.0508181113
 31
0.0
  0
LINE
  5
EB
330
75
100
AcDbEntity
  8
DV1_0
  6
Continuous
 62
     7
100
AcDbLine
 10
115.8324161458
 20
201.0508181113
 30
0.0
 11
115.8324161458
 21
201.5508181113
 31
0.0
  0
SPLINE
  5
EC
330
75
100
AcDbEntity
  8
DV1_0
  6
Continuous
 62
     7
100
AcDbSpline
210
0.0
220
0.0
230
1.0
 70
     8
 71
     3
 72
    14
 73
    10
 74
     0
 42
0.000000001
 43
0.0000000001
 40
0.0
 40
0.0
 40
0.0
 40
0.0
 40
0.4999999999999991
 40
0.4999999999999991
 40
0.749999999999999
 40
0.749999999999999
 40
0.8749999999999994
 40
0.8749999999999994
 40
1.0
 40
1.0
 40
1.0
 40
1.0
 10
110.4763448244185
 20
203.050818111347
 30
0.0
 10
111.4522952640796
 20
203.0508181113472
 30
0.0
 10
112.4309637691305
 20
203.0759420148822
 30
0.0
 10
113.888635416537
 20
202.9265839312973
 30
0.0
 10
114.3771821080676
 20
202.8445026465412
 30
0.0
 10
115.0640712000553
 20
202.5637175895698
 30
0.0
 10
115.2894725308248
 20
202.4425141855738
 30
0.0
 10
115.6736542506266
 20
202.0867451594873
 30
0.0
 10
115.8324161458411
 20
201.8328863382159
 30
0.0
 10
115.8324161458411
 20
201.550818111347
 30
0.0
  0
SPLINE
  5
ED
330
75
100
AcDbEntity
  8
DV1_0
  6
Continuous
 62
     7
100
AcDbSpline
210
0.0
220
0.0
230
1.0
 70
     8
 71
     3
 72
    14
 73
    10
 74
     0
 42
0.000000001
 43
0.0000000001
 40
0.0
 40
0.0
 40
0.0
 40
0.0
 40
0.125
 40
0.125
 40
0.2499999999999999
 40
0.2499999999999999
 40
0.4999999999999999
 40
0.4999999999999999
 40
1.0
 40
1.0
 40
1.0
 40
1.0
 10
105.120273502996
 20
201.550818111347
 30
0.0
 10
105.120273502996
 20
201.8333242387541
 30
0.0
 10
105.2826706505079
 20
202.0912714816315
 30
0.0
 10
105.6667920421133
 20
202.4446427697625
 30
0.0
 10
105.8933965957973
 20
202.5662201874918
 30
0.0
 10
106.5836753257285
 20
202.8467211979491
 30
0.0
 10
107.0735858127356
 20
202.9280062710638
 30
0.0
 10
108.5283847274885
 20
203.0757209617856
 30
0.0
 10
109.4945350299557
 20
203.0508181113472
 30
0.0
 10
110.4763448244185
 20
203.050818111347
 30
0.0
  0
LINE
  5
EE
330
75
100
AcDbEntity
  8
DV1_0
  6
Continuous
 62
     7
100
AcDbLine
 10
105.120273503
 20
201.5508181113
 30
0.0
 11
105.120273503
 21
201.0508181113
 31
0.0
  0
LINE
  5
EF
330
75
100
AcDbEntity
  8
DV1_0
  6
Continuous
 62
     7
100
AcDbLine
 10
105.120273503
 20
201.0508181113
 30
0.0
 11
106.61888452
 21
201.0508181113
 31
0.0
  0
LINE
  5
F0
330
75
100
AcDbEntity
  8
DV1_0
  6
Continuous
 62
     7
100
AcDbLine
 10
106.61888452
 20
201.0508181113
 30
0.0
 11
106.61888452
 21
198.8508181113
 31
0.0
  0
LINE
  5
F1
330
75
100
AcDbEntity
  8
DV1_0
  6
Continuous
 62
     7
100
AcDbLine
 10
106.61888452
 20
198.8508181113
 30
0.0
 11
105.120273503
 21
198.8508181113
 31
0.0
  0
LINE
  5
F2
330
75
100
AcDbEntity
  8
DV1_0
  6
Continuous
 62
     7
100
AcDbLine
 10
116.4763448244
 20
201.0508181113
 30
0.0
 11
115.8324161458
 21
201.0508181113
 31
0.0
  0
LINE
  5
F3
330
75
100
AcDbEntity
  8
DV1_0
  6
Continuous
 62
     7
100
AcDbLine
 10
116.4763448244
 20
198.8508181113
 30
0.0
 11
115.8324161458
 21
198.8508181113
 31
0.0
  0
LINE
  5
F4
330
75
100
AcDbEntity
  8
DV1_0
  6
Continuous
 62
     7
100
AcDbLine
 10
116.4763448244
 20
198.8508181113
 30
0.0
 11
116.4763448244
 21
197.8508181113
 31
0.0
  0
LINE
  5
F5
330
75
100
AcDbEntity
  8
DV1_0
  6
Continuous
 62
     7
100
AcDbLine
 10
116.4763448244
 20
201.5508181113
 30
0.0
 11
116.4763448244
 21
203.0536276132
 31
0.0
  0
LINE
  5
F6
330
75
100
AcDbEntity
  8
DV1_0
  6
Continuous
 62
     7
100
AcDbLine
 10
116.4763448244
 20
201.5508181113
 30
0.0
 11
116.4763448244
 21
201.0508181113
 31
0.0
  0
LINE
  5
F7
330
75
100
AcDbEntity
  8
DV1_0
  6
Continuous
 62
     7
100
AcDbLine
 10
116.4763448244
 20
201.0508181113
 30
0.0
 11
116.4763448244
 21
198.8508181113
 31
0.0
  0
LINE
  5
F8
330
75
100
AcDbEntity
  8
DV1_0
  6
Continuous
 62
     7
100
AcDbLine
 10
120.0563448244
 20
194.9308181113
 30
0.0
 11
120.4709715679
 21
195.3508181113
 31
0.0
  0
LINE
  5
F9
330
75
100
AcDbEntity
  8
DV1_0
  6
Continuous
 62
     7
100
AcDbLine
 10
120.4709715679
 20
197.2508181113
 30
0.0
 11
120.4707513749
 21
197.2508181113
 31
0.0
  0
LINE
  5
FA
330
75
100
AcDbEntity
  8
DV1_0
  6
Continuous
 62
     7
100
AcDbLine
 10
120.4709715679
 20
195.3508181113
 30
0.0
 11
120.4709715679
 21
197.2508181113
 31
0.0
  0
LINE
  5
FB
330
75
100
AcDbEntity
  8
DV1_0
  6
Continuous
 62
     7
100
AcDbLine
 10
120.4709715679
 20
197.2508181113
 30
0.0
 11
120.0563448244
 21
197.6708181113
 31
0.0
  0
LINE
  5
FC
330
75
100
AcDbEntity
  8
DV1_0
  6
Continuous
 62
     7
100
AcDbLine
 10
120.4707513749
 20
195.3508181113
 30
0.0
 11
120.4709715679
 21
195.3508181113
 31
0.0
  0
LINE
  5
FD
330
75
100
AcDbEntity
  8
DV1_0
  6
Continuous
 62
     7
100
AcDbLine
 10
120.4273516007
 20
197.2508181113
 30
0.0
 11
120.4266916254
 21
197.2508181113
 31
0.0
  0
LINE
  5
FE
330
75
100
AcDbEntity
  8
DV1_0
  6
Continuous
 62
     7
100
AcDbLine
 10
120.0349929759
 20
197.6708181113
 30
0.0
 11
120.4707513749
 21
197.2508181113
 31
0.0
  0
LINE
  5
FF
330
75
100
AcDbEntity
  8
DV1_0
  6
Continuous
 62
     7
100
AcDbLine
 10
120.4707513749
 20
195.3508181113
 30
0.0
 11
120.0349929759
 21
194.9308181113
 31
0.0
  0
LINE
  5
100
330
75
100
AcDbEntity
  8
DV1_0
  6
Continuous
 62
     7
100
AcDbLine
 10
120.4273516007
 20
195.3508181113
 30
0.0
 11
120.4273516007
 21
197.2508181113
 31
0.0
  0
LINE
  5
101
330
75
100
AcDbEntity
  8
DV1_0
  6
Continuous
 62
     7
100
AcDbLine
 10
120.4273516007
 20
197.2508181113
 30
0.0
 11
120.0349929759
 21
197.6708181113
 31
0.0
  0
LINE
  5
102
330
75
100
AcDbEntity
  8
DV1_0
  6
Continuous
 62
     7
100
AcDbLine
 10
120.0349929759
 20
194.9308181113
 30
0.0
 11
120.4273516007
 21
195.3508181113
 31
0.0
  0
LINE
  5
103
330
75
100
AcDbEntity
  8
DV1_0
  6
Continuous
 62
     7
100
AcDbLine
 10
120.4707513749
 20
195.3508181113
 30
0.0
 11
120.4707513749
 21
197.2508181113
 31
0.0
  0
LINE
  5
104
330
75
100
AcDbEntity
  8
DV1_0
  6
Continuous
 62
     7
100
AcDbLine
 10
120.3400110327
 20
197.2508181113
 30
0.0
 11
120.3389130839
 21
197.2508181113
 31
0.0
  0
LINE
  5
105
330
75
100
AcDbEntity
  8
DV1_0
  6
Continuous
 62
     7
100
AcDbLine
 10
120.4266916254
 20
195.3508181113
 30
0.0
 11
120.4273516007
 21
195.3508181113
 31
0.0
  0
LINE
  5
106
330
75
100
AcDbEntity
  8
DV1_0
  6
Continuous
 62
     7
100
AcDbLine
 10
119.9709959543
 20
197.6708181113
 30
0.0
 11
120.4266916254
 21
197.2508181113
 31
0.0
  0
LINE
  5
107
330
75
100
AcDbEntity
  8
DV1_0
  6
Continuous
 62
     7
100
AcDbLine
 10
120.4266916254
 20
195.3508181113
 30
0.0
 11
119.9709959543
 21
194.9308181113
 31
0.0
  0
LINE
  5
108
330
75
100
AcDbEntity
  8
DV1_0
  6
Continuous
 62
     7
100
AcDbLine
 10
120.3400110327
 20
195.3508181113
 30
0.0
 11
120.3400110327
 21
197.2508181113
 31
0.0
  0
LINE
  5
109
330
75
100
AcDbEntity
  8
DV1_0
  6
Continuous
 62
     7
100
AcDbLine
 10
120.3400110327
 20
197.2508181113
 30
0.0
 11
119.9709959543
 21
197.6708181113
 31
0.0
  0
LINE
  5
10A
330
75
100
AcDbEntity
  8
DV1_0
  6
Continuous
 62
     7
100
AcDbLine
 10
119.9709959543
 20
194.9308181113
 30
0.0
 11
120.3400110327
 21
195.3508181113
 31
0.0
  0
LINE
  5
10B
330
75
100
AcDbEntity
  8
DV1_0
  6
Continuous
 62
     7
100
AcDbLine
 10
120.4266916254
 20
195.3508181113
 30
0.0
 11
120.4266916254
 21
197.2508181113
 31
0.0
  0
LINE
  5
10C
330
75
100
AcDbEntity
  8
DV1_0
  6
Continuous
 62
     7
100
AcDbLine
 10
120.2091892583
 20
197.2508181113
 30
0.0
 11
120.2076563455
 21
197.2508181113
 31
0.0
  0
LINE
  5
10D
330
75
100
AcDbEntity
  8
DV1_0
  6
Continuous
 62
     7
100
AcDbLine
 10
120.3389130839
 20
195.3508181113
 30
0.0
 11
120.3400110327
 21
195.3508181113
 31
0.0
  0
LINE
  5
10E
330
75
100
AcDbEntity
  8
DV1_0
  6
Continuous
 62
     7
100
AcDbLine
 10
119.8645291709
 20
197.6708181113
 30
0.0
 11
120.3389130839
 21
197.2508181113
 31
0.0
  0
LINE
  5
10F
330
75
100
AcDbEntity
  8
DV1_0
  6
Continuous
 62
     7
100
AcDbLine
 10
120.3389130839
 20
195.3508181113
 30
0.0
 11
119.8645291709
 21
194.9308181113
 31
0.0
  0
LINE
  5
110
330
75
100
AcDbEntity
  8
DV1_0
  6
Continuous
 62
     7
100
AcDbLine
 10
120.2091892583
 20
195.3508181113
 30
0.0
 11
120.2091892583
 21
197.2508181113
 31
0.0
  0
LINE
  5
111
330
75
100
AcDbEntity
  8
DV1_0
  6
Continuous
 62
     7
100
AcDbLine
 10
120.2091892583
 20
197.2508181113
 30
0.0
 11
119.8645291709
 21
197.6708181113
 31
0.0
  0
LINE
  5
112
330
75
100
AcDbEntity
  8
DV1_0
  6
Continuous
 62
     7
100
AcDbLine
 10
119.8645291709
 20
194.9308181113
 30
0.0
 11
120.2091892583
 21
195.3508181113
 31
0.0
  0
LINE
  5
113
330
75
100
AcDbEntity
  8
DV1_0
  6
Continuous
 62
     7
100
AcDbLine
 10
120.3389130839
 20
195.3508181113
 30
0.0
 11
120.3389130839
 21
197.2508181113
 31
0.0
  0
LINE
  5
114
330
75
100
AcDbEntity
  8
DV1_0
  6
Continuous
 62
     7
100
AcDbLine
 10
120.0352448509
 20
197.2508181113
 30
0.0
 11
120.0332811756
 21
197.2508181113
 31
0.0
  0
LINE
  5
115
330
75
100
AcDbEntity
  8
DV1_0
  6
Continuous
 62
     7
100
AcDbLine
 10
120.2076563455
 20
195.3508181113
 30
0.0
 11
120.2091892583
 21
195.3508181113
 31
0.0
  0
LINE
  5
116
330
75
100
AcDbEntity
  8
DV1_0
  6
Continuous
 62
     7
100
AcDbLine
 10
119.7158844439
 20
197.6708181113
 30
0.0
 11
120.2076563455
 21
197.2508181113
 31
0.0
  0
LINE
  5
117
330
75
100
AcDbEntity
  8
DV1_0
  6
Continuous
 62
     7
100
AcDbLine
 10
120.2076563455
 20
195.3508181113
 30
0.0
 11
119.7158844439
 21
194.9308181113
 31
0.0
  0
LINE
  5
118
330
75
100
AcDbEntity
  8
DV1_0
  6
Continuous
 62
     7
100
AcDbLine
 10
120.0352448509
 20
195.3508181113
 30
0.0
 11
120.0352448509
 21
197.2508181113
 31
0.0
  0
LINE
  5
119
330
75
100
AcDbEntity
  8
DV1_0
  6
Continuous
 62
     7
100
AcDbLine
 10
120.0352448509
 20
197.2508181113
 30
0.0
 11
119.7158844439
 21
197.6708181113
 31
0.0
  0
LINE
  5
11A
330
75
100
AcDbEntity
  8
DV1_0
  6
Continuous
 62
     7
100
AcDbLine
 10
119.7158844439
 20
194.9308181113
 30
0.0
 11
120.0352448509
 21
195.3508181113
 31
0.0
  0
LINE
  5
11B
330
75
100
AcDbEntity
  8
DV1_0
  6
Continuous
 62
     7
100
AcDbLine
 10
120.2076563455
 20
195.3508181113
 30
0.0
 11
120.2076563455
 21
197.2508181113
 31
0.0
  0
LINE
  5
11C
330
75
100
AcDbEntity
  8
DV1_0
  6
Continuous
 62
     7
100
AcDbLine
 10
119.81865458
 20
197.2508181113
 30
0.0
 11
119.8162655246
 21
197.2508181113
 31
0.0
  0
LINE
  5
11D
330
75
100
AcDbEntity
  8
DV1_0
  6
Continuous
 62
     7
100
AcDbLine
 10
120.0332811756
 20
195.3508181113
 30
0.0
 11
120.0352448509
 21
195.3508181113
 31
0.0
  0
LINE
  5
11E
330
75
100
AcDbEntity
  8
DV1_0
  6
Continuous
 62
     7
100
AcDbLine
 10
119.525469198
 20
197.6708181113
 30
0.0
 11
120.0332811756
 21
197.2508181113
 31
0.0
  0
LINE
  5
11F
330
75
100
AcDbEntity
  8
DV1_0
  6
Continuous
 62
     7
100
AcDbLine
 10
120.0332811756
 20
195.3508181113
 30
0.0
 11
119.525469198
 21
194.9308181113
 31
0.0
  0
LINE
  5
120
330
75
100
AcDbEntity
  8
DV1_0
  6
Continuous
 62
     7
100
AcDbLine
 10
119.81865458
 20
195.3508181113
 30
0.0
 11
119.81865458
 21
197.2508181113
 31
0.0
  0
LINE
  5
121
330
75
100
AcDbEntity
  8
DV1_0
  6
Continuous
 62
     7
100
AcDbLine
 10
119.81865458
 20
197.2508181113
 30
0.0
 11
119.525469198
 21
197.6708181113
 31
0.0
  0
LINE
  5
122
330
75
100
AcDbEntity
  8
DV1_0
  6
Continuous
 62
     7
100
AcDbLine
 10
119.525469198
 20
194.9308181113
 30
0.0
 11
119.81865458
 21
195.3508181113
 31
0.0
  0
LINE
  5
123
330
75
100
AcDbEntity
  8
DV1_0
  6
Continuous
 62
     7
100
AcDbLine
 10
120.0332811756
 20
195.3508181113
 30
0.0
 11
120.0332811756
 21
197.2508181113
 31
0.0
  0
LINE
  5
124
330
75
100
AcDbEntity
  8
DV1_0
  6
Continuous
 62
     7
100
AcDbLine
 10
119.5600121045
 20
197.2508181113
 30
0.0
 11
119.5572042172
 21
197.2508181113
 31
0.0
  0
LINE
  5
125
330
75
100
AcDbEntity
  8
DV1_0
  6
Continuous
 62
     7
100
AcDbLine
 10
119.8162655246
 20
195.3508181113
 30
0.0
 11
119.81865458
 21
195.3508181113
 31
0.0
  0
LINE
  5
126
330
75
100
AcDbEntity
  8
DV1_0
  6
Continuous
 62
     7
100
AcDbLine
 10
119.2938053483
 20
197.6708181113
 30
0.0
 11
119.8162655246
 21
197.2508181113
 31
0.0
  0
LINE
  5
127
330
75
100
AcDbEntity
  8
DV1_0
  6
Continuous
 62
     7
100
AcDbLine
 10
119.8162655246
 20
195.3508181113
 30
0.0
 11
119.2938053483
 21
194.9308181113
 31
0.0
  0
LINE
  5
128
330
75
100
AcDbEntity
  8
DV1_0
  6
Continuous
 62
     7
100
AcDbLine
 10
119.5600121045
 20
195.3508181113
 30
0.0
 11
119.5600121045
 21
197.2508181113
 31
0.0
  0
LINE
  5
129
330
75
100
AcDbEntity
  8
DV1_0
  6
Continuous
 62
     7
100
AcDbLine
 10
119.5600121045
 20
197.2508181113
 30
0.0
 11
119.2938053483
 21
197.6708181113
 31
0.0
  0
LINE
  5
12A
330
75
100
AcDbEntity
  8
DV1_0
  6
Continuous
 62
     7
100
AcDbLine
 10
119.2938053483
 20
194.9308181113
 30
0.0
 11
119.5600121045
 21
195.3508181113
 31
0.0
  0
LINE
  5
12B
330
75
100
AcDbEntity
  8
DV1_0
  6
Continuous
 62
     7
100
AcDbLine
 10
119.8162655246
 20
195.3508181113
 30
0.0
 11
119.8162655246
 21
197.2508181113
 31
0.0
  0
LINE
  5
12C
330
75
100
AcDbEntity
  8
DV1_0
  6
Continuous
 62
     7
100
AcDbLine
 10
119.2600263454
 20
197.2508181113
 30
0.0
 11
119.2568073224
 21
197.2508181113
 31
0.0
  0
LINE
  5
12D
330
75
100
AcDbEntity
  8
DV1_0
  6
Continuous
 62
     7
100
AcDbLine
 10
119.5572042172
 20
195.3508181113
 30
0.0
 11
119.5600121045
 21
195.3508181113
 31
0.0
  0
LINE
  5
12E
330
75
100
AcDbEntity
  8
DV1_0
  6
Continuous
 62
     7
100
AcDbLine
 10
119.0215278692
 20
197.6708181113
 30
0.0
 11
119.5572042172
 21
197.2508181113
 31
0.0
  0
LINE
  5
12F
330
75
100
AcDbEntity
  8
DV1_0
  6
Continuous
 62
     7
100
AcDbLine
 10
119.5572042172
 20
195.3508181113
 30
0.0
 11
119.0215278692
 21
194.9308181113
 31
0.0
  0
LINE
  5
130
330
75
100
AcDbEntity
  8
DV1_0
  6
Continuous
 62
     7
100
AcDbLine
 10
119.2600263454
 20
195.3508181113
 30
0.0
 11
119.2600263454
 21
197.2508181113
 31
0.0
  0
LINE
  5
131
330
75
100
AcDbEntity
  8
DV1_0
  6
Continuous
 62
     7
100
AcDbLine
 10
119.2600263454
 20
197.2508181113
 30
0.0
 11
119.0215278692
 21
197.6708181113
 31
0.0
  0
LINE
  5
132
330
75
100
AcDbEntity
  8
DV1_0
  6
Continuous
 62
     7
100
AcDbLine
 10
119.0215278692
 20
194.9308181113
 30
0.0
 11
119.2600263454
 21
195.3508181113
 31
0.0
  0
LINE
  5
133
330
75
100
AcDbEntity
  8
DV1_0
  6
Continuous
 62
     7
100
AcDbLine
 10
119.5572042172
 20
195.3508181113
 30
0.0
 11
119.5572042172
 21
197.2508181113
 31
0.0
  0
LINE
  5
134
330
75
100
AcDbEntity
  8
DV1_0
  6
Continuous
 62
     7
100
AcDbLine
 10
118.9195195428
 20
197.2508181113
 30
0.0
 11
118.9158982073
 21
197.2508181113
 31
0.0
  0
LINE
  5
135
330
75
100
AcDbEntity
  8
DV1_0
  6
Continuous
 62
     7
100
AcDbLine
 10
119.2568073224
 20
195.3508181113
 30
0.0
 11
119.2600263454
 21
195.3508181113
 31
0.0
  0
LINE
  5
136
330
75
100
AcDbEntity
  8
DV1_0
  6
Continuous
 62
     7
100
AcDbLine
 10
118.7093830545
 20
197.6708181113
 30
0.0
 11
119.2568073224
 21
197.2508181113
 31
0.0
  0
LINE
  5
137
330
75
100
AcDbEntity
  8
DV1_0
  6
Continuous
 62
     7
100
AcDbLine
 10
119.2568073224
 20
195.3508181113
 30
0.0
 11
118.7093830545
 21
194.9308181113
 31
0.0
  0
LINE
  5
138
330
75
100
AcDbEntity
  8
DV1_0
  6
Continuous
 62
     7
100
AcDbLine
 10
118.9195195428
 20
195.3508181113
 30
0.0
 11
118.9195195428
 21
197.2508181113
 31
0.0
  0
LINE
  5
139
330
75
100
AcDbEntity
  8
DV1_0
  6
Continuous
 62
     7
100
AcDbLine
 10
118.9195195428
 20
197.2508181113
 30
0.0
 11
118.7093830545
 21
197.6708181113
 31
0.0
  0
LINE
  5
13A
330
75
100
AcDbEntity
  8
DV1_0
  6
Continuous
 62
     7
100
AcDbLine
 10
118.7093830545
 20
194.9308181113
 30
0.0
 11
118.9195195428
 21
195.3508181113
 31
0.0
  0
LINE
  5
13B
330
75
100
AcDbEntity
  8
DV1_0
  6
Continuous
 62
     7
100
AcDbLine
 10
119.2568073224
 20
195.3508181113
 30
0.0
 11
119.2568073224
 21
197.2508181113
 31
0.0
  0
LINE
  5
13C
330
75
100
AcDbEntity
  8
DV1_0
  6
Continuous
 62
     7
100
AcDbLine
 10
118.5394250023
 20
197.2508181113
 30
0.0
 11
118.5354112801
 21
197.2508181113
 31
0.0
  0
LINE
  5
13D
330
75
100
AcDbEntity
  8
DV1_0
  6
Continuous
 62
     7
100
AcDbLine
 10
118.9158982073
 20
195.3508181113
 30
0.0
 11
118.9195195428
 21
195.3508181113
 31
0.0
  0
LINE
  5
13E
330
75
100
AcDbEntity
  8
DV1_0
  6
Continuous
 62
     7
100
AcDbLine
 10
118.3582264713
 20
197.6708181113
 30
0.0
 11
118.9158982073
 21
197.2508181113
 31
0.0
  0
LINE
  5
13F
330
75
100
AcDbEntity
  8
DV1_0
  6
Continuous
 62
     7
100
AcDbLine
 10
118.9158982073
 20
195.3508181113
 30
0.0
 11
118.3582264713
 21
194.9308181113
 31
0.0
  0
LINE
  5
140
330
75
100
AcDbEntity
  8
DV1_0
  6
Continuous
 62
     7
100
AcDbLine
 10
118.5394250023
 20
195.3508181113
 30
0.0
 11
118.5394250023
 21
197.2508181113
 31
0.0
  0
LINE
  5
141
330
75
100
AcDbEntity
  8
DV1_0
  6
Continuous
 62
     7
100
AcDbLine
 10
118.5394250023
 20
197.2508181113
 30
0.0
 11
118.3582264713
 21
197.6708181113
 31
0.0
  0
LINE
  5
142
330
75
100
AcDbEntity
  8
DV1_0
  6
Continuous
 62
     7
100
AcDbLine
 10
118.3582264713
 20
194.9308181113
 30
0.0
 11
118.5394250023
 21
195.3508181113
 31
0.0
  0
LINE
  5
143
330
75
100
AcDbEntity
  8
DV1_0
  6
Continuous
 62
     7
100
AcDbLine
 10
118.9158982073
 20
195.3508181113
 30
0.0
 11
118.9158982073
 21
197.2508181113
 31
0.0
  0
LINE
  5
144
330
75
100
AcDbEntity
  8
DV1_0
  6
Continuous
 62
     7
100
AcDbLine
 10
118.1207845366
 20
197.2508181113
 30
0.0
 11
118.1163894289
 21
197.2508181113
 31
0.0
  0
LINE
  5
145
330
75
100
AcDbEntity
  8
DV1_0
  6
Continuous
 62
     7
100
AcDbLine
 10
118.5354112801
 20
195.3508181113
 30
0.0
 11
118.5394250023
 21
195.3508181113
 31
0.0
  0
LINE
  5
146
330
75
100
AcDbEntity
  8
DV1_0
  6
Continuous
 62
     7
100
AcDbLine
 10
117.9690206154
 20
197.6708181113
 30
0.0
 11
118.5354112801
 21
197.2508181113
 31
0.0
  0
LINE
  5
147
330
75
100
AcDbEntity
  8
DV1_0
  6
Continuous
 62
     7
100
AcDbLine
 10
118.5354112801
 20
195.3508181113
 30
0.0
 11
117.9690206154
 21
194.9308181113
 31
0.0
  0
LINE
  5
148
330
75
100
AcDbEntity
  8
DV1_0
  6
Continuous
 62
     7
100
AcDbLine
 10
118.1207845366
 20
195.3508181113
 30
0.0
 11
118.1207845366
 21
197.2508181113
 31
0.0
  0
LINE
  5
149
330
75
100
AcDbEntity
  8
DV1_0
  6
Continuous
 62
     7
100
AcDbLine
 10
118.1207845366
 20
197.2508181113
 30
0.0
 11
117.9690206154
 21
197.6708181113
 31
0.0
  0
LINE
  5
14A
330
75
100
AcDbEntity
  8
DV1_0
  6
Continuous
 62
     7
100
AcDbLine
 10
117.9690206154
 20
194.9308181113
 30
0.0
 11
118.1207845366
 21
195.3508181113
 31
0.0
  0
LINE
  5
14B
330
75
100
AcDbEntity
  8
DV1_0
  6
Continuous
 62
     7
100
AcDbLine
 10
118.5354112801
 20
195.3508181113
 30
0.0
 11
118.5354112801
 21
197.2508181113
 31
0.0
  0
LINE
  5
14C
330
75
100
AcDbEntity
  8
DV1_0
  6
Continuous
 62
     7
100
AcDbLine
 10
117.66474561
 20
197.2508181113
 30
0.0
 11
117.6599811636
 21
197.2508181113
 31
0.0
  0
LINE
  5
14D
330
75
100
AcDbEntity
  8
DV1_0
  6
Continuous
 62
     7
100
AcDbLine
 10
118.1163894289
 20
195.3508181113
 30
0.0
 11
118.1207845366
 21
195.3508181113
 31
0.0
  0
LINE
  5
14E
330
75
100
AcDbEntity
  8
DV1_0
  6
Continuous
 62
     7
100
AcDbLine
 10
117.542832273
 20
197.6708181113
 30
0.0
 11
118.1163894289
 21
197.2508181113
 31
0.0
  0
LINE
  5
14F
330
75
100
AcDbEntity
  8
DV1_0
  6
Continuous
 62
     7
100
AcDbLine
 10
118.1163894289
 20
195.3508181113
 30
0.0
 11
117.542832273
 21
194.9308181113
 31
0.0
  0
LINE
  5
150
330
75
100
AcDbEntity
  8
DV1_0
  6
Continuous
 62
     7
100
AcDbLine
 10
117.66474561
 20
195.3508181113
 30
0.0
 11
117.66474561
 21
197.2508181113
 31
0.0
  0
LINE
  5
151
330
75
100
AcDbEntity
  8
DV1_0
  6
Continuous
 62
     7
100
AcDbLine
 10
117.66474561
 20
197.2508181113
 30
0.0
 11
117.542832273
 21
197.6708181113
 31
0.0
  0
LINE
  5
152
330
75
100
AcDbEntity
  8
DV1_0
  6
Continuous
 62
     7
100
AcDbLine
 10
117.542832273
 20
194.9308181113
 30
0.0
 11
117.66474561
 21
195.3508181113
 31
0.0
  0
LINE
  5
153
330
75
100
AcDbEntity
  8
DV1_0
  6
Continuous
 62
     7
100
AcDbLine
 10
118.1163894289
 20
195.3508181113
 30
0.0
 11
118.1163894289
 21
197.2508181113
 31
0.0
  0
LINE
  5
154
330
75
100
AcDbEntity
  8
DV1_0
  6
Continuous
 62
     7
100
AcDbLine
 10
117.1725581936
 20
197.2508181113
 30
0.0
 11
117.1674374675
 21
197.2508181113
 31
0.0
  0
LINE
  5
155
330
75
100
AcDbEntity
  8
DV1_0
  6
Continuous
 62
     7
100
AcDbLine
 10
117.6599811636
 20
195.3508181113
 30
0.0
 11
117.66474561
 21
195.3508181113
 31
0.0
  0
LINE
  5
156
330
75
100
AcDbEntity
  8
DV1_0
  6
Continuous
 62
     7
100
AcDbLine
 10
117.0808295968
 20
197.6708181113
 30
0.0
 11
117.6599811636
 21
197.2508181113
 31
0.0
  0
LINE
  5
157
330
75
100
AcDbEntity
  8
DV1_0
  6
Continuous
 62
     7
100
AcDbLine
 10
117.6599811636
 20
195.3508181113
 30
0.0
 11
117.0808295968
 21
194.9308181113
 31
0.0
  0
LINE
  5
158
330
75
100
AcDbEntity
  8
DV1_0
  6
Continuous
 62
     7
100
AcDbLine
 10
117.1725581936
 20
195.3508181113
 30
0.0
 11
117.1725581936
 21
197.2508181113
 31
0.0
  0
LINE
  5
159
330
75
100
AcDbEntity
  8
DV1_0
  6
Continuous
 62
     7
100
AcDbLine
 10
117.1725581936
 20
197.2508181113
 30
0.0
 11
117.0808295968
 21
197.6708181113
 31
0.0
  0
LINE
  5
15A
330
75
100
AcDbEntity
  8
DV1_0
  6
Continuous
 62
     7
100
AcDbLine
 10
117.0808295968
 20
194.9308181113
 30
0.0
 11
117.1725581936
 21
195.3508181113
 31
0.0
  0
LINE
  5
15B
330
75
100
AcDbEntity
  8
DV1_0
  6
Continuous
 62
     7
100
AcDbLine
 10
117.6599811636
 20
195.3508181113
 30
0.0
 11
117.6599811636
 21
197.2508181113
 31
0.0
  0
LINE
  5
15C
330
75
100
AcDbEntity
  8
DV1_0
  6
Continuous
 62
     7
100
AcDbLine
 10
116.6455713388
 20
197.2508181113
 30
0.0
 11
116.6401083686
 21
197.2508181113
 31
0.0
  0
LINE
  5
15D
330
75
100
AcDbEntity
  8
DV1_0
  6
Continuous
 62
     7
100
AcDbLine
 10
117.1674374675
 20
195.3508181113
 30
0.0
 11
117.1725581936
 21
195.3508181113
 31
0.0
  0
LINE
  5
15E
330
75
100
AcDbEntity
  8
DV1_0
  6
Continuous
 62
     7
100
AcDbLine
 10
116.5842789039
 20
197.6708181113
 30
0.0
 11
117.1674374675
 21
197.2508181113
 31
0.0
  0
LINE
  5
15F
330
75
100
AcDbEntity
  8
DV1_0
  6
Continuous
 62
     7
100
AcDbLine
 10
117.1674374675
 20
195.3508181113
 30
0.0
 11
116.5842789039
 21
194.9308181113
 31
0.0
  0
LINE
  5
160
330
75
100
AcDbEntity
  8
DV1_0
  6
Continuous
 62
     7
100
AcDbLine
 10
116.6455713388
 20
195.3508181113
 30
0.0
 11
116.6455713388
 21
197.2508181113
 31
0.0
  0
LINE
  5
161
330
75
100
AcDbEntity
  8
DV1_0
  6
Continuous
 62
     7
100
AcDbLine
 10
116.6455713388
 20
197.2508181113
 30
0.0
 11
116.5842789039
 21
197.6708181113
 31
0.0
  0
LINE
  5
162
330
75
100
AcDbEntity
  8
DV1_0
  6
Continuous
 62
     7
100
AcDbLine
 10
116.5842789039
 20
194.9308181113
 30
0.0
 11
116.6455713388
 21
195.3508181113
 31
0.0
  0
LINE
  5
163
330
75
100
AcDbEntity
  8
DV1_0
  6
Continuous
 62
     7
100
AcDbLine
 10
117.1674374675
 20
195.3508181113
 30
0.0
 11
117.1674374675
 21
197.2508181113
 31
0.0
  0
LINE
  5
164
330
75
100
AcDbEntity
  8
DV1_0
  6
Continuous
 62
     7
100
AcDbLine
 10
116.08522948
 20
197.2508181113
 30
0.0
 11
116.0794392393
 21
197.2508181113
 31
0.0
  0
LINE
  5
165
330
75
100
AcDbEntity
  8
DV1_0
  6
Continuous
 62
     7
100
AcDbLine
 10
116.6401083686
 20
195.3508181113
 30
0.0
 11
116.6455713388
 21
195.3508181113
 31
0.0
  0
LINE
  5
166
330
75
100
AcDbEntity
  8
DV1_0
  6
Continuous
 62
     7
100
AcDbLine
 10
116.0545412054
 20
197.6708181113
 30
0.0
 11
116.6401083686
 21
197.2508181113
 31
0.0
  0
LINE
  5
167
330
75
100
AcDbEntity
  8
DV1_0
  6
Continuous
 62
     7
100
AcDbLine
 10
116.6401083686
 20
195.3508181113
 30
0.0
 11
116.0545412054
 21
194.9308181113
 31
0.0
  0
LINE
  5
168
330
75
100
AcDbEntity
  8
DV1_0
  6
Continuous
 62
     7
100
AcDbLine
 10
116.08522948
 20
195.3508181113
 30
0.0
 11
116.08522948
 21
197.2508181113
 31
0.0
  0
LINE
  5
169
330
75
100
AcDbEntity
  8
DV1_0
  6
Continuous
 62
     7
100
AcDbLine
 10
116.08522948
 20
197.2508181113
 30
0.0
 11
116.0545412054
 21
197.6708181113
 31
0.0
  0
LINE
  5
16A
330
75
100
AcDbEntity
  8
DV1_0
  6
Continuous
 62
     7
100
AcDbLine
 10
116.0545412054
 20
194.9308181113
 30
0.0
 11
116.08522948
 21
195.3508181113
 31
0.0
  0
LINE
  5
16B
330
75
100
AcDbEntity
  8
DV1_0
  6
Continuous
 62
     7
100
AcDbLine
 10
116.6401083686
 20
195.3508181113
 30
0.0
 11
116.6401083686
 21
197.2508181113
 31
0.0
  0
LINE
  5
16C
330
75
100
AcDbEntity
  8
DV1_0
  6
Continuous
 62
     7
100
AcDbLine
 10
115.4930684753
 20
197.2508181113
 30
0.0
 11
115.4869668347
 21
197.2508181113
 31
0.0
  0
LINE
  5
16D
330
75
100
AcDbEntity
  8
DV1_0
  6
Continuous
 62
     7
100
AcDbLine
 10
116.0794392393
 20
195.3508181113
 30
0.0
 11
116.08522948
 21
195.3508181113
 31
0.0
  0
ARC
  5
16E
330
75
100
AcDbEntity
  8
DV1_0
  6
Continuous
 62
     7
100
AcDbCircle
 10
80.6588148126
 20
148.4186674713
 30
0.0
 40
60.32577865974876
100
AcDbArc
 50
54.0445736664
 51
54.7296204952
  0
ARC
  5
16F
330
75
100
AcDbEntity
  8
DV1_0
  6
Continuous
 62
     7
100
AcDbCircle
 10
80.658877605
 20
244.1828810857
 30
0.0
 40
60.32567082774244
100
AcDbArc
 50
305.2703788925
 51
305.9554269459
  0
LINE
  5
170
330
75
100
AcDbEntity
  8
DV1_0
  6
Continuous
 62
     7
100
AcDbLine
 10
115.4930684753
 20
195.3508181113
 30
0.0
 11
115.4930684753
 21
197.2508181113
 31
0.0
  0
LINE
  5
171
330
75
100
AcDbEntity
  8
DV1_0
  6
Continuous
 62
     7
100
AcDbLine
 10
115.4930684753
 20
197.2508181113
 30
0.0
 11
115.4930684753
 21
197.6708181113
 31
0.0
  0
LINE
  5
172
330
75
100
AcDbEntity
  8
DV1_0
  6
Continuous
 62
     7
100
AcDbLine
 10
115.4930684753
 20
194.9308181113
 30
0.0
 11
115.4930684753
 21
195.3508181113
 31
0.0
  0
LINE
  5
173
330
75
100
AcDbEntity
  8
DV1_0
  6
Continuous
 62
     7
100
AcDbLine
 10
116.0794392393
 20
195.3508181113
 30
0.0
 11
116.0794392393
 21
197.2508181113
 31
0.0
  0
LINE
  5
174
330
75
100
AcDbEntity
  8
DV1_0
  6
Continuous
 62
     7
100
AcDbLine
 10
114.8707113968
 20
197.2508181113
 30
0.0
 11
114.8643150805
 21
197.2508181113
 31
0.0
  0
LINE
  5
175
330
75
100
AcDbEntity
  8
DV1_0
  6
Continuous
 62
     7
100
AcDbLine
 10
115.4869668347
 20
195.3508181113
 30
0.0
 11
115.4930684753
 21
195.3508181113
 31
0.0
  0
LINE
  5
176
330
75
100
AcDbEntity
  8
DV1_0
  6
Continuous
 62
     7
100
AcDbLine
 10
114.9013996715
 20
194.9308181113
 30
0.0
 11
114.9013996715
 21
197.6708181113
 31
0.0
  0
LINE
  5
177
330
75
100
AcDbEntity
  8
DV1_0
  6
Continuous
 62
     7
100
AcDbLine
 10
114.9013996715
 20
197.6708181113
 30
0.0
 11
115.4869668347
 21
197.2508181113
 31
0.0
  0
LINE
  5
178
330
75
100
AcDbEntity
  8
DV1_0
  6
Continuous
 62
     7
100
AcDbLine
 10
115.4869668347
 20
195.3508181113
 30
0.0
 11
114.9013996715
 21
194.9308181113
 31
0.0
  0
LINE
  5
179
330
75
100
AcDbEntity
  8
DV1_0
  6
Continuous
 62
     7
100
AcDbLine
 10
114.8707113968
 20
195.3508181113
 30
0.0
 11
114.8707113968
 21
197.2508181113
 31
0.0
  0
LINE
  5
17A
330
75
100
AcDbEntity
  8
DV1_0
  6
Continuous
 62
     7
100
AcDbLine
 10
114.8707113968
 20
197.2508181113
 30
0.0
 11
114.9013996715
 21
197.6708181113
 31
0.0
  0
LINE
  5
17B
330
75
100
AcDbEntity
  8
DV1_0
  6
Continuous
 62
     7
100
AcDbLine
 10
114.9013996715
 20
194.9308181113
 30
0.0
 11
114.8707113968
 21
195.3508181113
 31
0.0
  0
LINE
  5
17C
330
75
100
AcDbEntity
  8
DV1_0
  6
Continuous
 62
     7
100
AcDbLine
 10
115.4869668347
 20
195.3508181113
 30
0.0
 11
115.4869668347
 21
197.2508181113
 31
0.0
  0
LINE
  5
17D
330
75
100
AcDbEntity
  8
DV1_0
  6
Continuous
 62
     7
100
AcDbLine
 10
114.2198640821
 20
197.2508181113
 30
0.0
 11
114.213190622
 21
197.2508181113
 31
0.0
  0
LINE
  5
17E
330
75
100
AcDbEntity
  8
DV1_0
  6
Continuous
 62
     7
100
AcDbLine
 10
114.8643150805
 20
195.3508181113
 30
0.0
 11
114.8707113968
 21
195.3508181113
 31
0.0
  0
LINE
  5
17F
330
75
100
AcDbEntity
  8
DV1_0
  6
Continuous
 62
     7
100
AcDbLine
 10
114.281156517
 20
194.9308181113
 30
0.0
 11
114.281156517
 21
197.6708181113
 31
0.0
  0
LINE
  5
180
330
75
100
AcDbEntity
  8
DV1_0
  6
Continuous
 62
     7
100
AcDbLine
 10
114.281156517
 20
197.6708181113
 30
0.0
 11
114.8643150805
 21
197.2508181113
 31
0.0
  0
LINE
  5
181
330
75
100
AcDbEntity
  8
DV1_0
  6
Continuous
 62
     7
100
AcDbLine
 10
114.8643150805
 20
195.3508181113
 30
0.0
 11
114.281156517
 21
194.9308181113
 31
0.0
  0
LINE
  5
182
330
75
100
AcDbEntity
  8
DV1_0
  6
Continuous
 62
     7
100
AcDbLine
 10
114.2198640821
 20
195.3508181113
 30
0.0
 11
114.2198640821
 21
197.2508181113
 31
0.0
  0
LINE
  5
183
330
75
100
AcDbEntity
  8
DV1_0
  6
Continuous
 62
     7
100
AcDbLine
 10
114.2198640821
 20
197.2508181113
 30
0.0
 11
114.281156517
 21
197.6708181113
 31
0.0
  0
LINE
  5
184
330
75
100
AcDbEntity
  8
DV1_0
  6
Continuous
 62
     7
100
AcDbLine
 10
114.281156517
 20
194.9308181113
 30
0.0
 11
114.2198640821
 21
195.3508181113
 31
0.0
  0
LINE
  5
185
330
75
100
AcDbEntity
  8
DV1_0
  6
Continuous
 62
     7
100
AcDbLine
 10
114.8643150805
 20
195.3508181113
 30
0.0
 11
114.8643150805
 21
197.2508181113
 31
0.0
  0
LINE
  5
186
330
75
100
AcDbEntity
  8
DV1_0
  6
Continuous
 62
     7
100
AcDbLine
 10
113.5423104584
 20
197.2508181113
 30
0.0
 11
113.5353781459
 21
197.2508181113
 31
0.0
  0
LINE
  5
187
330
75
100
AcDbEntity
  8
DV1_0
  6
Continuous
 62
     7
100
AcDbLine
 10
114.213190622
 20
195.3508181113
 30
0.0
 11
114.2198640821
 21
195.3508181113
 31
0.0
  0
LINE
  5
188
330
75
100
AcDbEntity
  8
DV1_0
  6
Continuous
 62
     7
100
AcDbLine
 10
113.6340390551
 20
194.9308181113
 30
0.0
 11
113.6340390551
 21
197.6708181113
 31
0.0
  0
LINE
  5
189
330
75
100
AcDbEntity
  8
DV1_0
  6
Continuous
 62
     7
100
AcDbLine
 10
113.6340390551
 20
197.6708181113
 30
0.0
 11
114.213190622
 21
197.2508181113
 31
0.0
  0
LINE
  5
18A
330
75
100
AcDbEntity
  8
DV1_0
  6
Continuous
 62
     7
100
AcDbLine
 10
114.213190622
 20
195.3508181113
 30
0.0
 11
113.6340390551
 21
194.9308181113
 31
0.0
  0
LINE
  5
18B
330
75
100
AcDbEntity
  8
DV1_0
  6
Continuous
 62
     7
100
AcDbLine
 10
113.5423104584
 20
195.3508181113
 30
0.0
 11
113.5423104584
 21
197.2508181113
 31
0.0
  0
LINE
  5
18C
330
75
100
AcDbEntity
  8
DV1_0
  6
Continuous
 62
     7
100
AcDbLine
 10
113.5423104584
 20
197.2508181113
 30
0.0
 11
113.6340390551
 21
197.6708181113
 31
0.0
  0
LINE
  5
18D
330
75
100
AcDbEntity
  8
DV1_0
  6
Continuous
 62
     7
100
AcDbLine
 10
113.6340390551
 20
194.9308181113
 30
0.0
 11
113.5423104584
 21
195.3508181113
 31
0.0
  0
LINE
  5
18E
330
75
100
AcDbEntity
  8
DV1_0
  6
Continuous
 62
     7
100
AcDbLine
 10
114.213190622
 20
195.3508181113
 30
0.0
 11
114.213190622
 21
197.2508181113
 31
0.0
  0
LINE
  5
18F
330
75
100
AcDbEntity
  8
DV1_0
  6
Continuous
 62
     7
100
AcDbLine
 10
112.839907653
 20
197.2508181113
 30
0.0
 11
112.8327354891
 21
197.2508181113
 31
0.0
  0
LINE
  5
190
330
75
100
AcDbEntity
  8
DV1_0
  6
Continuous
 62
     7
100
AcDbLine
 10
113.5353781459
 20
195.3508181113
 30
0.0
 11
113.5423104584
 21
195.3508181113
 31
0.0
  0
LINE
  5
191
330
75
100
AcDbEntity
  8
DV1_0
  6
Continuous
 62
     7
100
AcDbLine
 10
112.96182099
 20
194.9308181113
 30
0.0
 11
112.96182099
 21
197.6708181113
 31
0.0
  0
LINE
  5
192
330
75
100
AcDbEntity
  8
DV1_0
  6
Continuous
 62
     7
100
AcDbLine
 10
112.96182099
 20
197.6708181113
 30
0.0
 11
113.5353781459
 21
197.2508181113
 31
0.0
  0
LINE
  5
193
330
75
100
AcDbEntity
  8
DV1_0
  6
Continuous
 62
     7
100
AcDbLine
 10
113.5353781459
 20
195.3508181113
 30
0.0
 11
112.96182099
 21
194.9308181113
 31
0.0
  0
LINE
  5
194
330
75
100
AcDbEntity
  8
DV1_0
  6
Continuous
 62
     7
100
AcDbLine
 10
112.839907653
 20
195.3508181113
 30
0.0
 11
112.839907653
 21
197.2508181113
 31
0.0
  0
LINE
  5
195
330
75
100
AcDbEntity
  8
DV1_0
  6
Continuous
 62
     7
100
AcDbLine
 10
112.839907653
 20
197.2508181113
 30
0.0
 11
112.96182099
 21
197.6708181113
 31
0.0
  0
LINE
  5
196
330
75
100
AcDbEntity
  8
DV1_0
  6
Continuous
 62
     7
100
AcDbLine
 10
112.96182099
 20
194.9308181113
 30
0.0
 11
112.839907653
 21
195.3508181113
 31
0.0
  0
LINE
  5
197
330
75
100
AcDbEntity
  8
DV1_0
  6
Continuous
 62
     7
100
AcDbLine
 10
113.5353781459
 20
195.3508181113
 30
0.0
 11
113.5353781459
 21
197.2508181113
 31
0.0
  0
LINE
  5
198
330
75
100
AcDbEntity
  8
DV1_0
  6
Continuous
 62
     7
100
AcDbLine
 10
112.1145809032
 20
197.2508181113
 30
0.0
 11
112.1071885464
 21
197.2508181113
 31
0.0
  0
LINE
  5
199
330
75
100
AcDbEntity
  8
DV1_0
  6
Continuous
 62
     7
100
AcDbLine
 10
112.8327354891
 20
195.3508181113
 30
0.0
 11
112.839907653
 21
195.3508181113
 31
0.0
  0
LINE
  5
19A
330
75
100
AcDbEntity
  8
DV1_0
  6
Continuous
 62
     7
100
AcDbLine
 10
112.2663448244
 20
194.9308181113
 30
0.0
 11
112.2663448244
 21
197.6708181113
 31
0.0
  0
LINE
  5
19B
330
75
100
AcDbEntity
  8
DV1_0
  6
Continuous
 62
     7
100
AcDbLine
 10
112.2663448244
 20
197.6708181113
 30
0.0
 11
112.8327354891
 21
197.2508181113
 31
0.0
  0
LINE
  5
19C
330
75
100
AcDbEntity
  8
DV1_0
  6
Continuous
 62
     7
100
AcDbLine
 10
112.8327354891
 20
195.3508181113
 30
0.0
 11
112.2663448244
 21
194.9308181113
 31
0.0
  0
LINE
  5
19D
330
75
100
AcDbEntity
  8
DV1_0
  6
Continuous
 62
     7
100
AcDbLine
 10
112.1145809032
 20
195.3508181113
 30
0.0
 11
112.1145809032
 21
197.2508181113
 31
0.0
  0
LINE
  5
19E
330
75
100
AcDbEntity
  8
DV1_0
  6
Continuous
 62
     7
100
AcDbLine
 10
112.1145809032
 20
197.2508181113
 30
0.0
 11
112.2663448244
 21
197.6708181113
 31
0.0
  0
LINE
  5
19F
330
75
100
AcDbEntity
  8
DV1_0
  6
Continuous
 62
     7
100
AcDbLine
 10
112.2663448244
 20
194.9308181113
 30
0.0
 11
112.1145809032
 21
195.3508181113
 31
0.0
  0
LINE
  5
1A0
330
75
100
AcDbEntity
  8
DV1_0
  6
Continuous
 62
     7
100
AcDbLine
 10
112.8327354891
 20
195.3508181113
 30
0.0
 11
112.8327354891
 21
197.2508181113
 31
0.0
  0
LINE
  5
1A1
330
75
100
AcDbEntity
  8
DV1_0
  6
Continuous
 62
     7
100
AcDbLine
 10
111.3683182793
 20
197.2508181113
 30
0.0
 11
111.3607259914
 21
197.2508181113
 31
0.0
  0
LINE
  5
1A2
330
75
100
AcDbEntity
  8
DV1_0
  6
Continuous
 62
     7
100
AcDbLine
 10
112.1071885464
 20
195.3508181113
 30
0.0
 11
112.1145809032
 21
195.3508181113
 31
0.0
  0
LINE
  5
1A3
330
75
100
AcDbEntity
  8
DV1_0
  6
Continuous
 62
     7
100
AcDbLine
 10
111.5495168104
 20
194.9308181113
 30
0.0
 11
111.5495168104
 21
197.6708181113
 31
0.0
  0
LINE
  5
1A4
330
75
100
AcDbEntity
  8
DV1_0
  6
Continuous
 62
     7
100
AcDbLine
 10
111.5495168104
 20
197.6708181113
 30
0.0
 11
112.1071885464
 21
197.2508181113
 31
0.0
  0
LINE
  5
1A5
330
75
100
AcDbEntity
  8
DV1_0
  6
Continuous
 62
     7
100
AcDbLine
 10
112.1071885464
 20
195.3508181113
 30
0.0
 11
111.5495168104
 21
194.9308181113
 31
0.0
  0
LINE
  5
1A6
330
75
100
AcDbEntity
  8
DV1_0
  6
Continuous
 62
     7
100
AcDbLine
 10
111.3683182793
 20
195.3508181113
 30
0.0
 11
111.3683182793
 21
197.2508181113
 31
0.0
  0
LINE
  5
1A7
330
75
100
AcDbEntity
  8
DV1_0
  6
Continuous
 62
     7
100
AcDbLine
 10
111.3683182793
 20
197.2508181113
 30
0.0
 11
111.5495168104
 21
197.6708181113
 31
0.0
  0
LINE
  5
1A8
330
75
100
AcDbEntity
  8
DV1_0
  6
Continuous
 62
     7
100
AcDbLine
 10
111.5495168104
 20
194.9308181113
 30
0.0
 11
111.3683182793
 21
195.3508181113
 31
0.0
  0
LINE
  5
1A9
330
75
100
AcDbEntity
  8
DV1_0
  6
Continuous
 62
     7
100
AcDbLine
 10
112.1071885464
 20
195.3508181113
 30
0.0
 11
112.1071885464
 21
197.2508181113
 31
0.0
  0
LINE
  5
1AA
330
75
100
AcDbEntity
  8
DV1_0
  6
Continuous
 62
     7
100
AcDbLine
 10
110.6031652352
 20
197.2508181113
 30
0.0
 11
110.5953938263
 21
197.2508181113
 31
0.0
  0
LINE
  5
1AB
330
75
100
AcDbEntity
  8
DV1_0
  6
Continuous
 62
     7
100
AcDbLine
 10
111.3607259914
 20
195.3508181113
 30
0.0
 11
111.3683182793
 21
195.3508181113
 31
0.0
  0
LINE
  5
1AC
330
75
100
AcDbEntity
  8
DV1_0
  6
Continuous
 62
     7
100
AcDbLine
 10
110.8133017235
 20
194.9308181113
 30
0.0
 11
110.8133017235
 21
197.6708181113
 31
0.0
  0
LINE
  5
1AD
330
75
100
AcDbEntity
  8
DV1_0
  6
Continuous
 62
     7
100
AcDbLine
 10
110.8133017235
 20
197.6708181113
 30
0.0
 11
111.3607259914
 21
197.2508181113
 31
0.0
  0
LINE
  5
1AE
330
75
100
AcDbEntity
  8
DV1_0
  6
Continuous
 62
     7
100
AcDbLine
 10
111.3607259914
 20
195.3508181113
 30
0.0
 11
110.8133017235
 21
194.9308181113
 31
0.0
  0
LINE
  5
1AF
330
75
100
AcDbEntity
  8
DV1_0
  6
Continuous
 62
     7
100
AcDbLine
 10
110.6031652352
 20
195.3508181113
 30
0.0
 11
110.6031652352
 21
197.2508181113
 31
0.0
  0
LINE
  5
1B0
330
75
100
AcDbEntity
  8
DV1_0
  6
Continuous
 62
     7
100
AcDbLine
 10
110.6031652352
 20
197.2508181113
 30
0.0
 11
110.8133017235
 21
197.6708181113
 31
0.0
  0
LINE
  5
1B1
330
75
100
AcDbEntity
  8
DV1_0
  6
Continuous
 62
     7
100
AcDbLine
 10
110.8133017235
 20
194.9308181113
 30
0.0
 11
110.6031652352
 21
195.3508181113
 31
0.0
  0
LINE
  5
1B2
330
75
100
AcDbEntity
  8
DV1_0
  6
Continuous
 62
     7
100
AcDbLine
 10
111.3607259914
 20
195.3508181113
 30
0.0
 11
111.3607259914
 21
197.2508181113
 31
0.0
  0
LINE
  5
1B3
330
75
100
AcDbEntity
  8
DV1_0
  6
Continuous
 62
     7
100
AcDbLine
 10
109.8212190022
 20
197.2508181113
 30
0.0
 11
109.8132897731
 21
197.2508181113
 31
0.0
  0
LINE
  5
1B4
330
75
100
AcDbEntity
  8
DV1_0
  6
Continuous
 62
     7
100
AcDbLine
 10
110.5953938263
 20
195.3508181113
 30
0.0
 11
110.6031652352
 21
195.3508181113
 31
0.0
  0
LINE
  5
1B5
330
75
100
AcDbEntity
  8
DV1_0
  6
Continuous
 62
     7
100
AcDbLine
 10
110.0597174783
 20
194.9308181113
 30
0.0
 11
110.0597174783
 21
197.6708181113
 31
0.0
  0
LINE
  5
1B6
330
75
100
AcDbEntity
  8
DV1_0
  6
Continuous
 62
     7
100
AcDbLine
 10
110.0597174783
 20
197.6708181113
 30
0.0
 11
110.5953938263
 21
197.2508181113
 31
0.0
  0
LINE
  5
1B7
330
75
100
AcDbEntity
  8
DV1_0
  6
Continuous
 62
     7
100
AcDbLine
 10
110.5953938263
 20
195.3508181113
 30
0.0
 11
110.0597174783
 21
194.9308181113
 31
0.0
  0
LINE
  5
1B8
330
75
100
AcDbEntity
  8
DV1_0
  6
Continuous
 62
     7
100
AcDbLine
 10
109.8212190022
 20
195.3508181113
 30
0.0
 11
109.8212190022
 21
197.2508181113
 31
0.0
  0
LINE
  5
1B9
330
75
100
AcDbEntity
  8
DV1_0
  6
Continuous
 62
     7
100
AcDbLine
 10
109.8212190022
 20
197.2508181113
 30
0.0
 11
110.0597174783
 21
197.6708181113
 31
0.0
  0
LINE
  5
1BA
330
75
100
AcDbEntity
  8
DV1_0
  6
Continuous
 62
     7
100
AcDbLine
 10
110.0597174783
 20
194.9308181113
 30
0.0
 11
109.8212190022
 21
195.3508181113
 31
0.0
  0
LINE
  5
1BB
330
75
100
AcDbEntity
  8
DV1_0
  6
Continuous
 62
     7
100
AcDbLine
 10
110.5953938263
 20
195.3508181113
 30
0.0
 11
110.5953938263
 21
197.2508181113
 31
0.0
  0
LINE
  5
1BC
330
75
100
AcDbEntity
  8
DV1_0
  6
Continuous
 62
     7
100
AcDbLine
 10
109.0246228406
 20
197.2508181113
 30
0.0
 11
109.0165575247
 21
197.2508181113
 31
0.0
  0
LINE
  5
1BD
330
75
100
AcDbEntity
  8
DV1_0
  6
Continuous
 62
     7
100
AcDbLine
 10
109.8132897731
 20
195.3508181113
 30
0.0
 11
109.8212190022
 21
195.3508181113
 31
0.0
  0
LINE
  5
1BE
330
75
100
AcDbEntity
  8
DV1_0
  6
Continuous
 62
     7
100
AcDbLine
 10
109.2908295968
 20
194.9308181113
 30
0.0
 11
109.2908295968
 21
197.6708181113
 31
0.0
  0
LINE
  5
1BF
330
75
100
AcDbEntity
  8
DV1_0
  6
Continuous
 62
     7
100
AcDbLine
 10
109.2908295968
 20
197.6708181113
 30
0.0
 11
109.8132897731
 21
197.2508181113
 31
0.0
  0
LINE
  5
1C0
330
75
100
AcDbEntity
  8
DV1_0
  6
Continuous
 62
     7
100
AcDbLine
 10
109.8132897731
 20
195.3508181113
 30
0.0
 11
109.2908295968
 21
194.9308181113
 31
0.0
  0
LINE
  5
1C1
330
75
100
AcDbEntity
  8
DV1_0
  6
Continuous
 62
     7
100
AcDbLine
 10
109.0246228406
 20
195.3508181113
 30
0.0
 11
109.0246228406
 21
197.2508181113
 31
0.0
  0
LINE
  5
1C2
330
75
100
AcDbEntity
  8
DV1_0
  6
Continuous
 62
     7
100
AcDbLine
 10
109.0246228406
 20
197.2508181113
 30
0.0
 11
109.2908295968
 21
197.6708181113
 31
0.0
  0
LINE
  5
1C3
330
75
100
AcDbEntity
  8
DV1_0
  6
Continuous
 62
     7
100
AcDbLine
 10
109.2908295968
 20
194.9308181113
 30
0.0
 11
109.0246228406
 21
195.3508181113
 31
0.0
  0
LINE
  5
1C4
330
75
100
AcDbEntity
  8
DV1_0
  6
Continuous
 62
     7
100
AcDbLine
 10
109.8132897731
 20
195.3508181113
 30
0.0
 11
109.8132897731
 21
197.2508181113
 31
0.0
  0
LINE
  5
1C5
330
75
100
AcDbEntity
  8
DV1_0
  6
Continuous
 62
     7
100
AcDbLine
 10
108.2155601651
 20
197.2508181113
 30
0.0
 11
108.207380869
 21
197.2508181113
 31
0.0
  0
LINE
  5
1C6
330
75
100
AcDbEntity
  8
DV1_0
  6
Continuous
 62
     7
100
AcDbLine
 10
109.0165575247
 20
195.3508181113
 30
0.0
 11
109.0246228406
 21
195.3508181113
 31
0.0
  0
LINE
  5
1C7
330
75
100
AcDbEntity
  8
DV1_0
  6
Continuous
 62
     7
100
AcDbLine
 10
108.5087455471
 20
194.9308181113
 30
0.0
 11
108.5087455471
 21
197.6708181113
 31
0.0
  0
LINE
  5
1C8
330
75
100
AcDbEntity
  8
DV1_0
  6
Continuous
 62
     7
100
AcDbLine
 10
108.5087455471
 20
197.6708181113
 30
0.0
 11
109.0165575247
 21
197.2508181113
 31
0.0
  0
LINE
  5
1C9
330
75
100
AcDbEntity
  8
DV1_0
  6
Continuous
 62
     7
100
AcDbLine
 10
109.0165575247
 20
195.3508181113
 30
0.0
 11
108.5087455471
 21
194.9308181113
 31
0.0
  0
LINE
  5
1CA
330
75
100
AcDbEntity
  8
DV1_0
  6
Continuous
 62
     7
100
AcDbLine
 10
108.2155601651
 20
195.3508181113
 30
0.0
 11
108.2155601651
 21
197.2508181113
 31
0.0
  0
LINE
  5
1CB
330
75
100
AcDbEntity
  8
DV1_0
  6
Continuous
 62
     7
100
AcDbLine
 10
108.2155601651
 20
197.2508181113
 30
0.0
 11
108.5087455471
 21
197.6708181113
 31
0.0
  0
LINE
  5
1CC
330
75
100
AcDbEntity
  8
DV1_0
  6
Continuous
 62
     7
100
AcDbLine
 10
108.5087455471
 20
194.9308181113
 30
0.0
 11
108.2155601651
 21
195.3508181113
 31
0.0
  0
LINE
  5
1CD
330
75
100
AcDbEntity
  8
DV1_0
  6
Continuous
 62
     7
100
AcDbLine
 10
109.0165575247
 20
195.3508181113
 30
0.0
 11
109.0165575247
 21
197.2508181113
 31
0.0
  0
LINE
  5
1CE
330
75
100
AcDbEntity
  8
DV1_0
  6
Continuous
 62
     7
100
AcDbLine
 10
107.3962485603
 20
197.2508181113
 30
0.0
 11
107.3879777028
 21
197.2508181113
 31
0.0
  0
LINE
  5
1CF
330
75
100
AcDbEntity
  8
DV1_0
  6
Continuous
 62
     7
100
AcDbLine
 10
108.207380869
 20
195.3508181113
 30
0.0
 11
108.2155601651
 21
195.3508181113
 31
0.0
  0
LINE
  5
1D0
330
75
100
AcDbEntity
  8
DV1_0
  6
Continuous
 62
     7
100
AcDbLine
 10
107.7156089674
 20
194.9308181113
 30
0.0
 11
107.7156089674
 21
197.6708181113
 31
0.0
  0
LINE
  5
1D1
330
75
100
AcDbEntity
  8
DV1_0
  6
Continuous
 62
     7
100
AcDbLine
 10
107.7156089674
 20
197.6708181113
 30
0.0
 11
108.207380869
 21
197.2508181113
 31
0.0
  0
LINE
  5
1D2
330
75
100
AcDbEntity
  8
DV1_0
  6
Continuous
 62
     7
100
AcDbLine
 10
108.207380869
 20
195.3508181113
 30
0.0
 11
107.7156089674
 21
194.9308181113
 31
0.0
  0
LINE
  5
1D3
330
75
100
AcDbEntity
  8
DV1_0
  6
Continuous
 62
     7
100
AcDbLine
 10
107.3962485603
 20
195.3508181113
 30
0.0
 11
107.3962485603
 21
197.2508181113
 31
0.0
  0
LINE
  5
1D4
330
75
100
AcDbEntity
  8
DV1_0
  6
Continuous
 62
     7
100
AcDbLine
 10
107.3962485603
 20
197.2508181113
 30
0.0
 11
107.7156089674
 21
197.6708181113
 31
0.0
  0
LINE
  5
1D5
330
75
100
AcDbEntity
  8
DV1_0
  6
Continuous
 62
     7
100
AcDbLine
 10
107.7156089674
 20
194.9308181113
 30
0.0
 11
107.3962485603
 21
195.3508181113
 31
0.0
  0
LINE
  5
1D6
330
75
100
AcDbEntity
  8
DV1_0
  6
Continuous
 62
     7
100
AcDbLine
 10
108.207380869
 20
195.3508181113
 30
0.0
 11
108.207380869
 21
197.2508181113
 31
0.0
  0
LINE
  5
1D7
330
75
100
AcDbEntity
  8
DV1_0
  6
Continuous
 62
     7
100
AcDbLine
 10
106.5689337023
 20
197.2508181113
 30
0.0
 11
106.5605939533
 21
197.2508181113
 31
0.0
  0
LINE
  5
1D8
330
75
100
AcDbEntity
  8
DV1_0
  6
Continuous
 62
     7
100
AcDbLine
 10
107.3879777028
 20
195.3508181113
 30
0.0
 11
107.3962485603
 21
195.3508181113
 31
0.0
  0
LINE
  5
1D9
330
75
100
AcDbEntity
  8
DV1_0
  6
Continuous
 62
     7
100
AcDbLine
 10
106.9135937897
 20
194.9308181113
 30
0.0
 11
106.9135937897
 21
197.6708181113
 31
0.0
  0
LINE
  5
1DA
330
75
100
AcDbEntity
  8
DV1_0
  6
Continuous
 62
     7
100
AcDbLine
 10
106.9135937897
 20
197.6708181113
 30
0.0
 11
107.3879777028
 21
197.2508181113
 31
0.0
  0
LINE
  5
1DB
330
75
100
AcDbEntity
  8
DV1_0
  6
Continuous
 62
     7
100
AcDbLine
 10
107.3879777028
 20
195.3508181113
 30
0.0
 11
106.9135937897
 21
194.9308181113
 31
0.0
  0
LINE
  5
1DC
330
75
100
AcDbEntity
  8
DV1_0
  6
Continuous
 62
     7
100
AcDbLine
 10
106.5689337023
 20
195.3508181113
 30
0.0
 11
106.5689337023
 21
197.2508181113
 31
0.0
  0
LINE
  5
1DD
330
75
100
AcDbEntity
  8
DV1_0
  6
Continuous
 62
     7
100
AcDbLine
 10
106.5689337023
 20
197.2508181113
 30
0.0
 11
106.9135937897
 21
197.6708181113
 31
0.0
  0
LINE
  5
1DE
330
75
100
AcDbEntity
  8
DV1_0
  6
Continuous
 62
     7
100
AcDbLine
 10
106.9135937897
 20
194.9308181113
 30
0.0
 11
106.5689337023
 21
195.3508181113
 31
0.0
  0
LINE
  5
1DF
330
75
100
AcDbEntity
  8
DV1_0
  6
Continuous
 62
     7
100
AcDbLine
 10
107.3879777028
 20
195.3508181113
 30
0.0
 11
107.3879777028
 21
197.2508181113
 31
0.0
  0
LINE
  5
1E0
330
75
100
AcDbEntity
  8
DV1_0
  6
Continuous
 62
     7
100
AcDbLine
 10
105.7358832036
 20
197.2508181113
 30
0.0
 11
105.7274974217
 21
197.2508181113
 31
0.0
  0
LINE
  5
1E1
330
75
100
AcDbEntity
  8
DV1_0
  6
Continuous
 62
     7
100
AcDbLine
 10
106.5605939533
 20
195.3508181113
 30
0.0
 11
106.5689337023
 21
195.3508181113
 31
0.0
  0
LINE
  5
1E2
330
75
100
AcDbEntity
  8
DV1_0
  6
Continuous
 62
     7
100
AcDbLine
 10
106.1048982821
 20
194.9308181113
 30
0.0
 11
106.1048982821
 21
197.6708181113
 31
0.0
  0
LINE
  5
1E3
330
75
100
AcDbEntity
  8
DV1_0
  6
Continuous
 62
     7
100
AcDbLine
 10
106.1048982821
 20
197.6708181113
 30
0.0
 11
106.5605939533
 21
197.2508181113
 31
0.0
  0
LINE
  5
1E4
330
75
100
AcDbEntity
  8
DV1_0
  6
Continuous
 62
     7
100
AcDbLine
 10
106.5605939533
 20
195.3508181113
 30
0.0
 11
106.1048982821
 21
194.9308181113
 31
0.0
  0
LINE
  5
1E5
330
75
100
AcDbEntity
  8
DV1_0
  6
Continuous
 62
     7
100
AcDbLine
 10
105.7358832036
 20
195.3508181113
 30
0.0
 11
105.7358832036
 21
197.2508181113
 31
0.0
  0
LINE
  5
1E6
330
75
100
AcDbEntity
  8
DV1_0
  6
Continuous
 62
     7
100
AcDbLine
 10
105.7358832036
 20
197.2508181113
 30
0.0
 11
106.1048982821
 21
197.6708181113
 31
0.0
  0
LINE
  5
1E7
330
75
100
AcDbEntity
  8
DV1_0
  6
Continuous
 62
     7
100
AcDbLine
 10
106.1048982821
 20
194.9308181113
 30
0.0
 11
105.7358832036
 21
195.3508181113
 31
0.0
  0
LINE
  5
1E8
330
75
100
AcDbEntity
  8
DV1_0
  6
Continuous
 62
     7
100
AcDbLine
 10
106.5605939533
 20
195.3508181113
 30
0.0
 11
106.5605939533
 21
197.2508181113
 31
0.0
  0
LINE
  5
1E9
330
75
100
AcDbEntity
  8
DV1_0
  6
Continuous
 62
     7
100
AcDbLine
 10
104.8993803978
 20
197.2508181113
 30
0.0
 11
104.8909715679
 21
197.2508181113
 31
0.0
  0
LINE
  5
1EA
330
75
100
AcDbEntity
  8
DV1_0
  6
Continuous
 62
     7
100
AcDbLine
 10
105.7274974217
 20
195.3508181113
 30
0.0
 11
105.7358832036
 21
195.3508181113
 31
0.0
  0
LINE
  5
1EB
330
75
100
AcDbEntity
  8
DV1_0
  6
Continuous
 62
     7
100
AcDbLine
 10
105.2917390227
 20
194.9308181113
 30
0.0
 11
105.2917390227
 21
197.6708181113
 31
0.0
  0
LINE
  5
1EC
330
75
100
AcDbEntity
  8
DV1_0
  6
Continuous
 62
     7
100
AcDbLine
 10
105.2917390227
 20
197.6708181113
 30
0.0
 11
105.7274974217
 21
197.2508181113
 31
0.0
  0
LINE
  5
1ED
330
75
100
AcDbEntity
  8
DV1_0
  6
Continuous
 62
     7
100
AcDbLine
 10
105.7274974217
 20
195.3508181113
 30
0.0
 11
105.2917390227
 21
194.9308181113
 31
0.0
  0
LINE
  5
1EE
330
75
100
AcDbEntity
  8
DV1_0
  6
Continuous
 62
     7
100
AcDbLine
 10
104.8993803978
 20
195.3508181113
 30
0.0
 11
104.8993803978
 21
197.2508181113
 31
0.0
  0
LINE
  5
1EF
330
75
100
AcDbEntity
  8
DV1_0
  6
Continuous
 62
     7
100
AcDbLine
 10
104.8993803978
 20
197.2508181113
 30
0.0
 11
105.2917390227
 21
197.6708181113
 31
0.0
  0
LINE
  5
1F0
330
75
100
AcDbEntity
  8
DV1_0
  6
Continuous
 62
     7
100
AcDbLine
 10
105.2917390227
 20
194.9308181113
 30
0.0
 11
104.8993803978
 21
195.3508181113
 31
0.0
  0
LINE
  5
1F1
330
75
100
AcDbEntity
  8
DV1_0
  6
Continuous
 62
     7
100
AcDbLine
 10
105.7274974217
 20
195.3508181113
 30
0.0
 11
105.7274974217
 21
197.2508181113
 31
0.0
  0
LINE
  5
1F2
330
75
100
AcDbEntity
  8
DV1_0
  6
Continuous
 62
     7
100
AcDbLine
 10
104.0617180809
 20
197.2508181113
 30
0.0
 11
104.053309251
 21
197.2508181113
 31
0.0
  0
LINE
  5
1F3
330
75
100
AcDbEntity
  8
DV1_0
  6
Continuous
 62
     7
100
AcDbLine
 10
104.8909715679
 20
195.3508181113
 30
0.0
 11
104.8993803978
 21
195.3508181113
 31
0.0
  0
LINE
  5
1F4
330
75
100
AcDbEntity
  8
DV1_0
  6
Continuous
 62
     7
100
AcDbLine
 10
104.4763448244
 20
194.9308181113
 30
0.0
 11
104.4763448244
 21
197.6708181113
 31
0.0
  0
LINE
  5
1F5
330
75
100
AcDbEntity
  8
DV1_0
  6
Continuous
 62
     7
100
AcDbLine
 10
104.4763448244
 20
197.6708181113
 30
0.0
 11
104.8909715679
 21
197.2508181113
 31
0.0
  0
LINE
  5
1F6
330
75
100
AcDbEntity
  8
DV1_0
  6
Continuous
 62
     7
100
AcDbLine
 10
104.8909715679
 20
195.3508181113
 30
0.0
 11
104.4763448244
 21
194.9308181113
 31
0.0
  0
LINE
  5
1F7
330
75
100
AcDbEntity
  8
DV1_0
  6
Continuous
 62
     7
100
AcDbLine
 10
104.0617180809
 20
195.3508181113
 30
0.0
 11
104.0617180809
 21
197.2508181113
 31
0.0
  0
LINE
  5
1F8
330
75
100
AcDbEntity
  8
DV1_0
  6
Continuous
 62
     7
100
AcDbLine
 10
104.0617180809
 20
197.2508181113
 30
0.0
 11
104.4763448244
 21
197.6708181113
 31
0.0
  0
LINE
  5
1F9
330
75
100
AcDbEntity
  8
DV1_0
  6
Continuous
 62
     7
100
AcDbLine
 10
104.4763448244
 20
194.9308181113
 30
0.0
 11
104.0617180809
 21
195.3508181113
 31
0.0
  0
LINE
  5
1FA
330
75
100
AcDbEntity
  8
DV1_0
  6
Continuous
 62
     7
100
AcDbLine
 10
104.8909715679
 20
195.3508181113
 30
0.0
 11
104.8909715679
 21
197.2508181113
 31
0.0
  0
LINE
  5
1FB
330
75
100
AcDbEntity
  8
DV1_0
  6
Continuous
 62
     7
100
AcDbLine
 10
103.2251922271
 20
197.2508181113
 30
0.0
 11
103.2168064452
 21
197.2508181113
 31
0.0
  0
LINE
  5
1FC
330
75
100
AcDbEntity
  8
DV1_0
  6
Continuous
 62
     7
100
AcDbLine
 10
104.053309251
 20
195.3508181113
 30
0.0
 11
104.0617180809
 21
195.3508181113
 31
0.0
  0
LINE
  5
1FD
330
75
100
AcDbEntity
  8
DV1_0
  6
Continuous
 62
     7
100
AcDbLine
 10
103.6609506262
 20
194.9308181113
 30
0.0
 11
103.6609506262
 21
197.6708181113
 31
0.0
  0
LINE
  5
1FE
330
75
100
AcDbEntity
  8
DV1_0
  6
Continuous
 62
     7
100
AcDbLine
 10
103.6609506262
 20
197.6708181113
 30
0.0
 11
104.053309251
 21
197.2508181113
 31
0.0
  0
LINE
  5
1FF
330
75
100
AcDbEntity
  8
DV1_0
  6
Continuous
 62
     7
100
AcDbLine
 10
104.053309251
 20
195.3508181113
 30
0.0
 11
103.6609506262
 21
194.9308181113
 31
0.0
  0
LINE
  5
200
330
75
100
AcDbEntity
  8
DV1_0
  6
Continuous
 62
     7
100
AcDbLine
 10
103.2251922271
 20
195.3508181113
 30
0.0
 11
103.2251922271
 21
197.2508181113
 31
0.0
  0
LINE
  5
201
330
75
100
AcDbEntity
  8
DV1_0
  6
Continuous
 62
     7
100
AcDbLine
 10
103.2251922271
 20
197.2508181113
 30
0.0
 11
103.6609506262
 21
197.6708181113
 31
0.0
  0
LINE
  5
202
330
75
100
AcDbEntity
  8
DV1_0
  6
Continuous
 62
     7
100
AcDbLine
 10
103.6609506262
 20
194.9308181113
 30
0.0
 11
103.2251922271
 21
195.3508181113
 31
0.0
  0
LINE
  5
203
330
75
100
AcDbEntity
  8
DV1_0
  6
Continuous
 62
     7
100
AcDbLine
 10
104.053309251
 20
195.3508181113
 30
0.0
 11
104.053309251
 21
197.2508181113
 31
0.0
  0
LINE
  5
204
330
75
100
AcDbEntity
  8
DV1_0
  6
Continuous
 62
     7
100
AcDbLine
 10
102.3920956956
 20
197.2508181113
 30
0.0
 11
102.3837559465
 21
197.2508181113
 31
0.0
  0
LINE
  5
205
330
75
100
AcDbEntity
  8
DV1_0
  6
Continuous
 62
     7
100
AcDbLine
 10
103.2168064452
 20
195.3508181113
 30
0.0
 11
103.2251922271
 21
195.3508181113
 31
0.0
  0
LINE
  5
206
330
75
100
AcDbEntity
  8
DV1_0
  6
Continuous
 62
     7
100
AcDbLine
 10
102.8477913667
 20
194.9308181113
 30
0.0
 11
102.8477913667
 21
197.6708181113
 31
0.0
  0
LINE
  5
207
330
75
100
AcDbEntity
  8
DV1_0
  6
Continuous
 62
     7
100
AcDbLine
 10
102.8477913667
 20
197.6708181113
 30
0.0
 11
103.2168064452
 21
197.2508181113
 31
0.0
  0
LINE
  5
208
330
75
100
AcDbEntity
  8
DV1_0
  6
Continuous
 62
     7
100
AcDbLine
 10
103.2168064452
 20
195.3508181113
 30
0.0
 11
102.8477913667
 21
194.9308181113
 31
0.0
  0
LINE
  5
209
330
75
100
AcDbEntity
  8
DV1_0
  6
Continuous
 62
     7
100
AcDbLine
 10
102.3920956956
 20
195.3508181113
 30
0.0
 11
102.3920956956
 21
197.2508181113
 31
0.0
  0
LINE
  5
20A
330
75
100
AcDbEntity
  8
DV1_0
  6
Continuous
 62
     7
100
AcDbLine
 10
102.3920956956
 20
197.2508181113
 30
0.0
 11
102.8477913667
 21
197.6708181113
 31
0.0
  0
LINE
  5
20B
330
75
100
AcDbEntity
  8
DV1_0
  6
Continuous
 62
     7
100
AcDbLine
 10
102.8477913667
 20
194.9308181113
 30
0.0
 11
102.3920956956
 21
195.3508181113
 31
0.0
  0
LINE
  5
20C
330
75
100
AcDbEntity
  8
DV1_0
  6
Continuous
 62
     7
100
AcDbLine
 10
103.2168064452
 20
195.3508181113
 30
0.0
 11
103.2168064452
 21
197.2508181113
 31
0.0
  0
LINE
  5
20D
330
75
100
AcDbEntity
  8
DV1_0
  6
Continuous
 62
     7
100
AcDbLine
 10
101.564711946
 20
197.2508181113
 30
0.0
 11
101.5564410885
 21
197.2508181113
 31
0.0
  0
LINE
  5
20E
330
75
100
AcDbEntity
  8
DV1_0
  6
Continuous
 62
     7
100
AcDbLine
 10
102.3837559465
 20
195.3508181113
 30
0.0
 11
102.3920956956
 21
195.3508181113
 31
0.0
  0
LINE
  5
20F
330
75
100
AcDbEntity
  8
DV1_0
  6
Continuous
 62
     7
100
AcDbLine
 10
102.0390958591
 20
194.9308181113
 30
0.0
 11
102.0390958591
 21
197.6708181113
 31
0.0
  0
LINE
  5
210
330
75
100
AcDbEntity
  8
DV1_0
  6
Continuous
 62
     7
100
AcDbLine
 10
102.0390958591
 20
197.6708181113
 30
0.0
 11
102.3837559465
 21
197.2508181113
 31
0.0
  0
LINE
  5
211
330
75
100
AcDbEntity
  8
DV1_0
  6
Continuous
 62
     7
100
AcDbLine
 10
102.3837559465
 20
195.3508181113
 30
0.0
 11
102.0390958591
 21
194.9308181113
 31
0.0
  0
LINE
  5
212
330
75
100
AcDbEntity
  8
DV1_0
  6
Continuous
 62
     7
100
AcDbLine
 10
101.564711946
 20
195.3508181113
 30
0.0
 11
101.564711946
 21
197.2508181113
 31
0.0
  0
LINE
  5
213
330
75
100
AcDbEntity
  8
DV1_0
  6
Continuous
 62
     7
100
AcDbLine
 10
101.564711946
 20
197.2508181113
 30
0.0
 11
102.0390958591
 21
197.6708181113
 31
0.0
  0
LINE
  5
214
330
75
100
AcDbEntity
  8
DV1_0
  6
Continuous
 62
     7
100
AcDbLine
 10
102.0390958591
 20
194.9308181113
 30
0.0
 11
101.564711946
 21
195.3508181113
 31
0.0
  0
LINE
  5
215
330
75
100
AcDbEntity
  8
DV1_0
  6
Continuous
 62
     7
100
AcDbLine
 10
102.3837559465
 20
195.3508181113
 30
0.0
 11
102.3837559465
 21
197.2508181113
 31
0.0
  0
LINE
  5
216
330
75
100
AcDbEntity
  8
DV1_0
  6
Continuous
 62
     7
100
AcDbLine
 10
100.7453087798
 20
197.2508181113
 30
0.0
 11
100.7371294837
 21
197.2508181113
 31
0.0
  0
LINE
  5
217
330
75
100
AcDbEntity
  8
DV1_0
  6
Continuous
 62
     7
100
AcDbLine
 10
101.5564410885
 20
195.3508181113
 30
0.0
 11
101.564711946
 21
195.3508181113
 31
0.0
  0
LINE
  5
218
330
75
100
AcDbEntity
  8
DV1_0
  6
Continuous
 62
     7
100
AcDbLine
 10
101.2370806815
 20
194.9308181113
 30
0.0
 11
101.2370806815
 21
197.6708181113
 31
0.0
  0
LINE
  5
219
330
75
100
AcDbEntity
  8
DV1_0
  6
Continuous
 62
     7
100
AcDbLine
 10
101.2370806815
 20
197.6708181113
 30
0.0
 11
101.5564410885
 21
197.2508181113
 31
0.0
  0
LINE
  5
21A
330
75
100
AcDbEntity
  8
DV1_0
  6
Continuous
 62
     7
100
AcDbLine
 10
101.5564410885
 20
195.3508181113
 30
0.0
 11
101.2370806815
 21
194.9308181113
 31
0.0
  0
LINE
  5
21B
330
75
100
AcDbEntity
  8
DV1_0
  6
Continuous
 62
     7
100
AcDbLine
 10
100.7453087798
 20
195.3508181113
 30
0.0
 11
100.7453087798
 21
197.2508181113
 31
0.0
  0
LINE
  5
21C
330
75
100
AcDbEntity
  8
DV1_0
  6
Continuous
 62
     7
100
AcDbLine
 10
100.7453087798
 20
197.2508181113
 30
0.0
 11
101.2370806815
 21
197.6708181113
 31
0.0
  0
LINE
  5
21D
330
75
100
AcDbEntity
  8
DV1_0
  6
Continuous
 62
     7
100
AcDbLine
 10
101.2370806815
 20
194.9308181113
 30
0.0
 11
100.7453087798
 21
195.3508181113
 31
0.0
  0
LINE
  5
21E
330
75
100
AcDbEntity
  8
DV1_0
  6
Continuous
 62
     7
100
AcDbLine
 10
101.5564410885
 20
195.3508181113
 30
0.0
 11
101.5564410885
 21
197.2508181113
 31
0.0
  0
LINE
  5
21F
330
75
100
AcDbEntity
  8
DV1_0
  6
Continuous
 62
     7
100
AcDbLine
 10
99.9361321241
 20
197.2508181113
 30
0.0
 11
99.9280668082
 21
197.2508181113
 31
0.0
  0
LINE
  5
220
330
75
100
AcDbEntity
  8
DV1_0
  6
Continuous
 62
     7
100
AcDbLine
 10
100.7371294837
 20
195.3508181113
 30
0.0
 11
100.7453087798
 21
195.3508181113
 31
0.0
  0
LINE
  5
221
330
75
100
AcDbEntity
  8
DV1_0
  6
Continuous
 62
     7
100
AcDbLine
 10
100.4439441017
 20
194.9308181113
 30
0.0
 11
100.4439441017
 21
197.6708181113
 31
0.0
  0
LINE
  5
222
330
75
100
AcDbEntity
  8
DV1_0
  6
Continuous
 62
     7
100
AcDbLine
 10
100.4439441017
 20
197.6708181113
 30
0.0
 11
100.7371294837
 21
197.2508181113
 31
0.0
  0
LINE
  5
223
330
75
100
AcDbEntity
  8
DV1_0
  6
Continuous
 62
     7
100
AcDbLine
 10
100.7371294837
 20
195.3508181113
 30
0.0
 11
100.4439441017
 21
194.9308181113
 31
0.0
  0
LINE
  5
224
330
75
100
AcDbEntity
  8
DV1_0
  6
Continuous
 62
     7
100
AcDbLine
 10
99.9361321241
 20
195.3508181113
 30
0.0
 11
99.9361321241
 21
197.2508181113
 31
0.0
  0
LINE
  5
225
330
75
100
AcDbEntity
  8
DV1_0
  6
Continuous
 62
     7
100
AcDbLine
 10
99.9361321241
 20
197.2508181113
 30
0.0
 11
100.4439441017
 21
197.6708181113
 31
0.0
  0
LINE
  5
226
330
75
100
AcDbEntity
  8
DV1_0
  6
Continuous
 62
     7
100
AcDbLine
 10
100.4439441017
 20
194.9308181113
 30
0.0
 11
99.9361321241
 21
195.3508181113
 31
0.0
  0
LINE
  5
227
330
75
100
AcDbEntity
  8
DV1_0
  6
Continuous
 62
     7
100
AcDbLine
 10
100.7371294837
 20
195.3508181113
 30
0.0
 11
100.7371294837
 21
197.2508181113
 31
0.0
  0
LINE
  5
228
330
75
100
AcDbEntity
  8
DV1_0
  6
Continuous
 62
     7
100
AcDbLine
 10
99.1393998758
 20
197.2508181113
 30
0.0
 11
99.1314706466
 21
197.2508181113
 31
0.0
  0
LINE
  5
229
330
75
100
AcDbEntity
  8
DV1_0
  6
Continuous
 62
     7
100
AcDbLine
 10
99.9280668082
 20
195.3508181113
 30
0.0
 11
99.9361321241
 21
195.3508181113
 31
0.0
  0
LINE
  5
22A
330
75
100
AcDbEntity
  8
DV1_0
  6
Continuous
 62
     7
100
AcDbLine
 10
99.6618600521
 20
194.9308181113
 30
0.0
 11
99.6618600521
 21
197.6708181113
 31
0.0
  0
LINE
  5
22B
330
75
100
AcDbEntity
  8
DV1_0
  6
Continuous
 62
     7
100
AcDbLine
 10
99.6618600521
 20
197.6708181113
 30
0.0
 11
99.9280668082
 21
197.2508181113
 31
0.0
  0
LINE
  5
22C
330
75
100
AcDbEntity
  8
DV1_0
  6
Continuous
 62
     7
100
AcDbLine
 10
99.9280668082
 20
195.3508181113
 30
0.0
 11
99.6618600521
 21
194.9308181113
 31
0.0
  0
LINE
  5
22D
330
75
100
AcDbEntity
  8
DV1_0
  6
Continuous
 62
     7
100
AcDbLine
 10
99.1393998758
 20
195.3508181113
 30
0.0
 11
99.1393998758
 21
197.2508181113
 31
0.0
  0
LINE
  5
22E
330
75
100
AcDbEntity
  8
DV1_0
  6
Continuous
 62
     7
100
AcDbLine
 10
99.1393998758
 20
197.2508181113
 30
0.0
 11
99.6618600521
 21
197.6708181113
 31
0.0
  0
LINE
  5
22F
330
75
100
AcDbEntity
  8
DV1_0
  6
Continuous
 62
     7
100
AcDbLine
 10
99.6618600521
 20
194.9308181113
 30
0.0
 11
99.1393998758
 21
195.3508181113
 31
0.0
  0
LINE
  5
230
330
75
100
AcDbEntity
  8
DV1_0
  6
Continuous
 62
     7
100
AcDbLine
 10
99.9280668082
 20
195.3508181113
 30
0.0
 11
99.9280668082
 21
197.2508181113
 31
0.0
  0
LINE
  5
231
330
75
100
AcDbEntity
  8
DV1_0
  6
Continuous
 62
     7
100
AcDbLine
 10
98.3572958226
 20
197.2508181113
 30
0.0
 11
98.3495244137
 21
197.2508181113
 31
0.0
  0
LINE
  5
232
330
75
100
AcDbEntity
  8
DV1_0
  6
Continuous
 62
     7
100
AcDbLine
 10
99.1314706466
 20
195.3508181113
 30
0.0
 11
99.1393998758
 21
195.3508181113
 31
0.0
  0
LINE
  5
233
330
75
100
AcDbEntity
  8
DV1_0
  6
Continuous
 62
     7
100
AcDbLine
 10
98.8929721705
 20
194.9308181113
 30
0.0
 11
98.8929721705
 21
197.6708181113
 31
0.0
  0
LINE
  5
234
330
75
100
AcDbEntity
  8
DV1_0
  6
Continuous
 62
     7
100
AcDbLine
 10
98.8929721705
 20
197.6708181113
 30
0.0
 11
99.1314706466
 21
197.2508181113
 31
0.0
  0
LINE
  5
235
330
75
100
AcDbEntity
  8
DV1_0
  6
Continuous
 62
     7
100
AcDbLine
 10
99.1314706466
 20
195.3508181113
 30
0.0
 11
98.8929721705
 21
194.9308181113
 31
0.0
  0
LINE
  5
236
330
75
100
AcDbEntity
  8
DV1_0
  6
Continuous
 62
     7
100
AcDbLine
 10
98.3572958226
 20
195.3508181113
 30
0.0
 11
98.3572958226
 21
197.2508181113
 31
0.0
  0
LINE
  5
237
330
75
100
AcDbEntity
  8
DV1_0
  6
Continuous
 62
     7
100
AcDbLine
 10
98.3572958226
 20
197.2508181113
 30
0.0
 11
98.8929721705
 21
197.6708181113
 31
0.0
  0
LINE
  5
238
330
75
100
AcDbEntity
  8
DV1_0
  6
Continuous
 62
     7
100
AcDbLine
 10
98.8929721705
 20
194.9308181113
 30
0.0
 11
98.3572958226
 21
195.3508181113
 31
0.0
  0
LINE
  5
239
330
75
100
AcDbEntity
  8
DV1_0
  6
Continuous
 62
     7
100
AcDbLine
 10
99.1314706466
 20
195.3508181113
 30
0.0
 11
99.1314706466
 21
197.2508181113
 31
0.0
  0
LINE
  5
23A
330
75
100
AcDbEntity
  8
DV1_0
  6
Continuous
 62
     7
100
AcDbLine
 10
97.5919636574
 20
197.2508181113
 30
0.0
 11
97.5843713695
 21
197.2508181113
 31
0.0
  0
LINE
  5
23B
330
75
100
AcDbEntity
  8
DV1_0
  6
Continuous
 62
     7
100
AcDbLine
 10
98.3495244137
 20
195.3508181113
 30
0.0
 11
98.3572958226
 21
195.3508181113
 31
0.0
  0
LINE
  5
23C
330
75
100
AcDbEntity
  8
DV1_0
  6
Continuous
 62
     7
100
AcDbLine
 10
98.1393879253
 20
194.9308181113
 30
0.0
 11
98.1393879253
 21
197.6708181113
 31
0.0
  0
LINE
  5
23D
330
75
100
AcDbEntity
  8
DV1_0
  6
Continuous
 62
     7
100
AcDbLine
 10
98.1393879253
 20
197.6708181113
 30
0.0
 11
98.3495244137
 21
197.2508181113
 31
0.0
  0
LINE
  5
23E
330
75
100
AcDbEntity
  8
DV1_0
  6
Continuous
 62
     7
100
AcDbLine
 10
98.3495244137
 20
195.3508181113
 30
0.0
 11
98.1393879253
 21
194.9308181113
 31
0.0
  0
LINE
  5
23F
330
75
100
AcDbEntity
  8
DV1_0
  6
Continuous
 62
     7
100
AcDbLine
 10
97.5919636574
 20
195.3508181113
 30
0.0
 11
97.5919636574
 21
197.2508181113
 31
0.0
  0
LINE
  5
240
330
75
100
AcDbEntity
  8
DV1_0
  6
Continuous
 62
     7
100
AcDbLine
 10
97.5919636574
 20
197.2508181113
 30
0.0
 11
98.1393879253
 21
197.6708181113
 31
0.0
  0
LINE
  5
241
330
75
100
AcDbEntity
  8
DV1_0
  6
Continuous
 62
     7
100
AcDbLine
 10
98.1393879253
 20
194.9308181113
 30
0.0
 11
97.5919636574
 21
195.3508181113
 31
0.0
  0
LINE
  5
242
330
75
100
AcDbEntity
  8
DV1_0
  6
Continuous
 62
     7
100
AcDbLine
 10
98.3495244137
 20
195.3508181113
 30
0.0
 11
98.3495244137
 21
197.2508181113
 31
0.0
  0
LINE
  5
243
330
75
100
AcDbEntity
  8
DV1_0
  6
Continuous
 62
     7
100
AcDbLine
 10
96.8455011024
 20
197.2508181113
 30
0.0
 11
96.8381087456
 21
197.2508181113
 31
0.0
  0
LINE
  5
244
330
75
100
AcDbEntity
  8
DV1_0
  6
Continuous
 62
     7
100
AcDbLine
 10
97.5843713695
 20
195.3508181113
 30
0.0
 11
97.5919636574
 21
195.3508181113
 31
0.0
  0
LINE
  5
245
330
75
100
AcDbEntity
  8
DV1_0
  6
Continuous
 62
     7
100
AcDbLine
 10
97.4031728385
 20
194.9308181113
 30
0.0
 11
97.4031728385
 21
197.6708181113
 31
0.0
  0
LINE
  5
246
330
75
100
AcDbEntity
  8
DV1_0
  6
Continuous
 62
     7
100
AcDbLine
 10
97.4031728385
 20
197.6708181113
 30
0.0
 11
97.5843713695
 21
197.2508181113
 31
0.0
  0
LINE
  5
247
330
75
100
AcDbEntity
  8
DV1_0
  6
Continuous
 62
     7
100
AcDbLine
 10
97.5843713695
 20
195.3508181113
 30
0.0
 11
97.4031728385
 21
194.9308181113
 31
0.0
  0
LINE
  5
248
330
75
100
AcDbEntity
  8
DV1_0
  6
Continuous
 62
     7
100
AcDbLine
 10
96.8455011024
 20
195.3508181113
 30
0.0
 11
96.8455011024
 21
197.2508181113
 31
0.0
  0
LINE
  5
249
330
75
100
AcDbEntity
  8
DV1_0
  6
Continuous
 62
     7
100
AcDbLine
 10
96.8455011024
 20
197.2508181113
 30
0.0
 11
97.4031728385
 21
197.6708181113
 31
0.0
  0
LINE
  5
24A
330
75
100
AcDbEntity
  8
DV1_0
  6
Continuous
 62
     7
100
AcDbLine
 10
97.4031728385
 20
194.9308181113
 30
0.0
 11
96.8455011024
 21
195.3508181113
 31
0.0
  0
LINE
  5
24B
330
75
100
AcDbEntity
  8
DV1_0
  6
Continuous
 62
     7
100
AcDbLine
 10
97.5843713695
 20
195.3508181113
 30
0.0
 11
97.5843713695
 21
197.2508181113
 31
0.0
  0
LINE
  5
24C
330
75
100
AcDbEntity
  8
DV1_0
  6
Continuous
 62
     7
100
AcDbLine
 10
96.1199541597
 20
197.2508181113
 30
0.0
 11
96.1127819959
 21
197.2508181113
 31
0.0
  0
LINE
  5
24D
330
75
100
AcDbEntity
  8
DV1_0
  6
Continuous
 62
     7
100
AcDbLine
 10
96.8381087456
 20
195.3508181113
 30
0.0
 11
96.8455011024
 21
195.3508181113
 31
0.0
  0
LINE
  5
24E
330
75
100
AcDbEntity
  8
DV1_0
  6
Continuous
 62
     7
100
AcDbLine
 10
96.6863448244
 20
194.9308181113
 30
0.0
 11
96.6863448244
 21
197.6708181113
 31
0.0
  0
LINE
  5
24F
330
75
100
AcDbEntity
  8
DV1_0
  6
Continuous
 62
     7
100
AcDbLine
 10
96.6863448244
 20
197.6708181113
 30
0.0
 11
96.8381087456
 21
197.2508181113
 31
0.0
  0
LINE
  5
250
330
75
100
AcDbEntity
  8
DV1_0
  6
Continuous
 62
     7
100
AcDbLine
 10
96.8381087456
 20
195.3508181113
 30
0.0
 11
96.6863448244
 21
194.9308181113
 31
0.0
  0
LINE
  5
251
330
75
100
AcDbEntity
  8
DV1_0
  6
Continuous
 62
     7
100
AcDbLine
 10
96.1199541597
 20
195.3508181113
 30
0.0
 11
96.1199541597
 21
197.2508181113
 31
0.0
  0
LINE
  5
252
330
75
100
AcDbEntity
  8
DV1_0
  6
Continuous
 62
     7
100
AcDbLine
 10
96.1199541597
 20
197.2508181113
 30
0.0
 11
96.6863448244
 21
197.6708181113
 31
0.0
  0
LINE
  5
253
330
75
100
AcDbEntity
  8
DV1_0
  6
Continuous
 62
     7
100
AcDbLine
 10
96.6863448244
 20
194.9308181113
 30
0.0
 11
96.1199541597
 21
195.3508181113
 31
0.0
  0
LINE
  5
254
330
75
100
AcDbEntity
  8
DV1_0
  6
Continuous
 62
     7
100
AcDbLine
 10
96.8381087456
 20
195.3508181113
 30
0.0
 11
96.8381087456
 21
197.2508181113
 31
0.0
  0
LINE
  5
255
330
75
100
AcDbEntity
  8
DV1_0
  6
Continuous
 62
     7
100
AcDbLine
 10
95.417311503
 20
197.2508181113
 30
0.0
 11
95.4103791905
 21
197.2508181113
 31
0.0
  0
LINE
  5
256
330
75
100
AcDbEntity
  8
DV1_0
  6
Continuous
 62
     7
100
AcDbLine
 10
96.1127819959
 20
195.3508181113
 30
0.0
 11
96.1199541597
 21
195.3508181113
 31
0.0
  0
LINE
  5
257
330
75
100
AcDbEntity
  8
DV1_0
  6
Continuous
 62
     7
100
AcDbLine
 10
95.9908686589
 20
194.9308181113
 30
0.0
 11
95.9908686589
 21
197.6708181113
 31
0.0
  0
LINE
  5
258
330
75
100
AcDbEntity
  8
DV1_0
  6
Continuous
 62
     7
100
AcDbLine
 10
95.9908686589
 20
197.6708181113
 30
0.0
 11
96.1127819959
 21
197.2508181113
 31
0.0
  0
LINE
  5
259
330
75
100
AcDbEntity
  8
DV1_0
  6
Continuous
 62
     7
100
AcDbLine
 10
96.1127819959
 20
195.3508181113
 30
0.0
 11
95.9908686589
 21
194.9308181113
 31
0.0
  0
LINE
  5
25A
330
75
100
AcDbEntity
  8
DV1_0
  6
Continuous
 62
     7
100
AcDbLine
 10
95.417311503
 20
195.3508181113
 30
0.0
 11
95.417311503
 21
197.2508181113
 31
0.0
  0
LINE
  5
25B
330
75
100
AcDbEntity
  8
DV1_0
  6
Continuous
 62
     7
100
AcDbLine
 10
95.417311503
 20
197.2508181113
 30
0.0
 11
95.9908686589
 21
197.6708181113
 31
0.0
  0
LINE
  5
25C
330
75
100
AcDbEntity
  8
DV1_0
  6
Continuous
 62
     7
100
AcDbLine
 10
95.9908686589
 20
194.9308181113
 30
0.0
 11
95.417311503
 21
195.3508181113
 31
0.0
  0
LINE
  5
25D
330
75
100
AcDbEntity
  8
DV1_0
  6
Continuous
 62
     7
100
AcDbLine
 10
96.1127819959
 20
195.3508181113
 30
0.0
 11
96.1127819959
 21
197.2508181113
 31
0.0
  0
LINE
  5
25E
330
75
100
AcDbEntity
  8
DV1_0
  6
Continuous
 62
     7
100
AcDbLine
 10
94.7394990269
 20
197.2508181113
 30
0.0
 11
94.7328255667
 21
197.2508181113
 31
0.0
  0
LINE
  5
25F
330
75
100
AcDbEntity
  8
DV1_0
  6
Continuous
 62
     7
100
AcDbLine
 10
95.4103791905
 20
195.3508181113
 30
0.0
 11
95.417311503
 21
195.3508181113
 31
0.0
  0
LINE
  5
260
330
75
100
AcDbEntity
  8
DV1_0
  6
Continuous
 62
     7
100
AcDbLine
 10
95.3186505937
 20
194.9308181113
 30
0.0
 11
95.3186505937
 21
197.6708181113
 31
0.0
  0
LINE
  5
261
330
75
100
AcDbEntity
  8
DV1_0
  6
Continuous
 62
     7
100
AcDbLine
 10
95.3186505937
 20
197.6708181113
 30
0.0
 11
95.4103791905
 21
197.2508181113
 31
0.0
  0
LINE
  5
262
330
75
100
AcDbEntity
  8
DV1_0
  6
Continuous
 62
     7
100
AcDbLine
 10
95.4103791905
 20
195.3508181113
 30
0.0
 11
95.3186505937
 21
194.9308181113
 31
0.0
  0
LINE
  5
263
330
75
100
AcDbEntity
  8
DV1_0
  6
Continuous
 62
     7
100
AcDbLine
 10
94.7394990269
 20
195.3508181113
 30
0.0
 11
94.7394990269
 21
197.2508181113
 31
0.0
  0
LINE
  5
264
330
75
100
AcDbEntity
  8
DV1_0
  6
Continuous
 62
     7
100
AcDbLine
 10
94.7394990269
 20
197.2508181113
 30
0.0
 11
95.3186505937
 21
197.6708181113
 31
0.0
  0
LINE
  5
265
330
75
100
AcDbEntity
  8
DV1_0
  6
Continuous
 62
     7
100
AcDbLine
 10
95.3186505937
 20
194.9308181113
 30
0.0
 11
94.7394990269
 21
195.3508181113
 31
0.0
  0
LINE
  5
266
330
75
100
AcDbEntity
  8
DV1_0
  6
Continuous
 62
     7
100
AcDbLine
 10
95.4103791905
 20
195.3508181113
 30
0.0
 11
95.4103791905
 21
197.2508181113
 31
0.0
  0
LINE
  5
267
330
75
100
AcDbEntity
  8
DV1_0
  6
Continuous
 62
     7
100
AcDbLine
 10
94.0883745683
 20
197.2508181113
 30
0.0
 11
94.081978252
 21
197.2508181113
 31
0.0
  0
LINE
  5
268
330
75
100
AcDbEntity
  8
DV1_0
  6
Continuous
 62
     7
100
AcDbLine
 10
94.7328255667
 20
195.3508181113
 30
0.0
 11
94.7394990269
 21
195.3508181113
 31
0.0
  0
LINE
  5
269
330
75
100
AcDbEntity
  8
DV1_0
  6
Continuous
 62
     7
100
AcDbLine
 10
94.6715331319
 20
194.9308181113
 30
0.0
 11
94.6715331319
 21
197.6708181113
 31
0.0
  0
LINE
  5
26A
330
75
100
AcDbEntity
  8
DV1_0
  6
Continuous
 62
     7
100
AcDbLine
 10
94.6715331319
 20
197.6708181113
 30
0.0
 11
94.7328255667
 21
197.2508181113
 31
0.0
  0
LINE
  5
26B
330
75
100
AcDbEntity
  8
DV1_0
  6
Continuous
 62
     7
100
AcDbLine
 10
94.7328255667
 20
195.3508181113
 30
0.0
 11
94.6715331319
 21
194.9308181113
 31
0.0
  0
LINE
  5
26C
330
75
100
AcDbEntity
  8
DV1_0
  6
Continuous
 62
     7
100
AcDbLine
 10
94.0883745683
 20
195.3508181113
 30
0.0
 11
94.0883745683
 21
197.2508181113
 31
0.0
  0
LINE
  5
26D
330
75
100
AcDbEntity
  8
DV1_0
  6
Continuous
 62
     7
100
AcDbLine
 10
94.0883745683
 20
197.2508181113
 30
0.0
 11
94.6715331319
 21
197.6708181113
 31
0.0
  0
LINE
  5
26E
330
75
100
AcDbEntity
  8
DV1_0
  6
Continuous
 62
     7
100
AcDbLine
 10
94.6715331319
 20
194.9308181113
 30
0.0
 11
94.0883745683
 21
195.3508181113
 31
0.0
  0
LINE
  5
26F
330
75
100
AcDbEntity
  8
DV1_0
  6
Continuous
 62
     7
100
AcDbLine
 10
94.7328255667
 20
195.3508181113
 30
0.0
 11
94.7328255667
 21
197.2508181113
 31
0.0
  0
LINE
  5
270
330
75
100
AcDbEntity
  8
DV1_0
  6
Continuous
 62
     7
100
AcDbLine
 10
93.4657228141
 20
197.2508181113
 30
0.0
 11
93.4596211735
 21
197.2508181113
 31
0.0
  0
LINE
  5
271
330
75
100
AcDbEntity
  8
DV1_0
  6
Continuous
 62
     7
100
AcDbLine
 10
94.081978252
 20
195.3508181113
 30
0.0
 11
94.0883745683
 21
195.3508181113
 31
0.0
  0
LINE
  5
272
330
75
100
AcDbEntity
  8
DV1_0
  6
Continuous
 62
     7
100
AcDbLine
 10
94.0512899773
 20
194.9308181113
 30
0.0
 11
94.0512899773
 21
197.6708181113
 31
0.0
  0
LINE
  5
273
330
75
100
AcDbEntity
  8
DV1_0
  6
Continuous
 62
     7
100
AcDbLine
 10
94.0512899773
 20
197.6708181113
 30
0.0
 11
94.081978252
 21
197.2508181113
 31
0.0
  0
LINE
  5
274
330
75
100
AcDbEntity
  8
DV1_0
  6
Continuous
 62
     7
100
AcDbLine
 10
94.081978252
 20
195.3508181113
 30
0.0
 11
94.0512899773
 21
194.9308181113
 31
0.0
  0
LINE
  5
275
330
75
100
AcDbEntity
  8
DV1_0
  6
Continuous
 62
     7
100
AcDbLine
 10
93.4657228141
 20
195.3508181113
 30
0.0
 11
93.4657228141
 21
197.2508181113
 31
0.0
  0
LINE
  5
276
330
75
100
AcDbEntity
  8
DV1_0
  6
Continuous
 62
     7
100
AcDbLine
 10
93.4657228141
 20
197.2508181113
 30
0.0
 11
94.0512899773
 21
197.6708181113
 31
0.0
  0
LINE
  5
277
330
75
100
AcDbEntity
  8
DV1_0
  6
Continuous
 62
     7
100
AcDbLine
 10
94.0512899773
 20
194.9308181113
 30
0.0
 11
93.4657228141
 21
195.3508181113
 31
0.0
  0
LINE
  5
278
330
75
100
AcDbEntity
  8
DV1_0
  6
Continuous
 62
     7
100
AcDbLine
 10
94.081978252
 20
195.3508181113
 30
0.0
 11
94.081978252
 21
197.2508181113
 31
0.0
  0
LINE
  5
279
330
75
100
AcDbEntity
  8
DV1_0
  6
Continuous
 62
     7
100
AcDbLine
 10
92.8732504096
 20
197.2508181113
 30
0.0
 11
92.8674601688
 21
197.2508181113
 31
0.0
  0
LINE
  5
27A
330
75
100
AcDbEntity
  8
DV1_0
  6
Continuous
 62
     7
100
AcDbLine
 10
93.4596211735
 20
195.3508181113
 30
0.0
 11
93.4657228141
 21
195.3508181113
 31
0.0
  0
LINE
  5
27B
330
75
100
AcDbEntity
  8
DV1_0
  6
Continuous
 62
     7
100
AcDbLine
 10
93.4596211735
 20
197.6708181113
 30
0.0
 11
93.4596211735
 21
197.2508181113
 31
0.0
  0
LINE
  5
27C
330
75
100
AcDbEntity
  8
DV1_0
  6
Continuous
 62
     7
100
AcDbLine
 10
93.4596211735
 20
195.3508181113
 30
0.0
 11
93.4596211735
 21
194.9308181113
 31
0.0
  0
LINE
  5
27D
330
75
100
AcDbEntity
  8
DV1_0
  6
Continuous
 62
     7
100
AcDbLine
 10
92.8732504096
 20
195.3508181113
 30
0.0
 11
92.8732504096
 21
197.2508181113
 31
0.0
  0
ARC
  5
27E
330
75
100
AcDbEntity
  8
DV1_0
  6
Continuous
 62
     7
100
AcDbCircle
 10
128.2944087469
 20
148.4179220675
 30
0.0
 40
60.32669553348707
100
AcDbArc
 50
125.2703847107
 51
125.9554211277
  0
ARC
  5
27F
330
75
100
AcDbEntity
  8
DV1_0
  6
Continuous
 62
     7
100
AcDbCircle
 10
128.2935716393
 20
244.1825454518
 30
0.0
 40
60.32525798593526
100
AcDbArc
 50
234.04457071
 51
234.7296234516
  0
LINE
  5
280
330
75
100
AcDbEntity
  8
DV1_0
  6
Continuous
 62
     7
100
AcDbLine
 10
93.4596211735
 20
195.3508181113
 30
0.0
 11
93.4596211735
 21
197.2508181113
 31
0.0
  0
LINE
  5
281
330
75
100
AcDbEntity
  8
DV1_0
  6
Continuous
 62
     7
100
AcDbLine
 10
92.3125812803
 20
197.2508181113
 30
0.0
 11
92.3071183101
 21
197.2508181113
 31
0.0
  0
LINE
  5
282
330
75
100
AcDbEntity
  8
DV1_0
  6
Continuous
 62
     7
100
AcDbLine
 10
92.8674601688
 20
195.3508181113
 30
0.0
 11
92.8732504096
 21
195.3508181113
 31
0.0
  0
LINE
  5
283
330
75
100
AcDbEntity
  8
DV1_0
  6
Continuous
 62
     7
100
AcDbLine
 10
92.8981484435
 20
197.6708181113
 30
0.0
 11
92.8674601688
 21
197.2508181113
 31
0.0
  0
LINE
  5
284
330
75
100
AcDbEntity
  8
DV1_0
  6
Continuous
 62
     7
100
AcDbLine
 10
92.8674601688
 20
195.3508181113
 30
0.0
 11
92.8981484435
 21
194.9308181113
 31
0.0
  0
LINE
  5
285
330
75
100
AcDbEntity
  8
DV1_0
  6
Continuous
 62
     7
100
AcDbLine
 10
92.3125812803
 20
195.3508181113
 30
0.0
 11
92.3125812803
 21
197.2508181113
 31
0.0
  0
LINE
  5
286
330
75
100
AcDbEntity
  8
DV1_0
  6
Continuous
 62
     7
100
AcDbLine
 10
92.3125812803
 20
197.2508181113
 30
0.0
 11
92.8981484435
 21
197.6708181113
 31
0.0
  0
LINE
  5
287
330
75
100
AcDbEntity
  8
DV1_0
  6
Continuous
 62
     7
100
AcDbLine
 10
92.8981484435
 20
194.9308181113
 30
0.0
 11
92.3125812803
 21
195.3508181113
 31
0.0
  0
LINE
  5
288
330
75
100
AcDbEntity
  8
DV1_0
  6
Continuous
 62
     7
100
AcDbLine
 10
92.8674601688
 20
195.3508181113
 30
0.0
 11
92.8674601688
 21
197.2508181113
 31
0.0
  0
LINE
  5
289
330
75
100
AcDbEntity
  8
DV1_0
  6
Continuous
 62
     7
100
AcDbLine
 10
91.7852521814
 20
197.2508181113
 30
0.0
 11
91.7801314553
 21
197.2508181113
 31
0.0
  0
LINE
  5
28A
330
75
100
AcDbEntity
  8
DV1_0
  6
Continuous
 62
     7
100
AcDbLine
 10
92.3071183101
 20
195.3508181113
 30
0.0
 11
92.3125812803
 21
195.3508181113
 31
0.0
  0
LINE
  5
28B
330
75
100
AcDbEntity
  8
DV1_0
  6
Continuous
 62
     7
100
AcDbLine
 10
92.3684107449
 20
197.6708181113
 30
0.0
 11
92.3071183101
 21
197.2508181113
 31
0.0
  0
LINE
  5
28C
330
75
100
AcDbEntity
  8
DV1_0
  6
Continuous
 62
     7
100
AcDbLine
 10
92.3071183101
 20
195.3508181113
 30
0.0
 11
92.3684107449
 21
194.9308181113
 31
0.0
  0
LINE
  5
28D
330
75
100
AcDbEntity
  8
DV1_0
  6
Continuous
 62
     7
100
AcDbLine
 10
91.7852521814
 20
195.3508181113
 30
0.0
 11
91.7852521814
 21
197.2508181113
 31
0.0
  0
LINE
  5
28E
330
75
100
AcDbEntity
  8
DV1_0
  6
Continuous
 62
     7
100
AcDbLine
 10
91.7852521814
 20
197.2508181113
 30
0.0
 11
92.3684107449
 21
197.6708181113
 31
0.0
  0
LINE
  5
28F
330
75
100
AcDbEntity
  8
DV1_0
  6
Continuous
 62
     7
100
AcDbLine
 10
92.3684107449
 20
194.9308181113
 30
0.0
 11
91.7852521814
 21
195.3508181113
 31
0.0
  0
LINE
  5
290
330
75
100
AcDbEntity
  8
DV1_0
  6
Continuous
 62
     7
100
AcDbLine
 10
92.3071183101
 20
195.3508181113
 30
0.0
 11
92.3071183101
 21
197.2508181113
 31
0.0
  0
LINE
  5
291
330
75
100
AcDbEntity
  8
DV1_0
  6
Continuous
 62
     7
100
AcDbLine
 10
91.2927084852
 20
197.2508181113
 30
0.0
 11
91.2879440388
 21
197.2508181113
 31
0.0
  0
LINE
  5
292
330
75
100
AcDbEntity
  8
DV1_0
  6
Continuous
 62
     7
100
AcDbLine
 10
91.7801314553
 20
195.3508181113
 30
0.0
 11
91.7852521814
 21
195.3508181113
 31
0.0
  0
LINE
  5
293
330
75
100
AcDbEntity
  8
DV1_0
  6
Continuous
 62
     7
100
AcDbLine
 10
91.8718600521
 20
197.6708181113
 30
0.0
 11
91.7801314553
 21
197.2508181113
 31
0.0
  0
LINE
  5
294
330
75
100
AcDbEntity
  8
DV1_0
  6
Continuous
 62
     7
100
AcDbLine
 10
91.7801314553
 20
195.3508181113
 30
0.0
 11
91.8718600521
 21
194.9308181113
 31
0.0
  0
LINE
  5
295
330
75
100
AcDbEntity
  8
DV1_0
  6
Continuous
 62
     7
100
AcDbLine
 10
91.2927084852
 20
195.3508181113
 30
0.0
 11
91.2927084852
 21
197.2508181113
 31
0.0
  0
LINE
  5
296
330
75
100
AcDbEntity
  8
DV1_0
  6
Continuous
 62
     7
100
AcDbLine
 10
91.2927084852
 20
197.2508181113
 30
0.0
 11
91.8718600521
 21
197.6708181113
 31
0.0
  0
LINE
  5
297
330
75
100
AcDbEntity
  8
DV1_0
  6
Continuous
 62
     7
100
AcDbLine
 10
91.8718600521
 20
194.9308181113
 30
0.0
 11
91.2927084852
 21
195.3508181113
 31
0.0
  0
LINE
  5
298
330
75
100
AcDbEntity
  8
DV1_0
  6
Continuous
 62
     7
100
AcDbLine
 10
91.7801314553
 20
195.3508181113
 30
0.0
 11
91.7801314553
 21
197.2508181113
 31
0.0
  0
LINE
  5
299
330
75
100
AcDbEntity
  8
DV1_0
  6
Continuous
 62
     7
100
AcDbLine
 10
90.8363002199
 20
197.2508181113
 30
0.0
 11
90.8319051123
 21
197.2508181113
 31
0.0
  0
LINE
  5
29A
330
75
100
AcDbEntity
  8
DV1_0
  6
Continuous
 62
     7
100
AcDbLine
 10
91.2879440388
 20
195.3508181113
 30
0.0
 11
91.2927084852
 21
195.3508181113
 31
0.0
  0
LINE
  5
29B
330
75
100
AcDbEntity
  8
DV1_0
  6
Continuous
 62
     7
100
AcDbLine
 10
91.4098573758
 20
197.6708181113
 30
0.0
 11
91.2879440388
 21
197.2508181113
 31
0.0
  0
LINE
  5
29C
330
75
100
AcDbEntity
  8
DV1_0
  6
Continuous
 62
     7
100
AcDbLine
 10
91.2879440388
 20
195.3508181113
 30
0.0
 11
91.4098573758
 21
194.9308181113
 31
0.0
  0
LINE
  5
29D
330
75
100
AcDbEntity
  8
DV1_0
  6
Continuous
 62
     7
100
AcDbLine
 10
90.8363002199
 20
195.3508181113
 30
0.0
 11
90.8363002199
 21
197.2508181113
 31
0.0
  0
LINE
  5
29E
330
75
100
AcDbEntity
  8
DV1_0
  6
Continuous
 62
     7
100
AcDbLine
 10
90.8363002199
 20
197.2508181113
 30
0.0
 11
91.4098573758
 21
197.6708181113
 31
0.0
  0
LINE
  5
29F
330
75
100
AcDbEntity
  8
DV1_0
  6
Continuous
 62
     7
100
AcDbLine
 10
91.4098573758
 20
194.9308181113
 30
0.0
 11
90.8363002199
 21
195.3508181113
 31
0.0
  0
LINE
  5
2A0
330
75
100
AcDbEntity
  8
DV1_0
  6
Continuous
 62
     7
100
AcDbLine
 10
91.2879440388
 20
195.3508181113
 30
0.0
 11
91.2879440388
 21
197.2508181113
 31
0.0
  0
LINE
  5
2A1
330
75
100
AcDbEntity
  8
DV1_0
  6
Continuous
 62
     7
100
AcDbLine
 10
90.4172783688
 20
197.2508181113
 30
0.0
 11
90.4132646465
 21
197.2508181113
 31
0.0
  0
LINE
  5
2A2
330
75
100
AcDbEntity
  8
DV1_0
  6
Continuous
 62
     7
100
AcDbLine
 10
90.8319051123
 20
195.3508181113
 30
0.0
 11
90.8363002199
 21
195.3508181113
 31
0.0
  0
LINE
  5
2A3
330
75
100
AcDbEntity
  8
DV1_0
  6
Continuous
 62
     7
100
AcDbLine
 10
90.9836690335
 20
197.6708181113
 30
0.0
 11
90.8319051123
 21
197.2508181113
 31
0.0
  0
LINE
  5
2A4
330
75
100
AcDbEntity
  8
DV1_0
  6
Continuous
 62
     7
100
AcDbLine
 10
90.8319051123
 20
195.3508181113
 30
0.0
 11
90.9836690335
 21
194.9308181113
 31
0.0
  0
LINE
  5
2A5
330
75
100
AcDbEntity
  8
DV1_0
  6
Continuous
 62
     7
100
AcDbLine
 10
90.4172783688
 20
195.3508181113
 30
0.0
 11
90.4172783688
 21
197.2508181113
 31
0.0
  0
LINE
  5
2A6
330
75
100
AcDbEntity
  8
DV1_0
  6
Continuous
 62
     7
100
AcDbLine
 10
90.4172783688
 20
197.2508181113
 30
0.0
 11
90.9836690335
 21
197.6708181113
 31
0.0
  0
LINE
  5
2A7
330
75
100
AcDbEntity
  8
DV1_0
  6
Continuous
 62
     7
100
AcDbLine
 10
90.9836690335
 20
194.9308181113
 30
0.0
 11
90.4172783688
 21
195.3508181113
 31
0.0
  0
LINE
  5
2A8
330
75
100
AcDbEntity
  8
DV1_0
  6
Continuous
 62
     7
100
AcDbLine
 10
90.8319051123
 20
195.3508181113
 30
0.0
 11
90.8319051123
 21
197.2508181113
 31
0.0
  0
LINE
  5
2A9
330
75
100
AcDbEntity
  8
DV1_0
  6
Continuous
 62
     7
100
AcDbLine
 10
90.0367914415
 20
197.2508181113
 30
0.0
 11
90.033170106
 21
197.2508181113
 31
0.0
  0
LINE
  5
2AA
330
75
100
AcDbEntity
  8
DV1_0
  6
Continuous
 62
     7
100
AcDbLine
 10
90.4132646465
 20
195.3508181113
 30
0.0
 11
90.4172783688
 21
195.3508181113
 31
0.0
  0
LINE
  5
2AB
330
75
100
AcDbEntity
  8
DV1_0
  6
Continuous
 62
     7
100
AcDbLine
 10
90.5944631776
 20
197.6708181113
 30
0.0
 11
90.4132646465
 21
197.2508181113
 31
0.0
  0
LINE
  5
2AC
330
75
100
AcDbEntity
  8
DV1_0
  6
Continuous
 62
     7
100
AcDbLine
 10
90.4132646465
 20
195.3508181113
 30
0.0
 11
90.5944631776
 21
194.9308181113
 31
0.0
  0
LINE
  5
2AD
330
75
100
AcDbEntity
  8
DV1_0
  6
Continuous
 62
     7
100
AcDbLine
 10
90.0367914415
 20
195.3508181113
 30
0.0
 11
90.0367914415
 21
197.2508181113
 31
0.0
  0
LINE
  5
2AE
330
75
100
AcDbEntity
  8
DV1_0
  6
Continuous
 62
     7
100
AcDbLine
 10
90.0367914415
 20
197.2508181113
 30
0.0
 11
90.5944631776
 21
197.6708181113
 31
0.0
  0
LINE
  5
2AF
330
75
100
AcDbEntity
  8
DV1_0
  6
Continuous
 62
     7
100
AcDbLine
 10
90.5944631776
 20
194.9308181113
 30
0.0
 11
90.0367914415
 21
195.3508181113
 31
0.0
  0
LINE
  5
2B0
330
75
100
AcDbEntity
  8
DV1_0
  6
Continuous
 62
     7
100
AcDbLine
 10
90.4132646465
 20
195.3508181113
 30
0.0
 11
90.4132646465
 21
197.2508181113
 31
0.0
  0
LINE
  5
2B1
330
75
100
AcDbEntity
  8
DV1_0
  6
Continuous
 62
     7
100
AcDbLine
 10
89.6958823264
 20
197.2508181113
 30
0.0
 11
89.6926633035
 21
197.2508181113
 31
0.0
  0
LINE
  5
2B2
330
75
100
AcDbEntity
  8
DV1_0
  6
Continuous
 62
     7
100
AcDbLine
 10
90.033170106
 20
195.3508181113
 30
0.0
 11
90.0367914415
 21
195.3508181113
 31
0.0
  0
LINE
  5
2B3
330
75
100
AcDbEntity
  8
DV1_0
  6
Continuous
 62
     7
100
AcDbLine
 10
90.2433065943
 20
197.6708181113
 30
0.0
 11
90.033170106
 21
197.2508181113
 31
0.0
  0
LINE
  5
2B4
330
75
100
AcDbEntity
  8
DV1_0
  6
Continuous
 62
     7
100
AcDbLine
 10
90.033170106
 20
195.3508181113
 30
0.0
 11
90.2433065943
 21
194.9308181113
 31
0.0
  0
LINE
  5
2B5
330
75
100
AcDbEntity
  8
DV1_0
  6
Continuous
 62
     7
100
AcDbLine
 10
89.6958823264
 20
195.3508181113
 30
0.0
 11
89.6958823264
 21
197.2508181113
 31
0.0
  0
LINE
  5
2B6
330
75
100
AcDbEntity
  8
DV1_0
  6
Continuous
 62
     7
100
AcDbLine
 10
89.6958823264
 20
197.2508181113
 30
0.0
 11
90.2433065943
 21
197.6708181113
 31
0.0
  0
LINE
  5
2B7
330
75
100
AcDbEntity
  8
DV1_0
  6
Continuous
 62
     7
100
AcDbLine
 10
90.2433065943
 20
194.9308181113
 30
0.0
 11
89.6958823264
 21
195.3508181113
 31
0.0
  0
LINE
  5
2B8
330
75
100
AcDbEntity
  8
DV1_0
  6
Continuous
 62
     7
100
AcDbLine
 10
90.033170106
 20
195.3508181113
 30
0.0
 11
90.033170106
 21
197.2508181113
 31
0.0
  0
LINE
  5
2B9
330
75
100
AcDbEntity
  8
DV1_0
  6
Continuous
 62
     7
100
AcDbLine
 10
89.3954854317
 20
197.2508181113
 30
0.0
 11
89.3926775444
 21
197.2508181113
 31
0.0
  0
LINE
  5
2BA
330
75
100
AcDbEntity
  8
DV1_0
  6
Continuous
 62
     7
100
AcDbLine
 10
89.6926633035
 20
195.3508181113
 30
0.0
 11
89.6958823264
 21
195.3508181113
 31
0.0
  0
LINE
  5
2BB
330
75
100
AcDbEntity
  8
DV1_0
  6
Continuous
 62
     7
100
AcDbLine
 10
89.9311617796
 20
197.6708181113
 30
0.0
 11
89.6926633035
 21
197.2508181113
 31
0.0
  0
LINE
  5
2BC
330
75
100
AcDbEntity
  8
DV1_0
  6
Continuous
 62
     7
100
AcDbLine
 10
89.6926633035
 20
195.3508181113
 30
0.0
 11
89.9311617796
 21
194.9308181113
 31
0.0
  0
LINE
  5
2BD
330
75
100
AcDbEntity
  8
DV1_0
  6
Continuous
 62
     7
100
AcDbLine
 10
89.3954854317
 20
195.3508181113
 30
0.0
 11
89.3954854317
 21
197.2508181113
 31
0.0
  0
LINE
  5
2BE
330
75
100
AcDbEntity
  8
DV1_0
  6
Continuous
 62
     7
100
AcDbLine
 10
89.3954854317
 20
197.2508181113
 30
0.0
 11
89.9311617796
 21
197.6708181113
 31
0.0
  0
LINE
  5
2BF
330
75
100
AcDbEntity
  8
DV1_0
  6
Continuous
 62
     7
100
AcDbLine
 10
89.9311617796
 20
194.9308181113
 30
0.0
 11
89.3954854317
 21
195.3508181113
 31
0.0
  0
LINE
  5
2C0
330
75
100
AcDbEntity
  8
DV1_0
  6
Continuous
 62
     7
100
AcDbLine
 10
89.6926633035
 20
195.3508181113
 30
0.0
 11
89.6926633035
 21
197.2508181113
 31
0.0
  0
LINE
  5
2C1
330
75
100
AcDbEntity
  8
DV1_0
  6
Continuous
 62
     7
100
AcDbLine
 10
89.1364241243
 20
197.2508181113
 30
0.0
 11
89.1340350689
 21
197.2508181113
 31
0.0
  0
LINE
  5
2C2
330
75
100
AcDbEntity
  8
DV1_0
  6
Continuous
 62
     7
100
AcDbLine
 10
89.3926775444
 20
195.3508181113
 30
0.0
 11
89.3954854317
 21
195.3508181113
 31
0.0
  0
LINE
  5
2C3
330
75
100
AcDbEntity
  8
DV1_0
  6
Continuous
 62
     7
100
AcDbLine
 10
89.6588843005
 20
197.6708181113
 30
0.0
 11
89.3926775444
 21
197.2508181113
 31
0.0
  0
LINE
  5
2C4
330
75
100
AcDbEntity
  8
DV1_0
  6
Continuous
 62
     7
100
AcDbLine
 10
89.3926775444
 20
195.3508181113
 30
0.0
 11
89.6588843005
 21
194.9308181113
 31
0.0
  0
LINE
  5
2C5
330
75
100
AcDbEntity
  8
DV1_0
  6
Continuous
 62
     7
100
AcDbLine
 10
89.1364241243
 20
195.3508181113
 30
0.0
 11
89.1364241243
 21
197.2508181113
 31
0.0
  0
LINE
  5
2C6
330
75
100
AcDbEntity
  8
DV1_0
  6
Continuous
 62
     7
100
AcDbLine
 10
89.1364241243
 20
197.2508181113
 30
0.0
 11
89.6588843005
 21
197.6708181113
 31
0.0
  0
LINE
  5
2C7
330
75
100
AcDbEntity
  8
DV1_0
  6
Continuous
 62
     7
100
AcDbLine
 10
89.6588843005
 20
194.9308181113
 30
0.0
 11
89.1364241243
 21
195.3508181113
 31
0.0
  0
LINE
  5
2C8
330
75
100
AcDbEntity
  8
DV1_0
  6
Continuous
 62
     7
100
AcDbLine
 10
89.3926775444
 20
195.3508181113
 30
0.0
 11
89.3926775444
 21
197.2508181113
 31
0.0
  0
LINE
  5
2C9
330
75
100
AcDbEntity
  8
DV1_0
  6
Continuous
 62
     7
100
AcDbLine
 10
88.9194084732
 20
197.2508181113
 30
0.0
 11
88.9174447979
 21
197.2508181113
 31
0.0
  0
LINE
  5
2CA
330
75
100
AcDbEntity
  8
DV1_0
  6
Continuous
 62
     7
100
AcDbLine
 10
89.1340350689
 20
195.3508181113
 30
0.0
 11
89.1364241243
 21
195.3508181113
 31
0.0
  0
LINE
  5
2CB
330
75
100
AcDbEntity
  8
DV1_0
  6
Continuous
 62
     7
100
AcDbLine
 10
89.4272204508
 20
197.6708181113
 30
0.0
 11
89.1340350689
 21
197.2508181113
 31
0.0
  0
LINE
  5
2CC
330
75
100
AcDbEntity
  8
DV1_0
  6
Continuous
 62
     7
100
AcDbLine
 10
89.1340350689
 20
195.3508181113
 30
0.0
 11
89.4272204508
 21
194.9308181113
 31
0.0
  0
LINE
  5
2CD
330
75
100
AcDbEntity
  8
DV1_0
  6
Continuous
 62
     7
100
AcDbLine
 10
88.9194084732
 20
195.3508181113
 30
0.0
 11
88.9194084732
 21
197.2508181113
 31
0.0
  0
LINE
  5
2CE
330
75
100
AcDbEntity
  8
DV1_0
  6
Continuous
 62
     7
100
AcDbLine
 10
88.9194084732
 20
197.2508181113
 30
0.0
 11
89.4272204508
 21
197.6708181113
 31
0.0
  0
LINE
  5
2CF
330
75
100
AcDbEntity
  8
DV1_0
  6
Continuous
 62
     7
100
AcDbLine
 10
89.4272204508
 20
194.9308181113
 30
0.0
 11
88.9194084732
 21
195.3508181113
 31
0.0
  0
LINE
  5
2D0
330
75
100
AcDbEntity
  8
DV1_0
  6
Continuous
 62
     7
100
AcDbLine
 10
89.1340350689
 20
195.3508181113
 30
0.0
 11
89.1340350689
 21
197.2508181113
 31
0.0
  0
LINE
  5
2D1
330
75
100
AcDbEntity
  8
DV1_0
  6
Continuous
 62
     7
100
AcDbLine
 10
88.7450333033
 20
197.2508181113
 30
0.0
 11
88.7435003905
 21
197.2508181113
 31
0.0
  0
LINE
  5
2D2
330
75
100
AcDbEntity
  8
DV1_0
  6
Continuous
 62
     7
100
AcDbLine
 10
88.9174447979
 20
195.3508181113
 30
0.0
 11
88.9194084732
 21
195.3508181113
 31
0.0
  0
LINE
  5
2D3
330
75
100
AcDbEntity
  8
DV1_0
  6
Continuous
 62
     7
100
AcDbLine
 10
89.236805205
 20
197.6708181113
 30
0.0
 11
88.9174447979
 21
197.2508181113
 31
0.0
  0
LINE
  5
2D4
330
75
100
AcDbEntity
  8
DV1_0
  6
Continuous
 62
     7
100
AcDbLine
 10
88.9174447979
 20
195.3508181113
 30
0.0
 11
89.236805205
 21
194.9308181113
 31
0.0
  0
LINE
  5
2D5
330
75
100
AcDbEntity
  8
DV1_0
  6
Continuous
 62
     7
100
AcDbLine
 10
88.7450333033
 20
195.3508181113
 30
0.0
 11
88.7450333033
 21
197.2508181113
 31
0.0
  0
LINE
  5
2D6
330
75
100
AcDbEntity
  8
DV1_0
  6
Continuous
 62
     7
100
AcDbLine
 10
88.7450333033
 20
197.2508181113
 30
0.0
 11
89.236805205
 21
197.6708181113
 31
0.0
  0
LINE
  5
2D7
330
75
100
AcDbEntity
  8
DV1_0
  6
Continuous
 62
     7
100
AcDbLine
 10
89.236805205
 20
194.9308181113
 30
0.0
 11
88.7450333033
 21
195.3508181113
 31
0.0
  0
LINE
  5
2D8
330
75
100
AcDbEntity
  8
DV1_0
  6
Continuous
 62
     7
100
AcDbLine
 10
88.9174447979
 20
195.3508181113
 30
0.0
 11
88.9174447979
 21
197.2508181113
 31
0.0
  0
LINE
  5
2D9
330
75
100
AcDbEntity
  8
DV1_0
  6
Continuous
 62
     7
100
AcDbLine
 10
88.6137765649
 20
197.2508181113
 30
0.0
 11
88.6126786161
 21
197.2508181113
 31
0.0
  0
LINE
  5
2DA
330
75
100
AcDbEntity
  8
DV1_0
  6
Continuous
 62
     7
100
AcDbLine
 10
88.7435003905
 20
195.3508181113
 30
0.0
 11
88.7450333033
 21
195.3508181113
 31
0.0
  0
LINE
  5
2DB
330
75
100
AcDbEntity
  8
DV1_0
  6
Continuous
 62
     7
100
AcDbLine
 10
89.0881604779
 20
197.6708181113
 30
0.0
 11
88.7435003905
 21
197.2508181113
 31
0.0
  0
LINE
  5
2DC
330
75
100
AcDbEntity
  8
DV1_0
  6
Continuous
 62
     7
100
AcDbLine
 10
88.7435003905
 20
195.3508181113
 30
0.0
 11
89.0881604779
 21
194.9308181113
 31
0.0
  0
LINE
  5
2DD
330
75
100
AcDbEntity
  8
DV1_0
  6
Continuous
 62
     7
100
AcDbLine
 10
88.6137765649
 20
195.3508181113
 30
0.0
 11
88.6137765649
 21
197.2508181113
 31
0.0
  0
LINE
  5
2DE
330
75
100
AcDbEntity
  8
DV1_0
  6
Continuous
 62
     7
100
AcDbLine
 10
88.6137765649
 20
197.2508181113
 30
0.0
 11
89.0881604779
 21
197.6708181113
 31
0.0
  0
LINE
  5
2DF
330
75
100
AcDbEntity
  8
DV1_0
  6
Continuous
 62
     7
100
AcDbLine
 10
89.0881604779
 20
194.9308181113
 30
0.0
 11
88.6137765649
 21
195.3508181113
 31
0.0
  0
LINE
  5
2E0
330
75
100
AcDbEntity
  8
DV1_0
  6
Continuous
 62
     7
100
AcDbLine
 10
88.7435003905
 20
195.3508181113
 30
0.0
 11
88.7435003905
 21
197.2508181113
 31
0.0
  0
LINE
  5
2E1
330
75
100
AcDbEntity
  8
DV1_0
  6
Continuous
 62
     7
100
AcDbLine
 10
88.5259980234
 20
197.2508181113
 30
0.0
 11
88.5253380481
 21
197.2508181113
 31
0.0
  0
LINE
  5
2E2
330
75
100
AcDbEntity
  8
DV1_0
  6
Continuous
 62
     7
100
AcDbLine
 10
88.6126786161
 20
195.3508181113
 30
0.0
 11
88.6137765649
 21
195.3508181113
 31
0.0
  0
LINE
  5
2E3
330
75
100
AcDbEntity
  8
DV1_0
  6
Continuous
 62
     7
100
AcDbLine
 10
88.9816936946
 20
197.6708181113
 30
0.0
 11
88.6126786161
 21
197.2508181113
 31
0.0
  0
LINE
  5
2E4
330
75
100
AcDbEntity
  8
DV1_0
  6
Continuous
 62
     7
100
AcDbLine
 10
88.6126786161
 20
195.3508181113
 30
0.0
 11
88.9816936946
 21
194.9308181113
 31
0.0
  0
LINE
  5
2E5
330
75
100
AcDbEntity
  8
DV1_0
  6
Continuous
 62
     7
100
AcDbLine
 10
88.5259980234
 20
195.3508181113
 30
0.0
 11
88.5259980234
 21
197.2508181113
 31
0.0
  0
LINE
  5
2E6
330
75
100
AcDbEntity
  8
DV1_0
  6
Continuous
 62
     7
100
AcDbLine
 10
88.5259980234
 20
197.2508181113
 30
0.0
 11
88.9816936946
 21
197.6708181113
 31
0.0
  0
LINE
  5
2E7
330
75
100
AcDbEntity
  8
DV1_0
  6
Continuous
 62
     7
100
AcDbLine
 10
88.9816936946
 20
194.9308181113
 30
0.0
 11
88.5259980234
 21
195.3508181113
 31
0.0
  0
LINE
  5
2E8
330
75
100
AcDbEntity
  8
DV1_0
  6
Continuous
 62
     7
100
AcDbLine
 10
88.6126786161
 20
195.3508181113
 30
0.0
 11
88.6126786161
 21
197.2508181113
 31
0.0
  0
LINE
  5
2E9
330
75
100
AcDbEntity
  8
DV1_0
  6
Continuous
 62
     7
100
AcDbLine
 10
88.4819382739
 20
197.2508181113
 30
0.0
 11
88.4817180809
 21
197.2508181113
 31
0.0
  0
LINE
  5
2EA
330
75
100
AcDbEntity
  8
DV1_0
  6
Continuous
 62
     7
100
AcDbLine
 10
88.5253380481
 20
195.3508181113
 30
0.0
 11
88.5259980234
 21
195.3508181113
 31
0.0
  0
LINE
  5
2EB
330
75
100
AcDbEntity
  8
DV1_0
  6
Continuous
 62
     7
100
AcDbLine
 10
88.9176966729
 20
197.6708181113
 30
0.0
 11
88.5253380481
 21
197.2508181113
 31
0.0
  0
LINE
  5
2EC
330
75
100
AcDbEntity
  8
DV1_0
  6
Continuous
 62
     7
100
AcDbLine
 10
88.5253380481
 20
195.3508181113
 30
0.0
 11
88.9176966729
 21
194.9308181113
 31
0.0
  0
LINE
  5
2ED
330
75
100
AcDbEntity
  8
DV1_0
  6
Continuous
 62
     7
100
AcDbLine
 10
88.4819382739
 20
195.3508181113
 30
0.0
 11
88.4819382739
 21
197.2508181113
 31
0.0
  0
LINE
  5
2EE
330
75
100
AcDbEntity
  8
DV1_0
  6
Continuous
 62
     7
100
AcDbLine
 10
88.4819382739
 20
197.2508181113
 30
0.0
 11
88.9176966729
 21
197.6708181113
 31
0.0
  0
LINE
  5
2EF
330
75
100
AcDbEntity
  8
DV1_0
  6
Continuous
 62
     7
100
AcDbLine
 10
88.9176966729
 20
194.9308181113
 30
0.0
 11
88.4819382739
 21
195.3508181113
 31
0.0
  0
LINE
  5
2F0
330
75
100
AcDbEntity
  8
DV1_0
  6
Continuous
 62
     7
100
AcDbLine
 10
88.5253380481
 20
195.3508181113
 30
0.0
 11
88.5253380481
 21
197.2508181113
 31
0.0
  0
LINE
  5
2F1
330
75
100
AcDbEntity
  8
DV1_0
  6
Continuous
 62
     7
100
AcDbLine
 10
88.4817180809
 20
195.3508181113
 30
0.0
 11
88.4819382739
 21
195.3508181113
 31
0.0
  0
LINE
  5
2F2
330
75
100
AcDbEntity
  8
DV1_0
  6
Continuous
 62
     7
100
AcDbLine
 10
88.8963448244
 20
197.6708181113
 30
0.0
 11
88.4817180809
 21
197.2508181113
 31
0.0
  0
LINE
  5
2F3
330
75
100
AcDbEntity
  8
DV1_0
  6
Continuous
 62
     7
100
AcDbLine
 10
88.4817180809
 20
195.3508181113
 30
0.0
 11
88.8963448244
 21
194.9308181113
 31
0.0
  0
LINE
  5
2F4
330
75
100
AcDbEntity
  8
DV1_0
  6
Continuous
 62
     7
100
AcDbLine
 10
88.4817180809
 20
195.3508181113
 30
0.0
 11
88.4817180809
 21
197.2508181113
 31
0.0
  0
LINE
  5
2F5
330
75
100
AcDbEntity
  8
DV1_0
  6
Continuous
 62
     7
100
AcDbLine
 10
114.4611525774
 20
158.961580865
 30
0.0
 11
94.4915370714
 21
158.961580865
 31
0.0
  0
LINE
  5
2F6
330
75
100
AcDbEntity
  8
DV1_0
  6
Continuous
 62
     7
100
AcDbLine
 10
113.4763448244
 20
175.528365756
 30
0.0
 11
95.4763448244
 21
175.528365756
 31
0.0
  0
LINE
  5
2F7
330
75
100
AcDbEntity
  8
DV1_0
  6
Continuous
 62
     7
100
AcDbLine
 10
95.4763448244
 20
160.1352290427
 30
0.0
 11
113.4763448244
 21
160.1352290427
 31
0.0
  0
LINE
  5
2F8
330
75
100
AcDbEntity
  8
DV1_0
  6
Continuous
 62
     7
100
AcDbLine
 10
94.4915370714
 20
176.7020139337
 30
0.0
 11
114.4611525774
 21
176.7020139337
 31
0.0
  0
LINE
  5
2F9
330
75
100
AcDbEntity
  8
DV1_0
  6
Continuous
 62
     7
100
AcDbLine
 10
119.6263448244
 20
157.0508181113
 30
0.0
 11
89.3263448244
 21
157.0508181113
 31
0.0
  0
LINE
  5
2FA
330
75
100
AcDbEntity
  8
DV1_0
  6
Continuous
 62
     7
100
AcDbLine
 10
90.3111525774
 20
158.224466289
 30
0.0
 11
118.6415370714
 21
158.224466289
 31
0.0
  0
LINE
  5
2FB
330
75
100
AcDbEntity
  8
DV1_0
  6
Continuous
 62
     7
100
AcDbLine
 10
122.4763448244
 20
183.2008181113
 30
0.0
 11
121.4263448244
 21
184.2508181113
 31
0.0
  0
LINE
  5
2FC
330
75
100
AcDbEntity
  8
DV1_0
  6
Continuous
 62
     7
100
AcDbLine
 10
87.5263448244
 20
184.2508181113
 30
0.0
 11
86.4763448244
 21
183.2008181113
 31
0.0
  0
LINE
  5
2FD
330
75
100
AcDbEntity
  8
DV1_0
  6
Continuous
 62
     7
100
AcDbLine
 10
86.0926285591
 20
187.4112603145
 30
0.0
 11
87.6981354877
 21
187.2707854364
 31
0.0
  0
LINE
  5
2FE
330
75
100
AcDbEntity
  8
DV1_0
  6
Continuous
 62
     7
100
AcDbLine
 10
121.2545541611
 20
187.2707854364
 30
0.0
 11
122.8600610897
 21
187.4112603145
 31
0.0
  0
LINE
  5
2FF
330
75
100
AcDbEntity
  8
DV1_0
  6
Continuous
 62
     7
100
AcDbLine
 10
93.4763448244
 20
209.7508181113
 30
0.0
 11
95.9763448244
 21
207.2508181113
 31
0.0
  0
LINE
  5
300
330
75
100
AcDbEntity
  8
DV1_0
  6
Continuous
 62
     7
100
AcDbLine
 10
112.9763448244
 20
207.2508181113
 30
0.0
 11
115.4763448244
 21
209.7508181113
 31
0.0
  0
LINE
  5
301
330
75
100
AcDbEntity
  8
DV1_0
  6
Continuous
 62
     7
100
AcDbLine
 10
115.4763448244
 20
223.3508181114
 30
0.0
 11
113.9763448244
 21
224.8508181113
 31
0.0
  0
LINE
  5
302
330
75
100
AcDbEntity
  8
DV1_0
  6
Continuous
 62
     7
100
AcDbLine
 10
94.9763448244
 20
224.8508181113
 30
0.0
 11
93.4763448244
 21
223.3508181114
 31
0.0
  0
LINE
  5
303
330
75
100
AcDbEntity
  8
DV1_0
  6
Continuous
 62
     7
100
AcDbLine
 10
112.9763448244
 20
224.8508181113
 30
0.0
 11
112.9763448244
 21
228.3508181113
 31
0.0
  0
LINE
  5
304
330
75
100
AcDbEntity
  8
DV1_0
  6
Continuous
 62
     7
100
AcDbLine
 10
95.9763448244
 20
228.3508181113
 30
0.0
 11
95.9763448244
 21
224.8508181113
 31
0.0
  0
LINE
  5
305
330
75
100
AcDbEntity
  8
DV1_0
  6
Continuous
 62
     7
100
AcDbLine
 10
112.9763448244
 20
206.2508181113
 30
0.0
 11
112.9763448244
 21
207.2508181113
 31
0.0
  0
LINE
  5
306
330
75
100
AcDbEntity
  8
DV1_0
  6
Continuous
 62
     7
100
AcDbLine
 10
95.9763448244
 20
207.2508181113
 30
0.0
 11
95.9763448244
 21
206.2508181113
 31
0.0
  0
LINE
  5
307
330
75
100
AcDbEntity
  8
DV1_0
  6
Continuous
 62
     7
100
AcDbLine
 10
111.7263448244
 20
203.3508181113
 30
0.0
 11
111.7263448244
 21
205.9508181113
 31
0.0
  0
LINE
  5
308
330
75
100
AcDbEntity
  8
DV1_0
  6
Continuous
 62
     7
100
AcDbLine
 10
97.2263448244
 20
205.9508181113
 30
0.0
 11
97.2263448244
 21
203.3508181113
 31
0.0
  0
LINE
  5
309
330
75
100
AcDbEntity
  8
DV1_0
  6
Continuous
 62
     7
100
AcDbLine
 10
124.4763448244
 20
189.8508181113
 30
0.0
 11
124.4763448244
 21
191.8508181113
 31
0.0
  0
LINE
  5
30A
330
75
100
AcDbEntity
  8
DV1_0
  6
Continuous
 62
     7
100
AcDbLine
 10
84.4763448244
 20
191.8508181113
 30
0.0
 11
84.4763448244
 21
189.8508181113
 31
0.0
  0
LINE
  5
30B
330
75
100
AcDbEntity
  8
DV1_0
  6
Continuous
 62
     7
100
AcDbLine
 10
119.7263448244
 20
191.8508181113
 30
0.0
 11
119.7263448244
 21
194.8508181113
 31
0.0
  0
LINE
  5
30C
330
75
100
AcDbEntity
  8
DV1_0
  6
Continuous
 62
     7
100
AcDbLine
 10
89.2263448244
 20
194.8508181113
 30
0.0
 11
89.2263448244
 21
191.8508181113
 31
0.0
  0
ARC
  5
30D
330
75
100
AcDbEntity
  8
DV1_0
  6
Continuous
 62
     7
100
AcDbCircle
 10
96.9263448244
 20
205.9508181113
 30
0.0
 40
0.2999999999999947
100
AcDbArc
 50
0.0
 51
90.0
  0
ARC
  5
30E
330
75
100
AcDbEntity
  8
DV1_0
  6
Continuous
 62
     7
100
AcDbCircle
 10
112.0263448244
 20
205.9508181113
 30
0.0
 40
0.3000000000000008
100
AcDbArc
 50
90.0
 51
180.0
  0
ARC
  5
30F
330
75
100
AcDbEntity
  8
DV1_0
  6
Continuous
 62
     7
100
AcDbCircle
 10
112.0263448244
 20
203.3508181113
 30
0.0
 40
0.3000000000000086
100
AcDbArc
 50
180.0
 51
270.0
  0
ARC
  5
310
330
75
100
AcDbEntity
  8
DV1_0
  6
Continuous
 62
     7
100
AcDbCircle
 10
96.9263448244
 20
203.3508181113
 30
0.0
 40
0.3000000000000008
100
AcDbArc
 50
270.0
 51
0.0
  0
LINE
  5
311
330
75
100
AcDbEntity
  8
DV1_0
  6
Continuous
 62
     7
100
AcDbLine
 10
122.9513448244
 20
187.5108797238
 30
0.0
 11
122.9513448244
 21
188.79770922
 31
0.0
  0
LINE
  5
312
330
75
100
AcDbEntity
  8
DV1_0
  6
Continuous
 62
     7
100
AcDbLine
 10
86.0013448244
 20
188.79770922
 30
0.0
 11
86.0013448244
 21
187.5108797238
 31
0.0
  0
LINE
  5
313
330
75
100
AcDbEntity
  8
DV1_0
  6
Continuous
 62
     7
100
AcDbLine
 10
122.9513448244
 20
188.79770922
 30
0.0
 11
122.7763448244
 21
189.4508181113
 31
0.0
  0
LINE
  5
314
330
75
100
AcDbEntity
  8
DV1_0
  6
Continuous
 62
     7
100
AcDbLine
 10
86.1763448244
 20
189.4508181113
 30
0.0
 11
86.0013448244
 21
188.79770922
 31
0.0
  0
LINE
  5
315
330
75
100
AcDbEntity
  8
DV1_0
  6
Continuous
 62
     7
100
AcDbLine
 10
122.7763448244
 20
189.4508181113
 30
0.0
 11
122.7763448244
 21
189.8508181113
 31
0.0
  0
LINE
  5
316
330
75
100
AcDbEntity
  8
DV1_0
  6
Continuous
 62
     7
100
AcDbLine
 10
86.1763448244
 20
189.8508181113
 30
0.0
 11
86.1763448244
 21
189.4508181113
 31
0.0
  0
LINE
  5
317
330
75
100
AcDbEntity
  8
DV1_0
  6
Continuous
 62
     7
100
AcDbLine
 10
112.9763448244
 20
228.3508181113
 30
0.0
 11
112.4763448244
 21
228.8508181113
 31
0.0
  0
LINE
  5
318
330
75
100
AcDbEntity
  8
DV1_0
  6
Continuous
 62
     7
100
AcDbLine
 10
96.4763448244
 20
228.8508181113
 30
0.0
 11
95.9763448244
 21
228.3508181113
 31
0.0
  0
ARC
  5
319
330
75
100
AcDbEntity
  8
DV1_0
  6
Continuous
 62
     7
100
AcDbCircle
 10
86.1013448244
 20
187.5108797238
 30
0.0
 40
0.0999999999999994
100
AcDbArc
 50
180.0
 51
264.9996025415
  0
ARC
  5
31A
330
75
100
AcDbEntity
  8
DV1_0
  6
Continuous
 62
     7
100
AcDbCircle
 10
122.8513448244
 20
187.5108797238
 30
0.0
 40
0.1000000000000045
100
AcDbArc
 50
275.0003974585
 51
0.0
  0
ARC
  5
31B
330
75
100
AcDbEntity
  8
DV1_0
  6
Continuous
 62
     7
100
AcDbCircle
 10
121.2763448244
 20
187.021736913
 30
0.0
 40
0.2500000000000002
100
AcDbArc
 50
95.0003974585
 51
113.6054286569
  0
ARC
  5
31C
330
75
100
AcDbEntity
  8
DV1_0
  6
Continuous
 62
     7
100
AcDbCircle
 10
87.6763448244
 20
187.021736913
 30
0.0
 40
0.2500000000000055
100
AcDbArc
 50
66.3945713431
 51
84.9996025415
  0
LINE
  5
31D
330
75
100
AcDbEntity
  8
DV1_0
  6
Continuous
 62
     7
100
AcDbLine
 10
119.6263448244
 20
155.3508181113
 30
0.0
 11
119.6263448244
 21
157.0508181113
 31
0.0
  0
LINE
  5
31E
330
75
100
AcDbEntity
  8
DV1_0
  6
Continuous
 62
     7
100
AcDbLine
 10
89.3263448244
 20
157.0508181113
 30
0.0
 11
89.3263448244
 21
155.3508181113
 31
0.0
  0
LINE
  5
31F
330
75
100
AcDbEntity
  8
DV1_0
  6
Continuous
 62
     7
100
AcDbLine
 10
118.6415370714
 20
158.224466289
 30
0.0
 11
114.4611525774
 21
158.961580865
 31
0.0
  0
LINE
  5
320
330
75
100
AcDbEntity
  8
DV1_0
  6
Continuous
 62
     7
100
AcDbLine
 10
94.4915370714
 20
158.961580865
 30
0.0
 11
90.3111525774
 21
158.224466289
 31
0.0
  0
LINE
  5
321
330
75
100
AcDbEntity
  8
DV1_0
  6
Continuous
 62
     7
100
AcDbLine
 10
113.4763448244
 20
160.1352290427
 30
0.0
 11
113.4763448244
 21
175.528365756
 31
0.0
  0
LINE
  5
322
330
75
100
AcDbEntity
  8
DV1_0
  6
Continuous
 62
     7
100
AcDbLine
 10
95.4763448244
 20
175.528365756
 30
0.0
 11
95.4763448244
 21
160.1352290427
 31
0.0
  0
LINE
  5
323
330
75
100
AcDbEntity
  8
DV1_0
  6
Continuous
 62
     7
100
AcDbLine
 10
87.9763448244
 20
177.8508181113
 30
0.0
 11
94.4915370714
 21
176.7020139337
 31
0.0
  0
LINE
  5
324
330
75
100
AcDbEntity
  8
DV1_0
  6
Continuous
 62
     7
100
AcDbLine
 10
114.4611525774
 20
176.7020139337
 30
0.0
 11
120.9763448244
 21
177.8508181113
 31
0.0
  0
LINE
  5
325
330
75
100
AcDbEntity
  8
DV1_0
  6
Continuous
 62
     7
100
AcDbLine
 10
86.4763448244
 20
179.3508181113
 30
0.0
 11
87.9763448244
 21
177.8508181113
 31
0.0
  0
LINE
  5
326
330
75
100
AcDbEntity
  8
DV1_0
  6
Continuous
 62
     7
100
AcDbLine
 10
120.9763448244
 20
177.8508181113
 30
0.0
 11
122.4763448244
 21
179.3508181113
 31
0.0
  0
ARC
  5
327
330
75
100
AcDbEntity
  8
DV1_0
  6
Continuous
 62
     7
100
AcDbCircle
 10
89.6263448244
 20
155.3508181113
 30
0.0
 40
0.2999999999999999
100
AcDbArc
 50
180.0
 51
270.0
  0
ARC
  5
328
330
75
100
AcDbEntity
  8
DV1_0
  6
Continuous
 62
     7
100
AcDbCircle
 10
119.3263448244
 20
155.3508181113
 30
0.0
 40
0.3000000000000017
100
AcDbArc
 50
270.0
 51
0.0
  0
LINE
  5
329
330
75
100
AcDbEntity
  8
DV1_0
  6
Continuous
 62
     7
100
AcDbLine
 10
88.8963448244
 20
194.9308181113
 30
0.0
 11
88.9763448244
 21
194.8508181113
 31
0.0
  0
LINE
  5
32A
330
75
100
AcDbEntity
  8
DV1_0
  6
Continuous
 62
     7
100
AcDbLine
 10
119.9763448244
 20
194.8508181113
 30
0.0
 11
120.0563448244
 21
194.9308181113
 31
0.0
  0
LINE
  5
32B
330
75
100
AcDbEntity
  8
DV1_0
  6
Continuous
 62
     7
100
AcDbLine
 10
120.0563448244
 20
197.6708181113
 30
0.0
 11
119.8763448244
 21
197.8508181113
 31
0.0
  0
LINE
  5
32C
330
75
100
AcDbEntity
  8
DV1_0
  6
Continuous
 62
     7
100
AcDbLine
 10
89.0763448244
 20
197.8508181113
 30
0.0
 11
88.8963448244
 21
197.6708181113
 31
0.0
  0
LINE
  5
32D
330
75
100
AcDbEntity
  8
DV1_0
  6
Continuous
 62
     7
100
AcDbLine
 10
114.4611525774
 20
158.961580865
 30
0.0
 11
113.4763448244
 21
160.1352290427
 31
0.0
  0
LINE
  5
32E
330
75
100
AcDbEntity
  8
DV1_0
  6
Continuous
 62
     7
100
AcDbLine
 10
95.4763448244
 20
160.1352290427
 30
0.0
 11
94.4915370714
 21
158.961580865
 31
0.0
  0
LINE
  5
32F
330
75
100
AcDbEntity
  8
DV1_0
  6
Continuous
 62
     7
100
AcDbLine
 10
94.4915370714
 20
176.7020139337
 30
0.0
 11
95.4763448244
 21
175.528365756
 31
0.0
  0
LINE
  5
330
330
75
100
AcDbEntity
  8
DV1_0
  6
Continuous
 62
     7
100
AcDbLine
 10
113.4763448244
 20
175.528365756
 30
0.0
 11
114.4611525774
 21
176.7020139337
 31
0.0
  0
LINE
  5
331
330
75
100
AcDbEntity
  8
DV1_0
  6
Continuous
 62
     7
100
AcDbLine
 10
119.6263448244
 20
157.0508181113
 30
0.0
 11
118.6415370714
 21
158.224466289
 31
0.0
  0
LINE
  5
332
330
75
100
AcDbEntity
  8
DV1_0
  6
Continuous
 62
     7
100
AcDbLine
 10
90.3111525774
 20
158.224466289
 30
0.0
 11
89.3263448244
 21
157.0508181113
 31
0.0
  0
LINE
  5
333
330
75
100
AcDbEntity
  8
DV1_0
  6
Continuous
 62
     7
100
AcDbLine
 10
93.4763448244
 20
223.3508181114
 30
0.0
 11
93.4763448244
 21
209.7508181113
 31
0.0
  0
LINE
  5
334
330
75
100
AcDbEntity
  8
DV1_0
  6
Continuous
 62
     7
100
AcDbLine
 10
86.4763448244
 20
183.2008181113
 30
0.0
 11
86.4763448244
 21
179.3508181113
 31
0.0
  0
LINE
  5
335
330
75
100
AcDbEntity
  8
DV1_0
  6
Continuous
 62
     7
100
AcDbLine
 10
115.4763448244
 20
209.7508181113
 30
0.0
 11
115.4763448244
 21
223.3508181114
 31
0.0
  0
LINE
  5
336
330
75
100
AcDbEntity
  8
DV1_0
  6
Continuous
 62
     7
100
AcDbLine
 10
122.4763448244
 20
179.3508181113
 30
0.0
 11
122.4763448244
 21
183.2008181113
 31
0.0
  0
LINE
  5
337
330
75
100
AcDbEntity
  8
DV1_0
  6
Continuous
 62
     7
100
AcDbLine
 10
121.5563448244
 20
183.2008181113
 30
0.0
 11
121.5563448244
 21
178.4308181113
 31
0.0
  0
LINE
  5
338
330
75
100
AcDbEntity
  8
DV1_0
  6
Continuous
 62
     7
100
AcDbLine
 10
87.3963448244
 20
183.2008181113
 30
0.0
 11
87.3963448244
 21
178.4308181113
 31
0.0
  0
LINE
  5
339
330
75
100
AcDbEntity
  8
DV1_0
  6
Continuous
 62
     7
100
AcDbLine
 10
95.2213448244
 20
208.0058181113
 30
0.0
 11
95.2213448244
 21
223.3508181114
 31
0.0
  0
LINE
  5
33A
330
75
100
AcDbEntity
  8
DV1_0
  6
Continuous
 62
     7
100
AcDbLine
 10
113.7313448244
 20
208.0058181113
 30
0.0
 11
113.7313448244
 21
223.3508181114
 31
0.0
  0
ELLIPSE
  5
33B
330
75
100
AcDbEntity
  8
DV1_0
  6
Continuous
 62
     7
100
AcDbEllipse
 10
86.9513448244
 20
185.7508181113
 30
0.0
 11
2.583819636298243E-16
 21
1.499999999999996
 31
0.0
210
0.0
220
0.0
230
1.0
 40
0.65
 41
0.0000000000000003
 42
3.141592653589793
  0
ELLIPSE
  5
33C
330
75
100
AcDbEntity
  8
DV1_0
  6
Continuous
 62
     7
100
AcDbEllipse
 10
122.0013448244
 20
185.7508181113
 30
0.0
 11
2.583819636298243E-16
 21
1.499999999999996
 31
0.0
210
0.0
220
0.0
230
1.0
 40
0.65
 41
3.141592653589793
 42
6.283185307179586
  0
LINE
  5
33D
330
75
100
AcDbEntity
  8
DV1_0
  6
Continuous
 62
     7
100
AcDbLine
 10
122.0013448244
 20
187.2508181113
 30
0.0
 11
86.9513448244
 21
187.2508181113
 31
0.0
  0
LINE
  5
33E
330
75
100
AcDbEntity
  8
DV1_0
  6
Continuous
 62
     7
100
AcDbLine
 10
86.9513448244
 20
184.2508181113
 30
0.0
 11
122.0013448244
 21
184.2508181113
 31
0.0
  0
ENDBLK
  5
340
330
75
100
AcDbEntity
  8
0
100
AcDbBlockEnd
  0
BLOCK
  5
344
330
343
100
AcDbEntity
  8
0
100
AcDbBlockBegin
  2
_OBLIQUE
 70
     0
 10
0.0
 20
0.0
 30
0.0
  3
_OBLIQUE
  1
_OBLIQUE
  0
LINE
  5
346
330
343
100
AcDbEntity
  8
0
  6
ByBlock
 62
     0
370
    -2
100
AcDbLine
 10
-0.5
 20
-0.5
 30
0.0
 11
0.5
 21
0.5
 31
0.0
  0
ENDBLK
  5
345
330
343
100
AcDbEntity
  8
0
100
AcDbBlockEnd
  0
BLOCK
  5
348
330
347
100
AcDbEntity
  8
0
100
AcDbBlockBegin
  2
_DOT
 70
     0
 10
0.0
 20
0.0
 30
0.0
  3
_DOT
  1
_DOT
  0
POLYLINE
  5
34A
330
347
100
AcDbEntity
  8
0
  6
ByBlock
 62
     0
100
AcDb2dPolyline
 66
     1
 10
0.0
 20
0.0
 30
0.0
 70
     1
 40
0.5
 41
0.5
  0
VERTEX
  5
34C
330
34A
100
AcDbEntity
  8
0
  6
ByBlock
 62
     0
100
AcDbVertex
100
AcDb2dVertex
 10
-0.25
 20
0.0
 30
0.0
 42
1.0
  0
VERTEX
  5
34D
330
34A
100
AcDbEntity
  8
0
  6
ByBlock
 62
     0
100
AcDbVertex
100
AcDb2dVertex
 10
0.25
 20
0.0
 30
0.0
 42
1.0
  0
SEQEND
  5
34E
330
34A
100
AcDbEntity
  8
0
  6
ByBlock
 62
     0
  0
LINE
  5
34B
330
347
100
AcDbEntity
  8
0
  6
ByBlock
 62
     0
370
    -2
100
AcDbLine
 10
-0.5
 20
0.0
 30
0.0
 11
-1.0
 21
0.0
 31
0.0
  0
ENDBLK
  5
349
330
347
100
AcDbEntity
  8
0
100
AcDbBlockEnd
  0
BLOCK
  5
352
330
34F
100
AcDbEntity
  8
0
100
AcDbBlockBegin
  2
_SE_FILLED
 70
     0
 10
0.0
 20
0.0
 30
0.0
  3
_SE_FILLED
  1
_SE_FILLED
  0
SOLID
  5
350
330
34F
100
AcDbEntity
  8
0
 62
     0
100
AcDbTrace
 10
0.0
 20
0.0
 30
0.0
 11
-1.0
 21
-0.1665
 31
0.0
 12
-1.0
 22
0.1665
 32
0.0
 13
0.0
 23
0.0
 33
0.0
  0
LINE
  5
351
330
34F
100
AcDbEntity
  8
0
 62
     0
100
AcDbLine
 10
0.0
 20
0.0
 30
0.0
 11
-1.0
 21
0.0
 31
0.0
  0
ENDBLK
  5
353
330
34F
100
AcDbEntity
  8
0
100
AcDbBlockEnd
  0
BLOCK
  5
35E
330
356
100
AcDbEntity
  8
0
100
AcDbBlockBegin
  2
DMBLK21
 70
     0
 10
0.0
 20
0.0
 30
0.0
  3
DMBLK21
  1
DMBLK21
  0
HATCH
  5
357
330
356
100
AcDbEntity
  8
Layer3
  6
Continuous
 62
     7
100
AcDbHatch
 10
0.0
 20
0.0
 30
0.0
210
0.0
220
0.0
230
1.0
  2
SOLID
 70
     1
 71
     0
 91
        1
 92
        1
 93
        3
 72
     1
 10
146.14746847186
 20
183.850818059193
 11
145.1474684631677
 21
189.850818111347
 72
     1
 10
145.1474684631677
 20
189.850818111347
 11
144.1474684544753
 21
183.850818059193
 72
     1
 10
144.1474684544753
 20
183.850818059193
 11
146.14746847186
 21
183.850818059193
 97
        0
 75
     0
 76
     1
 98
        0
  0
HATCH
  5
358
330
356
100
AcDbEntity
  8
Layer3
  6
Continuous
 62
     7
100
AcDbHatch
 10
0.0
 20
0.0
 30
0.0
210
0.0
220
0.0
230
1.0
  2
SOLID
 70
     1
 71
     0
 91
        1
 92
        1
 93
        3
 72
     1
 10
146.14746847186
 20
136.5508181635011
 11
144.1474684544753
 21
136.5508181635011
 72
     1
 10
144.1474684544753
 20
136.5508181635011
 11
145.1474684631677
 21
130.550818111347
 72
     1
 10
145.1474684631677
 20
130.550818111347
 11
146.14746847186
 21
136.5508181635011
 97
        0
 75
     0
 76
     1
 98
        0
  0
LINE
  5
359
330
356
100
AcDbEntity
  8
Layer3
  6
Continuous
 62
     7
100
AcDbLine
 10
124.4763448244
 20
189.8508181113
 30
0.0
 11
148.1474684892
 21
189.8508181113
 31
0.0
  0
LINE
  5
35A
330
356
100
AcDbEntity
  8
Layer3
  6
Continuous
 62
     7
100
AcDbLine
 10
119.2763448244
 20
130.5508181113
 30
0.0
 11
148.1474684892
 21
130.5508181113
 31
0.0
  0
LINE
  5
35B
330
356
100
AcDbEntity
  8
Layer3
  6
Continuous
 62
     7
100
AcDbLine
 10
145.1474684632
 20
189.8508181113
 30
0.0
 11
145.1474684632
 21
165.3008179057
 31
0.0
  0
LINE
  5
35C
330
356
100
AcDbEntity
  8
Layer3
  6
Continuous
 62
     7
100
AcDbLine
 10
145.1474684632
 20
155.1008164543
 30
0.0
 11
145.1474684632
 21
130.5508181113
 31
0.0
  0
TEXT
  5
35D
330
356
100
AcDbEntity
  8
Layer3
  6
Continuous
 62
     7
100
AcDbText
 10
140.4518162893
 20
157.200817256
 30
0.0
 40
6.0
  1
59
  7
SEACAD_Arial
 11
140.4518162893
 21
163.200817256
 31
0.0
100
AcDbText
 73
     3
  0
ENDBLK
  5
35F
330
356
100
AcDbEntity
  8
0
100
AcDbBlockEnd
  0
BLOCK
  5
369
330
361
100
AcDbEntity
  8
0
100
AcDbBlockBegin
  2
DMBLK22
 70
     0
 10
0.0
 20
0.0
 30
0.0
  3
DMBLK22
  1
DMBLK22
  0
HATCH
  5
362
330
361
100
AcDbEntity
  8
Layer3
  6
Continuous
 62
     7
100
AcDbHatch
 10
0.0
 20
0.0
 30
0.0
210
0.0
220
0.0
230
1.0
  2
SOLID
 70
     1
 71
     0
 91
        1
 92
        1
 93
        3
 72
     1
 10
146.14746847186
 20
195.8508181635011
 11
144.1474684544753
 21
195.8508181635011
 72
     1
 10
144.1474684544753
 20
195.8508181635011
 11
145.1474684631677
 21
189.850818111347
 72
     1
 10
145.1474684631677
 20
189.850818111347
 11
146.14746847186
 21
195.8508181635011
 97
        0
 75
     0
 76
     1
 98
        0
  0
HATCH
  5
363
330
361
100
AcDbEntity
  8
Layer3
  6
Continuous
 62
     7
100
AcDbHatch
 10
0.0
 20
0.0
 30
0.0
210
0.0
220
0.0
230
1.0
  2
SOLID
 70
     1
 71
     0
 91
        1
 92
        1
 93
        3
 72
     1
 10
146.14746847186
 20
222.850818059193
 11
145.1474684631677
 21
228.850818111347
 72
     1
 10
145.1474684631677
 20
228.850818111347
 11
144.1474684544753
 21
222.850818059193
 72
     1
 10
144.1474684544753
 20
222.850818059193
 11
146.14746847186
 21
222.850818059193
 97
        0
 75
     0
 76
     1
 98
        0
  0
LINE
  5
364
330
361
100
AcDbEntity
  8
Layer3
  6
Continuous
 62
     7
100
AcDbLine
 10
124.4763448244
 20
189.8508181113
 30
0.0
 11
148.1474684892
 21
189.8508181113
 31
0.0
  0
LINE
  5
365
330
361
100
AcDbEntity
  8
Layer3
  6
Continuous
 62
     7
100
AcDbLine
 10
112.4763448244
 20
228.8508181113
 30
0.0
 11
148.1474684892
 21
228.8508181113
 31
0.0
  0
LINE
  5
366
330
361
100
AcDbEntity
  8
Layer3
  6
Continuous
 62
     7
100
AcDbLine
 10
145.1474684632
 20
189.8508181113
 30
0.0
 11
145.1474684632
 21
204.2508187953
 31
0.0
  0
LINE
  5
367
330
361
100
AcDbEntity
  8
Layer3
  6
Continuous
 62
     7
100
AcDbLine
 10
145.1474684632
 20
214.4508183587
 30
0.0
 11
145.1474684632
 21
228.8508181113
 31
0.0
  0
TEXT
  5
368
330
361
100
AcDbEntity
  8
Layer3
  6
Continuous
 62
     7
100
AcDbText
 10
140.4518162893
 20
206.3508185137
 30
0.0
 40
6.0
  1
39
  7
SEACAD_Arial
 11
140.4518162893
 21
212.3508185137
 31
0.0
100
AcDbText
 73
     3
  0
ENDBLK
  5
36A
330
361
100
AcDbEntity
  8
0
100
AcDbBlockEnd
  0
BLOCK
  5
373
330
36C
100
AcDbEntity
  8
0
100
AcDbBlockBegin
  2
DMBLK23
 70
     0
 10
0.0
 20
0.0
 30
0.0
  3
DMBLK23
  1
DMBLK23
  0
HATCH
  5
36D
330
36C
100
AcDbEntity
  8
Layer3
  6
Continuous
 62
     7
100
AcDbHatch
 10
0.0
 20
0.0
 30
0.0
210
0.0
220
0.0
230
1.0
  2
SOLID
 70
     1
 71
     0
 91
        1
 92
        1
 93
        3
 72
     1
 10
80.47634477226447
 20
182.4447209090957
 11
80.47634477226447
 21
180.444720891711
 72
     1
 10
80.47634477226447
 20
180.444720891711
 11
86.47634482441853
 21
181.4447209004033
 72
     1
 10
86.47634482441853
 20
181.4447209004033
 11
80.47634477226447
 21
182.4447209090957
 97
        0
 75
     0
 76
     1
 98
        0
  0
HATCH
  5
36E
330
36C
100
AcDbEntity
  8
Layer3
  6
Continuous
 62
     7
100
AcDbHatch
 10
0.0
 20
0.0
 30
0.0
210
0.0
220
0.0
230
1.0
  2
SOLID
 70
     1
 71
     0
 91
        1
 92
        1
 93
        3
 72
     1
 10
128.4763448765726
 20
182.4447209090957
 11
122.4763448244185
 21
181.4447209004033
 72
     1
 10
122.4763448244185
 20
181.4447209004033
 11
128.4763448765726
 21
180.444720891711
 72
     1
 10
128.4763448765726
 20
180.444720891711
 11
128.4763448765726
 21
182.4447209090957
 97
        0
 75
     0
 76
     1
 98
        0
  0
LINE
  5
36F
330
36C
100
AcDbEntity
  8
Layer3
  6
Continuous
 62
     7
100
AcDbLine
 10
58.2521410888
 20
181.4447209004
 30
0.0
 11
86.4763448244
 21
181.4447209004
 31
0.0
  0
LINE
  5
370
330
36C
100
AcDbEntity
  8
Layer3
  6
Continuous
 62
     7
100
AcDbLine
 10
122.4763448244
 20
181.4447209004
 30
0.0
 11
134.4763449287
 21
181.4447209004
 31
0.0
  0
TEXT
  5
371
330
36C
100
AcDbEntity
  8
Layer3
  6
Continuous
 62
     7
100
AcDbText
 10
68.4651854765
 20
182.9447209004
 30
0.0
 40
6.0
  1
36
  7
SEACAD_Arial
 11
68.4651854765
 21
188.9447209004
 31
0.0
100
AcDbText
 73
     3
  0
TEXT
  5
372
330
36C
100
AcDbEntity
  8
Layer3
  6
Continuous
 62
     7
100
AcDbText
 10
60.3521419983
 20
182.9447209004
 30
0.0
 40
6.0
  1
M
  7
SEACAD_Arial
 11
60.3521419983
 21
188.9447209004
 31
0.0
100
AcDbText
 73
     3
  0
ENDBLK
  5
374
330
36C
100
AcDbEntity
  8
0
100
AcDbBlockEnd
  0
BLOCK
  5
37E
330
376
100
AcDbEntity
  8
0
100
AcDbBlockBegin
  2
DMBLK24
 70
     0
 10
0.0
 20
0.0
 30
0.0
  3
DMBLK24
  1
DMBLK24
  0
HATCH
  5
377
330
376
100
AcDbEntity
  8
Layer3
  6
Continuous
 62
     7
100
AcDbHatch
 10
0.0
 20
0.0
 30
0.0
210
0.0
220
0.0
230
1.0
  2
SOLID
 70
     1
 71
     0
 91
        1
 92
        1
 93
        3
 72
     1
 10
87.47634477228074
 20
246.4547033087544
 11
87.47634477228074
 21
244.4547032913697
 72
     1
 10
87.47634477228074
 20
244.4547032913697
 11
93.4763448244348
 21
245.4547033000621
 72
     1
 10
93.4763448244348
 20
245.4547033000621
 11
87.47634477228074
 21
246.4547033087544
 97
        0
 75
     0
 76
     1
 98
        0
  0
HATCH
  5
378
330
376
100
AcDbEntity
  8
Layer3
  6
Continuous
 62
     7
100
AcDbHatch
 10
0.0
 20
0.0
 30
0.0
210
0.0
220
0.0
230
1.0
  2
SOLID
 70
     1
 71
     0
 91
        1
 92
        1
 93
        3
 72
     1
 10
121.4763448765563
 20
246.4547033087544
 11
115.4763448244023
 21
245.4547033000621
 72
     1
 10
115.4763448244023
 20
245.4547033000621
 11
121.4763448765563
 21
244.4547032913697
 72
     1
 10
121.4763448765563
 20
244.4547032913697
 11
121.4763448765563
 21
246.4547033087544
 97
        0
 75
     0
 76
     1
 98
        0
  0
LINE
  5
379
330
376
100
AcDbEntity
  8
Layer3
  6
Continuous
 62
     7
100
AcDbLine
 10
93.4763448244
 20
223.3508181114
 30
0.0
 11
93.4763448244
 21
248.4547033261
 31
0.0
  0
LINE
  5
37A
330
376
100
AcDbEntity
  8
Layer3
  6
Continuous
 62
     7
100
AcDbLine
 10
115.4763448244
 20
223.3508181114
 30
0.0
 11
115.4763448244
 21
248.4547033261
 31
0.0
  0
LINE
  5
37B
330
376
100
AcDbEntity
  8
Layer3
  6
Continuous
 62
     7
100
AcDbLine
 10
81.4763447201
 20
245.4547033001
 30
0.0
 11
93.4763448244
 21
245.4547033001
 31
0.0
  0
LINE
  5
37C
330
376
100
AcDbEntity
  8
Layer3
  6
Continuous
 62
     7
100
AcDbLine
 10
115.4763448244
 20
245.4547033001
 30
0.0
 11
127.4763449287
 21
245.4547033001
 31
0.0
  0
TEXT
  5
37D
330
376
100
AcDbEntity
  8
Layer3
  6
Continuous
 62
     7
100
AcDbText
 10
99.7806925909
 20
242.4547033001
 30
0.0
 40
6.0
  1
22
  7
SEACAD_Arial
 11
99.7806925909
 21
248.4547033001
 31
0.0
100
AcDbText
 73
     3
  0
ENDBLK
  5
37F
330
376
100
AcDbEntity
  8
0
100
AcDbBlockEnd
  0
BLOCK
  5
389
330
381
100
AcDbEntity
  8
0
100
AcDbBlockBegin
  2
DMBLK25
 70
     0
 10
0.0
 20
0.0
 30
0.0
  3
DMBLK25
  1
DMBLK25
  0
HATCH
  5
382
330
381
100
AcDbEntity
  8
Layer3
  6
Continuous
 62
     7
100
AcDbHatch
 10
0.0
 20
0.0
 30
0.0
210
0.0
220
0.0
230
1.0
  2
SOLID
 70
     1
 71
     0
 91
        1
 92
        1
 93
        3
 72
     1
 10
95.47634487657258
 20
106.278173713979
 11
95.47634487657258
 21
108.2781737313637
 72
     1
 10
95.47634487657258
 20
108.2781737313637
 11
89.47634482441852
 21
107.2781737226713
 72
     1
 10
89.47634482441852
 20
107.2781737226713
 11
95.47634487657258
 21
106.278173713979
 97
        0
 75
     0
 76
     1
 98
        0
  0
HATCH
  5
383
330
381
100
AcDbEntity
  8
Layer3
  6
Continuous
 62
     7
100
AcDbHatch
 10
0.0
 20
0.0
 30
0.0
210
0.0
220
0.0
230
1.0
  2
SOLID
 70
     1
 71
     0
 91
        1
 92
        1
 93
        3
 72
     1
 10
113.4763447722645
 20
106.278173713979
 11
119.4763448244185
 21
107.2781737226713
 72
     1
 10
119.4763448244185
 20
107.2781737226713
 11
113.4763447722645
 21
108.2781737313637
 72
     1
 10
113.4763447722645
 20
108.2781737313637
 11
113.4763447722645
 21
106.278173713979
 97
        0
 75
     0
 76
     1
 98
        0
  0
LINE
  5
384
330
381
100
AcDbEntity
  8
Layer3
  6
Continuous
 62
     7
100
AcDbLine
 10
89.4763448244
 20
130.7508181113
 30
0.0
 11
89.4763448244
 21
104.2781736966
 31
0.0
  0
LINE
  5
385
330
381
100
AcDbEntity
  8
Layer3
  6
Continuous
 62
     7
100
AcDbLine
 10
119.4763448244
 20
130.7508181113
 30
0.0
 11
119.4763448244
 21
104.2781736966
 31
0.0
  0
LINE
  5
386
330
381
100
AcDbEntity
  8
Layer3
  6
Continuous
 62
     7
100
AcDbLine
 10
89.4763448244
 20
107.2781737227
 30
0.0
 11
97.6806922784
 21
107.2781737227
 31
0.0
  0
LINE
  5
387
330
381
100
AcDbEntity
  8
Layer3
  6
Continuous
 62
     7
100
AcDbLine
 10
111.2719964391
 20
107.2781737227
 30
0.0
 11
119.4763448244
 21
107.2781737227
 31
0.0
  0
TEXT
  5
388
330
381
100
AcDbEntity
  8
Layer3
  6
Continuous
 62
     7
100
AcDbText
 10
99.7806923152
 20
104.2781737227
 30
0.0
 40
6.0
  1
30
  7
SEACAD_Arial
 11
99.7806923152
 21
110.2781737227
 31
0.0
100
AcDbText
 73
     3
  0
ENDBLK
  5
38A
330
381
100
AcDbEntity
  8
0
100
AcDbBlockEnd
  0
BLOCK
  5
3E8
330
3AA
100
AcDbEntity
  8
0
100
AcDbBlockBegin
  2
symb_tb_GroheLogo2013_ori
 70
     0
 10
0.0
 20
0.0
 30
0.0
  3
symb_tb_GroheLogo2013_ori
  1
symb_tb_GroheLogo2013_ori
  0
HATCH
  5
3AB
330
3AA
100
AcDbEntity
  8
Standard
  6
Continuous
 62
     7
100
AcDbHatch
 10
0.0
 20
0.0
 30
0.0
210
0.0
220
0.0
230
1.0
  2
SOLID
 70
     1
 71
     0
 91
        9
 92
        1
 93
        4
 72
     1
 10
20.1320023102195
 20
15.45781230744146
 11
0.0
 21
15.45781230744146
 72
     1
 10
0.0
 20
15.45781230744146
 11
0.0
 21
0.0000000000000373
 72
     1
 10
0.0
 20
0.0000000000000284
 11
20.1320023102195
 21
0.0000000000000007
 72
     1
 10
20.1320023102195
 20
0.0
 11
20.1320023102195
 21
15.45781230744145
 97
        0
 92
        1
 93
        1
 72
     4
 94
        3
 73
     1
 74
     0
 95
       19
 96
       15
 40
0.0
 40
0.0
 40
0.0
 40
0.0
 40
0.576972079187426
 40
0.576972079187426
 40
0.8087884250258078
 40
0.8087884250258078
 40
0.8087884250258078
 40
0.8585481612372913
 40
0.8585481612372913
 40
0.8585481612372913
 40
0.9292740806186457
 40
0.9292740806186457
 40
0.9292740806186457
 40
1.0
 40
1.0
 40
1.0
 40
1.0
 10
11.46799090897963
 20
10.53350423551331
 42
1.08047789209601
 10
11.15134096082077
 20
10.87514302682462
 42
0.986882803952448
 10
10.69711027311541
 20
11.07146344343644
 42
0.960056839920445
 10
9.990877002577506
 20
11.07146344343644
 42
1.01604804301204
 10
9.801985283517666
 20
11.04147310806695
 42
1.04287400704405
 10
9.623784716721097
 20
10.9846336521683
 42
1.08047789209601
 10
8.940730305162269
 20
10.76673253851368
 42
0.949278918900485
 10
8.523147123926407
 20
10.23914070703063
 42
0.949278918900485
 10
8.523147123926407
 20
9.594067440522593
 42
1.08047789209601
 10
8.523147123926407
 20
8.470493468490844
 42
0.77464325294993
 10
9.556926438753003
 20
7.823976345336916
 42
0.77464325294993
 10
10.74664227133307
 20
8.203501228876803
 42
1.08047789209601
 10
11.93634708210673
 20
8.583037134223133
 42
0.77464325294993
 10
12.27172963078638
 20
9.666337425461052
 42
0.77464325294993
 10
11.46799090897963
 20
10.53350423551331
 42
1.08047789209601
 97
        0
 92
        1
 93
       12
 72
     1
 10
12.35280603908395
 20
10.94643207098838
 11
12.35280603908395
 21
8.241702810056726
 72
     1
 10
12.35280603908395
 20
8.241702810056722
 11
13.05198535348936
 21
8.24170281005675
 72
     1
 10
13.05198535348936
 20
8.24170281005675
 11
13.05198535348936
 21
9.390781242229906
 72
     1
 10
13.05198535348936
 20
9.390781242229906
 11
14.29894844880703
 21
9.390781242229878
 72
     1
 10
14.29894844880703
 20
9.390781242229878
 11
14.29894844880708
 21
8.241702810056722
 72
     1
 10
14.29894844880708
 20
8.241702810056722
 11
15.00253648579529
 21
8.24170281005675
 72
     1
 10
15.00253648579529
 20
8.24170281005675
 11
15.00253648579528
 21
10.9464320709884
 72
     1
 10
15.00253648579528
 20
10.94643207098841
 11
14.29894844880707
 21
10.94643207098838
 72
     1
 10
14.29894844880707
 20
10.94643207098838
 11
14.29894844880708
 21
9.948903477598794
 72
     1
 10
14.29894844880708
 20
9.948903477598805
 11
13.05198535348941
 21
9.948903477598805
 72
     1
 10
13.05198535348941
 20
9.948903477598805
 11
13.05198535348937
 21
10.94643207098839
 72
     1
 10
13.05198535348936
 20
10.94643207098838
 11
12.35280603908394
 21
10.94643207098838
 97
        0
 92
        1
 93
       11
 72
     1
 10
7.093740066326241
 20
10.94643207098838
 11
5.782067945299608
 21
10.94643207098838
 72
     1
 10
5.782067945299609
 20
10.94643207098838
 11
5.782067945299623
 21
8.241702810056726
 72
     1
 10
5.782067945299623
 20
8.241702810056722
 11
6.500248854036888
 21
8.24170281005675
 72
     1
 10
6.500248854036883
 20
8.24170281005675
 11
6.500248854036855
 21
10.42939913009116
 72
     1
 10
6.500248854036855
 20
10.42939913009116
 11
6.965490326392723
 21
10.42939913009116
 72
     4
 94
        3
 73
     0
 74
     0
 95
       15
 96
       11
 40
0.0
 40
0.0
 40
0.0
 40
0.0
 40
0.1729865553416529
 40
0.3342463836783639
 40
0.4999999999999963
 40
0.4999999999999963
 40
0.4999999999999963
 40
0.6728584706586043
 40
0.8410305318392429
 40
1.0
 40
1.0
 40
1.0
 40
1.0
 10
6.965490326392711
 20
10.42939913009116
 10
7.074507014058817
 20
10.43245217047976
 10
7.229649961747356
 20
10.37276908851513
 10
7.314264369917616
 20
10.26467823259148
 10
7.378510479755413
 20
10.12433757097466
 10
7.378675806852257
 20
9.99925108949435
 10
7.378510479755413
 20
9.874164608013984
 10
7.314264369917616
 20
9.733812924590694
 10
7.233121830781286
 20
9.630174878475657
 10
7.093211019616326
 20
9.57343461883508
 10
7.00312979544335
 20
9.56938961586539
 72
     1
 10
7.00312979544335
 20
9.56938961586539
 11
6.590528470726049
 21
9.56938961586539
 72
     1
 10
6.590528470726049
 20
9.56938961586539
 11
7.583670385145745
 21
8.241702810056754
 72
     1
 10
7.583670385145744
 20
8.24170281005675
 11
8.474221325063843
 21
8.24170281005675
 72
     1
 10
8.474221325063844
 20
8.24170281005675
 11
7.568394161396378
 21
9.326887830198766
 72
     4
 94
        3
 73
     0
 74
     0
 95
       18
 96
       14
 40
0.0
 40
0.0
 40
0.0
 40
0.0
 40
0.010760420324004
 40
0.010760420324004
 40
0.010760420324004
 40
0.057351634176115
 40
0.2756344009928203
 40
0.4999999999999988
 40
0.4999999999999988
 40
0.4999999999999988
 40
0.6657536163216358
 40
0.8270134446583466
 40
1.0
 40
1.0
 40
1.0
 40
1.0
 10
7.568394161396377
 20
9.326887830198757
 10
7.575734684496737
 20
9.32967634723235
 10
7.582942945919577
 20
9.332508951491775
 10
7.590018945664994
 20
9.335374621170615
 10
7.620659567615405
 20
9.347807218854086
 10
7.780365543177155
 20
9.422623241084125
 10
7.926404478732223
 20
9.57649868103016
 10
8.079783937387653
 20
9.852914565164895
 10
8.080180722420089
 20
10.09926296128498
 10
8.079783937387653
 20
10.34562237921159
 10
7.926404478732223
 20
10.62202724153994
 10
7.724385788182104
 20
10.8348913896437
 10
7.354020025807955
 20
10.95244997731388
 10
7.093740066326241
 20
10.94643207098838
 97
        0
 92
        1
 93
        6
 72
     4
 94
        3
 73
     1
 74
     0
 95
       24
 96
       20
 40
0.0
 40
0.0
 40
0.0
 40
0.0
 40
0.2499999999999994
 40
0.2499999999999994
 40
0.2499999999999994
 40
0.3364932776708256
 40
0.4171231918391822
 40
0.4999999999999989
 40
0.4999999999999989
 40
0.4999999999999989
 40
0.5000191898804309
 40
0.5000191898804309
 40
0.5000191898804309
 40
0.582889636457092
 40
0.6635133615118
 40
0.7500000000000008
 40
0.7500000000000008
 40
0.7500000000000008
 40
1.0
 40
1.0
 40
1.0
 40
1.0
 10
5.104326044453018
 20
10.75563357941147
 42
1.0
 10
4.734346045304903
 20
10.93423093124051
 42
0.983215874790017
 10
4.333846664077356
 20
11.02583316470455
 42
0.983215874790017
 10
3.923019850199637
 20
11.02583316470455
 42
1.0
 10
3.511542749740947
 20
11.03599527025787
 42
1.0
 10
2.926020303519991
 20
10.83734925248359
 42
1.0
 10
2.606652439622302
 20
10.47763055514693
 42
1.0
 10
2.364161675762148
 20
10.01052639749983
 42
1.0
 10
2.363544454600579
 20
9.59421072400653
 42
1.0
 10
2.363544618007474
 20
9.594100506063086
 42
1.0
 10
2.363544781414291
 20
9.593990288119642
 42
1.0
 10
2.363544944821193
 20
9.593880070176226
 42
1.0
 10
2.364161675762148
 20
9.177608483545328
 42
1.0
 10
2.606652439622302
 20
8.7105043258982
 42
1.0
 10
2.926020303519991
 20
8.35078562856151
 42
1.0
 10
3.511542749740947
 20
8.152128588980815
 42
1.0
 10
3.923019850199637
 20
8.162290694534107
 42
1.0
 10
4.369799796740047
 20
8.162290694534107
 42
0.979410758195494
 10
4.802780441596298
 20
8.272475693684612
 42
0.979410758195494
 10
5.195211860497345
 20
8.486023193788782
 42
1.0
 72
     1
 10
5.195211860497345
 20
8.486023193788782
 11
5.195211860497345
 21
9.594067440522585
 72
     1
 10
5.195211860497345
 20
9.594067440522565
 11
4.472941861564536
 21
9.594067440522593
 72
     1
 10
4.472941861564536
 20
9.594067440522593
 11
4.472941861564522
 21
8.799825045425665
 72
     4
 94
        3
 73
     1
 74
     0
 95
       21
 96
       17
 40
0.0
 40
0.0
 40
0.0
 40
0.0
 40
0.2499999999999987
 40
0.2499999999999987
 40
0.2499999999999987
 40
0.3364932776708245
 40
0.4171231918391831
 40
0.5000000000000027
 40
0.5000000000000027
 40
0.5000000000000027
 40
0.5828768081608185
 40
0.6635067223291754
 40
0.7500000000000012
 40
0.7500000000000012
 40
0.7500000000000012
 40
1.0
 40
1.0
 40
1.0
 40
1.0
 10
4.472941861564522
 20
8.799825045425592
 42
1.0
 10
4.284314665859632
 20
8.707517416348338
 42
0.982778304235208
 10
4.07972789440506
 20
8.660189779422069
 42
0.982778304235208
 10
3.869729415980075
 20
8.660288975680203
 42
1.0
 10
3.669386040011439
 20
8.653664869999517
 42
1.0
 10
3.384318037807951
 20
8.783237226707854
 42
1.0
 10
3.228811370506321
 20
9.017858420757733
 42
1.0
 10
3.11075680154552
 20
9.322523194841807
 42
1.0
 10
3.110459212771204
 20
9.594067440522593
 42
1.0
 10
3.11083395419071
 20
9.865611686203351
 42
1.0
 10
3.262725468974466
 20
10.17027646028737
 42
1.0
 10
3.462771256168786
 20
10.40489765433728
 42
1.0
 10
3.829521866024976
 20
10.53447001104561
 42
1.0
 10
4.087255788215202
 20
10.52784590536498
 42
1.0
 10
4.45128401187656
 20
10.52782386175204
 42
0.972058195946033
 10
4.800047033594993
 20
10.4235245072496
 42
0.972058195946033
 10
5.104326044453018
 20
10.22367711257149
 42
1.0
 72
     1
 10
5.104326044453018
 20
10.22367711257149
 11
5.104326044453018
 21
10.7556335794115
 97
        0
 92
        1
 93
       12
 72
     1
 10
15.76676650190979
 20
8.24170281005675
 11
17.79408451618858
 21
8.24170281005675
 72
     1
 10
17.79408451618858
 20
8.24170281005675
 11
17.79408451618858
 21
8.758779838179787
 72
     1
 10
17.79408451618858
 20
8.758779838179805
 11
16.46595683812166
 21
8.758779838179805
 72
     1
 10
16.46595683812166
 20
8.758779838179805
 11
16.46595683812166
 21
9.423615203665284
 72
     1
 10
16.46595683812166
 20
9.423615203665264
 11
17.42883287201053
 21
9.423615203665264
 72
     1
 10
17.42883287201052
 20
9.423615203665264
 11
17.42883287201052
 21
9.924280761973897
 72
     1
 10
17.42883287201052
 20
9.924280761973904
 11
16.46595683812166
 21
9.924280761973904
 72
     1
 10
16.46595683812166
 20
9.924280761973904
 11
16.46595683812166
 21
10.42934402105888
 72
     1
 10
16.46595683812166
 20
10.42934402105888
 11
17.6135142610038
 21
10.42934402105888
 72
     1
 10
17.6135142610038
 20
10.42934402105888
 11
17.6135142610038
 21
10.94643207098838
 72
     1
 10
17.6135142610038
 20
10.94643207098838
 11
15.76676650190981
 21
10.94643207098838
 72
     1
 10
15.76676650190981
 20
10.94643207098838
 11
15.76676650190981
 21
8.241702810056752
 97
        0
 92
        1
 93
        4
 72
     4
 94
        3
 73
     1
 74
     0
 95
        8
 96
        4
 40
0.0
 40
0.0
 40
0.0
 40
0.0
 40
1.0
 40
1.0
 40
1.0
 40
1.0
 10
2.998995684071666
 20
6.959293585173413
 42
1.0
 10
3.065479220620205
 20
6.841404343309449
 42
0.996524898131218
 10
3.143634850206745
 20
6.730921755384628
 42
0.996524898131218
 10
3.232657980959814
 20
6.628970045657496
 42
1.0
 72
     4
 94
        3
 73
     0
 74
     0
 95
       15
 96
       11
 40
0.0
 40
0.0
 40
0.0
 40
0.0
 40
0.0208137023656323
 40
0.2611989665798511
 40
0.5000000000000027
 40
0.5000000000000027
 40
0.5000000000000027
 40
0.7388010334201498
 40
0.9791862976343679
 40
1.0
 40
1.0
 40
1.0
 40
1.0
 10
3.232657980959814
 20
6.628970045657496
 10
3.329231049135934
 20
6.61881896191062
 10
4.541122756307416
 20
6.550109020457768
 10
6.85950463550239
 20
8.124254440451125
 10
9.082029863940804
 20
6.623481186041943
 10
10.18962221660991
 20
6.61361666926291
 10
11.29721456927896
 20
6.623481186041943
 10
13.51973979771746
 20
8.124254440451125
 10
15.83811065510588
 20
6.550109020457768
 10
17.05001338408385
 20
6.61881896191062
 10
17.14658645225997
 20
6.628970045657496
 72
     4
 94
        3
 73
     1
 74
     0
 95
        8
 96
        4
 40
0.0
 40
0.0
 40
0.0
 40
0.0
 40
1.0
 40
1.0
 40
1.0
 40
1.0
 10
17.14658645225997
 20
6.628970045657496
 42
1.0
 10
17.2355985612066
 20
6.730921755384628
 42
0.996524898131218
 10
17.31376521259956
 20
6.841404343309449
 42
0.996524898131218
 10
17.38024874914812
 20
6.959293585173413
 42
1.0
 72
     4
 94
        3
 73
     0
 74
     0
 95
       13
 96
        9
 40
0.0
 40
0.0
 40
0.0
 40
0.0
 40
0.0348463403164052
 40
0.2674231701582032
 40
0.4999999999999981
 40
0.7325768298417971
 40
0.965153659683592
 40
1.0
 40
1.0
 40
1.0
 40
1.0
 10
17.38024874914812
 20
6.959293585173413
 10
17.21312509784082
 20
6.93076915006273
 10
15.93064974211877
 20
6.803202762129558
 10
13.53443186572459
 20
8.430010373374358
 10
10.18961670570665
 20
6.156696660782046
 10
6.844801545688732
 20
8.430010373374358
 10
4.448594691101043
 20
6.803202762129558
 10
3.166108313572508
 20
6.93076915006273
 10
2.998995684071666
 20
6.959293585173413
 97
        0
 92
        1
 93
        4
 72
     4
 94
        3
 73
     1
 74
     0
 95
        8
 96
        4
 40
0.0
 40
0.0
 40
0.0
 40
0.0
 40
1.0
 40
1.0
 40
1.0
 40
1.0
 10
4.105585052353177
 20
5.935896812029256
 42
1.0
 10
4.186705547876564
 20
5.850356572116567
 42
0.997360588447966
 10
4.275111457468064
 20
5.772377291433401
 42
0.997360588447966
 10
4.370108407320828
 20
5.702554147528417
 42
1.0
 72
     4
 94
        3
 73
     0
 74
     0
 95
       19
 96
       15
 40
0.0
 40
0.0
 40
0.0
 40
0.0
 40
0.2499999999999999
 40
0.2499999999999999
 40
0.2499999999999999
 40
0.3122787705541569
 40
0.5
 40
0.5
 40
0.5
 40
0.6877212294458419
 40
0.75
 40
0.75
 40
0.75
 40
1.0
 40
1.0
 40
1.0
 40
1.0
 10
4.370108407320828
 20
5.702554147528417
 10
4.835019225483016
 20
5.842035108241561
 10
5.299919021838711
 20
5.981505047148289
 10
5.764829840000878
 20
6.120986007861433
 10
6.132230736438039
 20
6.231204072431296
 10
7.606981505802302
 20
6.560723020075841
 10
9.082029863940804
 20
5.564682370557932
 10
10.18962221660991
 20
5.5548288755854
 10
11.29721456927896
 20
5.564682370557932
 10
12.77225190561104
 20
6.560723020075841
 10
14.24701369678172
 20
6.231204072431296
 10
14.61440357141247
 20
6.120986007861433
 10
15.07931438957463
 20
5.981505047148289
 10
15.54422520773677
 20
5.842035108241561
 10
16.00913602589896
 20
5.702554147528417
 72
     4
 94
        3
 73
     1
 74
     0
 95
        8
 96
        4
 40
0.0
 40
0.0
 40
0.0
 40
0.0
 40
1.0
 40
1.0
 40
1.0
 40
1.0
 10
16.00913602589896
 20
5.702554147528417
 42
1.0
 10
16.10412195394523
 20
5.772377291433401
 42
0.997360588447966
 10
16.19252786353676
 20
5.850356572116567
 42
0.997360588447966
 10
16.27365938086661
 20
5.935896812029256
 42
1.0
 72
     4
 94
        3
 73
     0
 74
     0
 95
       18
 96
       14
 40
0.0
 40
0.0
 40
0.0
 40
0.0
 40
0.25
 40
0.25
 40
0.25
 40
0.311033251196408
 40
0.5000000000000001
 40
0.5000000000000001
 40
0.6889667488035931
 40
0.7500000000000001
 40
0.7500000000000001
 40
0.7500000000000001
 40
1.0
 40
1.0
 40
1.0
 40
1.0
 10
16.27365938086661
 20
5.935896812029256
 10
15.72057411104858
 20
6.100077641012518
 10
15.16748884123051
 20
6.264258469995809
 10
14.61440357141247
 20
6.4284392989791
 10
14.25435421988208
 20
6.535317756192484
 10
12.77960345051785
 20
6.858190554543455
 10
11.3045550923793
 20
5.855669082828825
 10
9.074678319034028
 20
5.855669082828825
 10
7.599629960895477
 20
6.858190554543455
 10
6.124879191531264
 20
6.535317756192484
 10
5.764829840000878
 20
6.4284392989791
 10
5.21174457018278
 20
6.264258469995809
 10
4.658670322171183
 20
6.100077641012518
 10
4.105585052353177
 20
5.935896812029256
 97
        0
 92
        1
 93
        4
 72
     1
 10
5.306961956164734
 20
5.222477323681375
 11
5.681703375702289
 21
5.036792950300529
 72
     4
 94
        3
 73
     0
 74
     0
 95
       13
 96
        9
 40
0.0
 40
0.0
 40
0.0
 40
0.0
 40
0.131481813034251
 40
0.5
 40
0.5
 40
0.5
 40
0.8685181869657492
 40
1.0
 40
1.0
 40
1.0
 40
1.0
 10
5.681703375702263
 20
5.036792950300537
 10
6.076813093572333
 20
5.159553830618449
 10
7.579272684369421
 20
5.520639231955812
 10
9.082029863940804
 20
4.505883555073979
 10
10.18962221660991
 20
4.496030060101418
 10
11.29721456927896
 20
4.505883555073979
 10
12.79997174885037
 20
5.520639231955812
 10
14.30243133964746
 20
5.159553830618449
 10
14.69754105751753
 20
5.036792950300537
 72
     1
 10
14.69754105751753
 20
5.036792950300537
 11
15.07228247705508
 21
5.222477323681383
 72
     4
 94
        3
 73
     0
 74
     0
 95
       12
 96
        8
 40
0.0
 40
0.0
 40
0.0
 40
0.0
 40
0.157509693652257
 40
0.5
 40
0.5
 40
0.842490306347743
 40
1.0
 40
1.0
 40
1.0
 40
1.0
 10
15.07228247705505
 20
5.222477323681375
 10
14.55959212790187
 20
5.3954976414432
 10
12.93225546994714
 20
5.903140003239059
 10
11.3045550923793
 20
4.796870267344843
 10
9.074678319034028
 20
4.796870267344843
 10
7.446988963272702
 20
5.903140003239059
 10
5.819652305317923
 20
5.3954976414432
 10
5.306961956164734
 20
5.222477323681375
 97
        0
 75
     0
 76
     1
 98
        0
  0
HATCH
  5
3AC
330
3AA
100
AcDbEntity
  8
Standard
  6
Continuous
 62
     7
100
AcDbHatch
 10
0.0
 20
0.0
 30
0.0
210
0.0
220
0.0
230
1.0
  2
SOLID
 70
     1
 71
     0
 91
        1
 92
        1
 93
        1
 72
     4
 94
        3
 73
     0
 74
     0
 95
       25
 96
       21
 40
0.0
 40
0.0
 40
0.0
 40
0.0
 40
0.086493277670826
 40
0.167123191839183
 40
0.2499999999999999
 40
0.2499999999999999
 40
0.2499999999999999
 40
0.3328768081608169
 40
0.4135067223291728
 40
0.4999999999999999
 40
0.4999999999999999
 40
0.4999999999999999
 40
0.586493277670826
 40
0.6671231918391831
 40
0.75
 40
0.75
 40
0.75
 40
0.832876808160817
 40
0.913506722329174
 40
1.0
 40
1.0
 40
1.0
 40
1.0
 10
10.1852134940271
 20
10.53350009207739
 10
9.941576462295409
 20
10.54016828498388
 10
9.594885540190894
 20
10.40981338001708
 10
9.405784406808365
 20
10.17375935112779
 10
9.262203334093194
 20
9.867253935365426
 10
9.261839614480131
 20
9.594067440522593
 10
9.262203334093194
 20
9.320880945679676
 10
9.405784406808365
 20
9.014364508110873
 10
9.594885540190894
 20
8.778321501028046
 10
9.941576462295409
 20
8.647966596061252
 10
10.1852134940271
 20
8.65463478896774
 10
10.42885052575882
 20
8.647966596061252
 10
10.77553042605687
 20
8.778321501028046
 10
10.96464258124583
 20
9.014364508110873
 10
11.10821263215459
 20
9.320880945679676
 10
11.1085763517676
 20
9.594067440522593
 10
11.10821263215459
 20
9.867253935365426
 10
10.96464258124583
 20
10.17375935112779
 10
10.71903264615831
 20
10.39242096942795
 10
10.42885052575882
 20
10.54016828498388
 10
10.1852134940271
 20
10.53350009207739
 97
        0
 75
     0
 76
     1
 98
        0
  0
LINE
  5
3AD
330
3AA
100
AcDbEntity
  8
Layer1
  6
Continuous
 62
     7
100
AcDbLine
 10
13.0519853535
 20
9.3907812422
 30
0.0
 11
14.2989484488
 21
9.3907812422
 31
0.0
  0
LINE
  5
3AE
330
3AA
100
AcDbEntity
  8
Layer1
  6
Continuous
 62
     7
100
AcDbLine
 10
7.5836703851
 20
8.2417028101
 30
0.0
 11
8.4742213251
 21
8.2417028101
 31
0.0
  0
LINE
  5
3AF
330
3AA
100
AcDbEntity
  8
Layer1
  6
Continuous
 62
     7
100
AcDbLine
 10
17.428832872
 20
9.4236152037
 30
0.0
 11
16.4659568381
 21
9.4236152037
 31
0.0
  0
LINE
  5
3B0
330
3AA
100
AcDbEntity
  8
Layer1
  6
Continuous
 62
     7
100
AcDbLine
 10
5.1952118605
 20
8.4860231938
 30
0.0
 11
5.1952118605
 21
9.5940674405
 31
0.0
  0
LINE
  5
3B1
330
3AA
100
AcDbEntity
  8
Layer1
  6
Continuous
 62
     7
100
AcDbLine
 10
16.4659568381
 20
9.4236152037
 30
0.0
 11
16.4659568381
 21
8.7587798382
 31
0.0
  0
SPLINE
  5
3B2
330
3AA
100
AcDbEntity
  8
Layer1
  6
Continuous
 62
     7
100
AcDbSpline
210
0.0
220
0.0
230
1.0
 70
     8
 71
     3
 72
    18
 73
    14
 74
     0
 42
0.000000001
 43
0.0000000001
 40
0.0
 40
0.0
 40
0.0
 40
0.0
 40
0.25
 40
0.25
 40
0.25
 40
0.311033251196408
 40
0.5000000000000001
 40
0.5000000000000001
 40
0.6889667488035931
 40
0.7500000000000001
 40
0.7500000000000001
 40
0.7500000000000001
 40
1.0
 40
1.0
 40
1.0
 40
1.0
 10
16.27365938086661
 20
5.935896812029256
 30
0.0
 10
15.72057411104858
 20
6.100077641012518
 30
0.0
 10
15.16748884123051
 20
6.264258469995809
 30
0.0
 10
14.61440357141247
 20
6.4284392989791
 30
0.0
 10
14.25435421988208
 20
6.535317756192484
 30
0.0
 10
12.77960345051785
 20
6.858190554543455
 30
0.0
 10
11.3045550923793
 20
5.855669082828825
 30
0.0
 10
9.074678319034028
 20
5.855669082828825
 30
0.0
 10
7.599629960895477
 20
6.858190554543455
 30
0.0
 10
6.124879191531264
 20
6.535317756192484
 30
0.0
 10
5.764829840000878
 20
6.4284392989791
 30
0.0
 10
5.21174457018278
 20
6.264258469995809
 30
0.0
 10
4.658670322171183
 20
6.100077641012518
 30
0.0
 10
4.105585052353177
 20
5.935896812029256
 30
0.0
  0
LINE
  5
3B3
330
3AA
100
AcDbEntity
  8
Layer1
  6
Continuous
 62
     7
100
AcDbLine
 10
15.7667665019
 20
10.946432071
 30
0.0
 11
17.613514261
 21
10.946432071
 31
0.0
  0
SPLINE
  5
3B4
330
3AA
100
AcDbEntity
  8
Layer1
  6
Continuous
 62
     7
100
AcDbSpline
210
0.0
220
0.0
230
1.0
 70
    12
 71
     3
 72
     8
 73
     4
 74
     0
 42
0.000000001
 43
0.0000000001
 40
0.0
 40
0.0
 40
0.0
 40
0.0
 40
1.0
 40
1.0
 40
1.0
 40
1.0
 10
3.232657980959814
 20
6.628970045657496
 30
0.0
 41
1.0
 10
3.143634850206745
 20
6.730921755384628
 30
0.0
 41
0.996524898131218
 10
3.065479220620205
 20
6.841404343309449
 30
0.0
 41
0.996524898131218
 10
2.998995684071666
 20
6.959293585173413
 30
0.0
 41
1.0
  0
LINE
  5
3B5
330
3AA
100
AcDbEntity
  8
Layer1
  6
Continuous
 62
     7
100
AcDbLine
 10
7.0031297954
 20
9.5693896159
 30
0.0
 11
6.5905284707
 21
9.5693896159
 31
0.0
  0
SPLINE
  5
3B6
330
3AA
100
AcDbEntity
  8
Layer1
  6
Continuous
 62
     7
100
AcDbSpline
210
0.0
220
0.0
230
1.0
 70
    12
 71
     3
 72
     8
 73
     4
 74
     0
 42
0.000000001
 43
0.0000000001
 40
0.0
 40
0.0
 40
0.0
 40
0.0
 40
1.0
 40
1.0
 40
1.0
 40
1.0
 10
16.00913602589896
 20
5.702554147528417
 30
0.0
 41
1.0
 10
16.10412195394523
 20
5.772377291433401
 30
0.0
 41
0.997360588447966
 10
16.19252786353676
 20
5.850356572116567
 30
0.0
 41
0.997360588447966
 10
16.27365938086661
 20
5.935896812029256
 30
0.0
 41
1.0
  0
LINE
  5
3B7
330
3AA
100
AcDbEntity
  8
Layer1
  6
Continuous
 62
     7
100
AcDbLine
 10
12.3528060391
 20
8.2417028101
 30
0.0
 11
13.0519853535
 21
8.2417028101
 31
0.0
  0
LINE
  5
3B8
330
3AA
100
AcDbEntity
  8
Layer1
  6
Continuous
 62
     7
100
AcDbLine
 10
12.3528060391
 20
10.946432071
 30
0.0
 11
12.3528060391
 21
8.2417028101
 31
0.0
  0
LINE
  5
3B9
330
3AA
100
AcDbEntity
  8
Layer1
  6
Continuous
 62
     7
100
AcDbLine
 10
16.4659568381
 20
9.924280762
 30
0.0
 11
17.428832872
 21
9.924280762
 31
0.0
  0
SPLINE
  5
3BA
330
3AA
100
AcDbEntity
  8
Layer1
  6
Continuous
 62
     7
100
AcDbSpline
210
0.0
220
0.0
230
1.0
 70
     8
 71
     3
 72
    18
 73
    14
 74
     0
 42
0.000000001
 43
0.0000000001
 40
0.0
 40
0.0
 40
0.0
 40
0.0
 40
0.010760420324004
 40
0.010760420324004
 40
0.010760420324004
 40
0.057351634176115
 40
0.2756344009928203
 40
0.4999999999999988
 40
0.4999999999999988
 40
0.4999999999999988
 40
0.6657536163216358
 40
0.8270134446583466
 40
1.0
 40
1.0
 40
1.0
 40
1.0
 10
7.568394161396377
 20
9.326887830198757
 30
0.0
 10
7.575734684496737
 20
9.32967634723235
 30
0.0
 10
7.582942945919577
 20
9.332508951491775
 30
0.0
 10
7.590018945664994
 20
9.335374621170615
 30
0.0
 10
7.620659567615405
 20
9.347807218854086
 30
0.0
 10
7.780365543177155
 20
9.422623241084125
 30
0.0
 10
7.926404478732223
 20
9.57649868103016
 30
0.0
 10
8.079783937387653
 20
9.852914565164895
 30
0.0
 10
8.080180722420089
 20
10.09926296128498
 30
0.0
 10
8.079783937387653
 20
10.34562237921159
 30
0.0
 10
7.926404478732223
 20
10.62202724153994
 30
0.0
 10
7.724385788182104
 20
10.8348913896437
 30
0.0
 10
7.354020025807955
 20
10.95244997731388
 30
0.0
 10
7.093740066326241
 20
10.94643207098838
 30
0.0
  0
LINE
  5
3BB
330
3AA
100
AcDbEntity
  8
Layer1
  6
Continuous
 62
     7
100
AcDbLine
 10
14.2989484488
 20
8.2417028101
 30
0.0
 11
15.0025364858
 21
8.2417028101
 31
0.0
  0
LINE
  5
3BC
330
3AA
100
AcDbEntity
  8
Layer1
  6
Continuous
 62
     7
100
AcDbLine
 10
17.7940845162
 20
8.2417028101
 30
0.0
 11
15.7667665019
 21
8.2417028101
 31
0.0
  0
LINE
  5
3BD
330
3AA
100
AcDbEntity
  8
Layer1
  6
Continuous
 62
     7
100
AcDbLine
 10
16.4659568381
 20
8.7587798382
 30
0.0
 11
17.7940845162
 21
8.7587798382
 31
0.0
  0
SPLINE
  5
3BE
330
3AA
100
AcDbEntity
  8
Layer1
  6
Continuous
 62
     7
100
AcDbSpline
210
0.0
220
0.0
230
1.0
 70
     8
 71
     3
 72
    12
 73
     8
 74
     0
 42
0.000000001
 43
0.0000000001
 40
0.0
 40
0.0
 40
0.0
 40
0.0
 40
0.157509693652257
 40
0.5
 40
0.5
 40
0.842490306347743
 40
1.0
 40
1.0
 40
1.0
 40
1.0
 10
15.07228247705505
 20
5.222477323681375
 30
0.0
 10
14.55959212790187
 20
5.3954976414432
 30
0.0
 10
12.93225546994714
 20
5.903140003239059
 30
0.0
 10
11.3045550923793
 20
4.796870267344843
 30
0.0
 10
9.074678319034028
 20
4.796870267344843
 30
0.0
 10
7.446988963272702
 20
5.903140003239059
 30
0.0
 10
5.819652305317923
 20
5.3954976414432
 30
0.0
 10
5.306961956164734
 20
5.222477323681375
 30
0.0
  0
LINE
  5
3BF
330
3AA
100
AcDbEntity
  8
Layer1
  6
Continuous
 62
     7
100
AcDbLine
 10
14.2989484488
 20
9.9489034776
 30
0.0
 11
13.0519853535
 21
9.9489034776
 31
0.0
  0
LINE
  5
3C0
330
3AA
100
AcDbEntity
  8
Layer1
  6
Continuous
 62
     7
100
AcDbLine
 10
17.613514261
 20
10.946432071
 30
0.0
 11
17.613514261
 21
10.4293440211
 31
0.0
  0
SPLINE
  5
3C1
330
3AA
100
AcDbEntity
  8
Layer1
  6
Continuous
 62
     7
100
AcDbSpline
210
0.0
220
0.0
230
1.0
 70
     8
 71
     3
 72
    13
 73
     9
 74
     0
 42
0.000000001
 43
0.0000000001
 40
0.0
 40
0.0
 40
0.0
 40
0.0
 40
0.0348463403164079
 40
0.2674231701582029
 40
0.5000000000000019
 40
0.7325768298417968
 40
0.9651536596835948
 40
1.0
 40
1.0
 40
1.0
 40
1.0
 10
2.998995684071666
 20
6.959293585173413
 30
0.0
 10
3.166108313572508
 20
6.93076915006273
 30
0.0
 10
4.448594691101043
 20
6.803202762129558
 30
0.0
 10
6.844801545688732
 20
8.430010373374358
 30
0.0
 10
10.18961670570665
 20
6.156696660782046
 30
0.0
 10
13.53443186572459
 20
8.430010373374358
 30
0.0
 10
15.93064974211877
 20
6.803202762129558
 30
0.0
 10
17.21312509784082
 20
6.93076915006273
 30
0.0
 10
17.38024874914812
 20
6.959293585173413
 30
0.0
  0
SPLINE
  5
3C2
330
3AA
100
AcDbEntity
  8
Layer1
  6
Continuous
 62
     7
100
AcDbSpline
210
0.0
220
0.0
230
1.0
 70
    12
 71
     3
 72
    24
 73
    20
 74
     0
 42
0.000000001
 43
0.0000000001
 40
0.0
 40
0.0
 40
0.0
 40
0.0
 40
0.2499999999999994
 40
0.2499999999999994
 40
0.2499999999999994
 40
0.3364932776708256
 40
0.4171231918391822
 40
0.4999999999999988
 40
0.4999999999999988
 40
0.4999999999999988
 40
0.5000191898804309
 40
0.5000191898804309
 40
0.5000191898804309
 40
0.582889636457092
 40
0.6635133615118
 40
0.7500000000000008
 40
0.7500000000000008
 40
0.7500000000000008
 40
1.0
 40
1.0
 40
1.0
 40
1.0
 10
5.104326044453018
 20
10.75563357941147
 30
0.0
 41
1.0
 10
4.734346045304903
 20
10.93423093124051
 30
0.0
 41
0.983215874790017
 10
4.333846664077356
 20
11.02583316470455
 30
0.0
 41
0.983215874790017
 10
3.923019850199637
 20
11.02583316470455
 30
0.0
 41
1.0
 10
3.511542749740947
 20
11.03599527025787
 30
0.0
 41
1.0
 10
2.926020303519991
 20
10.83734925248359
 30
0.0
 41
1.0
 10
2.606652439622302
 20
10.47763055514693
 30
0.0
 41
1.0
 10
2.364161675762148
 20
10.01052639749983
 30
0.0
 41
1.0
 10
2.363544454600579
 20
9.59421072400653
 30
0.0
 41
1.0
 10
2.363544618007474
 20
9.594100506063086
 30
0.0
 41
1.0
 10
2.363544781414291
 20
9.593990288119642
 30
0.0
 41
1.0
 10
2.363544944821193
 20
9.593880070176226
 30
0.0
 41
1.0
 10
2.364161675762148
 20
9.177608483545328
 30
0.0
 41
1.0
 10
2.606652439622302
 20
8.7105043258982
 30
0.0
 41
1.0
 10
2.926020303519991
 20
8.35078562856151
 30
0.0
 41
1.0
 10
3.511542749740947
 20
8.152128588980815
 30
0.0
 41
1.0
 10
3.923019850199637
 20
8.162290694534107
 30
0.0
 41
1.0
 10
4.369799796740047
 20
8.162290694534107
 30
0.0
 41
0.979410758195494
 10
4.802780441596298
 20
8.272475693684612
 30
0.0
 41
0.979410758195494
 10
5.195211860497345
 20
8.486023193788782
 30
0.0
 41
1.0
  0
LINE
  5
3C3
330
3AA
100
AcDbEntity
  8
Layer1
  6
Continuous
 62
     7
100
AcDbLine
 10
15.7667665019
 20
8.2417028101
 30
0.0
 11
15.7667665019
 21
10.946432071
 31
0.0
  0
LINE
  5
3C4
330
3AA
100
AcDbEntity
  8
Layer1
  6
Continuous
 62
     7
100
AcDbLine
 10
5.7820679453
 20
8.2417028101
 30
0.0
 11
6.500248854
 21
8.2417028101
 31
0.0
  0
LINE
  5
3C5
330
3AA
100
AcDbEntity
  8
Layer1
  6
Continuous
 62
     7
100
AcDbLine
 10
5.3069619562
 20
5.2224773237
 30
0.0
 11
5.6817033757
 21
5.0367929503
 31
0.0
  0
LINE
  5
3C6
330
3AA
100
AcDbEntity
  8
Layer1
  6
Continuous
 62
     7
100
AcDbLine
 10
13.0519853535
 20
10.946432071
 30
0.0
 11
12.3528060391
 21
10.946432071
 31
0.0
  0
LINE
  5
3C7
330
3AA
100
AcDbEntity
  8
Layer1
  6
Continuous
 62
     7
100
AcDbLine
 10
16.4659568381
 20
10.4293440211
 30
0.0
 11
16.4659568381
 21
9.924280762
 31
0.0
  0
SPLINE
  5
3C8
330
3AA
100
AcDbEntity
  8
Layer1
  6
Continuous
 62
     7
100
AcDbSpline
210
0.0
220
0.0
230
1.0
 70
     8
 71
     3
 72
    19
 73
    15
 74
     0
 42
0.000000001
 43
0.0000000001
 40
0.0
 40
0.0
 40
0.0
 40
0.0
 40
0.2499999999999999
 40
0.2499999999999999
 40
0.2499999999999999
 40
0.3122787705541569
 40
0.5
 40
0.5
 40
0.5
 40
0.6877212294458419
 40
0.75
 40
0.75
 40
0.75
 40
1.0
 40
1.0
 40
1.0
 40
1.0
 10
4.370108407320828
 20
5.702554147528417
 30
0.0
 10
4.835019225483016
 20
5.842035108241561
 30
0.0
 10
5.299919021838711
 20
5.981505047148289
 30
0.0
 10
5.764829840000878
 20
6.120986007861433
 30
0.0
 10
6.132230736438039
 20
6.231204072431296
 30
0.0
 10
7.606981505802302
 20
6.560723020075841
 30
0.0
 10
9.082029863940804
 20
5.564682370557932
 30
0.0
 10
10.18962221660991
 20
5.5548288755854
 30
0.0
 10
11.29721456927896
 20
5.564682370557932
 30
0.0
 10
12.77225190561104
 20
6.560723020075841
 30
0.0
 10
14.24701369678172
 20
6.231204072431296
 30
0.0
 10
14.61440357141247
 20
6.120986007861433
 30
0.0
 10
15.07931438957463
 20
5.981505047148289
 30
0.0
 10
15.54422520773677
 20
5.842035108241561
 30
0.0
 10
16.00913602589896
 20
5.702554147528417
 30
0.0
  0
SPLINE
  5
3C9
330
3AA
100
AcDbEntity
  8
Layer1
  6
Continuous
 62
     7
100
AcDbSpline
210
0.0
220
0.0
230
1.0
 70
    11
 71
     3
 72
    25
 73
    21
 74
     0
 42
0.000000001
 43
0.0000000001
 40
0.0
 40
0.0
 40
0.0
 40
0.0
 40
0.086493277670826
 40
0.167123191839183
 40
0.2499999999999999
 40
0.2499999999999999
 40
0.2499999999999999
 40
0.3328768081608169
 40
0.413506722329174
 40
0.5000000000000001
 40
0.5000000000000001
 40
0.5000000000000001
 40
0.5864932776708272
 40
0.6671231918391831
 40
0.7500000000000001
 40
0.7500000000000001
 40
0.7500000000000001
 40
0.832876808160817
 40
0.913506722329174
 40
1.0
 40
1.0
 40
1.0
 40
1.0
 10
10.1852134940271
 20
10.53350009207739
 30
0.0
 10
10.42885052575882
 20
10.54016828498388
 30
0.0
 10
10.71903264615831
 20
10.39242096942795
 30
0.0
 10
10.96464258124583
 20
10.17375935112779
 30
0.0
 10
11.10821263215459
 20
9.867253935365426
 30
0.0
 10
11.1085763517676
 20
9.594067440522593
 30
0.0
 10
11.10821263215459
 20
9.320880945679676
 30
0.0
 10
10.96464258124583
 20
9.014364508110873
 30
0.0
 10
10.77553042605687
 20
8.778321501028046
 30
0.0
 10
10.42885052575882
 20
8.647966596061252
 30
0.0
 10
10.1852134940271
 20
8.65463478896774
 30
0.0
 10
9.941576462295409
 20
8.647966596061252
 30
0.0
 10
9.594885540190894
 20
8.778321501028046
 30
0.0
 10
9.405784406808365
 20
9.014364508110873
 30
0.0
 10
9.262203334093194
 20
9.320880945679676
 30
0.0
 10
9.261839614480131
 20
9.594067440522593
 30
0.0
 10
9.262203334093194
 20
9.867253935365426
 30
0.0
 10
9.405784406808365
 20
10.17375935112779
 30
0.0
 10
9.594885540190894
 20
10.40981338001708
 30
0.0
 10
9.941576462295409
 20
10.54016828498388
 30
0.0
 10
10.1852134940271
 20
10.53350009207739
 30
0.0
  0
LINE
  5
3CA
330
3AA
100
AcDbEntity
  8
Layer1
  6
Continuous
 62
     7
100
AcDbLine
 10
13.0519853535
 20
8.2417028101
 30
0.0
 11
13.0519853535
 21
9.3907812422
 31
0.0
  0
LINE
  5
3CB
330
3AA
100
AcDbEntity
  8
Layer1
  6
Continuous
 62
     7
100
AcDbLine
 10
5.7820679453
 20
10.946432071
 30
0.0
 11
5.7820679453
 21
8.2417028101
 31
0.0
  0
LINE
  5
3CC
330
3AA
100
AcDbEntity
  8
Layer1
  6
Continuous
 62
     7
100
AcDbLine
 10
15.0025364858
 20
8.2417028101
 30
0.0
 11
15.0025364858
 21
10.946432071
 31
0.0
  0
SPLINE
  5
3CD
330
3AA
100
AcDbEntity
  8
Layer1
  6
Continuous
 62
     7
100
AcDbSpline
210
0.0
220
0.0
230
1.0
 70
    12
 71
     3
 72
    21
 73
    17
 74
     0
 42
0.000000001
 43
0.0000000001
 40
0.0
 40
0.0
 40
0.0
 40
0.0
 40
0.2499999999999987
 40
0.2499999999999987
 40
0.2499999999999987
 40
0.3364932776708245
 40
0.4171231918391832
 40
0.5000000000000027
 40
0.5000000000000027
 40
0.5000000000000027
 40
0.5828768081608185
 40
0.6635067223291754
 40
0.7500000000000012
 40
0.7500000000000012
 40
0.7500000000000012
 40
1.0
 40
1.0
 40
1.0
 40
1.0
 10
4.472941861564522
 20
8.799825045425592
 30
0.0
 41
1.0
 10
4.284314665859632
 20
8.707517416348338
 30
0.0
 41
0.982778304235208
 10
4.07972789440506
 20
8.660189779422069
 30
0.0
 41
0.982778304235208
 10
3.869729415980075
 20
8.660288975680203
 30
0.0
 41
1.0
 10
3.669386040011439
 20
8.653664869999517
 30
0.0
 41
1.0
 10
3.384318037807951
 20
8.783237226707854
 30
0.0
 41
1.0
 10
3.228811370506321
 20
9.017858420757733
 30
0.0
 41
1.0
 10
3.11075680154552
 20
9.322523194841807
 30
0.0
 41
1.0
 10
3.110459212771204
 20
9.594067440522593
 30
0.0
 41
1.0
 10
3.11083395419071
 20
9.865611686203351
 30
0.0
 41
1.0
 10
3.262725468974466
 20
10.17027646028737
 30
0.0
 41
1.0
 10
3.462771256168786
 20
10.40489765433728
 30
0.0
 41
1.0
 10
3.829521866024976
 20
10.53447001104561
 30
0.0
 41
1.0
 10
4.087255788215202
 20
10.52784590536498
 30
0.0
 41
1.0
 10
4.45128401187656
 20
10.52782386175204
 30
0.0
 41
0.972058195946033
 10
4.800047033594993
 20
10.4235245072496
 30
0.0
 41
0.972058195946033
 10
5.104326044453018
 20
10.22367711257149
 30
0.0
 41
1.0
  0
LINE
  5
3CE
330
3AA
100
AcDbEntity
  8
Layer1
  6
Continuous
 62
     7
100
AcDbLine
 10
6.500248854
 20
8.2417028101
 30
0.0
 11
6.500248854
 21
10.4293991301
 31
0.0
  0
SPLINE
  5
3CF
330
3AA
100
AcDbEntity
  8
Layer1
  6
Continuous
 62
     7
100
AcDbSpline
210
0.0
220
0.0
230
1.0
 70
     8
 71
     3
 72
    13
 73
     9
 74
     0
 42
0.000000001
 43
0.0000000001
 40
0.0
 40
0.0
 40
0.0
 40
0.0
 40
0.131481813034251
 40
0.5
 40
0.5
 40
0.5
 40
0.8685181869657492
 40
1.0
 40
1.0
 40
1.0
 40
1.0
 10
5.681703375702263
 20
5.036792950300537
 30
0.0
 10
6.076813093572333
 20
5.159553830618449
 30
0.0
 10
7.579272684369421
 20
5.520639231955812
 30
0.0
 10
9.082029863940804
 20
4.505883555073979
 30
0.0
 10
10.18962221660991
 20
4.496030060101418
 30
0.0
 10
11.29721456927896
 20
4.505883555073979
 30
0.0
 10
12.79997174885037
 20
5.520639231955812
 30
0.0
 10
14.30243133964746
 20
5.159553830618449
 30
0.0
 10
14.69754105751753
 20
5.036792950300537
 30
0.0
  0
LINE
  5
3D0
330
3AA
100
AcDbEntity
  8
Layer1
  6
Continuous
 62
     7
100
AcDbLine
 10
8.4742213251
 20
8.2417028101
 30
0.0
 11
7.5683941614
 21
9.3268878302
 31
0.0
  0
SPLINE
  5
3D1
330
3AA
100
AcDbEntity
  8
Layer1
  6
Continuous
 62
     7
100
AcDbSpline
210
0.0
220
0.0
230
1.0
 70
    12
 71
     3
 72
     8
 73
     4
 74
     0
 42
0.000000001
 43
0.0000000001
 40
0.0
 40
0.0
 40
0.0
 40
0.0
 40
1.0
 40
1.0
 40
1.0
 40
1.0
 10
4.105585052353177
 20
5.935896812029256
 30
0.0
 41
1.0
 10
4.186705547876564
 20
5.850356572116567
 30
0.0
 41
0.997360588447966
 10
4.275111457468064
 20
5.772377291433401
 30
0.0
 41
0.997360588447966
 10
4.370108407320828
 20
5.702554147528417
 30
0.0
 41
1.0
  0
LINE
  5
3D2
330
3AA
100
AcDbEntity
  8
Layer1
  6
Continuous
 62
     7
100
AcDbLine
 10
14.2989484488
 20
10.946432071
 30
0.0
 11
14.2989484488
 21
9.9489034776
 31
0.0
  0
LINE
  5
3D3
330
3AA
100
AcDbEntity
  8
Layer1
  6
Continuous
 62
     7
100
AcDbLine
 10
14.6975410575
 20
5.0367929503
 30
0.0
 11
15.0722824771
 21
5.2224773237
 31
0.0
  0
LINE
  5
3D4
330
3AA
100
AcDbEntity
  8
Layer1
  6
Continuous
 62
     7
100
AcDbLine
 10
14.2989484488
 20
9.3907812422
 30
0.0
 11
14.2989484488
 21
8.2417028101
 31
0.0
  0
SPLINE
  5
3D5
330
3AA
100
AcDbEntity
  8
Layer1
  6
Continuous
 62
     7
100
AcDbSpline
210
0.0
220
0.0
230
1.0
 70
     8
 71
     3
 72
    15
 73
    11
 74
     0
 42
0.000000001
 43
0.0000000001
 40
0.0
 40
0.0
 40
0.0
 40
0.0
 40
0.1729865553416529
 40
0.3342463836783639
 40
0.4999999999999963
 40
0.4999999999999963
 40
0.4999999999999963
 40
0.6728584706586043
 40
0.8410305318392429
 40
1.0
 40
1.0
 40
1.0
 40
1.0
 10
6.965490326392711
 20
10.42939913009116
 30
0.0
 10
7.074507014058817
 20
10.43245217047976
 30
0.0
 10
7.229649961747356
 20
10.37276908851513
 30
0.0
 10
7.314264369917616
 20
10.26467823259148
 30
0.0
 10
7.378510479755413
 20
10.12433757097466
 30
0.0
 10
7.378675806852257
 20
9.99925108949435
 30
0.0
 10
7.378510479755413
 20
9.874164608013984
 30
0.0
 10
7.314264369917616
 20
9.733812924590694
 30
0.0
 10
7.233121830781286
 20
9.630174878475657
 30
0.0
 10
7.093211019616326
 20
9.57343461883508
 30
0.0
 10
7.00312979544335
 20
9.56938961586539
 30
0.0
  0
LINE
  5
3D6
330
3AA
100
AcDbEntity
  8
Layer1
  6
Continuous
 62
     7
100
AcDbLine
 10
17.7940845162
 20
8.7587798382
 30
0.0
 11
17.7940845162
 21
8.2417028101
 31
0.0
  0
LINE
  5
3D7
330
3AA
100
AcDbEntity
  8
Layer1
  6
Continuous
 62
     7
100
AcDbLine
 10
5.1952118605
 20
9.5940674405
 30
0.0
 11
4.4729418616
 21
9.5940674405
 31
0.0
  0
LINE
  5
3D8
330
3AA
100
AcDbEntity
  8
Layer1
  6
Continuous
 62
     7
100
AcDbLine
 10
17.428832872
 20
9.924280762
 30
0.0
 11
17.428832872
 21
9.4236152037
 31
0.0
  0
LINE
  5
3D9
330
3AA
100
AcDbEntity
  8
Layer1
  6
Continuous
 62
     7
100
AcDbLine
 10
13.0519853535
 20
9.9489034776
 30
0.0
 11
13.0519853535
 21
10.946432071
 31
0.0
  0
LINE
  5
3DA
330
3AA
100
AcDbEntity
  8
Layer1
  6
Continuous
 62
     7
100
AcDbLine
 10
17.613514261
 20
10.4293440211
 30
0.0
 11
16.4659568381
 21
10.4293440211
 31
0.0
  0
LINE
  5
3DB
330
3AA
100
AcDbEntity
  8
Layer1
  6
Continuous
 62
     7
100
AcDbLine
 10
15.0025364858
 20
10.946432071
 30
0.0
 11
14.2989484488
 21
10.946432071
 31
0.0
  0
SPLINE
  5
3DC
330
3AA
100
AcDbEntity
  8
Layer1
  6
Continuous
 62
     7
100
AcDbSpline
210
0.0
220
0.0
230
1.0
 70
    12
 71
     3
 72
     8
 73
     4
 74
     0
 42
0.000000001
 43
0.0000000001
 40
0.0
 40
0.0
 40
0.0
 40
0.0
 40
1.0
 40
1.0
 40
1.0
 40
1.0
 10
17.38024874914812
 20
6.959293585173413
 30
0.0
 41
1.0
 10
17.31376521259956
 20
6.841404343309449
 30
0.0
 41
0.996524898131218
 10
17.2355985612066
 20
6.730921755384628
 30
0.0
 41
0.996524898131218
 10
17.14658645225997
 20
6.628970045657496
 30
0.0
 41
1.0
  0
LINE
  5
3DD
330
3AA
100
AcDbEntity
  8
Layer1
  6
Continuous
 62
     7
100
AcDbLine
 10
6.5905284707
 20
9.5693896159
 30
0.0
 11
7.5836703851
 21
8.2417028101
 31
0.0
  0
LINE
  5
3DE
330
3AA
100
AcDbEntity
  8
Layer1
  6
Continuous
 62
     7
100
AcDbLine
 10
7.0937400663
 20
10.946432071
 30
0.0
 11
5.7820679453
 21
10.946432071
 31
0.0
  0
LINE
  5
3DF
330
3AA
100
AcDbEntity
  8
Layer1
  6
Continuous
 62
     7
100
AcDbLine
 10
5.1043260445
 20
10.2236771126
 30
0.0
 11
5.1043260445
 21
10.7556335794
 31
0.0
  0
SPLINE
  5
3E0
330
3AA
100
AcDbEntity
  8
Layer1
  6
Continuous
 62
     7
100
AcDbSpline
210
0.0
220
0.0
230
1.0
 70
     8
 71
     3
 72
    15
 73
    11
 74
     0
 42
0.000000001
 43
0.0000000001
 40
0.0
 40
0.0
 40
0.0
 40
0.0
 40
0.020813702365632
 40
0.2611989665798501
 40
0.4999999999999973
 40
0.4999999999999973
 40
0.4999999999999973
 40
0.7388010334201489
 40
0.9791862976343677
 40
1.0
 40
1.0
 40
1.0
 40
1.0
 10
17.14658645225997
 20
6.628970045657496
 30
0.0
 10
17.05001338408385
 20
6.61881896191062
 30
0.0
 10
15.83811065510588
 20
6.550109020457768
 30
0.0
 10
13.51973979771746
 20
8.124254440451125
 30
0.0
 10
11.29721456927896
 20
6.623481186041943
 30
0.0
 10
10.18962221660991
 20
6.61361666926291
 30
0.0
 10
9.082029863940804
 20
6.623481186041943
 30
0.0
 10
6.85950463550239
 20
8.124254440451125
 30
0.0
 10
4.541122756307416
 20
6.550109020457768
 30
0.0
 10
3.329231049135934
 20
6.61881896191062
 30
0.0
 10
3.232657980959814
 20
6.628970045657496
 30
0.0
  0
LINE
  5
3E1
330
3AA
100
AcDbEntity
  8
Layer1
  6
Continuous
 62
     7
100
AcDbLine
 10
6.500248854
 20
10.4293991301
 30
0.0
 11
6.9654903264
 21
10.4293991301
 31
0.0
  0
LINE
  5
3E2
330
3AA
100
AcDbEntity
  8
Layer1
  6
Continuous
 62
     7
100
AcDbLine
 10
4.4729418616
 20
9.5940674405
 30
0.0
 11
4.4729418616
 21
8.7998250454
 31
0.0
  0
SPLINE
  5
3E3
330
3AA
100
AcDbEntity
  8
Layer1
  6
Continuous
 62
     7
100
AcDbSpline
210
0.0
220
0.0
230
1.0
 70
    15
 71
     3
 72
    19
 73
    15
 74
     0
 42
0.000000001
 43
0.0000000001
 40
0.0
 40
0.0
 40
0.0
 40
0.0
 40
0.0707259193813543
 40
0.0707259193813543
 40
0.0707259193813543
 40
0.1414518387627087
 40
0.1414518387627087
 40
0.1414518387627087
 40
0.1912115749741922
 40
0.1912115749741922
 40
0.1912115749741922
 40
0.423027920812574
 40
0.423027920812574
 40
1.0
 40
1.0
 40
1.0
 40
1.0
 10
11.46799090897963
 20
10.53350423551331
 30
0.0
 41
1.08047789209601
 10
12.27172963078638
 20
9.666337425461052
 30
0.0
 41
0.77464325294993
 10
11.93634708210673
 20
8.583037134223133
 30
0.0
 41
0.77464325294993
 10
10.74664227133307
 20
8.203501228876803
 30
0.0
 41
1.08047789209601
 10
9.556926438753003
 20
7.823976345336916
 30
0.0
 41
0.77464325294993
 10
8.523147123926407
 20
8.470493468490844
 30
0.0
 41
0.77464325294993
 10
8.523147123926407
 20
9.594067440522593
 30
0.0
 41
1.08047789209601
 10
8.523147123926407
 20
10.23914070703063
 30
0.0
 41
0.949278918900485
 10
8.940730305162269
 20
10.76673253851368
 30
0.0
 41
0.949278918900485
 10
9.623784716721097
 20
10.9846336521683
 30
0.0
 41
1.08047789209601
 10
9.801985283517666
 20
11.04147310806695
 30
0.0
 41
1.04287400704405
 10
9.990877002577506
 20
11.07146344343644
 30
0.0
 41
1.01604804301204
 10
10.69711027311541
 20
11.07146344343644
 30
0.0
 41
0.960056839920445
 10
11.15134096082077
 20
10.87514302682462
 30
0.0
 41
0.986882803952448
 10
11.46799090897963
 20
10.53350423551331
 30
0.0
 41
1.08047789209601
  0
LINE
  5
3E4
330
3AA
100
AcDbEntity
  8
Standard
  6
Continuous
 62
     7
100
AcDbLine
 10
0.0
 20
0.0
 30
0.0
 11
0.0
 21
15.4578123074
 31
0.0
  0
LINE
  5
3E5
330
3AA
100
AcDbEntity
  8
Standard
  6
Continuous
 62
     7
100
AcDbLine
 10
0.0
 20
15.4578123074
 30
0.0
 11
20.1320023102
 21
15.4578123074
 31
0.0
  0
LINE
  5
3E6
330
3AA
100
AcDbEntity
  8
Standard
  6
Continuous
 62
     7
100
AcDbLine
 10
20.1320023102
 20
15.4578123074
 30
0.0
 11
20.1320023102
 21
0.0
 31
0.0
  0
LINE
  5
3E7
330
3AA
100
AcDbEntity
  8
Standard
  6
Continuous
 62
     7
100
AcDbLine
 10
20.1320023102
 20
0.0
 30
0.0
 11
0.0
 21
0.0
 31
0.0
  0
ENDBLK
  5
3E9
330
3AA
100
AcDbEntity
  8
0
100
AcDbBlockEnd
  0
ENDSEC
  0
SECTION
  2
ENTITIES
  0
MTEXT
  5
6B
330
1F
100
AcDbEntity
  8
Default
100
AcDbMText
 10
104.0
 20
21.95
 30
0.0
 40
2.5
 41
78.0
 71
     5
 72
     1
  1
{\fSolid Edge ISO|b0||i0||c0|p34;\C7;\H3.8;\W1.;STEUERUNG 3/4}
 73
     1
 44
1.0
1001
ACAD
1000
ACAD_MTEXT_DEFINED_HEIGHT_BEGIN
1070
    46
1040
6.3
1000
ACAD_MTEXT_DEFINED_HEIGHT_END
  0
MTEXT
  5
6C
330
1F
100
AcDbEntity
  8
Default
100
AcDbMText
 10
104.0
 20
15.95
 30
0.0
 40
2.5
 41
78.0
 71
     5
 72
     1
  1
{\fSolid Edge ISO|b0||i0||c0|p34;\C7;\H3.8;\W1.;CONTROL}
 73
     1
 44
1.0
1001
ACAD
1000
ACAD_MTEXT_DEFINED_HEIGHT_BEGIN
1070
    46
1040
6.3
1000
ACAD_MTEXT_DEFINED_HEIGHT_END
  0
MTEXT
  5
6D
330
1F
100
AcDbEntity
  8
Default
100
AcDbMText
 10
104.0
 20
8.5
 30
0.0
 40
2.5
 41
112.0
 71
     5
 72
     1
  1
{\fSolid Edge ISO|b0||i0||c0|p34;\C7;\H3.;\W1.;47310000 14131240}
 73
     1
 44
1.0
1001
ACAD
1000
ACAD_MTEXT_DEFINED_HEIGHT_BEGIN
1070
    46
1040
5.0
1000
ACAD_MTEXT_DEFINED_HEIGHT_END
  0
MTEXT
  5
6E
330
1F
100
AcDbEntity
  8
Default
100
AcDbMText
 10
182.75
 20
17.1
 30
0.0
 40
2.5
 41
39.5
 71
     5
 72
     1
  1
{\fSolid Edge ISO|b0||i0||c0|p34;\C7;\H5.;\W1.;47310000}
 73
     1
 44
1.0
1001
ACAD
1000
ACAD_MTEXT_DEFINED_HEIGHT_BEGIN
1070
    46
1040
8.2
1000
ACAD_MTEXT_DEFINED_HEIGHT_END
  0
MTEXT
  5
6F
330
1F
100
AcDbEntity
  8
Default
100
AcDbMText
 10
54.85
 20
42.6
 30
0.0
 40
2.5
 41
18.9
 71
     5
 72
     1
  1
{\fSolid Edge ISO|b0||i0||c0|p34;\C7;\H2.2;\W1.;LTS}
 73
     1
 44
1.0
1001
ACAD
1000
ACAD_MTEXT_DEFINED_HEIGHT_BEGIN
1070
    46
1040
4.0
1000
ACAD_MTEXT_DEFINED_HEIGHT_END
  0
MTEXT
  5
70
330
1F
100
AcDbEntity
  8
Default
100
AcDbMText
 10
54.85
 20
37.6
 30
0.0
 40
2.5
 41
18.9
 71
     5
 72
     1
  1
{\fSolid Edge ISO|b0||i0||c0|p34;\C7;\H2.2;\W1.;12. 1.2018}
 73
     1
 44
1.0
1001
ACAD
1000
ACAD_MTEXT_DEFINED_HEIGHT_BEGIN
1070
    46
1040
4.0
1000
ACAD_MTEXT_DEFINED_HEIGHT_END
  0
MTEXT
  5
71
330
1F
100
AcDbEntity
  8
Default
100
AcDbMText
 10
54.85
 20
32.4
 30
0.0
 40
2.5
 41
18.9
 71
     5
 72
     1
  1
{\fSolid Edge ISO|b0||i0||c0|p34;\C7;\H2.2;\W1.;Matsumoto}
 73
     1
 44
1.0
1001
ACAD
1000
ACAD_MTEXT_DEFINED_HEIGHT_BEGIN
1070
    46
1040
4.0
1000
ACAD_MTEXT_DEFINED_HEIGHT_END
  0
MTEXT
  5
72
330
1F
100
AcDbEntity
  8
Default
100
AcDbMText
 10
54.85
 20
27.6
 30
0.0
 40
2.5
 41
18.9
 71
     5
 72
     1
  1
{\fSolid Edge ISO|b0||i0||c0|p34;\C7;\H2.2;\W1.;Rikukawa}
 73
     1
 44
1.0
1001
ACAD
1000
ACAD_MTEXT_DEFINED_HEIGHT_BEGIN
1070
    46
1040
4.0
1000
ACAD_MTEXT_DEFINED_HEIGHT_END
  0
MTEXT
  5
73
330
1F
100
AcDbEntity
  8
Default
100
AcDbMText
 10
15.8
 20
32.9
 30
0.0
 40
2.5
 41
16.8
 71
     5
 72
     1
  1
{\fSolid Edge ISO|b0||i0||c0|p34;\C7;\H5.;\W1.;1:1}
 73
     1
 44
1.0
1001
ACAD
1000
ACAD_MTEXT_DEFINED_HEIGHT_BEGIN
1070
    46
1040
8.2
1000
ACAD_MTEXT_DEFINED_HEIGHT_END
  0
MTEXT
  5
74
330
1F
100
AcDbEntity
  8
Default
100
AcDbMText
 10
183.25
 20
6.9
 30
0.0
 40
2.5
 41
37.5
 71
     5
 72
     1
  1
{\fArial|b0||i0||c0|p34;\C7;\H3.;\W1.;m47310}
 73
     1
 44
1.0
1001
ACAD
1000
ACAD_MTEXT_DEFINED_HEIGHT_BEGIN
1070
    46
1040
5.0
1000
ACAD_MTEXT_DEFINED_HEIGHT_END
  0
INSERT
  5
76
330
1F
100
AcDbEntity
  8
0
100
AcDbBlockReference
  2
SE
 10
0.0
 20
0.0
 30
0.0
  0
DIMENSION
  5
355
330
1F
100
AcDbEntity
  8
Layer3
  6
Continuous
 62
     7
100
AcDbDimension
  2
DMBLK21
 10
145.1474684632
 20
130.5508181113
 30
0.0
 11
145.1474684632
 21
160.200817256
 31
0.0
 70
   160
  1
\A1;<>
 71
     5
 42
-1.0
  3
Standard
100
AcDbAlignedDimension
 13
124.4763448244
 23
189.8508181113
 33
0.0
 14
119.2763448244
 24
130.5508181113
 34
0.0
 50
90.0
100
AcDbRotatedDimension
  0
DIMENSION
  5
360
330
1F
100
AcDbEntity
  8
Layer3
  6
Continuous
 62
     7
100
AcDbDimension
  2
DMBLK22
 10
145.1474684632
 20
228.8508181113
 30
0.0
 11
145.1474684632
 21
209.3508185137
 31
0.0
 70
   160
  1
\A1;<>
 71
     5
 42
-1.0
  3
Standard
100
AcDbAlignedDimension
 13
124.4763448244
 23
189.8508181113
 33
0.0
 14
112.4763448244
 24
228.8508181113
 34
0.0
 50
90.0
100
AcDbRotatedDimension
  0
DIMENSION
  5
36B
330
1F
100
AcDbEntity
  8
Layer3
  6
Continuous
 62
     7
100
AcDbDimension
  2
DMBLK23
 10
86.4763448244
 20
181.4447209004
 30
0.0
 11
79.9564898243
 21
181.4447209004
 31
0.0
 70
   161
  1
\A1;M <>
 71
     5
 42
-1.0
  3
Standard
100
AcDbAlignedDimension
 13
86.4763448244
 23
179.3508181113
 33
0.0
 14
122.4763448244
 24
179.3508181113
 34
0.0
  0
DIMENSION
  5
375
330
1F
100
AcDbEntity
  8
Layer3
  6
Continuous
 62
     7
100
AcDbDimension
  2
DMBLK24
 10
93.4763448244
 20
245.4547033001
 30
0.0
 11
104.4763447648
 21
245.4547033001
 31
0.0
 70
   161
  1
\A1;<>
 71
     5
 42
-1.0
  3
Standard
100
AcDbAlignedDimension
 13
93.4763448244
 23
223.3508181114
 33
0.0
 14
115.4763448244
 24
223.3508181114
 34
0.0
  0
DIMENSION
  5
380
330
1F
100
AcDbEntity
  8
Layer3
  6
Continuous
 62
     7
100
AcDbDimension
  2
DMBLK25
 10
89.4763448244
 20
107.2781737227
 30
0.0
 11
104.4763444891
 21
107.2781737227
 31
0.0
 70
   161
  1
\A1;<>
 71
     5
 42
-1.0
  3
Standard
100
AcDbAlignedDimension
 13
89.4763448244
 23
130.7508181113
 33
0.0
 14
119.4763448244
 24
130.7508181113
 34
0.0
  0
LINE
  5
38C
330
1F
100
AcDbEntity
  8
Standard
  6
Continuous
 62
     7
100
AcDbLine
 10
6.6
 20
291.0
 30
0.0
 11
6.6
 21
5.0
 31
0.0
  0
LINE
  5
38D
330
1F
100
AcDbEntity
  8
Standard
  6
Continuous
 62
     7
100
AcDbLine
 10
6.6
 20
5.0
 30
0.0
 11
203.0048694642
 21
5.0
 31
0.0
  0
LINE
  5
38E
330
1F
100
AcDbEntity
  8
Standard
  6
Continuous
 62
     7
100
AcDbLine
 10
203.0048694642
 20
291.0
 30
0.0
 11
6.6
 21
291.0
 31
0.0
  0
LINE
  5
38F
330
1F
100
AcDbEntity
  8
Default
  6
Continuous
 62
     7
100
AcDbLine
 10
6.6
 20
45.0
 30
0.0
 11
203.0048694642
 21
45.0
 31
0.0
  0
LINE
  5
390
330
1F
100
AcDbEntity
  8
Default
  6
Continuous
 62
     7
100
AcDbLine
 10
6.6
 20
25.0
 30
0.0
 11
203.0048694642
 21
25.0
 31
0.0
  0
LINE
  5
391
330
1F
100
AcDbEntity
  8
Default
  6
Continuous
 62
     7
100
AcDbLine
 10
6.6
 20
40.0
 30
0.0
 11
105.0
 21
40.0
 31
0.0
  0
LINE
  5
392
330
1F
100
AcDbEntity
  8
Default
  6
Continuous
 62
     7
100
AcDbLine
 10
25.0
 20
35.0
 30
0.0
 11
105.0
 21
35.0
 31
0.0
  0
LINE
  5
393
330
1F
100
AcDbEntity
  8
Default
  6
Continuous
 62
     7
100
AcDbLine
 10
25.0
 20
30.0
 30
0.0
 11
85.0
 21
30.0
 31
0.0
  0
LINE
  5
394
330
1F
100
AcDbEntity
  8
Default
  6
Continuous
 62
     7
100
AcDbLine
 10
25.0
 20
45.0
 30
0.0
 11
25.0
 21
5.0
 31
0.0
  0
LINE
  5
395
330
1F
100
AcDbEntity
  8
Default
  6
Continuous
 62
     7
100
AcDbLine
 10
45.0
 20
45.0
 30
0.0
 11
45.0
 21
5.0
 31
0.0
  0
LINE
  5
396
330
1F
100
AcDbEntity
  8
Default
  6
Continuous
 62
     7
100
AcDbLine
 10
65.0
 20
45.0
 30
0.0
 11
65.0
 21
25.0
 31
0.0
  0
LINE
  5
397
330
1F
100
AcDbEntity
  8
Default
  6
Continuous
 62
     7
100
AcDbLine
 10
85.0
 20
45.0
 30
0.0
 11
85.0
 21
25.0
 31
0.0
  0
LINE
  5
398
330
1F
100
AcDbEntity
  8
Default
  6
Continuous
 62
     7
100
AcDbLine
 10
105.0
 20
45.0
 30
0.0
 11
105.0
 21
25.0
 31
0.0
  0
LINE
  5
399
330
1F
100
AcDbEntity
  8
Default
  6
Continuous
 62
     7
100
AcDbLine
 10
25.0
 20
12.0
 30
0.0
 11
203.0048694642
 21
12.0
 31
0.0
  0
LINE
  5
39A
330
1F
100
AcDbEntity
  8
Default
  6
Continuous
 62
     7
100
AcDbLine
 10
6.6
 20
20.0
 30
0.0
 11
25.0
 21
20.0
 31
0.0
  0
LINE
  5
39B
330
1F
100
AcDbEntity
  8
Default
  6
Continuous
 62
     7
100
AcDbLine
 10
163.0
 20
25.0
 30
0.0
 11
163.0
 21
5.0
 31
0.0
  0
MTEXT
  5
39C
330
1F
100
AcDbEntity
  8
Default
100
AcDbMText
 10
6.9540142599
 20
43.7920376842
 30
0.0
 40
2.5
 41
18.4529619592
 71
     1
 72
     1
  1
{\fArial|b0||i0||c0|p34;\C7;\H2.;\W0.9;Ma\U+00DFstab / Scale}
  7
SEACAD_Arial
 73
     1
 44
1.0
1001
ACAD
1000
ACAD_MTEXT_DEFINED_HEIGHT_BEGIN
1070
    46
1040
3.1304447826
1000
ACAD_MTEXT_DEFINED_HEIGHT_END
  0
MTEXT
  5
39D
330
1F
100
AcDbEntity
  8
Default
100
AcDbMText
 10
26.9540142599
 20
43.7920376842
 30
0.0
 40
2.5
 41
18.4529619592
 71
     1
 72
     1
  1
{\fArial|b0||i0||c0|p34;\C7;\H2.;\W0.9;\U+00C4M-Nr. / ECN}
  7
SEACAD_Arial
 73
     1
 44
1.0
1001
ACAD
1000
ACAD_MTEXT_DEFINED_HEIGHT_BEGIN
1070
    46
1040
3.1304447826
1000
ACAD_MTEXT_DEFINED_HEIGHT_END
  0
MTEXT
  5
39E
330
1F
100
AcDbEntity
  8
Default
100
AcDbMText
 10
26.9540142599
 20
38.7920376842
 30
0.0
 40
2.5
 41
18.4529619592
 71
     1
 72
     1
  1
{\fArial|b0||i0||c0|p34;\C7;\H2.;\W0.9;Datum / Date}
  7
SEACAD_Arial
 73
     1
 44
1.0
1001
ACAD
1000
ACAD_MTEXT_DEFINED_HEIGHT_BEGIN
1070
    46
1040
3.1304447826
1000
ACAD_MTEXT_DEFINED_HEIGHT_END
  0
MTEXT
  5
39F
330
1F
100
AcDbEntity
  8
Default
100
AcDbMText
 10
25.5253978501
 20
33.6729863168
 30
0.0
 40
2.5
 41
20.0012594728
 71
     1
 72
     1
  1
{\fArial|b0||i0||c0|p34;\C7;\H2.;\W0.8;Verantw. / Respons.}
  7
SEACAD_Arial
 73
     1
 44
1.0
1001
ACAD
1000
ACAD_MTEXT_DEFINED_HEIGHT_BEGIN
1070
    46
1040
3.4528045251
1000
ACAD_MTEXT_DEFINED_HEIGHT_END
  0
MTEXT
  5
3A0
330
1F
100
AcDbEntity
  8
Default
100
AcDbMText
 10
25.6444492176
 20
28.7920376842
 30
0.0
 40
2.5
 41
18.3913143478
 71
     1
 72
     1
  1
{\fArial|b0||i0||c0|p34;\C7;\H2.;\W0.8;Gepr\U+00FCft / Approved}
  7
SEACAD_Arial
 73
     1
 44
1.0
1001
ACAD
1000
ACAD_MTEXT_DEFINED_HEIGHT_BEGIN
1070
    46
1040
3.1304447826
1000
ACAD_MTEXT_DEFINED_HEIGHT_END
  0
MTEXT
  5
3A1
330
1F
100
AcDbEntity
  8
Default
100
AcDbMText
 10
15.5292897758
 20
22.8214279273
 30
0.0
 40
2.5
 41
18.4529619592
 71
     5
 72
     1
  1
{\fArial|b0||i0||c0|p34;\C7;\H2.;\W1.;Status}
 73
     1
 44
1.0
1001
ACAD
1000
ACAD_MTEXT_DEFINED_HEIGHT_BEGIN
1070
    46
1040
4.7620546991
1000
ACAD_MTEXT_DEFINED_HEIGHT_END
  0
MTEXT
  5
3A2
330
1F
100
AcDbEntity
  8
Default
100
AcDbMText
 10
25.8842381149
 20
17.7084237573
 30
0.0
 40
2.5
 41
20.1196811039
 71
     4
 72
     1
  1
{\fArial|b0||i0||c0|p34;\C7;\H2.;\W1.;Benennung /\P}{\fArial|b0||i0||c0|p34;\C7;\H2.;\W1.;Title}
 73
     1
 44
1.0
1001
ACAD
1000
ACAD_MTEXT_DEFINED_HEIGHT_BEGIN
1070
    46
1040
15.0004723023
1000
ACAD_MTEXT_DEFINED_HEIGHT_END
  0
MTEXT
  5
3A3
330
1F
100
AcDbEntity
  8
Default
100
AcDbMText
 10
25.8272330627
 20
8.2971610949
 30
0.0
 40
2.5
 41
20.0006297364
 71
     4
 72
     1
  1
{\fArial|b0||i0||c0|p34;\C7;\H2.;\W1.;Prod.-No. +\P}{\fArial|b0||i0||c0|p34;\C7;\H2.;\W1.;variants:}
 73
     1
 44
1.0
1001
ACAD
1000
ACAD_MTEXT_DEFINED_HEIGHT_BEGIN
1070
    46
1040
6.2608695652
1000
ACAD_MTEXT_DEFINED_HEIGHT_END
  0
MTEXT
  5
3A4
330
1F
100
AcDbEntity
  8
Default
100
AcDbMText
 10
94.7996622009
 20
30.2349931318
 30
0.0
 40
2.5
 41
19.9738722629
 71
     5
 72
     1
  1
{\fArial|b0||i0||c0|p34;\C7;\H2.;\W1.;Copyright\P}{\fArial|b0||i0||c0|p34;\C7;\H2.;\W1.;reserved}
 73
     1
 44
1.0
1001
ACAD
1000
ACAD_MTEXT_DEFINED_HEIGHT_BEGIN
1070
    46
1040
9.8176660275
1000
ACAD_MTEXT_DEFINED_HEIGHT_END
  0
MTEXT
  5
3A5
330
1F
100
AcDbEntity
  8
Default
100
AcDbMText
 10
163.7763570233
 20
23.3589041336
 30
0.0
 40
2.5
 41
36.0869665217
 71
     4
 72
     1
  1
{\fArial|b0||i0||c0|p34;\C7;\H2.;\W1.;Zeichnung Nr. / Drawing No.:}
 73
     1
 44
1.0
1001
ACAD
1000
ACAD_MTEXT_DEFINED_HEIGHT_BEGIN
1070
    46
1040
3.1304347826
1000
ACAD_MTEXT_DEFINED_HEIGHT_END
  0
MTEXT
  5
3A6
330
1F
100
AcDbEntity
  8
Default
100
AcDbMText
 10
177.9167122798
 20
10.4191450781
 30
0.0
 40
2.5
 41
28.4674013043
 71
     5
 72
     1
  1
{\fArial|b0||i0||c0|p34;\C7;\H1.5;\W1.;TPI-Referenz / TPI-Reference:}
 73
     1
 44
1.0
1001
ACAD
1000
ACAD_MTEXT_DEFINED_HEIGHT_BEGIN
1070
    46
1040
2.347826087
1000
ACAD_MTEXT_DEFINED_HEIGHT_END
  0
LINE
  5
3A7
330
1F
100
AcDbEntity
  8
Default
  6
Continuous
 62
     7
100
AcDbLine
 10
203.005
 20
5.0
 30
0.0
 11
203.0048694642
 21
291.0
 31
0.0
  0
MTEXT
  5
3A8
330
1F
100
AcDbEntity
  8
Default
100
AcDbMText
 10
125.9819791287
 20
35.0860625795
 30
0.0
 40
2.5
 41
35.2174885633
 71
     5
 72
     1
  1
{\fArial|b0||i0||c0|p34;\C7;\H2.;\W1.;Grohe AG\P}{\fArial|b0||i0||c0|p34;\C7;\H2.;\W1.;Industriepark Edelburg\P}{\fArial|b0||i0||c0|p34;\C7;\H2.;\W1.;D-58675 Hemer\P}{\fArial|b0||i0||c0|p34;\C7;\H2.;\W1.;Tel. 02372 / 93-0}
 73
     1
 44
1.0
1001
ACAD
1000
ACAD_MTEXT_DEFINED_HEIGHT_BEGIN
1070
    46
1040
20.0099366837
1000
ACAD_MTEXT_DEFINED_HEIGHT_END
  0
INSERT
  5
3EA
330
1F
100
AcDbEntity
  8
Default
 62
     7
100
AcDbBlockReference
  2
symb_tb_GroheLogo2013_ori
 10
180.6
 20
27.27
 30
0.0
  0
ENDSEC
  0
SECTION
  2
OBJECTS
  0
DICTIONARY
  5
C
330
0
100
AcDbDictionary
281
     1
  3
ACAD_GROUP
350
D
  3
ACAD_LAYOUT
350
1A
  3
ACAD_MATERIAL
350
43
  3
ACAD_MLEADERSTYLE
350
3ED
  3
ACAD_MLINESTYLE
350
17
  3
ACAD_PLOTSETTINGS
350
19
  3
ACAD_PLOTSTYLENAME
350
E
  3
ACAD_SCALELIST
350
47
  3
ACAD_VISUALSTYLE
350
2A
  3
AcDbVariableDictionary
350
3EB
  0
DICTIONARY
  5
D
102
{ACAD_REACTORS
330
C
102
}
330
C
100
AcDbDictionary
281
     1
  0
DICTIONARY
  5
1A
102
{ACAD_REACTORS
330
C
102
}
330
C
100
AcDbDictionary
281
     1
  3
Layout1
350
1E
  3
Model
350
22
  0
DICTIONARY
  5
43
102
{ACAD_REACTORS
330
C
102
}
330
C
100
AcDbDictionary
281
     1
  3
ByBlock
350
45
  3
ByLayer
350
44
  3
Global
350
46
  0
DICTIONARY
  5
3ED
102
{ACAD_REACTORS
330
C
102
}
330
C
100
AcDbDictionary
281
     1
  0
DICTIONARY
  5
17
102
{ACAD_REACTORS
330
C
102
}
330
C
100
AcDbDictionary
281
     1
  3
Standard
350
18
  0
DICTIONARY
  5
19
102
{ACAD_REACTORS
330
C
102
}
330
C
100
AcDbDictionary
281
     1
  0
ACDBDICTIONARYWDFLT
  5
E
102
{ACAD_REACTORS
330
C
102
}
330
C
100
AcDbDictionary
281
     1
  3
Normal
350
F
100
AcDbDictionaryWithDefault
340
F
  0
DICTIONARY
  5
47
102
{ACAD_REACTORS
330
C
102
}
330
C
100
AcDbDictionary
281
     1
  3
A0
350
48
  3
A1
350
49
  3
A2
350
4A
  3
A3
350
4B
  3
A4
350
4C
  3
A5
350
4D
  3
A6
350
4E
  3
A7
350
4F
  3
A8
350
50
  3
A9
350
51
  3
B0
350
52
  3
B1
350
53
  3
B2
350
54
  3
B3
350
55
  3
B4
350
56
  3
B5
350
57
  3
B6
350
58
  3
B7
350
59
  3
B8
350
5A
  3
B9
350
5B
  3
C0
350
5C
  3
C1
350
5D
  3
C2
350
5E
  3
C3
350
5F
  3
C4
350
60
  3
C5
350
61
  3
C6
350
62
  3
C7
350
63
  3
C8
350
64
  3
C9
350
65
  3
D0
350
66
  3
D1
350
67
  3
D2
350
68
  0
DICTIONARY
  5
2A
102
{ACAD_REACTORS
330
C
102
}
330
C
100
AcDbDictionary
281
     1
  3
2dWireframe
350
2F
  3
Basic
350
32
  3
Brighten
350
36
  3
ColorChange
350
3A
  3
Conceptual
350
34
  3
Dim
350
35
  3
EdgeColorOff
350
3D
  3
Facepattern
350
39
  3
Flat
350
2B
  3
FlatWithEdges
350
2C
  3
Gouraud
350
2D
  3
GouraudWithEdges
350
2E
  3
Hidden
350
31
  3
JitterOff
350
3B
  3
Linepattern
350
38
  3
OverhangOff
350
3C
  3
Realistic
350
33
  3
Shaded
350
42
  3
Shaded with edges
350
41
  3
Shades of Gray
350
3E
  3
Sketchy
350
3F
  3
Thicken
350
37
  3
Wireframe
350
30
  3
X-Ray
350
40
  0
DICTIONARY
  5
3EB
102
{ACAD_REACTORS
330
C
102
}
330
C
100
AcDbDictionary
281
     1
  3
CANNOSCALE
350
3F4
  3
DIMASSOC
350
3F2
  3
HIDETEXT
350
3F3
  3
MSLTSCALE
350
3F5
  3
PSOLHEIGHT
350
3EF
  3
PSOLWIDTH
350
3EE
  0
LAYOUT
  5
1E
102
{ACAD_REACTORS
330
1A
102
}
330
1A
100
AcDbPlotSettings
  1

  2
none_device
  4

  6

 40
0.0
 41
0.0
 42
0.0
 43
0.0
 44
0.0
 45
0.0
 46
0.0
 47
0.0
 48
0.0
 49
0.0
140
0.0
141
0.0
142
1.0
143
1.0
 70
   688
 72
     1
 73
     0
 74
     5
  7

 75
    16
147
1.0
148
0.0
149
0.0
100
AcDbLayout
  1
Layout1
 70
     1
 71
     1
 10
0.0
 20
0.0
 11
209.0
 21
296.0
 12
0.0
 22
0.0
 32
0.0
 14
0.0
 24
0.0
 34
0.0
 15
209.0
 25
296.0
 35
0.0
146
0.0
 13
0.0
 23
0.0
 33
0.0
 16
1.0
 26
0.0
 36
0.0
 17
0.0
 27
1.0
 37
0.0
 76
     0
330
1B
  0
LAYOUT
  5
22
102
{ACAD_REACTORS
330
1A
102
}
330
1A
100
AcDbPlotSettings
  1

  2
none_device
  4
Letter_(8.50_x_11.00_Inches)
  6

 40
6.35
 41
6.35
 42
6.35000508
 43
6.35000508
 44
215.9
 45
279.4
 46
0.0
 47
0.0
 48
0.0
 49
0.0
140
0.0
141
0.0
142
1.0
143
1.0
 70
  1712
 72
     1
 73
     0
 74
     0
  7

 75
     0
147
1.0
148
0.0
149
0.0
100
AcDbLayout
  1
Model
 70
     1
 71
     0
 10
0.0
 20
0.0
 11
209.0
 21
296.0
 12
0.0
 22
0.0
 32
0.0
 14
0.0
 24
0.0
 34
0.0
 15
209.0
 25
296.0
 35
0.0
146
0.0
 13
0.0
 23
0.0
 33
0.0
 16
1.0
 26
0.0
 36
0.0
 17
0.0
 27
1.0
 37
0.0
 76
     0
330
1F
331
29
  0
MATERIAL
  5
45
102
{ACAD_REACTORS
330
43
102
}
102
{ACAD_XDICTIONARY
360
428
102
}
330
43
100
AcDbMaterial
  1
ByBlock
  0
MATERIAL
  5
44
102
{ACAD_REACTORS
330
43
102
}
102
{ACAD_XDICTIONARY
360
426
102
}
330
43
100
AcDbMaterial
  1
ByLayer
  0
MATERIAL
  5
46
102
{ACAD_REACTORS
330
43
102
}
102
{ACAD_XDICTIONARY
360
42A
102
}
330
43
100
AcDbMaterial
  1
Global
  0
MLINESTYLE
  5
18
102
{ACAD_REACTORS
330
17
102
}
330
17
100
AcDbMlineStyle
  2
Standard
 70
     0
  3

 62
   256
 51
90.0
 52
90.0
 71
     2
 49
0.5
 62
   256
  6
BYLAYER
 49
-0.5
 62
   256
  6
BYLAYER
  0
ACDBPLACEHOLDER
  5
F
102
{ACAD_REACTORS
330
E
102
}
330
E
  0
SCALE
  5
48
102
{ACAD_REACTORS
330
47
102
}
330
47
100
AcDbScale
 70
     0
300
1:1
140
1.0
141
1.0
290
     1
  0
SCALE
  5
49
102
{ACAD_REACTORS
330
47
102
}
330
47
100
AcDbScale
 70
     0
300
1:2
140
1.0
141
2.0
290
     0
  0
SCALE
  5
4A
102
{ACAD_REACTORS
330
47
102
}
330
47
100
AcDbScale
 70
     0
300
1:4
140
1.0
141
4.0
290
     0
  0
SCALE
  5
4B
102
{ACAD_REACTORS
330
47
102
}
330
47
100
AcDbScale
 70
     0
300
1:5
140
1.0
141
5.0
290
     0
  0
SCALE
  5
4C
102
{ACAD_REACTORS
330
47
102
}
330
47
100
AcDbScale
 70
     0
300
1:8
140
1.0
141
8.0
290
     0
  0
SCALE
  5
4D
102
{ACAD_REACTORS
330
47
102
}
330
47
100
AcDbScale
 70
     0
300
1:10
140
1.0
141
10.0
290
     0
  0
SCALE
  5
4E
102
{ACAD_REACTORS
330
47
102
}
330
47
100
AcDbScale
 70
     0
300
1:16
140
1.0
141
16.0
290
     0
  0
SCALE
  5
4F
102
{ACAD_REACTORS
330
47
102
}
330
47
100
AcDbScale
 70
     0
300
1:20
140
1.0
141
20.0
290
     0
  0
SCALE
  5
50
102
{ACAD_REACTORS
330
47
102
}
330
47
100
AcDbScale
 70
     0
300
1:30
140
1.0
141
30.0
290
     0
  0
SCALE
  5
51
102
{ACAD_REACTORS
330
47
102
}
330
47
100
AcDbScale
 70
     0
300
1:40
140
1.0
141
40.0
290
     0
  0
SCALE
  5
52
102
{ACAD_REACTORS
330
47
102
}
330
47
100
AcDbScale
 70
     0
300
1:50
140
1.0
141
50.0
290
     0
  0
SCALE
  5
53
102
{ACAD_REACTORS
330
47
102
}
330
47
100
AcDbScale
 70
     0
300
1:100
140
1.0
141
100.0
290
     0
  0
SCALE
  5
54
102
{ACAD_REACTORS
330
47
102
}
330
47
100
AcDbScale
 70
     0
300
2:1
140
2.0
141
1.0
290
     0
  0
SCALE
  5
55
102
{ACAD_REACTORS
330
47
102
}
330
47
100
AcDbScale
 70
     0
300
4:1
140
4.0
141
1.0
290
     0
  0
SCALE
  5
56
102
{ACAD_REACTORS
330
47
102
}
330
47
100
AcDbScale
 70
     0
300
8:1
140
8.0
141
1.0
290
     0
  0
SCALE
  5
57
102
{ACAD_REACTORS
330
47
102
}
330
47
100
AcDbScale
 70
     0
300
10:1
140
10.0
141
1.0
290
     0
  0
SCALE
  5
58
102
{ACAD_REACTORS
330
47
102
}
330
47
100
AcDbScale
 70
     0
300
100:1
140
100.0
141
1.0
290
     0
  0
SCALE
  5
59
102
{ACAD_REACTORS
330
47
102
}
330
47
100
AcDbScale
 70
     0
300
1/128" = 1'-0"
140
0.0078125
141
12.0
290
     0
  0
SCALE
  5
5A
102
{ACAD_REACTORS
330
47
102
}
330
47
100
AcDbScale
 70
     0
300
1/64" = 1'-0"
140
0.015625
141
12.0
290
     0
  0
SCALE
  5
5B
102
{ACAD_REACTORS
330
47
102
}
330
47
100
AcDbScale
 70
     0
300
1/32" = 1'-0"
140
0.03125
141
12.0
290
     0
  0
SCALE
  5
5C
102
{ACAD_REACTORS
330
47
102
}
330
47
100
AcDbScale
 70
     0
300
1/16" = 1'-0"
140
0.0625
141
12.0
290
     0
  0
SCALE
  5
5D
102
{ACAD_REACTORS
330
47
102
}
330
47
100
AcDbScale
 70
     0
300
3/32" = 1'-0"
140
0.09375
141
12.0
290
     0
  0
SCALE
  5
5E
102
{ACAD_REACTORS
330
47
102
}
330
47
100
AcDbScale
 70
     0
300
1/8" = 1'-0"
140
0.125
141
12.0
290
     0
  0
SCALE
  5
5F
102
{ACAD_REACTORS
330
47
102
}
330
47
100
AcDbScale
 70
     0
300
3/16" = 1'-0"
140
0.1875
141
12.0
290
     0
  0
SCALE
  5
60
102
{ACAD_REACTORS
330
47
102
}
330
47
100
AcDbScale
 70
     0
300
1/4" = 1'-0"
140
0.25
141
12.0
290
     0
  0
SCALE
  5
61
102
{ACAD_REACTORS
330
47
102
}
330
47
100
AcDbScale
 70
     0
300
3/8" = 1'-0"
140
0.375
141
12.0
290
     0
  0
SCALE
  5
62
102
{ACAD_REACTORS
330
47
102
}
330
47
100
AcDbScale
 70
     0
300
1/2" = 1'-0"
140
0.5
141
12.0
290
     0
  0
SCALE
  5
63
102
{ACAD_REACTORS
330
47
102
}
330
47
100
AcDbScale
 70
     0
300
3/4" = 1'-0"
140
0.75
141
12.0
290
     0
  0
SCALE
  5
64
102
{ACAD_REACTORS
330
47
102
}
330
47
100
AcDbScale
 70
     0
300
1" = 1'-0"
140
1.0
141
12.0
290
     0
  0
SCALE
  5
65
102
{ACAD_REACTORS
330
47
102
}
330
47
100
AcDbScale
 70
     0
300
1-1/2" = 1'-0"
140
1.5
141
12.0
290
     0
  0
SCALE
  5
66
102
{ACAD_REACTORS
330
47
102
}
330
47
100
AcDbScale
 70
     0
300
3" = 1'-0"
140
3.0
141
12.0
290
     0
  0
SCALE
  5
67
102
{ACAD_REACTORS
330
47
102
}
330
47
100
AcDbScale
 70
     0
300
6" = 1'-0"
140
6.0
141
12.0
290
     0
  0
SCALE
  5
68
102
{ACAD_REACTORS
330
47
102
}
330
47
100
AcDbScale
 70
     0
300
1'-0" = 1'-0"
140
12.0
141
12.0
290
     0
  0
VISUALSTYLE
  5
2F
102
{ACAD_REACTORS
330
2A
102
}
102
{ACAD_XDICTIONARY
360
3FE
102
}
330
2A
100
AcDbVisualStyle
  2
2dWireframe
 70
     4
 71
     0
 72
     2
 73
     0
 90
        0
 40
0.6
 41
30.0
 62
     5
 63
     7
 74
     1
 91
        4
 64
     7
 65
   257
 75
     1
175
     1
 42
1.0
 92
        0
 66
   257
 43
1.0
 76
     1
 77
     6
 78
     2
 67
     7
 79
     5
170
     0
171
     0
290
     0
174
     0
 93
        1
 44
0.0
173
     0
291
     0
 45
0.0
1001
ACAD
1000
AcDbSavedByObjectVersion
1070
     0
  0
VISUALSTYLE
  5
32
102
{ACAD_REACTORS
330
2A
102
}
102
{ACAD_XDICTIONARY
360
404
102
}
330
2A
100
AcDbVisualStyle
  2
Basic
 70
     7
 71
     1
 72
     0
 73
     1
 90
        0
 40
0.6
 41
30.0
 62
     5
 63
     7
 74
     0
 91
        4
 64
     7
 65
   257
 75
     1
175
     1
 42
1.0
 92
        8
 66
     7
 43
1.0
 76
     1
 77
     6
 78
     2
 67
     7
 79
     5
170
     0
171
     0
290
     0
174
     0
 93
        1
 44
0.0
173
     0
291
     1
 45
0.0
1001
ACAD
1000
AcDbSavedByObjectVersion
1070
     0
  0
VISUALSTYLE
  5
36
102
{ACAD_REACTORS
330
2A
102
}
102
{ACAD_XDICTIONARY
360
40C
102
}
330
2A
100
AcDbVisualStyle
  2
Brighten
 70
    12
 71
     2
 72
     2
 73
     0
 90
        0
 40
0.6
 41
30.0
 62
     5
 63
     7
 74
     1
 91
        4
 64
     7
 65
   257
 75
     1
175
     1
 42
1.0
 92
        8
 66
     7
 43
1.0
 76
     1
 77
     6
 78
     2
 67
     7
 79
     5
170
     0
171
     0
290
     0
174
     0
 93
        1
 44
50.0
173
     0
291
     1
 45
0.0
1001
ACAD
1000
AcDbSavedByObjectVersion
1070
     0
  0
VISUALSTYLE
  5
3A
102
{ACAD_REACTORS
330
2A
102
}
102
{ACAD_XDICTIONARY
360
414
102
}
330
2A
100
AcDbVisualStyle
  2
ColorChange
 70
    16
 71
     2
 72
     2
 73
     3
 90
        0
 40
0.6
 41
30.0
 62
     5
 63
     8
 74
     1
 91
        4
 64
     7
 65
   257
 75
     1
175
     1
 42
1.0
 92
        8
 66
     8
 43
1.0
 76
     1
 77
     6
 78
     2
 67
     7
 79
     5
170
     0
171
     0
290
     0
174
     0
 93
        1
 44
0.0
173
     0
291
     1
 45
0.0
1001
ACAD
1000
AcDbSavedByObjectVersion
1070
     0
  0
VISUALSTYLE
  5
34
102
{ACAD_REACTORS
330
2A
102
}
102
{ACAD_XDICTIONARY
360
408
102
}
330
2A
100
AcDbVisualStyle
  2
Conceptual
 70
     9
 71
     3
 72
     2
 73
     0
 90
        0
 40
0.6
 41
30.0
 62
     5
 63
     7
 74
     2
 91
        2
 64
     7
 65
   257
 75
     1
175
     1
 42
179.0
 92
        8
 66
     7
 43
1.0
 76
     1
 77
     6
 78
     2
 67
     7
 79
     3
170
     0
171
     0
290
     0
174
     0
 93
        1
 44
0.0
173
     0
291
     0
 45
0.0
1001
ACAD
1000
AcDbSavedByObjectVersion
1070
     0
  0
VISUALSTYLE
  5
35
102
{ACAD_REACTORS
330
2A
102
}
102
{ACAD_XDICTIONARY
360
40A
102
}
330
2A
100
AcDbVisualStyle
  2
Dim
 70
    11
 71
     2
 72
     2
 73
     0
 90
        0
 40
0.6
 41
30.0
 62
     5
 63
     7
 74
     1
 91
        4
 64
     7
 65
   257
 75
     1
175
     1
 42
1.0
 92
        8
 66
     7
 43
1.0
 76
     1
 77
     6
 78
     2
 67
     7
 79
     5
170
     0
171
     0
290
     0
174
     0
 93
        1
 44
-50.0
173
     0
291
     1
 45
0.0
1001
ACAD
1000
AcDbSavedByObjectVersion
1070
     0
  0
VISUALSTYLE
  5
3D
102
{ACAD_REACTORS
330
2A
102
}
102
{ACAD_XDICTIONARY
360
41A
102
}
330
2A
100
AcDbVisualStyle
  2
EdgeColorOff
 70
    22
 71
     2
 72
     2
 73
     0
 90
        0
 40
0.6
 41
30.0
 62
     5
 63
     7
 74
     1
 91
        4
 64
     7
 65
   257
 75
     1
175
     1
 42
1.0
 92
        8
 66
     7
 43
1.0
 76
     1
 77
     6
 78
     2
 67
     7
 79
     5
170
     0
171
     0
290
     0
174
     0
 93
        1
 44
0.0
173
     0
291
     1
 45
0.0
1001
ACAD
1000
AcDbSavedByObjectVersion
1070
     0
  0
VISUALSTYLE
  5
39
102
{ACAD_REACTORS
330
2A
102
}
102
{ACAD_XDICTIONARY
360
412
102
}
330
2A
100
AcDbVisualStyle
  2
Facepattern
 70
    15
 71
     2
 72
     2
 73
     0
 90
        0
 40
0.6
 41
30.0
 62
     5
 63
     7
 74
     1
 91
        4
 64
     7
 65
   257
 75
     1
175
     1
 42
1.0
 92
        8
 66
     7
 43
1.0
 76
     1
 77
     6
 78
     2
 67
     7
 79
     5
170
     0
171
     0
290
     0
174
     0
 93
        1
 44
0.0
173
     0
291
     1
 45
0.0
1001
ACAD
1000
AcDbSavedByObjectVersion
1070
     0
  0
VISUALSTYLE
  5
2B
102
{ACAD_REACTORS
330
2A
102
}
102
{ACAD_XDICTIONARY
360
3F6
102
}
330
2A
100
AcDbVisualStyle
  2
Flat
 70
     0
 71
     2
 72
     1
 73
     1
 90
        2
 40
0.6
 41
30.0
 62
     5
 63
     7
 74
     0
 91
        0
 64
     7
 65
   257
 75
     1
175
     1
 42
1.0
 92
        8
 66
     7
 43
1.0
 76
     1
 77
     6
 78
     2
 67
     7
 79
     5
170
     0
171
     0
290
     0
174
     0
 93
       13
 44
0.0
173
     0
291
     1
 45
0.0
1001
ACAD
1000
AcDbSavedByObjectVersion
1070
     0
  0
VISUALSTYLE
  5
2C
102
{ACAD_REACTORS
330
2A
102
}
102
{ACAD_XDICTIONARY
360
3F8
102
}
330
2A
100
AcDbVisualStyle
  2
FlatWithEdges
 70
     1
 71
     2
 72
     1
 73
     1
 90
        2
 40
0.6
 41
30.0
 62
     5
 63
     7
 74
     1
 91
        0
 64
     7
 65
   257
 75
     1
175
     1
 42
1.0
 92
        0
 66
   257
 43
1.0
 76
     1
 77
     6
 78
     2
 67
     7
 79
     5
170
     0
171
     0
290
     0
174
     0
 93
       13
 44
0.0
173
     0
291
     1
 45
0.0
1001
ACAD
1000
AcDbSavedByObjectVersion
1070
     0
  0
VISUALSTYLE
  5
2D
102
{ACAD_REACTORS
330
2A
102
}
102
{ACAD_XDICTIONARY
360
3FA
102
}
330
2A
100
AcDbVisualStyle
  2
Gouraud
 70
     2
 71
     2
 72
     2
 73
     1
 90
        2
 40
0.6
 41
30.0
 62
     5
 63
     7
 74
     0
 91
        0
 64
     7
 65
   257
 75
     1
175
     1
 42
1.0
 92
        0
 66
     7
 43
1.0
 76
     1
 77
     6
 78
     2
 67
     7
 79
     5
170
     0
171
     0
290
     0
174
     0
 93
       13
 44
0.0
173
     0
291
     1
 45
0.0
1001
ACAD
1000
AcDbSavedByObjectVersion
1070
     0
  0
VISUALSTYLE
  5
2E
102
{ACAD_REACTORS
330
2A
102
}
102
{ACAD_XDICTIONARY
360
3FC
102
}
330
2A
100
AcDbVisualStyle
  2
GouraudWithEdges
 70
     3
 71
     2
 72
     2
 73
     1
 90
        2
 40
0.6
 41
30.0
 62
     5
 63
     7
 74
     1
 91
        0
 64
     7
 65
   257
 75
     1
175
     1
 42
1.0
 92
        0
 66
   257
 43
1.0
 76
     1
 77
     6
 78
     2
 67
     7
 79
     5
170
     0
171
     0
290
     0
174
     0
 93
       13
 44
0.0
173
     0
291
     1
 45
0.0
1001
ACAD
1000
AcDbSavedByObjectVersion
1070
     0
  0
VISUALSTYLE
  5
31
102
{ACAD_REACTORS
330
2A
102
}
102
{ACAD_XDICTIONARY
360
402
102
}
330
2A
100
AcDbVisualStyle
  2
Hidden
 70
     6
 71
     1
 72
     2
 73
     2
 90
        0
 40
0.6
 41
30.0
 62
     5
 63
     7
 74
     2
 91
        2
 64
     7
 65
   257
 75
     2
175
     1
 42
40.0
 92
        0
 66
   257
 43
1.0
 76
     1
 77
     6
 78
     2
 67
     7
 79
     3
170
     0
171
     0
290
     0
174
     0
 93
        1
 44
0.0
173
     0
291
     0
 45
0.0
1001
ACAD
1000
AcDbSavedByObjectVersion
1070
     0
  0
VISUALSTYLE
  5
3B
102
{ACAD_REACTORS
330
2A
102
}
102
{ACAD_XDICTIONARY
360
416
102
}
330
2A
100
AcDbVisualStyle
  2
JitterOff
 70
    20
 71
     2
 72
     2
 73
     0
 90
        0
 40
0.6
 41
30.0
 62
     5
 63
     7
 74
     1
 91
        4
 64
     7
 65
   257
 75
     1
175
     1
 42
1.0
 92
       10
 66
     7
 43
1.0
 76
     1
 77
     6
 78
     2
 67
     7
 79
     5
170
     0
171
     0
290
     0
174
     0
 93
        1
 44
0.0
173
     0
291
     1
 45
0.0
1001
ACAD
1000
AcDbSavedByObjectVersion
1070
     0
  0
VISUALSTYLE
  5
38
102
{ACAD_REACTORS
330
2A
102
}
102
{ACAD_XDICTIONARY
360
410
102
}
330
2A
100
AcDbVisualStyle
  2
Linepattern
 70
    14
 71
     2
 72
     2
 73
     0
 90
        0
 40
0.6
 41
30.0
 62
     5
 63
     7
 74
     1
 91
        4
 64
     7
 65
   257
 75
     7
175
     7
 42
1.0
 92
        8
 66
     7
 43
1.0
 76
     1
 77
     6
 78
     2
 67
     7
 79
     5
170
     0
171
     0
290
     0
174
     0
 93
        1
 44
0.0
173
     0
291
     1
 45
0.0
1001
ACAD
1000
AcDbSavedByObjectVersion
1070
     0
  0
VISUALSTYLE
  5
3C
102
{ACAD_REACTORS
330
2A
102
}
102
{ACAD_XDICTIONARY
360
418
102
}
330
2A
100
AcDbVisualStyle
  2
OverhangOff
 70
    21
 71
     2
 72
     2
 73
     0
 90
        0
 40
0.6
 41
30.0
 62
     5
 63
     7
 74
     1
 91
        4
 64
     7
 65
   257
 75
     1
175
     1
 42
1.0
 92
        9
 66
     7
 43
1.0
 76
     1
 77
     6
 78
     2
 67
     7
 79
     5
170
     0
171
     0
290
     0
174
     0
 93
        1
 44
0.0
173
     0
291
     1
 45
0.0
1001
ACAD
1000
AcDbSavedByObjectVersion
1070
     0
  0
VISUALSTYLE
  5
33
102
{ACAD_REACTORS
330
2A
102
}
102
{ACAD_XDICTIONARY
360
406
102
}
330
2A
100
AcDbVisualStyle
  2
Realistic
 70
     8
 71
     2
 72
     3
 73
     0
 90
        2
 40
0.6
 41
30.0
 62
     5
 63
     7
 74
     0
 91
        0
 64
     7
 65
   257
 75
     1
175
     1
 42
1.0
 92
        8
 66
   257
 43
1.0
 76
     1
 77
     6
 78
     2
 67
     7
 79
     3
170
     0
171
     0
290
     0
174
     0
 93
       13
 44
0.0
173
     0
291
     0
 45
0.0
1001
ACAD
1000
AcDbSavedByObjectVersion
1070
     0
  0
VISUALSTYLE
  5
42
102
{ACAD_REACTORS
330
2A
102
}
102
{ACAD_XDICTIONARY
360
424
102
}
330
2A
100
AcDbVisualStyle
  2
Shaded
 70
    27
 71
     2
 72
     2
 73
     1
 90
        2
 40
0.6
 41
30.0
 62
     5
 63
     7
 74
     0
 91
        4
 64
     7
 65
   257
 75
     1
175
     1
 42
1.0
 92
        8
 66
   257
 43
1.0
 76
     1
 77
     6
 78
     2
 67
     8
 79
     3
170
     0
171
     0
290
     0
174
     0
 93
        5
 44
0.0
173
     0
291
     0
 45
0.0
1001
ACAD
1000
AcDbSavedByObjectVersion
1070
     0
  0
VISUALSTYLE
  5
41
102
{ACAD_REACTORS
330
2A
102
}
102
{ACAD_XDICTIONARY
360
422
102
}
330
2A
100
AcDbVisualStyle
  2
Shaded with edges
 70
    26
 71
     2
 72
     2
 73
     1
 90
        2
 40
0.6
 41
30.0
 62
     5
 63
     7
 74
     1
 91
       10
 64
     7
 65
   257
 75
     2
175
     1
 42
1.0
 92
        8
 66
   257
 43
1.0
 76
     1
 77
     6
 78
     2
 67
     7
 79
     3
170
     0
171
     0
290
     0
174
     0
 93
        5
 44
0.0
173
     0
291
     0
 45
0.0
1001
ACAD
1000
AcDbSavedByObjectVersion
1070
     0
  0
VISUALSTYLE
  5
3E
102
{ACAD_REACTORS
330
2A
102
}
102
{ACAD_XDICTIONARY
360
41C
102
}
330
2A
100
AcDbVisualStyle
  2
Shades of Gray
 70
    23
 71
     2
 72
     2
 73
     3
 90
        0
 40
0.6
 41
30.0
 62
     5
 63
     7
 74
     2
 91
        2
 64
     7
 65
     7
 75
     1
175
     1
 42
40.0
 92
        8
 66
     7
 43
1.0
 76
     1
 77
     6
 78
     2
 67
     7
 79
     3
170
     0
171
     0
290
     0
174
     0
 93
        1
 44
0.0
173
     0
291
     0
 45
0.0
1001
ACAD
1000
AcDbSavedByObjectVersion
1070
     0
  0
VISUALSTYLE
  5
3F
102
{ACAD_REACTORS
330
2A
102
}
102
{ACAD_XDICTIONARY
360
41E
102
}
330
2A
100
AcDbVisualStyle
  2
Sketchy
 70
    24
 71
     1
 72
     2
 73
     2
 90
        0
 40
0.6
 41
30.0
 62
     5
 63
     7
 74
     2
 91
        2
 64
     7
 65
     7
 75
     1
175
     1
 42
40.0
 92
       11
 66
     7
 43
1.0
 76
     1
 77
     6
 78
     2
 67
     7
 79
     6
170
     0
171
     0
290
     0
174
     0
 93
        1
 44
0.0
173
     0
291
     0
 45
0.0
1001
ACAD
1000
AcDbSavedByObjectVersion
1070
     0
  0
VISUALSTYLE
  5
37
102
{ACAD_REACTORS
330
2A
102
}
102
{ACAD_XDICTIONARY
360
40E
102
}
330
2A
100
AcDbVisualStyle
  2
Thicken
 70
    13
 71
     2
 72
     2
 73
     0
 90
        0
 40
0.6
 41
30.0
 62
     5
 63
     7
 74
     1
 91
        4
 64
     7
 65
   257
 75
     1
175
     1
 42
1.0
 92
       12
 66
     7
 43
1.0
 76
     1
 77
     6
 78
     2
 67
     7
 79
     5
170
     0
171
     0
290
     0
174
     0
 93
        1
 44
0.0
173
     0
291
     1
 45
0.0
1001
ACAD
1000
AcDbSavedByObjectVersion
1070
     0
  0
VISUALSTYLE
  5
30
102
{ACAD_REACTORS
330
2A
102
}
102
{ACAD_XDICTIONARY
360
400
102
}
330
2A
100
AcDbVisualStyle
  2
Wireframe
 70
     5
 71
     0
 72
     2
 73
     0
 90
        0
 40
0.6
 41
30.0
 62
     5
 63
     7
 74
     1
 91
        4
 64
     7
 65
   257
 75
     1
175
     1
 42
1.0
 92
        0
 66
   257
 43
1.0
 76
     1
 77
     6
 78
     2
 67
     7
 79
     3
170
     0
171
     0
290
     0
174
     0
 93
        1
 44
0.0
173
     0
291
     0
 45
0.0
1001
ACAD
1000
AcDbSavedByObjectVersion
1070
     0
  0
VISUALSTYLE
  5
40
102
{ACAD_REACTORS
330
2A
102
}
102
{ACAD_XDICTIONARY
360
420
102
}
330
2A
100
AcDbVisualStyle
  2
X-Ray
 70
    25
 71
     2
 72
     2
 73
     1
 90
        1
 40
0.5
 41
30.0
 62
     5
 63
     7
 74
     1
 91
        0
 64
     7
 65
   257
 75
     1
175
     1
 42
1.0
 92
        8
 66
     7
 43
1.0
 76
     1
 77
     6
 78
     2
 67
     7
 79
     3
170
     0
171
     0
290
     0
174
     0
 93
       13
 44
0.0
173
     0
291
     0
 45
0.0
1001
ACAD
1000
AcDbSavedByObjectVersion
1070
     0
  0
DICTIONARYVAR
  5
3F4
102
{ACAD_REACTORS
330
3EB
102
}
330
3EB
100
DictionaryVariables
280
     0
  1
1:1
  0
DICTIONARYVAR
  5
3F2
102
{ACAD_REACTORS
330
3EB
102
}
330
3EB
100
DictionaryVariables
280
     0
  1
2
  0
DICTIONARYVAR
  5
3F3
102
{ACAD_REACTORS
330
3EB
102
}
330
3EB
100
DictionaryVariables
280
     0
  1
1
  0
DICTIONARYVAR
  5
3F5
102
{ACAD_REACTORS
330
3EB
102
}
330
3EB
100
DictionaryVariables
280
     0
  1
1
  0
DICTIONARYVAR
  5
3EF
102
{ACAD_REACTORS
330
3EB
102
}
330
3EB
100
DictionaryVariables
280
     0
  1
80.000000
  0
DICTIONARYVAR
  5
3EE
102
{ACAD_REACTORS
330
3EB
102
}
330
3EB
100
DictionaryVariables
280
     0
  1
5.000000
  0
DICTIONARY
  5
428
330
45
100
AcDbDictionary
280
     1
281
     1
  3
ACAD_XREC_ROUNDTRIP
360
429
  0
DICTIONARY
  5
426
330
44
100
AcDbDictionary
280
     1
281
     1
  3
ACAD_XREC_ROUNDTRIP
360
427
  0
DICTIONARY
  5
42A
330
46
100
AcDbDictionary
280
     1
281
     1
  3
ACAD_XREC_ROUNDTRIP
360
42B
  0
DICTIONARY
  5
3FE
330
2F
100
AcDbDictionary
280
     1
281
     1
  3
ACAD_XREC_ROUNDTRIP
360
3FF
  0
DICTIONARY
  5
404
330
32
100
AcDbDictionary
280
     1
281
     1
  3
ACAD_XREC_ROUNDTRIP
360
405
  0
DICTIONARY
  5
40C
330
36
100
AcDbDictionary
280
     1
281
     1
  3
ACAD_XREC_ROUNDTRIP
360
40D
  0
DICTIONARY
  5
414
330
3A
100
AcDbDictionary
280
     1
281
     1
  3
ACAD_XREC_ROUNDTRIP
360
415
  0
DICTIONARY
  5
408
330
34
100
AcDbDictionary
280
     1
281
     1
  3
ACAD_XREC_ROUNDTRIP
360
409
  0
DICTIONARY
  5
40A
330
35
100
AcDbDictionary
280
     1
281
     1
  3
ACAD_XREC_ROUNDTRIP
360
40B
  0
DICTIONARY
  5
41A
330
3D
100
AcDbDictionary
280
     1
281
     1
  3
ACAD_XREC_ROUNDTRIP
360
41B
  0
DICTIONARY
  5
412
330
39
100
AcDbDictionary
280
     1
281
     1
  3
ACAD_XREC_ROUNDTRIP
360
413
  0
DICTIONARY
  5
3F6
330
2B
100
AcDbDictionary
280
     1
281
     1
  3
ACAD_XREC_ROUNDTRIP
360
3F7
  0
DICTIONARY
  5
3F8
330
2C
100
AcDbDictionary
280
     1
281
     1
  3
ACAD_XREC_ROUNDTRIP
360
3F9
  0
DICTIONARY
  5
3FA
330
2D
100
AcDbDictionary
280
     1
281
     1
  3
ACAD_XREC_ROUNDTRIP
360
3FB
  0
DICTIONARY
  5
3FC
330
2E
100
AcDbDictionary
280
     1
281
     1
  3
ACAD_XREC_ROUNDTRIP
360
3FD
  0
DICTIONARY
  5
402
330
31
100
AcDbDictionary
280
     1
281
     1
  3
ACAD_XREC_ROUNDTRIP
360
403
  0
DICTIONARY
  5
416
330
3B
100
AcDbDictionary
280
     1
281
     1
  3
ACAD_XREC_ROUNDTRIP
360
417
  0
DICTIONARY
  5
410
330
38
100
AcDbDictionary
280
     1
281
     1
  3
ACAD_XREC_ROUNDTRIP
360
411
  0
DICTIONARY
  5
418
330
3C
100
AcDbDictionary
280
     1
281
     1
  3
ACAD_XREC_ROUNDTRIP
360
419
  0
DICTIONARY
  5
406
330
33
100
AcDbDictionary
280
     1
281
     1
  3
ACAD_XREC_ROUNDTRIP
360
407
  0
DICTIONARY
  5
424
330
42
100
AcDbDictionary
280
     1
281
     1
  3
ACAD_XREC_ROUNDTRIP
360
425
  0
DICTIONARY
  5
422
330
41
100
AcDbDictionary
280
     1
281
     1
  3
ACAD_XREC_ROUNDTRIP
360
423
  0
DICTIONARY
  5
41C
330
3E
100
AcDbDictionary
280
     1
281
     1
  3
ACAD_XREC_ROUNDTRIP
360
41D
  0
DICTIONARY
  5
41E
330
3F
100
AcDbDictionary
280
     1
281
     1
  3
ACAD_XREC_ROUNDTRIP
360
41F
  0
DICTIONARY
  5
40E
330
37
100
AcDbDictionary
280
     1
281
     1
  3
ACAD_XREC_ROUNDTRIP
360
40F
  0
DICTIONARY
  5
400
330
30
100
AcDbDictionary
280
     1
281
     1
  3
ACAD_XREC_ROUNDTRIP
360
401
  0
DICTIONARY
  5
420
330
40
100
AcDbDictionary
280
     1
281
     1
  3
ACAD_XREC_ROUNDTRIP
360
421
  0
XRECORD
  5
429
102
{ACAD_REACTORS
330
428
102
}
330
428
100
AcDbXrecord
280
     1
102
MATERIAL
148
0.0
149
0.0
149
0.0
 93
        0
 94
      127
282
     0
 72
     1
 77
     1
171
     1
175
     1
179
     1
273
     0
  0
XRECORD
  5
427
102
{ACAD_REACTORS
330
426
102
}
330
426
100
AcDbXrecord
280
     1
102
MATERIAL
148
0.0
149
0.0
149
0.0
 93
        0
 94
      127
282
     0
 72
     1
 77
     1
171
     1
175
     1
179
     1
273
     0
  0
XRECORD
  5
42B
102
{ACAD_REACTORS
330
42A
102
}
330
42A
100
AcDbXrecord
280
     1
102
MATERIAL
148
0.0
149
0.0
149
0.0
 93
        0
 94
      127
282
     0
 72
     1
 77
     1
171
     1
175
     1
179
     1
273
     0
  0
XRECORD
  5
3FF
102
{ACAD_REACTORS
330
3FE
102
}
330
3FE
100
AcDbXrecord
280
     1
102
RTVSPropertyOp0
 70
     1
102
RTVSPropertyOp1
 70
     1
102
RTVSPropertyOp2
 70
     1
102
RTVSPropertyOp3
 70
     1
102
RTVSPropertyOp4
 70
     1
102
RTVSPropertyOp5
 70
     1
102
RTVSPropertyOp6
 70
     1
102
RTVSPropertyOp7
 70
     1
102
RTVSPropertyOp8
 70
     1
102
RTVSPropertyOp9
 70
     1
102
RTVSPropertyOp10
 70
     1
102
RTVSPropertyOp11
 70
     1
102
RTVSPropertyOp12
 70
     1
102
RTVSPropertyOp13
 70
     1
102
RTVSPropertyOp14
 70
     1
102
RTVSPropertyOp15
 70
     1
102
RTVSPropertyOp16
 70
     1
102
RTVSPropertyOp17
 70
     1
102
RTVSPropertyOp18
 70
     1
102
RTVSPropertyOp19
 70
     1
102
RTVSPropertyOp20
 70
     1
102
RTVSPropertyOp21
 70
     1
102
RTVSPropertyOp22
 70
     1
102
RTVSPropertyOp23
 70
     1
102
RTVSPropertyOp24
 70
     1
102
RTVSPropertyOp25
 70
     1
102
RTVSPropertyOp26
 70
     1
102
RTVSPropertyOp27
 70
     1
102
RTVSPropertyOp28
 70
     1
102
RTVSPropertyOp29
 70
     1
102
RTVSPropertyOp30
 70
     1
102
RTVSPropertyOp31
 70
     1
102
RTVSPropertyOp32
 70
     1
102
RTVSPropertyOp33
 70
     1
102
RTVSPropertyOp34
 70
     1
102
RTVSPropertyOp35
 70
     1
102
RTVSPropertyOp36
 70
     1
102
RTVSPropertyOp37
 70
     1
102
RTVSPropertyOp38
 70
     1
102
RTVSPropertyOp39
 70
     1
102
RTVSPropertyOp40
 70
     1
102
RTVSPropertyOp41
 70
     1
102
RTVSPropertyOp42
 70
     1
102
RTVSPropertyOp43
 70
     1
102
RTVSPropertyOp44
 70
     1
102
RTVSPropertyOp45
 70
     1
102
RTVSPropertyOp46
 70
     1
102
RTVSPropertyOp47
 70
     1
102
RTVSPropertyOp48
 70
     1
102
RTVSPropertyOp49
 70
     1
102
RTVSPropertyOp50
 70
     1
102
RTVSPropertyOp51
 70
     0
102
RTVSPropertyOp52
 70
     0
102
RTVSPropertyOp53
 70
     1
102
RTVSPropertyOp54
 70
     1
102
RTVSPropertyOp55
 70
     1
102
RTVSPropertyOp56
 70
     1
102
RTVSPropertyOp57
 70
     1
102
RTVSPost2010Prop28
280
     1
102
RTVSPost2010PropOp28
 70
     1
102
RTVSPost2010Prop29
280
     1
102
RTVSPost2010PropOp29
 70
     1
102
RTVSPost2010Prop30
280
     0
102
RTVSPost2010PropOp30
 70
     1
102
RTVSPost2010Prop31
280
     0
102
RTVSPost2010PropOp31
 70
     1
102
RTVSPost2010Prop32
280
     0
102
RTVSPost2010PropOp32
 70
     1
102
RTVSPost2010Prop33
280
     0
102
RTVSPost2010PropOp33
 70
     1
102
RTVSPost2010Prop34
280
     0
102
RTVSPost2010PropOp34
 70
     1
102
RTVSPost2010Prop35
280
     0
102
RTVSPost2010PropOp35
 70
     1
102
RTVSPost2010Prop36
280
     0
102
RTVSPost2010PropOp36
 70
     1
102
RTVSPost2010Prop37
 90
       50
102
RTVSPost2010PropOp37
 70
     1
102
RTVSPost2010Prop38
140
0.0
102
RTVSPost2010PropOp38
 70
     1
102
RTVSPost2010Prop39
140
1.0
102
RTVSPost2010PropOp39
 70
     1
102
RTVSPost2010Prop40
 90
        0
102
RTVSPost2010PropOp40
 70
     1
102
RTVSPost2010Prop41ColorIndex
 90
       18
102
RTVSPost2010Prop41ColorRGB
 90
        0
102
RTVSPost2010PropOp41
 70
     1
102
RTVSPost2010Prop42
 90
       50
102
RTVSPost2010PropOp42
 70
     1
102
RTVSPost2010Prop43
 90
        3
102
RTVSPost2010PropOp43
 70
     1
102
RTVSPost2010Prop44ColorIndex
 90
        5
102
RTVSPost2010Prop44ColorRGB
 90
      255
102
RTVSPost2010PropOp44
 70
     1
102
RTVSPost2010Prop45
280
     0
102
RTVSPost2010PropOp45
 70
     1
102
RTVSPost2010Prop46
 90
       50
102
RTVSPost2010PropOp46
 70
     1
102
RTVSPost2010Prop47
 90
       50
102
RTVSPost2010PropOp47
 70
     1
102
RTVSPost2010Prop48
 90
       50
102
RTVSPost2010PropOp48
 70
     1
102
RTVSPost2010Prop49
280
     0
102
RTVSPost2010PropOp49
 70
     1
102
RTVSPost2010Prop50
 90
       50
102
RTVSPost2010PropOp50
 70
     1
102
RTVSPost2010Prop51ColorIndex
 90
      256
102
RTVSPost2010Prop51ColorRGB
 90
-16777216
102
RTVSPost2010PropOp51
 70
     0
102
RTVSPost2010Prop52
140
1.0
102
RTVSPost2010PropOp52
 70
     0
102
RTVSPost2010Prop53
 90
        2
102
RTVSPost2010PropOp53
 70
     1
102
RTVSPost2010Prop54
  1
strokes_ogs.tif
102
RTVSPost2010PropOp54
 70
     1
102
RTVSPost2010Prop55
280
     0
102
RTVSPost2010PropOp55
 70
     1
102
RTVSPost2010Prop56
140
1.0
102
RTVSPost2010PropOp56
 70
     1
102
RTVSPost2010Prop57
140
1.0
102
RTVSPost2010PropOp57
 70
     1
  0
XRECORD
  5
405
102
{ACAD_REACTORS
330
404
102
}
330
404
100
AcDbXrecord
280
     1
102
RTVSPropertyOp0
 70
     1
102
RTVSPropertyOp1
 70
     1
102
RTVSPropertyOp2
 70
     1
102
RTVSPropertyOp3
 70
     1
102
RTVSPropertyOp4
 70
     1
102
RTVSPropertyOp5
 70
     1
102
RTVSPropertyOp6
 70
     1
102
RTVSPropertyOp7
 70
     1
102
RTVSPropertyOp8
 70
     1
102
RTVSPropertyOp9
 70
     1
102
RTVSPropertyOp10
 70
     1
102
RTVSPropertyOp11
 70
     1
102
RTVSPropertyOp12
 70
     1
102
RTVSPropertyOp13
 70
     1
102
RTVSPropertyOp14
 70
     1
102
RTVSPropertyOp15
 70
     1
102
RTVSPropertyOp16
 70
     1
102
RTVSPropertyOp17
 70
     1
102
RTVSPropertyOp18
 70
     1
102
RTVSPropertyOp19
 70
     1
102
RTVSPropertyOp20
 70
     1
102
RTVSPropertyOp21
 70
     1
102
RTVSPropertyOp22
 70
     1
102
RTVSPropertyOp23
 70
     1
102
RTVSPropertyOp24
 70
     1
102
RTVSPropertyOp25
 70
     1
102
RTVSPropertyOp26
 70
     1
102
RTVSPropertyOp27
 70
     1
102
RTVSPropertyOp28
 70
     1
102
RTVSPropertyOp29
 70
     1
102
RTVSPropertyOp30
 70
     1
102
RTVSPropertyOp31
 70
     1
102
RTVSPropertyOp32
 70
     1
102
RTVSPropertyOp33
 70
     1
102
RTVSPropertyOp34
 70
     1
102
RTVSPropertyOp35
 70
     1
102
RTVSPropertyOp36
 70
     1
102
RTVSPropertyOp37
 70
     1
102
RTVSPropertyOp38
 70
     1
102
RTVSPropertyOp39
 70
     1
102
RTVSPropertyOp40
 70
     1
102
RTVSPropertyOp41
 70
     1
102
RTVSPropertyOp42
 70
     1
102
RTVSPropertyOp43
 70
     1
102
RTVSPropertyOp44
 70
     1
102
RTVSPropertyOp45
 70
     1
102
RTVSPropertyOp46
 70
     1
102
RTVSPropertyOp47
 70
     1
102
RTVSPropertyOp48
 70
     1
102
RTVSPropertyOp49
 70
     1
102
RTVSPropertyOp50
 70
     1
102
RTVSPropertyOp51
 70
     0
102
RTVSPropertyOp52
 70
     0
102
RTVSPropertyOp53
 70
     1
102
RTVSPropertyOp54
 70
     1
102
RTVSPropertyOp55
 70
     1
102
RTVSPropertyOp56
 70
     1
102
RTVSPropertyOp57
 70
     1
102
RTVSPost2010Prop28
280
     0
102
RTVSPost2010PropOp28
 70
     1
102
RTVSPost2010Prop29
280
     1
102
RTVSPost2010PropOp29
 70
     1
102
RTVSPost2010Prop30
280
     1
102
RTVSPost2010PropOp30
 70
     1
102
RTVSPost2010Prop31
280
     0
102
RTVSPost2010PropOp31
 70
     1
102
RTVSPost2010Prop32
280
     0
102
RTVSPost2010PropOp32
 70
     1
102
RTVSPost2010Prop33
280
     0
102
RTVSPost2010PropOp33
 70
     1
102
RTVSPost2010Prop34
280
     0
102
RTVSPost2010PropOp34
 70
     1
102
RTVSPost2010Prop35
280
     0
102
RTVSPost2010PropOp35
 70
     1
102
RTVSPost2010Prop36
280
     0
102
RTVSPost2010PropOp36
 70
     1
102
RTVSPost2010Prop37
 90
       50
102
RTVSPost2010PropOp37
 70
     1
102
RTVSPost2010Prop38
140
0.0
102
RTVSPost2010PropOp38
 70
     1
102
RTVSPost2010Prop39
140
1.0
102
RTVSPost2010PropOp39
 70
     1
102
RTVSPost2010Prop40
 90
        0
102
RTVSPost2010PropOp40
 70
     1
102
RTVSPost2010Prop41ColorIndex
 90
       18
102
RTVSPost2010Prop41ColorRGB
 90
        0
102
RTVSPost2010PropOp41
 70
     1
102
RTVSPost2010Prop42
 90
       50
102
RTVSPost2010PropOp42
 70
     1
102
RTVSPost2010Prop43
 90
        3
102
RTVSPost2010PropOp43
 70
     1
102
RTVSPost2010Prop44ColorIndex
 90
        5
102
RTVSPost2010Prop44ColorRGB
 90
      255
102
RTVSPost2010PropOp44
 70
     1
102
RTVSPost2010Prop45
280
     0
102
RTVSPost2010PropOp45
 70
     1
102
RTVSPost2010Prop46
 90
       50
102
RTVSPost2010PropOp46
 70
     1
102
RTVSPost2010Prop47
 90
       50
102
RTVSPost2010PropOp47
 70
     1
102
RTVSPost2010Prop48
 90
       50
102
RTVSPost2010PropOp48
 70
     1
102
RTVSPost2010Prop49
280
     0
102
RTVSPost2010PropOp49
 70
     1
102
RTVSPost2010Prop50
 90
       50
102
RTVSPost2010PropOp50
 70
     1
102
RTVSPost2010Prop51ColorIndex
 90
      256
102
RTVSPost2010Prop51ColorRGB
 90
-16777216
102
RTVSPost2010PropOp51
 70
     0
102
RTVSPost2010Prop52
140
1.0
102
RTVSPost2010PropOp52
 70
     0
102
RTVSPost2010Prop53
 90
        2
102
RTVSPost2010PropOp53
 70
     1
102
RTVSPost2010Prop54
  1
strokes_ogs.tif
102
RTVSPost2010PropOp54
 70
     1
102
RTVSPost2010Prop55
280
     0
102
RTVSPost2010PropOp55
 70
     1
102
RTVSPost2010Prop56
140
1.0
102
RTVSPost2010PropOp56
 70
     1
102
RTVSPost2010Prop57
140
1.0
102
RTVSPost2010PropOp57
 70
     1
  0
XRECORD
  5
40D
102
{ACAD_REACTORS
330
40C
102
}
330
40C
100
AcDbXrecord
280
     1
102
RTVSPropertyOp0
 70
     1
102
RTVSPropertyOp1
 70
     1
102
RTVSPropertyOp2
 70
     1
102
RTVSPropertyOp3
 70
     1
102
RTVSPropertyOp4
 70
     1
102
RTVSPropertyOp5
 70
     1
102
RTVSPropertyOp6
 70
     1
102
RTVSPropertyOp7
 70
     1
102
RTVSPropertyOp8
 70
     1
102
RTVSPropertyOp9
 70
     1
102
RTVSPropertyOp10
 70
     1
102
RTVSPropertyOp11
 70
     1
102
RTVSPropertyOp12
 70
     1
102
RTVSPropertyOp13
 70
     1
102
RTVSPropertyOp14
 70
     1
102
RTVSPropertyOp15
 70
     1
102
RTVSPropertyOp16
 70
     1
102
RTVSPropertyOp17
 70
     1
102
RTVSPropertyOp18
 70
     1
102
RTVSPropertyOp19
 70
     1
102
RTVSPropertyOp20
 70
     1
102
RTVSPropertyOp21
 70
     1
102
RTVSPropertyOp22
 70
     1
102
RTVSPropertyOp23
 70
     1
102
RTVSPropertyOp24
 70
     1
102
RTVSPropertyOp25
 70
     1
102
RTVSPropertyOp26
 70
     1
102
RTVSPropertyOp27
 70
     1
102
RTVSPropertyOp28
 70
     1
102
RTVSPropertyOp29
 70
     1
102
RTVSPropertyOp30
 70
     1
102
RTVSPropertyOp31
 70
     1
102
RTVSPropertyOp32
 70
     1
102
RTVSPropertyOp33
 70
     1
102
RTVSPropertyOp34
 70
     1
102
RTVSPropertyOp35
 70
     1
102
RTVSPropertyOp36
 70
     1
102
RTVSPropertyOp37
 70
     1
102
RTVSPropertyOp38
 70
     1
102
RTVSPropertyOp39
 70
     1
102
RTVSPropertyOp40
 70
     1
102
RTVSPropertyOp41
 70
     1
102
RTVSPropertyOp42
 70
     1
102
RTVSPropertyOp43
 70
     1
102
RTVSPropertyOp44
 70
     1
102
RTVSPropertyOp45
 70
     1
102
RTVSPropertyOp46
 70
     1
102
RTVSPropertyOp47
 70
     1
102
RTVSPropertyOp48
 70
     1
102
RTVSPropertyOp49
 70
     1
102
RTVSPropertyOp50
 70
     1
102
RTVSPropertyOp51
 70
     0
102
RTVSPropertyOp52
 70
     0
102
RTVSPropertyOp53
 70
     1
102
RTVSPropertyOp54
 70
     1
102
RTVSPropertyOp55
 70
     1
102
RTVSPropertyOp56
 70
     1
102
RTVSPropertyOp57
 70
     1
102
RTVSPost2010Prop28
280
     0
102
RTVSPost2010PropOp28
 70
     1
102
RTVSPost2010Prop29
280
     1
102
RTVSPost2010PropOp29
 70
     1
102
RTVSPost2010Prop30
280
     1
102
RTVSPost2010PropOp30
 70
     1
102
RTVSPost2010Prop31
280
     0
102
RTVSPost2010PropOp31
 70
     1
102
RTVSPost2010Prop32
280
     0
102
RTVSPost2010PropOp32
 70
     1
102
RTVSPost2010Prop33
280
     0
102
RTVSPost2010PropOp33
 70
     1
102
RTVSPost2010Prop34
280
     0
102
RTVSPost2010PropOp34
 70
     1
102
RTVSPost2010Prop35
280
     0
102
RTVSPost2010PropOp35
 70
     1
102
RTVSPost2010Prop36
280
     0
102
RTVSPost2010PropOp36
 70
     1
102
RTVSPost2010Prop37
 90
       50
102
RTVSPost2010PropOp37
 70
     1
102
RTVSPost2010Prop38
140
0.0
102
RTVSPost2010PropOp38
 70
     1
102
RTVSPost2010Prop39
140
1.0
102
RTVSPost2010PropOp39
 70
     1
102
RTVSPost2010Prop40
 90
        0
102
RTVSPost2010PropOp40
 70
     1
102
RTVSPost2010Prop41ColorIndex
 90
       18
102
RTVSPost2010Prop41ColorRGB
 90
        0
102
RTVSPost2010PropOp41
 70
     1
102
RTVSPost2010Prop42
 90
       50
102
RTVSPost2010PropOp42
 70
     1
102
RTVSPost2010Prop43
 90
        3
102
RTVSPost2010PropOp43
 70
     1
102
RTVSPost2010Prop44ColorIndex
 90
        5
102
RTVSPost2010Prop44ColorRGB
 90
      255
102
RTVSPost2010PropOp44
 70
     1
102
RTVSPost2010Prop45
280
     0
102
RTVSPost2010PropOp45
 70
     1
102
RTVSPost2010Prop46
 90
       50
102
RTVSPost2010PropOp46
 70
     1
102
RTVSPost2010Prop47
 90
       50
102
RTVSPost2010PropOp47
 70
     1
102
RTVSPost2010Prop48
 90
       50
102
RTVSPost2010PropOp48
 70
     1
102
RTVSPost2010Prop49
280
     0
102
RTVSPost2010PropOp49
 70
     1
102
RTVSPost2010Prop50
 90
       50
102
RTVSPost2010PropOp50
 70
     1
102
RTVSPost2010Prop51ColorIndex
 90
      256
102
RTVSPost2010Prop51ColorRGB
 90
-16777216
102
RTVSPost2010PropOp51
 70
     0
102
RTVSPost2010Prop52
140
1.0
102
RTVSPost2010PropOp52
 70
     0
102
RTVSPost2010Prop53
 90
        2
102
RTVSPost2010PropOp53
 70
     1
102
RTVSPost2010Prop54
  1
strokes_ogs.tif
102
RTVSPost2010PropOp54
 70
     1
102
RTVSPost2010Prop55
280
     0
102
RTVSPost2010PropOp55
 70
     1
102
RTVSPost2010Prop56
140
1.0
102
RTVSPost2010PropOp56
 70
     1
102
RTVSPost2010Prop57
140
1.0
102
RTVSPost2010PropOp57
 70
     1
  0
XRECORD
  5
415
102
{ACAD_REACTORS
330
414
102
}
330
414
100
AcDbXrecord
280
     1
102
RTVSPropertyOp0
 70
     1
102
RTVSPropertyOp1
 70
     1
102
RTVSPropertyOp2
 70
     1
102
RTVSPropertyOp3
 70
     1
102
RTVSPropertyOp4
 70
     1
102
RTVSPropertyOp5
 70
     1
102
RTVSPropertyOp6
 70
     1
102
RTVSPropertyOp7
 70
     1
102
RTVSPropertyOp8
 70
     1
102
RTVSPropertyOp9
 70
     1
102
RTVSPropertyOp10
 70
     1
102
RTVSPropertyOp11
 70
     1
102
RTVSPropertyOp12
 70
     1
102
RTVSPropertyOp13
 70
     1
102
RTVSPropertyOp14
 70
     1
102
RTVSPropertyOp15
 70
     1
102
RTVSPropertyOp16
 70
     1
102
RTVSPropertyOp17
 70
     1
102
RTVSPropertyOp18
 70
     1
102
RTVSPropertyOp19
 70
     1
102
RTVSPropertyOp20
 70
     1
102
RTVSPropertyOp21
 70
     1
102
RTVSPropertyOp22
 70
     1
102
RTVSPropertyOp23
 70
     1
102
RTVSPropertyOp24
 70
     1
102
RTVSPropertyOp25
 70
     1
102
RTVSPropertyOp26
 70
     1
102
RTVSPropertyOp27
 70
     1
102
RTVSPropertyOp28
 70
     1
102
RTVSPropertyOp29
 70
     1
102
RTVSPropertyOp30
 70
     1
102
RTVSPropertyOp31
 70
     1
102
RTVSPropertyOp32
 70
     1
102
RTVSPropertyOp33
 70
     1
102
RTVSPropertyOp34
 70
     1
102
RTVSPropertyOp35
 70
     1
102
RTVSPropertyOp36
 70
     1
102
RTVSPropertyOp37
 70
     1
102
RTVSPropertyOp38
 70
     1
102
RTVSPropertyOp39
 70
     1
102
RTVSPropertyOp40
 70
     1
102
RTVSPropertyOp41
 70
     1
102
RTVSPropertyOp42
 70
     1
102
RTVSPropertyOp43
 70
     1
102
RTVSPropertyOp44
 70
     1
102
RTVSPropertyOp45
 70
     1
102
RTVSPropertyOp46
 70
     1
102
RTVSPropertyOp47
 70
     1
102
RTVSPropertyOp48
 70
     1
102
RTVSPropertyOp49
 70
     1
102
RTVSPropertyOp50
 70
     1
102
RTVSPropertyOp51
 70
     0
102
RTVSPropertyOp52
 70
     0
102
RTVSPropertyOp53
 70
     1
102
RTVSPropertyOp54
 70
     1
102
RTVSPropertyOp55
 70
     1
102
RTVSPropertyOp56
 70
     1
102
RTVSPropertyOp57
 70
     1
102
RTVSPost2010Prop28
280
     0
102
RTVSPost2010PropOp28
 70
     1
102
RTVSPost2010Prop29
280
     1
102
RTVSPost2010PropOp29
 70
     1
102
RTVSPost2010Prop30
280
     1
102
RTVSPost2010PropOp30
 70
     1
102
RTVSPost2010Prop31
280
     0
102
RTVSPost2010PropOp31
 70
     1
102
RTVSPost2010Prop32
280
     0
102
RTVSPost2010PropOp32
 70
     1
102
RTVSPost2010Prop33
280
     0
102
RTVSPost2010PropOp33
 70
     1
102
RTVSPost2010Prop34
280
     0
102
RTVSPost2010PropOp34
 70
     1
102
RTVSPost2010Prop35
280
     0
102
RTVSPost2010PropOp35
 70
     1
102
RTVSPost2010Prop36
280
     0
102
RTVSPost2010PropOp36
 70
     1
102
RTVSPost2010Prop37
 90
       50
102
RTVSPost2010PropOp37
 70
     1
102
RTVSPost2010Prop38
140
0.0
102
RTVSPost2010PropOp38
 70
     1
102
RTVSPost2010Prop39
140
1.0
102
RTVSPost2010PropOp39
 70
     1
102
RTVSPost2010Prop40
 90
        0
102
RTVSPost2010PropOp40
 70
     1
102
RTVSPost2010Prop41ColorIndex
 90
       18
102
RTVSPost2010Prop41ColorRGB
 90
        0
102
RTVSPost2010PropOp41
 70
     1
102
RTVSPost2010Prop42
 90
       50
102
RTVSPost2010PropOp42
 70
     1
102
RTVSPost2010Prop43
 90
        3
102
RTVSPost2010PropOp43
 70
     1
102
RTVSPost2010Prop44ColorIndex
 90
        5
102
RTVSPost2010Prop44ColorRGB
 90
      255
102
RTVSPost2010PropOp44
 70
     1
102
RTVSPost2010Prop45
280
     0
102
RTVSPost2010PropOp45
 70
     1
102
RTVSPost2010Prop46
 90
       50
102
RTVSPost2010PropOp46
 70
     1
102
RTVSPost2010Prop47
 90
       50
102
RTVSPost2010PropOp47
 70
     1
102
RTVSPost2010Prop48
 90
       50
102
RTVSPost2010PropOp48
 70
     1
102
RTVSPost2010Prop49
280
     0
102
RTVSPost2010PropOp49
 70
     1
102
RTVSPost2010Prop50
 90
       50
102
RTVSPost2010PropOp50
 70
     1
102
RTVSPost2010Prop51ColorIndex
 90
      256
102
RTVSPost2010Prop51ColorRGB
 90
-16777216
102
RTVSPost2010PropOp51
 70
     0
102
RTVSPost2010Prop52
140
1.0
102
RTVSPost2010PropOp52
 70
     0
102
RTVSPost2010Prop53
 90
        2
102
RTVSPost2010PropOp53
 70
     1
102
RTVSPost2010Prop54
  1
strokes_ogs.tif
102
RTVSPost2010PropOp54
 70
     1
102
RTVSPost2010Prop55
280
     0
102
RTVSPost2010PropOp55
 70
     1
102
RTVSPost2010Prop56
140
1.0
102
RTVSPost2010PropOp56
 70
     1
102
RTVSPost2010Prop57
140
1.0
102
RTVSPost2010PropOp57
 70
     1
  0
XRECORD
  5
409
102
{ACAD_REACTORS
330
408
102
}
330
408
100
AcDbXrecord
280
     1
102
RTVSPropertyOp0
 70
     1
102
RTVSPropertyOp1
 70
     1
102
RTVSPropertyOp2
 70
     1
102
RTVSPropertyOp3
 70
     1
102
RTVSPropertyOp4
 70
     1
102
RTVSPropertyOp5
 70
     1
102
RTVSPropertyOp6
 70
     1
102
RTVSPropertyOp7
 70
     1
102
RTVSPropertyOp8
 70
     1
102
RTVSPropertyOp9
 70
     1
102
RTVSPropertyOp10
 70
     1
102
RTVSPropertyOp11
 70
     1
102
RTVSPropertyOp12
 70
     1
102
RTVSPropertyOp13
 70
     1
102
RTVSPropertyOp14
 70
     1
102
RTVSPropertyOp15
 70
     1
102
RTVSPropertyOp16
 70
     1
102
RTVSPropertyOp17
 70
     1
102
RTVSPropertyOp18
 70
     1
102
RTVSPropertyOp19
 70
     1
102
RTVSPropertyOp20
 70
     1
102
RTVSPropertyOp21
 70
     1
102
RTVSPropertyOp22
 70
     1
102
RTVSPropertyOp23
 70
     1
102
RTVSPropertyOp24
 70
     1
102
RTVSPropertyOp25
 70
     1
102
RTVSPropertyOp26
 70
     1
102
RTVSPropertyOp27
 70
     1
102
RTVSPropertyOp28
 70
     1
102
RTVSPropertyOp29
 70
     1
102
RTVSPropertyOp30
 70
     1
102
RTVSPropertyOp31
 70
     1
102
RTVSPropertyOp32
 70
     1
102
RTVSPropertyOp33
 70
     1
102
RTVSPropertyOp34
 70
     1
102
RTVSPropertyOp35
 70
     1
102
RTVSPropertyOp36
 70
     1
102
RTVSPropertyOp37
 70
     1
102
RTVSPropertyOp38
 70
     1
102
RTVSPropertyOp39
 70
     1
102
RTVSPropertyOp40
 70
     1
102
RTVSPropertyOp41
 70
     1
102
RTVSPropertyOp42
 70
     1
102
RTVSPropertyOp43
 70
     1
102
RTVSPropertyOp44
 70
     1
102
RTVSPropertyOp45
 70
     1
102
RTVSPropertyOp46
 70
     1
102
RTVSPropertyOp47
 70
     1
102
RTVSPropertyOp48
 70
     1
102
RTVSPropertyOp49
 70
     1
102
RTVSPropertyOp50
 70
     1
102
RTVSPropertyOp51
 70
     0
102
RTVSPropertyOp52
 70
     0
102
RTVSPropertyOp53
 70
     1
102
RTVSPropertyOp54
 70
     1
102
RTVSPropertyOp55
 70
     1
102
RTVSPropertyOp56
 70
     1
102
RTVSPropertyOp57
 70
     1
102
RTVSPost2010Prop28
280
     0
102
RTVSPost2010PropOp28
 70
     1
102
RTVSPost2010Prop29
280
     1
102
RTVSPost2010PropOp29
 70
     1
102
RTVSPost2010Prop30
280
     1
102
RTVSPost2010PropOp30
 70
     1
102
RTVSPost2010Prop31
280
     0
102
RTVSPost2010PropOp31
 70
     1
102
RTVSPost2010Prop32
280
     0
102
RTVSPost2010PropOp32
 70
     1
102
RTVSPost2010Prop33
280
     0
102
RTVSPost2010PropOp33
 70
     1
102
RTVSPost2010Prop34
280
     0
102
RTVSPost2010PropOp34
 70
     1
102
RTVSPost2010Prop35
280
     0
102
RTVSPost2010PropOp35
 70
     1
102
RTVSPost2010Prop36
280
     0
102
RTVSPost2010PropOp36
 70
     1
102
RTVSPost2010Prop37
 90
       50
102
RTVSPost2010PropOp37
 70
     1
102
RTVSPost2010Prop38
140
0.0
102
RTVSPost2010PropOp38
 70
     1
102
RTVSPost2010Prop39
140
1.0
102
RTVSPost2010PropOp39
 70
     1
102
RTVSPost2010Prop40
 90
        0
102
RTVSPost2010PropOp40
 70
     1
102
RTVSPost2010Prop41ColorIndex
 90
       18
102
RTVSPost2010Prop41ColorRGB
 90
        0
102
RTVSPost2010PropOp41
 70
     1
102
RTVSPost2010Prop42
 90
       50
102
RTVSPost2010PropOp42
 70
     1
102
RTVSPost2010Prop43
 90
        3
102
RTVSPost2010PropOp43
 70
     1
102
RTVSPost2010Prop44ColorIndex
 90
        5
102
RTVSPost2010Prop44ColorRGB
 90
      255
102
RTVSPost2010PropOp44
 70
     1
102
RTVSPost2010Prop45
280
     0
102
RTVSPost2010PropOp45
 70
     1
102
RTVSPost2010Prop46
 90
       50
102
RTVSPost2010PropOp46
 70
     1
102
RTVSPost2010Prop47
 90
       50
102
RTVSPost2010PropOp47
 70
     1
102
RTVSPost2010Prop48
 90
       50
102
RTVSPost2010PropOp48
 70
     1
102
RTVSPost2010Prop49
280
     0
102
RTVSPost2010PropOp49
 70
     1
102
RTVSPost2010Prop50
 90
       50
102
RTVSPost2010PropOp50
 70
     1
102
RTVSPost2010Prop51ColorIndex
 90
      256
102
RTVSPost2010Prop51ColorRGB
 90
-16777216
102
RTVSPost2010PropOp51
 70
     0
102
RTVSPost2010Prop52
140
1.0
102
RTVSPost2010PropOp52
 70
     0
102
RTVSPost2010Prop53
 90
        2
102
RTVSPost2010PropOp53
 70
     1
102
RTVSPost2010Prop54
  1
strokes_ogs.tif
102
RTVSPost2010PropOp54
 70
     1
102
RTVSPost2010Prop55
280
     0
102
RTVSPost2010PropOp55
 70
     1
102
RTVSPost2010Prop56
140
1.0
102
RTVSPost2010PropOp56
 70
     1
102
RTVSPost2010Prop57
140
1.0
102
RTVSPost2010PropOp57
 70
     1
  0
XRECORD
  5
40B
102
{ACAD_REACTORS
330
40A
102
}
330
40A
100
AcDbXrecord
280
     1
102
RTVSPropertyOp0
 70
     1
102
RTVSPropertyOp1
 70
     1
102
RTVSPropertyOp2
 70
     1
102
RTVSPropertyOp3
 70
     1
102
RTVSPropertyOp4
 70
     1
102
RTVSPropertyOp5
 70
     1
102
RTVSPropertyOp6
 70
     1
102
RTVSPropertyOp7
 70
     1
102
RTVSPropertyOp8
 70
     1
102
RTVSPropertyOp9
 70
     1
102
RTVSPropertyOp10
 70
     1
102
RTVSPropertyOp11
 70
     1
102
RTVSPropertyOp12
 70
     1
102
RTVSPropertyOp13
 70
     1
102
RTVSPropertyOp14
 70
     1
102
RTVSPropertyOp15
 70
     1
102
RTVSPropertyOp16
 70
     1
102
RTVSPropertyOp17
 70
     1
102
RTVSPropertyOp18
 70
     1
102
RTVSPropertyOp19
 70
     1
102
RTVSPropertyOp20
 70
     1
102
RTVSPropertyOp21
 70
     1
102
RTVSPropertyOp22
 70
     1
102
RTVSPropertyOp23
 70
     1
102
RTVSPropertyOp24
 70
     1
102
RTVSPropertyOp25
 70
     1
102
RTVSPropertyOp26
 70
     1
102
RTVSPropertyOp27
 70
     1
102
RTVSPropertyOp28
 70
     1
102
RTVSPropertyOp29
 70
     1
102
RTVSPropertyOp30
 70
     1
102
RTVSPropertyOp31
 70
     1
102
RTVSPropertyOp32
 70
     1
102
RTVSPropertyOp33
 70
     1
102
RTVSPropertyOp34
 70
     1
102
RTVSPropertyOp35
 70
     1
102
RTVSPropertyOp36
 70
     1
102
RTVSPropertyOp37
 70
     1
102
RTVSPropertyOp38
 70
     1
102
RTVSPropertyOp39
 70
     1
102
RTVSPropertyOp40
 70
     1
102
RTVSPropertyOp41
 70
     1
102
RTVSPropertyOp42
 70
     1
102
RTVSPropertyOp43
 70
     1
102
RTVSPropertyOp44
 70
     1
102
RTVSPropertyOp45
 70
     1
102
RTVSPropertyOp46
 70
     1
102
RTVSPropertyOp47
 70
     1
102
RTVSPropertyOp48
 70
     1
102
RTVSPropertyOp49
 70
     1
102
RTVSPropertyOp50
 70
     1
102
RTVSPropertyOp51
 70
     0
102
RTVSPropertyOp52
 70
     0
102
RTVSPropertyOp53
 70
     1
102
RTVSPropertyOp54
 70
     1
102
RTVSPropertyOp55
 70
     1
102
RTVSPropertyOp56
 70
     1
102
RTVSPropertyOp57
 70
     1
102
RTVSPost2010Prop28
280
     0
102
RTVSPost2010PropOp28
 70
     1
102
RTVSPost2010Prop29
280
     1
102
RTVSPost2010PropOp29
 70
     1
102
RTVSPost2010Prop30
280
     1
102
RTVSPost2010PropOp30
 70
     1
102
RTVSPost2010Prop31
280
     0
102
RTVSPost2010PropOp31
 70
     1
102
RTVSPost2010Prop32
280
     0
102
RTVSPost2010PropOp32
 70
     1
102
RTVSPost2010Prop33
280
     0
102
RTVSPost2010PropOp33
 70
     1
102
RTVSPost2010Prop34
280
     0
102
RTVSPost2010PropOp34
 70
     1
102
RTVSPost2010Prop35
280
     0
102
RTVSPost2010PropOp35
 70
     1
102
RTVSPost2010Prop36
280
     0
102
RTVSPost2010PropOp36
 70
     1
102
RTVSPost2010Prop37
 90
       50
102
RTVSPost2010PropOp37
 70
     1
102
RTVSPost2010Prop38
140
0.0
102
RTVSPost2010PropOp38
 70
     1
102
RTVSPost2010Prop39
140
1.0
102
RTVSPost2010PropOp39
 70
     1
102
RTVSPost2010Prop40
 90
        0
102
RTVSPost2010PropOp40
 70
     1
102
RTVSPost2010Prop41ColorIndex
 90
       18
102
RTVSPost2010Prop41ColorRGB
 90
        0
102
RTVSPost2010PropOp41
 70
     1
102
RTVSPost2010Prop42
 90
       50
102
RTVSPost2010PropOp42
 70
     1
102
RTVSPost2010Prop43
 90
        3
102
RTVSPost2010PropOp43
 70
     1
102
RTVSPost2010Prop44ColorIndex
 90
        5
102
RTVSPost2010Prop44ColorRGB
 90
      255
102
RTVSPost2010PropOp44
 70
     1
102
RTVSPost2010Prop45
280
     0
102
RTVSPost2010PropOp45
 70
     1
102
RTVSPost2010Prop46
 90
       50
102
RTVSPost2010PropOp46
 70
     1
102
RTVSPost2010Prop47
 90
       50
102
RTVSPost2010PropOp47
 70
     1
102
RTVSPost2010Prop48
 90
       50
102
RTVSPost2010PropOp48
 70
     1
102
RTVSPost2010Prop49
280
     0
102
RTVSPost2010PropOp49
 70
     1
102
RTVSPost2010Prop50
 90
       50
102
RTVSPost2010PropOp50
 70
     1
102
RTVSPost2010Prop51ColorIndex
 90
      256
102
RTVSPost2010Prop51ColorRGB
 90
-16777216
102
RTVSPost2010PropOp51
 70
     0
102
RTVSPost2010Prop52
140
1.0
102
RTVSPost2010PropOp52
 70
     0
102
RTVSPost2010Prop53
 90
        2
102
RTVSPost2010PropOp53
 70
     1
102
RTVSPost2010Prop54
  1
strokes_ogs.tif
102
RTVSPost2010PropOp54
 70
     1
102
RTVSPost2010Prop55
280
     0
102
RTVSPost2010PropOp55
 70
     1
102
RTVSPost2010Prop56
140
1.0
102
RTVSPost2010PropOp56
 70
     1
102
RTVSPost2010Prop57
140
1.0
102
RTVSPost2010PropOp57
 70
     1
  0
XRECORD
  5
41B
102
{ACAD_REACTORS
330
41A
102
}
330
41A
100
AcDbXrecord
280
     1
102
RTVSPropertyOp0
 70
     0
102
RTVSPropertyOp1
 70
     0
102
RTVSPropertyOp2
 70
     0
102
RTVSPropertyOp3
 70
     0
102
RTVSPropertyOp4
 70
     0
102
RTVSPropertyOp5
 70
     0
102
RTVSPropertyOp6
 70
     0
102
RTVSPropertyOp7
 70
     0
102
RTVSPropertyOp8
 70
     0
102
RTVSPropertyOp9
 70
     0
102
RTVSPropertyOp10
 70
     0
102
RTVSPropertyOp11
 70
     0
102
RTVSPropertyOp12
 70
     0
102
RTVSPropertyOp13
 70
     0
102
RTVSPropertyOp14
 70
     2
102
RTVSPropertyOp15
 70
     0
102
RTVSPropertyOp16
 70
     0
102
RTVSPropertyOp17
 70
     0
102
RTVSPropertyOp18
 70
     0
102
RTVSPropertyOp19
 70
     0
102
RTVSPropertyOp20
 70
     0
102
RTVSPropertyOp21
 70
     0
102
RTVSPropertyOp22
 70
     0
102
RTVSPropertyOp23
 70
     0
102
RTVSPropertyOp24
 70
     0
102
RTVSPropertyOp25
 70
     0
102
RTVSPropertyOp26
 70
     0
102
RTVSPropertyOp27
 70
     0
102
RTVSPropertyOp28
 70
     0
102
RTVSPropertyOp29
 70
     0
102
RTVSPropertyOp30
 70
     0
102
RTVSPropertyOp31
 70
     0
102
RTVSPropertyOp32
 70
     0
102
RTVSPropertyOp33
 70
     0
102
RTVSPropertyOp34
 70
     0
102
RTVSPropertyOp35
 70
     0
102
RTVSPropertyOp36
 70
     0
102
RTVSPropertyOp37
 70
     0
102
RTVSPropertyOp38
 70
     0
102
RTVSPropertyOp39
 70
     0
102
RTVSPropertyOp40
 70
     0
102
RTVSPropertyOp41
 70
     0
102
RTVSPropertyOp42
 70
     0
102
RTVSPropertyOp43
 70
     0
102
RTVSPropertyOp44
 70
     0
102
RTVSPropertyOp45
 70
     0
102
RTVSPropertyOp46
 70
     0
102
RTVSPropertyOp47
 70
     0
102
RTVSPropertyOp48
 70
     0
102
RTVSPropertyOp49
 70
     0
102
RTVSPropertyOp50
 70
     0
102
RTVSPropertyOp51
 70
     0
102
RTVSPropertyOp52
 70
     0
102
RTVSPropertyOp53
 70
     0
102
RTVSPropertyOp54
 70
     0
102
RTVSPropertyOp55
 70
     0
102
RTVSPropertyOp56
 70
     0
102
RTVSPropertyOp57
 70
     0
102
RTVSPost2010Prop28
280
     0
102
RTVSPost2010PropOp28
 70
     0
102
RTVSPost2010Prop29
280
     1
102
RTVSPost2010PropOp29
 70
     0
102
RTVSPost2010Prop30
280
     1
102
RTVSPost2010PropOp30
 70
     0
102
RTVSPost2010Prop31
280
     0
102
RTVSPost2010PropOp31
 70
     0
102
RTVSPost2010Prop32
280
     0
102
RTVSPost2010PropOp32
 70
     0
102
RTVSPost2010Prop33
280
     0
102
RTVSPost2010PropOp33
 70
     0
102
RTVSPost2010Prop34
280
     0
102
RTVSPost2010PropOp34
 70
     0
102
RTVSPost2010Prop35
280
     0
102
RTVSPost2010PropOp35
 70
     0
102
RTVSPost2010Prop36
280
     0
102
RTVSPost2010PropOp36
 70
     0
102
RTVSPost2010Prop37
 90
       50
102
RTVSPost2010PropOp37
 70
     0
102
RTVSPost2010Prop38
140
0.0
102
RTVSPost2010PropOp38
 70
     0
102
RTVSPost2010Prop39
140
1.0
102
RTVSPost2010PropOp39
 70
     0
102
RTVSPost2010Prop40
 90
        0
102
RTVSPost2010PropOp40
 70
     0
102
RTVSPost2010Prop41ColorIndex
 90
       18
102
RTVSPost2010Prop41ColorRGB
 90
        0
102
RTVSPost2010PropOp41
 70
     0
102
RTVSPost2010Prop42
 90
       50
102
RTVSPost2010PropOp42
 70
     0
102
RTVSPost2010Prop43
 90
        3
102
RTVSPost2010PropOp43
 70
     0
102
RTVSPost2010Prop44ColorIndex
 90
        5
102
RTVSPost2010Prop44ColorRGB
 90
      255
102
RTVSPost2010PropOp44
 70
     0
102
RTVSPost2010Prop45
280
     0
102
RTVSPost2010PropOp45
 70
     0
102
RTVSPost2010Prop46
 90
       50
102
RTVSPost2010PropOp46
 70
     0
102
RTVSPost2010Prop47
 90
       50
102
RTVSPost2010PropOp47
 70
     0
102
RTVSPost2010Prop48
 90
       50
102
RTVSPost2010PropOp48
 70
     0
102
RTVSPost2010Prop49
280
     0
102
RTVSPost2010PropOp49
 70
     0
102
RTVSPost2010Prop50
 90
       50
102
RTVSPost2010PropOp50
 70
     0
102
RTVSPost2010Prop51ColorIndex
 90
      256
102
RTVSPost2010Prop51ColorRGB
 90
-16777216
102
RTVSPost2010PropOp51
 70
     0
102
RTVSPost2010Prop52
140
1.0
102
RTVSPost2010PropOp52
 70
     0
102
RTVSPost2010Prop53
 90
        2
102
RTVSPost2010PropOp53
 70
     0
102
RTVSPost2010Prop54
  1
strokes_ogs.tif
102
RTVSPost2010PropOp54
 70
     0
102
RTVSPost2010Prop55
280
     0
102
RTVSPost2010PropOp55
 70
     0
102
RTVSPost2010Prop56
140
1.0
102
RTVSPost2010PropOp56
 70
     0
102
RTVSPost2010Prop57
140
1.0
102
RTVSPost2010PropOp57
 70
     0
  0
XRECORD
  5
413
102
{ACAD_REACTORS
330
412
102
}
330
412
100
AcDbXrecord
280
     1
102
RTVSPropertyOp0
 70
     1
102
RTVSPropertyOp1
 70
     1
102
RTVSPropertyOp2
 70
     1
102
RTVSPropertyOp3
 70
     1
102
RTVSPropertyOp4
 70
     1
102
RTVSPropertyOp5
 70
     1
102
RTVSPropertyOp6
 70
     1
102
RTVSPropertyOp7
 70
     1
102
RTVSPropertyOp8
 70
     1
102
RTVSPropertyOp9
 70
     1
102
RTVSPropertyOp10
 70
     1
102
RTVSPropertyOp11
 70
     1
102
RTVSPropertyOp12
 70
     1
102
RTVSPropertyOp13
 70
     1
102
RTVSPropertyOp14
 70
     1
102
RTVSPropertyOp15
 70
     1
102
RTVSPropertyOp16
 70
     1
102
RTVSPropertyOp17
 70
     1
102
RTVSPropertyOp18
 70
     1
102
RTVSPropertyOp19
 70
     1
102
RTVSPropertyOp20
 70
     1
102
RTVSPropertyOp21
 70
     1
102
RTVSPropertyOp22
 70
     1
102
RTVSPropertyOp23
 70
     1
102
RTVSPropertyOp24
 70
     1
102
RTVSPropertyOp25
 70
     1
102
RTVSPropertyOp26
 70
     1
102
RTVSPropertyOp27
 70
     1
102
RTVSPropertyOp28
 70
     1
102
RTVSPropertyOp29
 70
     1
102
RTVSPropertyOp30
 70
     1
102
RTVSPropertyOp31
 70
     1
102
RTVSPropertyOp32
 70
     1
102
RTVSPropertyOp33
 70
     1
102
RTVSPropertyOp34
 70
     1
102
RTVSPropertyOp35
 70
     1
102
RTVSPropertyOp36
 70
     1
102
RTVSPropertyOp37
 70
     1
102
RTVSPropertyOp38
 70
     1
102
RTVSPropertyOp39
 70
     1
102
RTVSPropertyOp40
 70
     1
102
RTVSPropertyOp41
 70
     1
102
RTVSPropertyOp42
 70
     1
102
RTVSPropertyOp43
 70
     1
102
RTVSPropertyOp44
 70
     1
102
RTVSPropertyOp45
 70
     1
102
RTVSPropertyOp46
 70
     1
102
RTVSPropertyOp47
 70
     1
102
RTVSPropertyOp48
 70
     1
102
RTVSPropertyOp49
 70
     1
102
RTVSPropertyOp50
 70
     1
102
RTVSPropertyOp51
 70
     0
102
RTVSPropertyOp52
 70
     0
102
RTVSPropertyOp53
 70
     1
102
RTVSPropertyOp54
 70
     1
102
RTVSPropertyOp55
 70
     1
102
RTVSPropertyOp56
 70
     1
102
RTVSPropertyOp57
 70
     1
102
RTVSPost2010Prop28
280
     0
102
RTVSPost2010PropOp28
 70
     1
102
RTVSPost2010Prop29
280
     1
102
RTVSPost2010PropOp29
 70
     1
102
RTVSPost2010Prop30
280
     1
102
RTVSPost2010PropOp30
 70
     1
102
RTVSPost2010Prop31
280
     0
102
RTVSPost2010PropOp31
 70
     1
102
RTVSPost2010Prop32
280
     0
102
RTVSPost2010PropOp32
 70
     1
102
RTVSPost2010Prop33
280
     0
102
RTVSPost2010PropOp33
 70
     1
102
RTVSPost2010Prop34
280
     0
102
RTVSPost2010PropOp34
 70
     1
102
RTVSPost2010Prop35
280
     0
102
RTVSPost2010PropOp35
 70
     1
102
RTVSPost2010Prop36
280
     0
102
RTVSPost2010PropOp36
 70
     1
102
RTVSPost2010Prop37
 90
       50
102
RTVSPost2010PropOp37
 70
     1
102
RTVSPost2010Prop38
140
0.0
102
RTVSPost2010PropOp38
 70
     1
102
RTVSPost2010Prop39
140
1.0
102
RTVSPost2010PropOp39
 70
     1
102
RTVSPost2010Prop40
 90
        0
102
RTVSPost2010PropOp40
 70
     1
102
RTVSPost2010Prop41ColorIndex
 90
       18
102
RTVSPost2010Prop41ColorRGB
 90
        0
102
RTVSPost2010PropOp41
 70
     1
102
RTVSPost2010Prop42
 90
       50
102
RTVSPost2010PropOp42
 70
     1
102
RTVSPost2010Prop43
 90
        3
102
RTVSPost2010PropOp43
 70
     1
102
RTVSPost2010Prop44ColorIndex
 90
        5
102
RTVSPost2010Prop44ColorRGB
 90
      255
102
RTVSPost2010PropOp44
 70
     1
102
RTVSPost2010Prop45
280
     0
102
RTVSPost2010PropOp45
 70
     1
102
RTVSPost2010Prop46
 90
       50
102
RTVSPost2010PropOp46
 70
     1
102
RTVSPost2010Prop47
 90
       50
102
RTVSPost2010PropOp47
 70
     1
102
RTVSPost2010Prop48
 90
       50
102
RTVSPost2010PropOp48
 70
     1
102
RTVSPost2010Prop49
280
     0
102
RTVSPost2010PropOp49
 70
     1
102
RTVSPost2010Prop50
 90
       50
102
RTVSPost2010PropOp50
 70
     1
102
RTVSPost2010Prop51ColorIndex
 90
      256
102
RTVSPost2010Prop51ColorRGB
 90
-16777216
102
RTVSPost2010PropOp51
 70
     0
102
RTVSPost2010Prop52
140
1.0
102
RTVSPost2010PropOp52
 70
     0
102
RTVSPost2010Prop53
 90
        2
102
RTVSPost2010PropOp53
 70
     1
102
RTVSPost2010Prop54
  1
strokes_ogs.tif
102
RTVSPost2010PropOp54
 70
     1
102
RTVSPost2010Prop55
280
     0
102
RTVSPost2010PropOp55
 70
     1
102
RTVSPost2010Prop56
140
1.0
102
RTVSPost2010PropOp56
 70
     1
102
RTVSPost2010Prop57
140
1.0
102
RTVSPost2010PropOp57
 70
     1
  0
XRECORD
  5
3F7
102
{ACAD_REACTORS
330
3F6
102
}
330
3F6
100
AcDbXrecord
280
     1
102
RTVSPropertyOp0
 70
     1
102
RTVSPropertyOp1
 70
     1
102
RTVSPropertyOp2
 70
     1
102
RTVSPropertyOp3
 70
     1
102
RTVSPropertyOp4
 70
     1
102
RTVSPropertyOp5
 70
     1
102
RTVSPropertyOp6
 70
     1
102
RTVSPropertyOp7
 70
     1
102
RTVSPropertyOp8
 70
     1
102
RTVSPropertyOp9
 70
     1
102
RTVSPropertyOp10
 70
     1
102
RTVSPropertyOp11
 70
     1
102
RTVSPropertyOp12
 70
     1
102
RTVSPropertyOp13
 70
     1
102
RTVSPropertyOp14
 70
     1
102
RTVSPropertyOp15
 70
     1
102
RTVSPropertyOp16
 70
     1
102
RTVSPropertyOp17
 70
     1
102
RTVSPropertyOp18
 70
     1
102
RTVSPropertyOp19
 70
     1
102
RTVSPropertyOp20
 70
     1
102
RTVSPropertyOp21
 70
     1
102
RTVSPropertyOp22
 70
     1
102
RTVSPropertyOp23
 70
     1
102
RTVSPropertyOp24
 70
     1
102
RTVSPropertyOp25
 70
     1
102
RTVSPropertyOp26
 70
     1
102
RTVSPropertyOp27
 70
     1
102
RTVSPropertyOp28
 70
     1
102
RTVSPropertyOp29
 70
     1
102
RTVSPropertyOp30
 70
     1
102
RTVSPropertyOp31
 70
     1
102
RTVSPropertyOp32
 70
     1
102
RTVSPropertyOp33
 70
     1
102
RTVSPropertyOp34
 70
     1
102
RTVSPropertyOp35
 70
     1
102
RTVSPropertyOp36
 70
     1
102
RTVSPropertyOp37
 70
     1
102
RTVSPropertyOp38
 70
     1
102
RTVSPropertyOp39
 70
     1
102
RTVSPropertyOp40
 70
     1
102
RTVSPropertyOp41
 70
     1
102
RTVSPropertyOp42
 70
     1
102
RTVSPropertyOp43
 70
     1
102
RTVSPropertyOp44
 70
     1
102
RTVSPropertyOp45
 70
     1
102
RTVSPropertyOp46
 70
     1
102
RTVSPropertyOp47
 70
     1
102
RTVSPropertyOp48
 70
     1
102
RTVSPropertyOp49
 70
     1
102
RTVSPropertyOp50
 70
     1
102
RTVSPropertyOp51
 70
     0
102
RTVSPropertyOp52
 70
     0
102
RTVSPropertyOp53
 70
     1
102
RTVSPropertyOp54
 70
     1
102
RTVSPropertyOp55
 70
     1
102
RTVSPropertyOp56
 70
     1
102
RTVSPropertyOp57
 70
     1
102
RTVSPost2010Prop28
280
     0
102
RTVSPost2010PropOp28
 70
     1
102
RTVSPost2010Prop29
280
     1
102
RTVSPost2010PropOp29
 70
     1
102
RTVSPost2010Prop30
280
     1
102
RTVSPost2010PropOp30
 70
     1
102
RTVSPost2010Prop31
280
     0
102
RTVSPost2010PropOp31
 70
     1
102
RTVSPost2010Prop32
280
     0
102
RTVSPost2010PropOp32
 70
     1
102
RTVSPost2010Prop33
280
     0
102
RTVSPost2010PropOp33
 70
     1
102
RTVSPost2010Prop34
280
     0
102
RTVSPost2010PropOp34
 70
     1
102
RTVSPost2010Prop35
280
     0
102
RTVSPost2010PropOp35
 70
     1
102
RTVSPost2010Prop36
280
     0
102
RTVSPost2010PropOp36
 70
     1
102
RTVSPost2010Prop37
 90
       50
102
RTVSPost2010PropOp37
 70
     1
102
RTVSPost2010Prop38
140
0.0
102
RTVSPost2010PropOp38
 70
     1
102
RTVSPost2010Prop39
140
1.0
102
RTVSPost2010PropOp39
 70
     1
102
RTVSPost2010Prop40
 90
        0
102
RTVSPost2010PropOp40
 70
     1
102
RTVSPost2010Prop41ColorIndex
 90
       18
102
RTVSPost2010Prop41ColorRGB
 90
        0
102
RTVSPost2010PropOp41
 70
     1
102
RTVSPost2010Prop42
 90
       50
102
RTVSPost2010PropOp42
 70
     1
102
RTVSPost2010Prop43
 90
        3
102
RTVSPost2010PropOp43
 70
     1
102
RTVSPost2010Prop44ColorIndex
 90
        5
102
RTVSPost2010Prop44ColorRGB
 90
      255
102
RTVSPost2010PropOp44
 70
     1
102
RTVSPost2010Prop45
280
     0
102
RTVSPost2010PropOp45
 70
     1
102
RTVSPost2010Prop46
 90
       50
102
RTVSPost2010PropOp46
 70
     1
102
RTVSPost2010Prop47
 90
       50
102
RTVSPost2010PropOp47
 70
     1
102
RTVSPost2010Prop48
 90
       50
102
RTVSPost2010PropOp48
 70
     1
102
RTVSPost2010Prop49
280
     0
102
RTVSPost2010PropOp49
 70
     1
102
RTVSPost2010Prop50
 90
       50
102
RTVSPost2010PropOp50
 70
     1
102
RTVSPost2010Prop51ColorIndex
 90
      256
102
RTVSPost2010Prop51ColorRGB
 90
-16777216
102
RTVSPost2010PropOp51
 70
     0
102
RTVSPost2010Prop52
140
1.0
102
RTVSPost2010PropOp52
 70
     0
102
RTVSPost2010Prop53
 90
        2
102
RTVSPost2010PropOp53
 70
     1
102
RTVSPost2010Prop54
  1
strokes_ogs.tif
102
RTVSPost2010PropOp54
 70
     1
102
RTVSPost2010Prop55
280
     0
102
RTVSPost2010PropOp55
 70
     1
102
RTVSPost2010Prop56
140
1.0
102
RTVSPost2010PropOp56
 70
     1
102
RTVSPost2010Prop57
140
1.0
102
RTVSPost2010PropOp57
 70
     1
  0
XRECORD
  5
3F9
102
{ACAD_REACTORS
330
3F8
102
}
330
3F8
100
AcDbXrecord
280
     1
102
RTVSPropertyOp0
 70
     1
102
RTVSPropertyOp1
 70
     1
102
RTVSPropertyOp2
 70
     1
102
RTVSPropertyOp3
 70
     1
102
RTVSPropertyOp4
 70
     1
102
RTVSPropertyOp5
 70
     1
102
RTVSPropertyOp6
 70
     1
102
RTVSPropertyOp7
 70
     1
102
RTVSPropertyOp8
 70
     1
102
RTVSPropertyOp9
 70
     1
102
RTVSPropertyOp10
 70
     1
102
RTVSPropertyOp11
 70
     1
102
RTVSPropertyOp12
 70
     1
102
RTVSPropertyOp13
 70
     1
102
RTVSPropertyOp14
 70
     1
102
RTVSPropertyOp15
 70
     1
102
RTVSPropertyOp16
 70
     1
102
RTVSPropertyOp17
 70
     1
102
RTVSPropertyOp18
 70
     1
102
RTVSPropertyOp19
 70
     1
102
RTVSPropertyOp20
 70
     1
102
RTVSPropertyOp21
 70
     1
102
RTVSPropertyOp22
 70
     1
102
RTVSPropertyOp23
 70
     1
102
RTVSPropertyOp24
 70
     1
102
RTVSPropertyOp25
 70
     1
102
RTVSPropertyOp26
 70
     1
102
RTVSPropertyOp27
 70
     1
102
RTVSPropertyOp28
 70
     1
102
RTVSPropertyOp29
 70
     1
102
RTVSPropertyOp30
 70
     1
102
RTVSPropertyOp31
 70
     1
102
RTVSPropertyOp32
 70
     1
102
RTVSPropertyOp33
 70
     1
102
RTVSPropertyOp34
 70
     1
102
RTVSPropertyOp35
 70
     1
102
RTVSPropertyOp36
 70
     1
102
RTVSPropertyOp37
 70
     1
102
RTVSPropertyOp38
 70
     1
102
RTVSPropertyOp39
 70
     1
102
RTVSPropertyOp40
 70
     1
102
RTVSPropertyOp41
 70
     1
102
RTVSPropertyOp42
 70
     1
102
RTVSPropertyOp43
 70
     1
102
RTVSPropertyOp44
 70
     1
102
RTVSPropertyOp45
 70
     1
102
RTVSPropertyOp46
 70
     1
102
RTVSPropertyOp47
 70
     1
102
RTVSPropertyOp48
 70
     1
102
RTVSPropertyOp49
 70
     1
102
RTVSPropertyOp50
 70
     1
102
RTVSPropertyOp51
 70
     0
102
RTVSPropertyOp52
 70
     0
102
RTVSPropertyOp53
 70
     1
102
RTVSPropertyOp54
 70
     1
102
RTVSPropertyOp55
 70
     1
102
RTVSPropertyOp56
 70
     1
102
RTVSPropertyOp57
 70
     1
102
RTVSPost2010Prop28
280
     0
102
RTVSPost2010PropOp28
 70
     1
102
RTVSPost2010Prop29
280
     1
102
RTVSPost2010PropOp29
 70
     1
102
RTVSPost2010Prop30
280
     1
102
RTVSPost2010PropOp30
 70
     1
102
RTVSPost2010Prop31
280
     0
102
RTVSPost2010PropOp31
 70
     1
102
RTVSPost2010Prop32
280
     0
102
RTVSPost2010PropOp32
 70
     1
102
RTVSPost2010Prop33
280
     0
102
RTVSPost2010PropOp33
 70
     1
102
RTVSPost2010Prop34
280
     0
102
RTVSPost2010PropOp34
 70
     1
102
RTVSPost2010Prop35
280
     0
102
RTVSPost2010PropOp35
 70
     1
102
RTVSPost2010Prop36
280
     0
102
RTVSPost2010PropOp36
 70
     1
102
RTVSPost2010Prop37
 90
       50
102
RTVSPost2010PropOp37
 70
     1
102
RTVSPost2010Prop38
140
0.0
102
RTVSPost2010PropOp38
 70
     1
102
RTVSPost2010Prop39
140
1.0
102
RTVSPost2010PropOp39
 70
     1
102
RTVSPost2010Prop40
 90
        0
102
RTVSPost2010PropOp40
 70
     1
102
RTVSPost2010Prop41ColorIndex
 90
       18
102
RTVSPost2010Prop41ColorRGB
 90
        0
102
RTVSPost2010PropOp41
 70
     1
102
RTVSPost2010Prop42
 90
       50
102
RTVSPost2010PropOp42
 70
     1
102
RTVSPost2010Prop43
 90
        3
102
RTVSPost2010PropOp43
 70
     1
102
RTVSPost2010Prop44ColorIndex
 90
        5
102
RTVSPost2010Prop44ColorRGB
 90
      255
102
RTVSPost2010PropOp44
 70
     1
102
RTVSPost2010Prop45
280
     0
102
RTVSPost2010PropOp45
 70
     1
102
RTVSPost2010Prop46
 90
       50
102
RTVSPost2010PropOp46
 70
     1
102
RTVSPost2010Prop47
 90
       50
102
RTVSPost2010PropOp47
 70
     1
102
RTVSPost2010Prop48
 90
       50
102
RTVSPost2010PropOp48
 70
     1
102
RTVSPost2010Prop49
280
     0
102
RTVSPost2010PropOp49
 70
     1
102
RTVSPost2010Prop50
 90
       50
102
RTVSPost2010PropOp50
 70
     1
102
RTVSPost2010Prop51ColorIndex
 90
      256
102
RTVSPost2010Prop51ColorRGB
 90
-16777216
102
RTVSPost2010PropOp51
 70
     0
102
RTVSPost2010Prop52
140
1.0
102
RTVSPost2010PropOp52
 70
     0
102
RTVSPost2010Prop53
 90
        2
102
RTVSPost2010PropOp53
 70
     1
102
RTVSPost2010Prop54
  1
strokes_ogs.tif
102
RTVSPost2010PropOp54
 70
     1
102
RTVSPost2010Prop55
280
     0
102
RTVSPost2010PropOp55
 70
     1
102
RTVSPost2010Prop56
140
1.0
102
RTVSPost2010PropOp56
 70
     1
102
RTVSPost2010Prop57
140
1.0
102
RTVSPost2010PropOp57
 70
     1
  0
XRECORD
  5
3FB
102
{ACAD_REACTORS
330
3FA
102
}
330
3FA
100
AcDbXrecord
280
     1
102
RTVSPropertyOp0
 70
     1
102
RTVSPropertyOp1
 70
     1
102
RTVSPropertyOp2
 70
     1
102
RTVSPropertyOp3
 70
     1
102
RTVSPropertyOp4
 70
     1
102
RTVSPropertyOp5
 70
     1
102
RTVSPropertyOp6
 70
     1
102
RTVSPropertyOp7
 70
     1
102
RTVSPropertyOp8
 70
     1
102
RTVSPropertyOp9
 70
     1
102
RTVSPropertyOp10
 70
     1
102
RTVSPropertyOp11
 70
     1
102
RTVSPropertyOp12
 70
     1
102
RTVSPropertyOp13
 70
     1
102
RTVSPropertyOp14
 70
     1
102
RTVSPropertyOp15
 70
     1
102
RTVSPropertyOp16
 70
     1
102
RTVSPropertyOp17
 70
     1
102
RTVSPropertyOp18
 70
     1
102
RTVSPropertyOp19
 70
     1
102
RTVSPropertyOp20
 70
     1
102
RTVSPropertyOp21
 70
     1
102
RTVSPropertyOp22
 70
     1
102
RTVSPropertyOp23
 70
     1
102
RTVSPropertyOp24
 70
     1
102
RTVSPropertyOp25
 70
     1
102
RTVSPropertyOp26
 70
     1
102
RTVSPropertyOp27
 70
     1
102
RTVSPropertyOp28
 70
     1
102
RTVSPropertyOp29
 70
     1
102
RTVSPropertyOp30
 70
     1
102
RTVSPropertyOp31
 70
     1
102
RTVSPropertyOp32
 70
     1
102
RTVSPropertyOp33
 70
     1
102
RTVSPropertyOp34
 70
     1
102
RTVSPropertyOp35
 70
     1
102
RTVSPropertyOp36
 70
     1
102
RTVSPropertyOp37
 70
     1
102
RTVSPropertyOp38
 70
     1
102
RTVSPropertyOp39
 70
     1
102
RTVSPropertyOp40
 70
     1
102
RTVSPropertyOp41
 70
     1
102
RTVSPropertyOp42
 70
     1
102
RTVSPropertyOp43
 70
     1
102
RTVSPropertyOp44
 70
     1
102
RTVSPropertyOp45
 70
     1
102
RTVSPropertyOp46
 70
     1
102
RTVSPropertyOp47
 70
     1
102
RTVSPropertyOp48
 70
     1
102
RTVSPropertyOp49
 70
     1
102
RTVSPropertyOp50
 70
     1
102
RTVSPropertyOp51
 70
     0
102
RTVSPropertyOp52
 70
     0
102
RTVSPropertyOp53
 70
     1
102
RTVSPropertyOp54
 70
     1
102
RTVSPropertyOp55
 70
     1
102
RTVSPropertyOp56
 70
     1
102
RTVSPropertyOp57
 70
     1
102
RTVSPost2010Prop28
280
     0
102
RTVSPost2010PropOp28
 70
     1
102
RTVSPost2010Prop29
280
     1
102
RTVSPost2010PropOp29
 70
     1
102
RTVSPost2010Prop30
280
     1
102
RTVSPost2010PropOp30
 70
     1
102
RTVSPost2010Prop31
280
     0
102
RTVSPost2010PropOp31
 70
     1
102
RTVSPost2010Prop32
280
     0
102
RTVSPost2010PropOp32
 70
     1
102
RTVSPost2010Prop33
280
     0
102
RTVSPost2010PropOp33
 70
     1
102
RTVSPost2010Prop34
280
     0
102
RTVSPost2010PropOp34
 70
     1
102
RTVSPost2010Prop35
280
     0
102
RTVSPost2010PropOp35
 70
     1
102
RTVSPost2010Prop36
280
     0
102
RTVSPost2010PropOp36
 70
     1
102
RTVSPost2010Prop37
 90
       50
102
RTVSPost2010PropOp37
 70
     1
102
RTVSPost2010Prop38
140
0.0
102
RTVSPost2010PropOp38
 70
     1
102
RTVSPost2010Prop39
140
1.0
102
RTVSPost2010PropOp39
 70
     1
102
RTVSPost2010Prop40
 90
        0
102
RTVSPost2010PropOp40
 70
     1
102
RTVSPost2010Prop41ColorIndex
 90
       18
102
RTVSPost2010Prop41ColorRGB
 90
        0
102
RTVSPost2010PropOp41
 70
     1
102
RTVSPost2010Prop42
 90
       50
102
RTVSPost2010PropOp42
 70
     1
102
RTVSPost2010Prop43
 90
        3
102
RTVSPost2010PropOp43
 70
     1
102
RTVSPost2010Prop44ColorIndex
 90
        5
102
RTVSPost2010Prop44ColorRGB
 90
      255
102
RTVSPost2010PropOp44
 70
     1
102
RTVSPost2010Prop45
280
     0
102
RTVSPost2010PropOp45
 70
     1
102
RTVSPost2010Prop46
 90
       50
102
RTVSPost2010PropOp46
 70
     1
102
RTVSPost2010Prop47
 90
       50
102
RTVSPost2010PropOp47
 70
     1
102
RTVSPost2010Prop48
 90
       50
102
RTVSPost2010PropOp48
 70
     1
102
RTVSPost2010Prop49
280
     0
102
RTVSPost2010PropOp49
 70
     1
102
RTVSPost2010Prop50
 90
       50
102
RTVSPost2010PropOp50
 70
     1
102
RTVSPost2010Prop51ColorIndex
 90
      256
102
RTVSPost2010Prop51ColorRGB
 90
-16777216
102
RTVSPost2010PropOp51
 70
     0
102
RTVSPost2010Prop52
140
1.0
102
RTVSPost2010PropOp52
 70
     0
102
RTVSPost2010Prop53
 90
        2
102
RTVSPost2010PropOp53
 70
     1
102
RTVSPost2010Prop54
  1
strokes_ogs.tif
102
RTVSPost2010PropOp54
 70
     1
102
RTVSPost2010Prop55
280
     0
102
RTVSPost2010PropOp55
 70
     1
102
RTVSPost2010Prop56
140
1.0
102
RTVSPost2010PropOp56
 70
     1
102
RTVSPost2010Prop57
140
1.0
102
RTVSPost2010PropOp57
 70
     1
  0
XRECORD
  5
3FD
102
{ACAD_REACTORS
330
3FC
102
}
330
3FC
100
AcDbXrecord
280
     1
102
RTVSPropertyOp0
 70
     1
102
RTVSPropertyOp1
 70
     1
102
RTVSPropertyOp2
 70
     1
102
RTVSPropertyOp3
 70
     1
102
RTVSPropertyOp4
 70
     1
102
RTVSPropertyOp5
 70
     1
102
RTVSPropertyOp6
 70
     1
102
RTVSPropertyOp7
 70
     1
102
RTVSPropertyOp8
 70
     1
102
RTVSPropertyOp9
 70
     1
102
RTVSPropertyOp10
 70
     1
102
RTVSPropertyOp11
 70
     1
102
RTVSPropertyOp12
 70
     1
102
RTVSPropertyOp13
 70
     1
102
RTVSPropertyOp14
 70
     1
102
RTVSPropertyOp15
 70
     1
102
RTVSPropertyOp16
 70
     1
102
RTVSPropertyOp17
 70
     1
102
RTVSPropertyOp18
 70
     1
102
RTVSPropertyOp19
 70
     1
102
RTVSPropertyOp20
 70
     1
102
RTVSPropertyOp21
 70
     1
102
RTVSPropertyOp22
 70
     1
102
RTVSPropertyOp23
 70
     1
102
RTVSPropertyOp24
 70
     1
102
RTVSPropertyOp25
 70
     1
102
RTVSPropertyOp26
 70
     1
102
RTVSPropertyOp27
 70
     1
102
RTVSPropertyOp28
 70
     1
102
RTVSPropertyOp29
 70
     1
102
RTVSPropertyOp30
 70
     1
102
RTVSPropertyOp31
 70
     1
102
RTVSPropertyOp32
 70
     1
102
RTVSPropertyOp33
 70
     1
102
RTVSPropertyOp34
 70
     1
102
RTVSPropertyOp35
 70
     1
102
RTVSPropertyOp36
 70
     1
102
RTVSPropertyOp37
 70
     1
102
RTVSPropertyOp38
 70
     1
102
RTVSPropertyOp39
 70
     1
102
RTVSPropertyOp40
 70
     1
102
RTVSPropertyOp41
 70
     1
102
RTVSPropertyOp42
 70
     1
102
RTVSPropertyOp43
 70
     1
102
RTVSPropertyOp44
 70
     1
102
RTVSPropertyOp45
 70
     1
102
RTVSPropertyOp46
 70
     1
102
RTVSPropertyOp47
 70
     1
102
RTVSPropertyOp48
 70
     1
102
RTVSPropertyOp49
 70
     1
102
RTVSPropertyOp50
 70
     1
102
RTVSPropertyOp51
 70
     0
102
RTVSPropertyOp52
 70
     0
102
RTVSPropertyOp53
 70
     1
102
RTVSPropertyOp54
 70
     1
102
RTVSPropertyOp55
 70
     1
102
RTVSPropertyOp56
 70
     1
102
RTVSPropertyOp57
 70
     1
102
RTVSPost2010Prop28
280
     0
102
RTVSPost2010PropOp28
 70
     1
102
RTVSPost2010Prop29
280
     1
102
RTVSPost2010PropOp29
 70
     1
102
RTVSPost2010Prop30
280
     1
102
RTVSPost2010PropOp30
 70
     1
102
RTVSPost2010Prop31
280
     0
102
RTVSPost2010PropOp31
 70
     1
102
RTVSPost2010Prop32
280
     0
102
RTVSPost2010PropOp32
 70
     1
102
RTVSPost2010Prop33
280
     0
102
RTVSPost2010PropOp33
 70
     1
102
RTVSPost2010Prop34
280
     0
102
RTVSPost2010PropOp34
 70
     1
102
RTVSPost2010Prop35
280
     0
102
RTVSPost2010PropOp35
 70
     1
102
RTVSPost2010Prop36
280
     0
102
RTVSPost2010PropOp36
 70
     1
102
RTVSPost2010Prop37
 90
       50
102
RTVSPost2010PropOp37
 70
     1
102
RTVSPost2010Prop38
140
0.0
102
RTVSPost2010PropOp38
 70
     1
102
RTVSPost2010Prop39
140
1.0
102
RTVSPost2010PropOp39
 70
     1
102
RTVSPost2010Prop40
 90
        0
102
RTVSPost2010PropOp40
 70
     1
102
RTVSPost2010Prop41ColorIndex
 90
       18
102
RTVSPost2010Prop41ColorRGB
 90
        0
102
RTVSPost2010PropOp41
 70
     1
102
RTVSPost2010Prop42
 90
       50
102
RTVSPost2010PropOp42
 70
     1
102
RTVSPost2010Prop43
 90
        3
102
RTVSPost2010PropOp43
 70
     1
102
RTVSPost2010Prop44ColorIndex
 90
        5
102
RTVSPost2010Prop44ColorRGB
 90
      255
102
RTVSPost2010PropOp44
 70
     1
102
RTVSPost2010Prop45
280
     0
102
RTVSPost2010PropOp45
 70
     1
102
RTVSPost2010Prop46
 90
       50
102
RTVSPost2010PropOp46
 70
     1
102
RTVSPost2010Prop47
 90
       50
102
RTVSPost2010PropOp47
 70
     1
102
RTVSPost2010Prop48
 90
       50
102
RTVSPost2010PropOp48
 70
     1
102
RTVSPost2010Prop49
280
     0
102
RTVSPost2010PropOp49
 70
     1
102
RTVSPost2010Prop50
 90
       50
102
RTVSPost2010PropOp50
 70
     1
102
RTVSPost2010Prop51ColorIndex
 90
      256
102
RTVSPost2010Prop51ColorRGB
 90
-16777216
102
RTVSPost2010PropOp51
 70
     0
102
RTVSPost2010Prop52
140
1.0
102
RTVSPost2010PropOp52
 70
     0
102
RTVSPost2010Prop53
 90
        2
102
RTVSPost2010PropOp53
 70
     1
102
RTVSPost2010Prop54
  1
strokes_ogs.tif
102
RTVSPost2010PropOp54
 70
     1
102
RTVSPost2010Prop55
280
     0
102
RTVSPost2010PropOp55
 70
     1
102
RTVSPost2010Prop56
140
1.0
102
RTVSPost2010PropOp56
 70
     1
102
RTVSPost2010Prop57
140
1.0
102
RTVSPost2010PropOp57
 70
     1
  0
XRECORD
  5
403
102
{ACAD_REACTORS
330
402
102
}
330
402
100
AcDbXrecord
280
     1
102
RTVSPropertyOp0
 70
     1
102
RTVSPropertyOp1
 70
     1
102
RTVSPropertyOp2
 70
     1
102
RTVSPropertyOp3
 70
     1
102
RTVSPropertyOp4
 70
     1
102
RTVSPropertyOp5
 70
     1
102
RTVSPropertyOp6
 70
     1
102
RTVSPropertyOp7
 70
     1
102
RTVSPropertyOp8
 70
     1
102
RTVSPropertyOp9
 70
     1
102
RTVSPropertyOp10
 70
     1
102
RTVSPropertyOp11
 70
     1
102
RTVSPropertyOp12
 70
     1
102
RTVSPropertyOp13
 70
     1
102
RTVSPropertyOp14
 70
     1
102
RTVSPropertyOp15
 70
     1
102
RTVSPropertyOp16
 70
     1
102
RTVSPropertyOp17
 70
     1
102
RTVSPropertyOp18
 70
     1
102
RTVSPropertyOp19
 70
     1
102
RTVSPropertyOp20
 70
     1
102
RTVSPropertyOp21
 70
     1
102
RTVSPropertyOp22
 70
     1
102
RTVSPropertyOp23
 70
     1
102
RTVSPropertyOp24
 70
     1
102
RTVSPropertyOp25
 70
     1
102
RTVSPropertyOp26
 70
     1
102
RTVSPropertyOp27
 70
     1
102
RTVSPropertyOp28
 70
     1
102
RTVSPropertyOp29
 70
     1
102
RTVSPropertyOp30
 70
     1
102
RTVSPropertyOp31
 70
     1
102
RTVSPropertyOp32
 70
     1
102
RTVSPropertyOp33
 70
     1
102
RTVSPropertyOp34
 70
     1
102
RTVSPropertyOp35
 70
     1
102
RTVSPropertyOp36
 70
     1
102
RTVSPropertyOp37
 70
     1
102
RTVSPropertyOp38
 70
     1
102
RTVSPropertyOp39
 70
     1
102
RTVSPropertyOp40
 70
     1
102
RTVSPropertyOp41
 70
     1
102
RTVSPropertyOp42
 70
     1
102
RTVSPropertyOp43
 70
     1
102
RTVSPropertyOp44
 70
     1
102
RTVSPropertyOp45
 70
     1
102
RTVSPropertyOp46
 70
     1
102
RTVSPropertyOp47
 70
     1
102
RTVSPropertyOp48
 70
     1
102
RTVSPropertyOp49
 70
     1
102
RTVSPropertyOp50
 70
     1
102
RTVSPropertyOp51
 70
     0
102
RTVSPropertyOp52
 70
     0
102
RTVSPropertyOp53
 70
     1
102
RTVSPropertyOp54
 70
     1
102
RTVSPropertyOp55
 70
     1
102
RTVSPropertyOp56
 70
     1
102
RTVSPropertyOp57
 70
     1
102
RTVSPost2010Prop28
280
     0
102
RTVSPost2010PropOp28
 70
     1
102
RTVSPost2010Prop29
280
     1
102
RTVSPost2010PropOp29
 70
     1
102
RTVSPost2010Prop30
280
     1
102
RTVSPost2010PropOp30
 70
     1
102
RTVSPost2010Prop31
280
     0
102
RTVSPost2010PropOp31
 70
     1
102
RTVSPost2010Prop32
280
     0
102
RTVSPost2010PropOp32
 70
     1
102
RTVSPost2010Prop33
280
     0
102
RTVSPost2010PropOp33
 70
     1
102
RTVSPost2010Prop34
280
     0
102
RTVSPost2010PropOp34
 70
     1
102
RTVSPost2010Prop35
280
     0
102
RTVSPost2010PropOp35
 70
     1
102
RTVSPost2010Prop36
280
     0
102
RTVSPost2010PropOp36
 70
     1
102
RTVSPost2010Prop37
 90
       50
102
RTVSPost2010PropOp37
 70
     1
102
RTVSPost2010Prop38
140
0.0
102
RTVSPost2010PropOp38
 70
     1
102
RTVSPost2010Prop39
140
1.0
102
RTVSPost2010PropOp39
 70
     1
102
RTVSPost2010Prop40
 90
        0
102
RTVSPost2010PropOp40
 70
     1
102
RTVSPost2010Prop41ColorIndex
 90
       18
102
RTVSPost2010Prop41ColorRGB
 90
        0
102
RTVSPost2010PropOp41
 70
     1
102
RTVSPost2010Prop42
 90
       50
102
RTVSPost2010PropOp42
 70
     1
102
RTVSPost2010Prop43
 90
        3
102
RTVSPost2010PropOp43
 70
     1
102
RTVSPost2010Prop44ColorIndex
 90
        5
102
RTVSPost2010Prop44ColorRGB
 90
      255
102
RTVSPost2010PropOp44
 70
     1
102
RTVSPost2010Prop45
280
     0
102
RTVSPost2010PropOp45
 70
     1
102
RTVSPost2010Prop46
 90
       50
102
RTVSPost2010PropOp46
 70
     1
102
RTVSPost2010Prop47
 90
       50
102
RTVSPost2010PropOp47
 70
     1
102
RTVSPost2010Prop48
 90
       50
102
RTVSPost2010PropOp48
 70
     1
102
RTVSPost2010Prop49
280
     0
102
RTVSPost2010PropOp49
 70
     1
102
RTVSPost2010Prop50
 90
       50
102
RTVSPost2010PropOp50
 70
     1
102
RTVSPost2010Prop51ColorIndex
 90
      256
102
RTVSPost2010Prop51ColorRGB
 90
-16777216
102
RTVSPost2010PropOp51
 70
     0
102
RTVSPost2010Prop52
140
1.0
102
RTVSPost2010PropOp52
 70
     0
102
RTVSPost2010Prop53
 90
        2
102
RTVSPost2010PropOp53
 70
     1
102
RTVSPost2010Prop54
  1
strokes_ogs.tif
102
RTVSPost2010PropOp54
 70
     1
102
RTVSPost2010Prop55
280
     0
102
RTVSPost2010PropOp55
 70
     1
102
RTVSPost2010Prop56
140
1.0
102
RTVSPost2010PropOp56
 70
     1
102
RTVSPost2010Prop57
140
1.0
102
RTVSPost2010PropOp57
 70
     1
  0
XRECORD
  5
417
102
{ACAD_REACTORS
330
416
102
}
330
416
100
AcDbXrecord
280
     1
102
RTVSPropertyOp0
 70
     0
102
RTVSPropertyOp1
 70
     0
102
RTVSPropertyOp2
 70
     0
102
RTVSPropertyOp3
 70
     0
102
RTVSPropertyOp4
 70
     0
102
RTVSPropertyOp5
 70
     0
102
RTVSPropertyOp6
 70
     0
102
RTVSPropertyOp7
 70
     0
102
RTVSPropertyOp8
 70
     0
102
RTVSPropertyOp9
 70
     0
102
RTVSPropertyOp10
 70
     0
102
RTVSPropertyOp11
 70
     0
102
RTVSPropertyOp12
 70
     0
102
RTVSPropertyOp13
 70
     0
102
RTVSPropertyOp14
 70
     2
102
RTVSPropertyOp15
 70
     0
102
RTVSPropertyOp16
 70
     0
102
RTVSPropertyOp17
 70
     0
102
RTVSPropertyOp18
 70
     0
102
RTVSPropertyOp19
 70
     0
102
RTVSPropertyOp20
 70
     0
102
RTVSPropertyOp21
 70
     0
102
RTVSPropertyOp22
 70
     0
102
RTVSPropertyOp23
 70
     0
102
RTVSPropertyOp24
 70
     0
102
RTVSPropertyOp25
 70
     0
102
RTVSPropertyOp26
 70
     0
102
RTVSPropertyOp27
 70
     0
102
RTVSPropertyOp28
 70
     0
102
RTVSPropertyOp29
 70
     0
102
RTVSPropertyOp30
 70
     0
102
RTVSPropertyOp31
 70
     0
102
RTVSPropertyOp32
 70
     0
102
RTVSPropertyOp33
 70
     0
102
RTVSPropertyOp34
 70
     0
102
RTVSPropertyOp35
 70
     0
102
RTVSPropertyOp36
 70
     0
102
RTVSPropertyOp37
 70
     0
102
RTVSPropertyOp38
 70
     0
102
RTVSPropertyOp39
 70
     0
102
RTVSPropertyOp40
 70
     0
102
RTVSPropertyOp41
 70
     0
102
RTVSPropertyOp42
 70
     0
102
RTVSPropertyOp43
 70
     0
102
RTVSPropertyOp44
 70
     0
102
RTVSPropertyOp45
 70
     0
102
RTVSPropertyOp46
 70
     0
102
RTVSPropertyOp47
 70
     0
102
RTVSPropertyOp48
 70
     0
102
RTVSPropertyOp49
 70
     0
102
RTVSPropertyOp50
 70
     0
102
RTVSPropertyOp51
 70
     0
102
RTVSPropertyOp52
 70
     0
102
RTVSPropertyOp53
 70
     0
102
RTVSPropertyOp54
 70
     0
102
RTVSPropertyOp55
 70
     0
102
RTVSPropertyOp56
 70
     0
102
RTVSPropertyOp57
 70
     0
102
RTVSPost2010Prop28
280
     0
102
RTVSPost2010PropOp28
 70
     0
102
RTVSPost2010Prop29
280
     1
102
RTVSPost2010PropOp29
 70
     0
102
RTVSPost2010Prop30
280
     1
102
RTVSPost2010PropOp30
 70
     0
102
RTVSPost2010Prop31
280
     0
102
RTVSPost2010PropOp31
 70
     0
102
RTVSPost2010Prop32
280
     0
102
RTVSPost2010PropOp32
 70
     0
102
RTVSPost2010Prop33
280
     0
102
RTVSPost2010PropOp33
 70
     0
102
RTVSPost2010Prop34
280
     0
102
RTVSPost2010PropOp34
 70
     0
102
RTVSPost2010Prop35
280
     0
102
RTVSPost2010PropOp35
 70
     0
102
RTVSPost2010Prop36
280
     0
102
RTVSPost2010PropOp36
 70
     0
102
RTVSPost2010Prop37
 90
       50
102
RTVSPost2010PropOp37
 70
     0
102
RTVSPost2010Prop38
140
0.0
102
RTVSPost2010PropOp38
 70
     0
102
RTVSPost2010Prop39
140
1.0
102
RTVSPost2010PropOp39
 70
     0
102
RTVSPost2010Prop40
 90
        0
102
RTVSPost2010PropOp40
 70
     0
102
RTVSPost2010Prop41ColorIndex
 90
       18
102
RTVSPost2010Prop41ColorRGB
 90
        0
102
RTVSPost2010PropOp41
 70
     0
102
RTVSPost2010Prop42
 90
       50
102
RTVSPost2010PropOp42
 70
     0
102
RTVSPost2010Prop43
 90
        3
102
RTVSPost2010PropOp43
 70
     0
102
RTVSPost2010Prop44ColorIndex
 90
        5
102
RTVSPost2010Prop44ColorRGB
 90
      255
102
RTVSPost2010PropOp44
 70
     0
102
RTVSPost2010Prop45
280
     0
102
RTVSPost2010PropOp45
 70
     0
102
RTVSPost2010Prop46
 90
       50
102
RTVSPost2010PropOp46
 70
     0
102
RTVSPost2010Prop47
 90
       50
102
RTVSPost2010PropOp47
 70
     0
102
RTVSPost2010Prop48
 90
       50
102
RTVSPost2010PropOp48
 70
     0
102
RTVSPost2010Prop49
280
     0
102
RTVSPost2010PropOp49
 70
     0
102
RTVSPost2010Prop50
 90
       50
102
RTVSPost2010PropOp50
 70
     0
102
RTVSPost2010Prop51ColorIndex
 90
      256
102
RTVSPost2010Prop51ColorRGB
 90
-16777216
102
RTVSPost2010PropOp51
 70
     0
102
RTVSPost2010Prop52
140
1.0
102
RTVSPost2010PropOp52
 70
     0
102
RTVSPost2010Prop53
 90
        2
102
RTVSPost2010PropOp53
 70
     0
102
RTVSPost2010Prop54
  1
strokes_ogs.tif
102
RTVSPost2010PropOp54
 70
     0
102
RTVSPost2010Prop55
280
     0
102
RTVSPost2010PropOp55
 70
     0
102
RTVSPost2010Prop56
140
1.0
102
RTVSPost2010PropOp56
 70
     0
102
RTVSPost2010Prop57
140
1.0
102
RTVSPost2010PropOp57
 70
     0
  0
XRECORD
  5
411
102
{ACAD_REACTORS
330
410
102
}
330
410
100
AcDbXrecord
280
     1
102
RTVSPropertyOp0
 70
     1
102
RTVSPropertyOp1
 70
     1
102
RTVSPropertyOp2
 70
     1
102
RTVSPropertyOp3
 70
     1
102
RTVSPropertyOp4
 70
     1
102
RTVSPropertyOp5
 70
     1
102
RTVSPropertyOp6
 70
     1
102
RTVSPropertyOp7
 70
     1
102
RTVSPropertyOp8
 70
     1
102
RTVSPropertyOp9
 70
     1
102
RTVSPropertyOp10
 70
     1
102
RTVSPropertyOp11
 70
     1
102
RTVSPropertyOp12
 70
     1
102
RTVSPropertyOp13
 70
     1
102
RTVSPropertyOp14
 70
     1
102
RTVSPropertyOp15
 70
     1
102
RTVSPropertyOp16
 70
     1
102
RTVSPropertyOp17
 70
     1
102
RTVSPropertyOp18
 70
     1
102
RTVSPropertyOp19
 70
     1
102
RTVSPropertyOp20
 70
     1
102
RTVSPropertyOp21
 70
     1
102
RTVSPropertyOp22
 70
     1
102
RTVSPropertyOp23
 70
     1
102
RTVSPropertyOp24
 70
     1
102
RTVSPropertyOp25
 70
     1
102
RTVSPropertyOp26
 70
     1
102
RTVSPropertyOp27
 70
     1
102
RTVSPropertyOp28
 70
     1
102
RTVSPropertyOp29
 70
     1
102
RTVSPropertyOp30
 70
     1
102
RTVSPropertyOp31
 70
     1
102
RTVSPropertyOp32
 70
     1
102
RTVSPropertyOp33
 70
     1
102
RTVSPropertyOp34
 70
     1
102
RTVSPropertyOp35
 70
     1
102
RTVSPropertyOp36
 70
     1
102
RTVSPropertyOp37
 70
     1
102
RTVSPropertyOp38
 70
     1
102
RTVSPropertyOp39
 70
     1
102
RTVSPropertyOp40
 70
     1
102
RTVSPropertyOp41
 70
     1
102
RTVSPropertyOp42
 70
     1
102
RTVSPropertyOp43
 70
     1
102
RTVSPropertyOp44
 70
     1
102
RTVSPropertyOp45
 70
     1
102
RTVSPropertyOp46
 70
     1
102
RTVSPropertyOp47
 70
     1
102
RTVSPropertyOp48
 70
     1
102
RTVSPropertyOp49
 70
     1
102
RTVSPropertyOp50
 70
     1
102
RTVSPropertyOp51
 70
     0
102
RTVSPropertyOp52
 70
     0
102
RTVSPropertyOp53
 70
     1
102
RTVSPropertyOp54
 70
     1
102
RTVSPropertyOp55
 70
     1
102
RTVSPropertyOp56
 70
     1
102
RTVSPropertyOp57
 70
     1
102
RTVSPost2010Prop28
280
     0
102
RTVSPost2010PropOp28
 70
     1
102
RTVSPost2010Prop29
280
     1
102
RTVSPost2010PropOp29
 70
     1
102
RTVSPost2010Prop30
280
     1
102
RTVSPost2010PropOp30
 70
     1
102
RTVSPost2010Prop31
280
     0
102
RTVSPost2010PropOp31
 70
     1
102
RTVSPost2010Prop32
280
     0
102
RTVSPost2010PropOp32
 70
     1
102
RTVSPost2010Prop33
280
     0
102
RTVSPost2010PropOp33
 70
     1
102
RTVSPost2010Prop34
280
     0
102
RTVSPost2010PropOp34
 70
     1
102
RTVSPost2010Prop35
280
     0
102
RTVSPost2010PropOp35
 70
     1
102
RTVSPost2010Prop36
280
     0
102
RTVSPost2010PropOp36
 70
     1
102
RTVSPost2010Prop37
 90
       50
102
RTVSPost2010PropOp37
 70
     1
102
RTVSPost2010Prop38
140
0.0
102
RTVSPost2010PropOp38
 70
     1
102
RTVSPost2010Prop39
140
1.0
102
RTVSPost2010PropOp39
 70
     1
102
RTVSPost2010Prop40
 90
        0
102
RTVSPost2010PropOp40
 70
     1
102
RTVSPost2010Prop41ColorIndex
 90
       18
102
RTVSPost2010Prop41ColorRGB
 90
        0
102
RTVSPost2010PropOp41
 70
     1
102
RTVSPost2010Prop42
 90
       50
102
RTVSPost2010PropOp42
 70
     1
102
RTVSPost2010Prop43
 90
        3
102
RTVSPost2010PropOp43
 70
     1
102
RTVSPost2010Prop44ColorIndex
 90
        5
102
RTVSPost2010Prop44ColorRGB
 90
      255
102
RTVSPost2010PropOp44
 70
     1
102
RTVSPost2010Prop45
280
     0
102
RTVSPost2010PropOp45
 70
     1
102
RTVSPost2010Prop46
 90
       50
102
RTVSPost2010PropOp46
 70
     1
102
RTVSPost2010Prop47
 90
       50
102
RTVSPost2010PropOp47
 70
     1
102
RTVSPost2010Prop48
 90
       50
102
RTVSPost2010PropOp48
 70
     1
102
RTVSPost2010Prop49
280
     0
102
RTVSPost2010PropOp49
 70
     1
102
RTVSPost2010Prop50
 90
       50
102
RTVSPost2010PropOp50
 70
     1
102
RTVSPost2010Prop51ColorIndex
 90
      256
102
RTVSPost2010Prop51ColorRGB
 90
-16777216
102
RTVSPost2010PropOp51
 70
     0
102
RTVSPost2010Prop52
140
1.0
102
RTVSPost2010PropOp52
 70
     0
102
RTVSPost2010Prop53
 90
        2
102
RTVSPost2010PropOp53
 70
     1
102
RTVSPost2010Prop54
  1
strokes_ogs.tif
102
RTVSPost2010PropOp54
 70
     1
102
RTVSPost2010Prop55
280
     0
102
RTVSPost2010PropOp55
 70
     1
102
RTVSPost2010Prop56
140
1.0
102
RTVSPost2010PropOp56
 70
     1
102
RTVSPost2010Prop57
140
1.0
102
RTVSPost2010PropOp57
 70
     1
  0
XRECORD
  5
419
102
{ACAD_REACTORS
330
418
102
}
330
418
100
AcDbXrecord
280
     1
102
RTVSPropertyOp0
 70
     0
102
RTVSPropertyOp1
 70
     0
102
RTVSPropertyOp2
 70
     0
102
RTVSPropertyOp3
 70
     0
102
RTVSPropertyOp4
 70
     0
102
RTVSPropertyOp5
 70
     0
102
RTVSPropertyOp6
 70
     0
102
RTVSPropertyOp7
 70
     0
102
RTVSPropertyOp8
 70
     0
102
RTVSPropertyOp9
 70
     0
102
RTVSPropertyOp10
 70
     0
102
RTVSPropertyOp11
 70
     0
102
RTVSPropertyOp12
 70
     0
102
RTVSPropertyOp13
 70
     0
102
RTVSPropertyOp14
 70
     2
102
RTVSPropertyOp15
 70
     0
102
RTVSPropertyOp16
 70
     0
102
RTVSPropertyOp17
 70
     0
102
RTVSPropertyOp18
 70
     0
102
RTVSPropertyOp19
 70
     0
102
RTVSPropertyOp20
 70
     0
102
RTVSPropertyOp21
 70
     0
102
RTVSPropertyOp22
 70
     0
102
RTVSPropertyOp23
 70
     0
102
RTVSPropertyOp24
 70
     0
102
RTVSPropertyOp25
 70
     0
102
RTVSPropertyOp26
 70
     0
102
RTVSPropertyOp27
 70
     0
102
RTVSPropertyOp28
 70
     0
102
RTVSPropertyOp29
 70
     0
102
RTVSPropertyOp30
 70
     0
102
RTVSPropertyOp31
 70
     0
102
RTVSPropertyOp32
 70
     0
102
RTVSPropertyOp33
 70
     0
102
RTVSPropertyOp34
 70
     0
102
RTVSPropertyOp35
 70
     0
102
RTVSPropertyOp36
 70
     0
102
RTVSPropertyOp37
 70
     0
102
RTVSPropertyOp38
 70
     0
102
RTVSPropertyOp39
 70
     0
102
RTVSPropertyOp40
 70
     0
102
RTVSPropertyOp41
 70
     0
102
RTVSPropertyOp42
 70
     0
102
RTVSPropertyOp43
 70
     0
102
RTVSPropertyOp44
 70
     0
102
RTVSPropertyOp45
 70
     0
102
RTVSPropertyOp46
 70
     0
102
RTVSPropertyOp47
 70
     0
102
RTVSPropertyOp48
 70
     0
102
RTVSPropertyOp49
 70
     0
102
RTVSPropertyOp50
 70
     0
102
RTVSPropertyOp51
 70
     0
102
RTVSPropertyOp52
 70
     0
102
RTVSPropertyOp53
 70
     0
102
RTVSPropertyOp54
 70
     0
102
RTVSPropertyOp55
 70
     0
102
RTVSPropertyOp56
 70
     0
102
RTVSPropertyOp57
 70
     0
102
RTVSPost2010Prop28
280
     0
102
RTVSPost2010PropOp28
 70
     0
102
RTVSPost2010Prop29
280
     1
102
RTVSPost2010PropOp29
 70
     0
102
RTVSPost2010Prop30
280
     1
102
RTVSPost2010PropOp30
 70
     0
102
RTVSPost2010Prop31
280
     0
102
RTVSPost2010PropOp31
 70
     0
102
RTVSPost2010Prop32
280
     0
102
RTVSPost2010PropOp32
 70
     0
102
RTVSPost2010Prop33
280
     0
102
RTVSPost2010PropOp33
 70
     0
102
RTVSPost2010Prop34
280
     0
102
RTVSPost2010PropOp34
 70
     0
102
RTVSPost2010Prop35
280
     0
102
RTVSPost2010PropOp35
 70
     0
102
RTVSPost2010Prop36
280
     0
102
RTVSPost2010PropOp36
 70
     0
102
RTVSPost2010Prop37
 90
       50
102
RTVSPost2010PropOp37
 70
     0
102
RTVSPost2010Prop38
140
0.0
102
RTVSPost2010PropOp38
 70
     0
102
RTVSPost2010Prop39
140
1.0
102
RTVSPost2010PropOp39
 70
     0
102
RTVSPost2010Prop40
 90
        0
102
RTVSPost2010PropOp40
 70
     0
102
RTVSPost2010Prop41ColorIndex
 90
       18
102
RTVSPost2010Prop41ColorRGB
 90
        0
102
RTVSPost2010PropOp41
 70
     0
102
RTVSPost2010Prop42
 90
       50
102
RTVSPost2010PropOp42
 70
     0
102
RTVSPost2010Prop43
 90
        3
102
RTVSPost2010PropOp43
 70
     0
102
RTVSPost2010Prop44ColorIndex
 90
        5
102
RTVSPost2010Prop44ColorRGB
 90
      255
102
RTVSPost2010PropOp44
 70
     0
102
RTVSPost2010Prop45
280
     0
102
RTVSPost2010PropOp45
 70
     0
102
RTVSPost2010Prop46
 90
       50
102
RTVSPost2010PropOp46
 70
     0
102
RTVSPost2010Prop47
 90
       50
102
RTVSPost2010PropOp47
 70
     0
102
RTVSPost2010Prop48
 90
       50
102
RTVSPost2010PropOp48
 70
     0
102
RTVSPost2010Prop49
280
     0
102
RTVSPost2010PropOp49
 70
     0
102
RTVSPost2010Prop50
 90
       50
102
RTVSPost2010PropOp50
 70
     0
102
RTVSPost2010Prop51ColorIndex
 90
      256
102
RTVSPost2010Prop51ColorRGB
 90
-16777216
102
RTVSPost2010PropOp51
 70
     0
102
RTVSPost2010Prop52
140
1.0
102
RTVSPost2010PropOp52
 70
     0
102
RTVSPost2010Prop53
 90
        2
102
RTVSPost2010PropOp53
 70
     0
102
RTVSPost2010Prop54
  1
strokes_ogs.tif
102
RTVSPost2010PropOp54
 70
     0
102
RTVSPost2010Prop55
280
     0
102
RTVSPost2010PropOp55
 70
     0
102
RTVSPost2010Prop56
140
1.0
102
RTVSPost2010PropOp56
 70
     0
102
RTVSPost2010Prop57
140
1.0
102
RTVSPost2010PropOp57
 70
     0
  0
XRECORD
  5
407
102
{ACAD_REACTORS
330
406
102
}
330
406
100
AcDbXrecord
280
     1
102
RTVSPropertyOp0
 70
     1
102
RTVSPropertyOp1
 70
     1
102
RTVSPropertyOp2
 70
     1
102
RTVSPropertyOp3
 70
     1
102
RTVSPropertyOp4
 70
     1
102
RTVSPropertyOp5
 70
     1
102
RTVSPropertyOp6
 70
     1
102
RTVSPropertyOp7
 70
     1
102
RTVSPropertyOp8
 70
     1
102
RTVSPropertyOp9
 70
     1
102
RTVSPropertyOp10
 70
     1
102
RTVSPropertyOp11
 70
     1
102
RTVSPropertyOp12
 70
     1
102
RTVSPropertyOp13
 70
     1
102
RTVSPropertyOp14
 70
     1
102
RTVSPropertyOp15
 70
     1
102
RTVSPropertyOp16
 70
     1
102
RTVSPropertyOp17
 70
     1
102
RTVSPropertyOp18
 70
     1
102
RTVSPropertyOp19
 70
     1
102
RTVSPropertyOp20
 70
     1
102
RTVSPropertyOp21
 70
     1
102
RTVSPropertyOp22
 70
     1
102
RTVSPropertyOp23
 70
     1
102
RTVSPropertyOp24
 70
     1
102
RTVSPropertyOp25
 70
     1
102
RTVSPropertyOp26
 70
     1
102
RTVSPropertyOp27
 70
     1
102
RTVSPropertyOp28
 70
     1
102
RTVSPropertyOp29
 70
     1
102
RTVSPropertyOp30
 70
     1
102
RTVSPropertyOp31
 70
     1
102
RTVSPropertyOp32
 70
     1
102
RTVSPropertyOp33
 70
     1
102
RTVSPropertyOp34
 70
     1
102
RTVSPropertyOp35
 70
     1
102
RTVSPropertyOp36
 70
     1
102
RTVSPropertyOp37
 70
     1
102
RTVSPropertyOp38
 70
     1
102
RTVSPropertyOp39
 70
     1
102
RTVSPropertyOp40
 70
     1
102
RTVSPropertyOp41
 70
     1
102
RTVSPropertyOp42
 70
     1
102
RTVSPropertyOp43
 70
     1
102
RTVSPropertyOp44
 70
     1
102
RTVSPropertyOp45
 70
     1
102
RTVSPropertyOp46
 70
     1
102
RTVSPropertyOp47
 70
     1
102
RTVSPropertyOp48
 70
     1
102
RTVSPropertyOp49
 70
     1
102
RTVSPropertyOp50
 70
     1
102
RTVSPropertyOp51
 70
     0
102
RTVSPropertyOp52
 70
     0
102
RTVSPropertyOp53
 70
     1
102
RTVSPropertyOp54
 70
     1
102
RTVSPropertyOp55
 70
     1
102
RTVSPropertyOp56
 70
     1
102
RTVSPropertyOp57
 70
     1
102
RTVSPost2010Prop28
280
     0
102
RTVSPost2010PropOp28
 70
     1
102
RTVSPost2010Prop29
280
     1
102
RTVSPost2010PropOp29
 70
     1
102
RTVSPost2010Prop30
280
     1
102
RTVSPost2010PropOp30
 70
     1
102
RTVSPost2010Prop31
280
     0
102
RTVSPost2010PropOp31
 70
     1
102
RTVSPost2010Prop32
280
     0
102
RTVSPost2010PropOp32
 70
     1
102
RTVSPost2010Prop33
280
     0
102
RTVSPost2010PropOp33
 70
     1
102
RTVSPost2010Prop34
280
     0
102
RTVSPost2010PropOp34
 70
     1
102
RTVSPost2010Prop35
280
     0
102
RTVSPost2010PropOp35
 70
     1
102
RTVSPost2010Prop36
280
     0
102
RTVSPost2010PropOp36
 70
     1
102
RTVSPost2010Prop37
 90
       50
102
RTVSPost2010PropOp37
 70
     1
102
RTVSPost2010Prop38
140
0.0
102
RTVSPost2010PropOp38
 70
     1
102
RTVSPost2010Prop39
140
1.0
102
RTVSPost2010PropOp39
 70
     1
102
RTVSPost2010Prop40
 90
        0
102
RTVSPost2010PropOp40
 70
     1
102
RTVSPost2010Prop41ColorIndex
 90
       18
102
RTVSPost2010Prop41ColorRGB
 90
        0
102
RTVSPost2010PropOp41
 70
     1
102
RTVSPost2010Prop42
 90
       50
102
RTVSPost2010PropOp42
 70
     1
102
RTVSPost2010Prop43
 90
        3
102
RTVSPost2010PropOp43
 70
     1
102
RTVSPost2010Prop44ColorIndex
 90
        5
102
RTVSPost2010Prop44ColorRGB
 90
      255
102
RTVSPost2010PropOp44
 70
     1
102
RTVSPost2010Prop45
280
     0
102
RTVSPost2010PropOp45
 70
     1
102
RTVSPost2010Prop46
 90
       50
102
RTVSPost2010PropOp46
 70
     1
102
RTVSPost2010Prop47
 90
       50
102
RTVSPost2010PropOp47
 70
     1
102
RTVSPost2010Prop48
 90
       50
102
RTVSPost2010PropOp48
 70
     1
102
RTVSPost2010Prop49
280
     0
102
RTVSPost2010PropOp49
 70
     1
102
RTVSPost2010Prop50
 90
       50
102
RTVSPost2010PropOp50
 70
     1
102
RTVSPost2010Prop51ColorIndex
 90
      256
102
RTVSPost2010Prop51ColorRGB
 90
-16777216
102
RTVSPost2010PropOp51
 70
     0
102
RTVSPost2010Prop52
140
1.0
102
RTVSPost2010PropOp52
 70
     0
102
RTVSPost2010Prop53
 90
        2
102
RTVSPost2010PropOp53
 70
     1
102
RTVSPost2010Prop54
  1
strokes_ogs.tif
102
RTVSPost2010PropOp54
 70
     1
102
RTVSPost2010Prop55
280
     0
102
RTVSPost2010PropOp55
 70
     1
102
RTVSPost2010Prop56
140
1.0
102
RTVSPost2010PropOp56
 70
     1
102
RTVSPost2010Prop57
140
1.0
102
RTVSPost2010PropOp57
 70
     1
  0
XRECORD
  5
425
102
{ACAD_REACTORS
330
424
102
}
330
424
100
AcDbXrecord
280
     1
102
RTVSPropertyOp0
 70
     1
102
RTVSPropertyOp1
 70
     1
102
RTVSPropertyOp2
 70
     1
102
RTVSPropertyOp3
 70
     1
102
RTVSPropertyOp4
 70
     1
102
RTVSPropertyOp5
 70
     1
102
RTVSPropertyOp6
 70
     1
102
RTVSPropertyOp7
 70
     1
102
RTVSPropertyOp8
 70
     1
102
RTVSPropertyOp9
 70
     1
102
RTVSPropertyOp10
 70
     1
102
RTVSPropertyOp11
 70
     1
102
RTVSPropertyOp12
 70
     1
102
RTVSPropertyOp13
 70
     1
102
RTVSPropertyOp14
 70
     1
102
RTVSPropertyOp15
 70
     1
102
RTVSPropertyOp16
 70
     1
102
RTVSPropertyOp17
 70
     1
102
RTVSPropertyOp18
 70
     1
102
RTVSPropertyOp19
 70
     1
102
RTVSPropertyOp20
 70
     1
102
RTVSPropertyOp21
 70
     1
102
RTVSPropertyOp22
 70
     1
102
RTVSPropertyOp23
 70
     1
102
RTVSPropertyOp24
 70
     1
102
RTVSPropertyOp25
 70
     1
102
RTVSPropertyOp26
 70
     1
102
RTVSPropertyOp27
 70
     1
102
RTVSPropertyOp28
 70
     1
102
RTVSPropertyOp29
 70
     1
102
RTVSPropertyOp30
 70
     1
102
RTVSPropertyOp31
 70
     1
102
RTVSPropertyOp32
 70
     1
102
RTVSPropertyOp33
 70
     1
102
RTVSPropertyOp34
 70
     1
102
RTVSPropertyOp35
 70
     1
102
RTVSPropertyOp36
 70
     1
102
RTVSPropertyOp37
 70
     1
102
RTVSPropertyOp38
 70
     1
102
RTVSPropertyOp39
 70
     1
102
RTVSPropertyOp40
 70
     1
102
RTVSPropertyOp41
 70
     1
102
RTVSPropertyOp42
 70
     1
102
RTVSPropertyOp43
 70
     1
102
RTVSPropertyOp44
 70
     1
102
RTVSPropertyOp45
 70
     1
102
RTVSPropertyOp46
 70
     1
102
RTVSPropertyOp47
 70
     1
102
RTVSPropertyOp48
 70
     1
102
RTVSPropertyOp49
 70
     1
102
RTVSPropertyOp50
 70
     1
102
RTVSPropertyOp51
 70
     0
102
RTVSPropertyOp52
 70
     0
102
RTVSPropertyOp53
 70
     1
102
RTVSPropertyOp54
 70
     1
102
RTVSPropertyOp55
 70
     1
102
RTVSPropertyOp56
 70
     1
102
RTVSPropertyOp57
 70
     1
102
RTVSPost2010Prop28
280
     0
102
RTVSPost2010PropOp28
 70
     1
102
RTVSPost2010Prop29
280
     1
102
RTVSPost2010PropOp29
 70
     1
102
RTVSPost2010Prop30
280
     1
102
RTVSPost2010PropOp30
 70
     1
102
RTVSPost2010Prop31
280
     0
102
RTVSPost2010PropOp31
 70
     1
102
RTVSPost2010Prop32
280
     0
102
RTVSPost2010PropOp32
 70
     1
102
RTVSPost2010Prop33
280
     0
102
RTVSPost2010PropOp33
 70
     1
102
RTVSPost2010Prop34
280
     0
102
RTVSPost2010PropOp34
 70
     1
102
RTVSPost2010Prop35
280
     0
102
RTVSPost2010PropOp35
 70
     1
102
RTVSPost2010Prop36
280
     0
102
RTVSPost2010PropOp36
 70
     1
102
RTVSPost2010Prop37
 90
       50
102
RTVSPost2010PropOp37
 70
     1
102
RTVSPost2010Prop38
140
0.0
102
RTVSPost2010PropOp38
 70
     1
102
RTVSPost2010Prop39
140
1.0
102
RTVSPost2010PropOp39
 70
     1
102
RTVSPost2010Prop40
 90
        0
102
RTVSPost2010PropOp40
 70
     1
102
RTVSPost2010Prop41ColorIndex
 90
       18
102
RTVSPost2010Prop41ColorRGB
 90
        0
102
RTVSPost2010PropOp41
 70
     1
102
RTVSPost2010Prop42
 90
       50
102
RTVSPost2010PropOp42
 70
     1
102
RTVSPost2010Prop43
 90
        3
102
RTVSPost2010PropOp43
 70
     1
102
RTVSPost2010Prop44ColorIndex
 90
        5
102
RTVSPost2010Prop44ColorRGB
 90
      255
102
RTVSPost2010PropOp44
 70
     1
102
RTVSPost2010Prop45
280
     0
102
RTVSPost2010PropOp45
 70
     1
102
RTVSPost2010Prop46
 90
       50
102
RTVSPost2010PropOp46
 70
     1
102
RTVSPost2010Prop47
 90
       50
102
RTVSPost2010PropOp47
 70
     1
102
RTVSPost2010Prop48
 90
       50
102
RTVSPost2010PropOp48
 70
     1
102
RTVSPost2010Prop49
280
     0
102
RTVSPost2010PropOp49
 70
     1
102
RTVSPost2010Prop50
 90
       50
102
RTVSPost2010PropOp50
 70
     1
102
RTVSPost2010Prop51ColorIndex
 90
      256
102
RTVSPost2010Prop51ColorRGB
 90
-16777216
102
RTVSPost2010PropOp51
 70
     0
102
RTVSPost2010Prop52
140
1.0
102
RTVSPost2010PropOp52
 70
     0
102
RTVSPost2010Prop53
 90
        2
102
RTVSPost2010PropOp53
 70
     1
102
RTVSPost2010Prop54
  1
strokes_ogs.tif
102
RTVSPost2010PropOp54
 70
     1
102
RTVSPost2010Prop55
280
     0
102
RTVSPost2010PropOp55
 70
     1
102
RTVSPost2010Prop56
140
1.0
102
RTVSPost2010PropOp56
 70
     1
102
RTVSPost2010Prop57
140
1.0
102
RTVSPost2010PropOp57
 70
     1
  0
XRECORD
  5
423
102
{ACAD_REACTORS
330
422
102
}
330
422
100
AcDbXrecord
280
     1
102
RTVSPropertyOp0
 70
     1
102
RTVSPropertyOp1
 70
     1
102
RTVSPropertyOp2
 70
     1
102
RTVSPropertyOp3
 70
     1
102
RTVSPropertyOp4
 70
     1
102
RTVSPropertyOp5
 70
     1
102
RTVSPropertyOp6
 70
     1
102
RTVSPropertyOp7
 70
     1
102
RTVSPropertyOp8
 70
     1
102
RTVSPropertyOp9
 70
     1
102
RTVSPropertyOp10
 70
     1
102
RTVSPropertyOp11
 70
     1
102
RTVSPropertyOp12
 70
     1
102
RTVSPropertyOp13
 70
     1
102
RTVSPropertyOp14
 70
     1
102
RTVSPropertyOp15
 70
     1
102
RTVSPropertyOp16
 70
     1
102
RTVSPropertyOp17
 70
     1
102
RTVSPropertyOp18
 70
     1
102
RTVSPropertyOp19
 70
     1
102
RTVSPropertyOp20
 70
     1
102
RTVSPropertyOp21
 70
     1
102
RTVSPropertyOp22
 70
     1
102
RTVSPropertyOp23
 70
     1
102
RTVSPropertyOp24
 70
     1
102
RTVSPropertyOp25
 70
     1
102
RTVSPropertyOp26
 70
     1
102
RTVSPropertyOp27
 70
     1
102
RTVSPropertyOp28
 70
     1
102
RTVSPropertyOp29
 70
     1
102
RTVSPropertyOp30
 70
     1
102
RTVSPropertyOp31
 70
     1
102
RTVSPropertyOp32
 70
     1
102
RTVSPropertyOp33
 70
     1
102
RTVSPropertyOp34
 70
     1
102
RTVSPropertyOp35
 70
     1
102
RTVSPropertyOp36
 70
     1
102
RTVSPropertyOp37
 70
     1
102
RTVSPropertyOp38
 70
     1
102
RTVSPropertyOp39
 70
     1
102
RTVSPropertyOp40
 70
     1
102
RTVSPropertyOp41
 70
     1
102
RTVSPropertyOp42
 70
     1
102
RTVSPropertyOp43
 70
     1
102
RTVSPropertyOp44
 70
     1
102
RTVSPropertyOp45
 70
     1
102
RTVSPropertyOp46
 70
     1
102
RTVSPropertyOp47
 70
     1
102
RTVSPropertyOp48
 70
     1
102
RTVSPropertyOp49
 70
     1
102
RTVSPropertyOp50
 70
     1
102
RTVSPropertyOp51
 70
     0
102
RTVSPropertyOp52
 70
     0
102
RTVSPropertyOp53
 70
     1
102
RTVSPropertyOp54
 70
     1
102
RTVSPropertyOp55
 70
     1
102
RTVSPropertyOp56
 70
     1
102
RTVSPropertyOp57
 70
     1
102
RTVSPost2010Prop28
280
     0
102
RTVSPost2010PropOp28
 70
     1
102
RTVSPost2010Prop29
280
     1
102
RTVSPost2010PropOp29
 70
     1
102
RTVSPost2010Prop30
280
     1
102
RTVSPost2010PropOp30
 70
     1
102
RTVSPost2010Prop31
280
     0
102
RTVSPost2010PropOp31
 70
     1
102
RTVSPost2010Prop32
280
     0
102
RTVSPost2010PropOp32
 70
     1
102
RTVSPost2010Prop33
280
     0
102
RTVSPost2010PropOp33
 70
     1
102
RTVSPost2010Prop34
280
     0
102
RTVSPost2010PropOp34
 70
     1
102
RTVSPost2010Prop35
280
     0
102
RTVSPost2010PropOp35
 70
     1
102
RTVSPost2010Prop36
280
     0
102
RTVSPost2010PropOp36
 70
     1
102
RTVSPost2010Prop37
 90
       50
102
RTVSPost2010PropOp37
 70
     1
102
RTVSPost2010Prop38
140
0.0
102
RTVSPost2010PropOp38
 70
     1
102
RTVSPost2010Prop39
140
1.0
102
RTVSPost2010PropOp39
 70
     1
102
RTVSPost2010Prop40
 90
        0
102
RTVSPost2010PropOp40
 70
     1
102
RTVSPost2010Prop41ColorIndex
 90
       18
102
RTVSPost2010Prop41ColorRGB
 90
        0
102
RTVSPost2010PropOp41
 70
     1
102
RTVSPost2010Prop42
 90
       50
102
RTVSPost2010PropOp42
 70
     1
102
RTVSPost2010Prop43
 90
        3
102
RTVSPost2010PropOp43
 70
     1
102
RTVSPost2010Prop44ColorIndex
 90
        5
102
RTVSPost2010Prop44ColorRGB
 90
      255
102
RTVSPost2010PropOp44
 70
     1
102
RTVSPost2010Prop45
280
     0
102
RTVSPost2010PropOp45
 70
     1
102
RTVSPost2010Prop46
 90
       50
102
RTVSPost2010PropOp46
 70
     1
102
RTVSPost2010Prop47
 90
       50
102
RTVSPost2010PropOp47
 70
     1
102
RTVSPost2010Prop48
 90
       50
102
RTVSPost2010PropOp48
 70
     1
102
RTVSPost2010Prop49
280
     0
102
RTVSPost2010PropOp49
 70
     1
102
RTVSPost2010Prop50
 90
       50
102
RTVSPost2010PropOp50
 70
     1
102
RTVSPost2010Prop51ColorIndex
 90
      256
102
RTVSPost2010Prop51ColorRGB
 90
-16777216
102
RTVSPost2010PropOp51
 70
     0
102
RTVSPost2010Prop52
140
1.0
102
RTVSPost2010PropOp52
 70
     0
102
RTVSPost2010Prop53
 90
        2
102
RTVSPost2010PropOp53
 70
     1
102
RTVSPost2010Prop54
  1
strokes_ogs.tif
102
RTVSPost2010PropOp54
 70
     1
102
RTVSPost2010Prop55
280
     0
102
RTVSPost2010PropOp55
 70
     1
102
RTVSPost2010Prop56
140
1.0
102
RTVSPost2010PropOp56
 70
     1
102
RTVSPost2010Prop57
140
1.0
102
RTVSPost2010PropOp57
 70
     1
  0
XRECORD
  5
41D
102
{ACAD_REACTORS
330
41C
102
}
330
41C
100
AcDbXrecord
280
     1
102
RTVSPropertyOp0
 70
     1
102
RTVSPropertyOp1
 70
     1
102
RTVSPropertyOp2
 70
     1
102
RTVSPropertyOp3
 70
     1
102
RTVSPropertyOp4
 70
     1
102
RTVSPropertyOp5
 70
     1
102
RTVSPropertyOp6
 70
     1
102
RTVSPropertyOp7
 70
     1
102
RTVSPropertyOp8
 70
     1
102
RTVSPropertyOp9
 70
     1
102
RTVSPropertyOp10
 70
     1
102
RTVSPropertyOp11
 70
     1
102
RTVSPropertyOp12
 70
     1
102
RTVSPropertyOp13
 70
     1
102
RTVSPropertyOp14
 70
     1
102
RTVSPropertyOp15
 70
     1
102
RTVSPropertyOp16
 70
     1
102
RTVSPropertyOp17
 70
     1
102
RTVSPropertyOp18
 70
     1
102
RTVSPropertyOp19
 70
     1
102
RTVSPropertyOp20
 70
     1
102
RTVSPropertyOp21
 70
     1
102
RTVSPropertyOp22
 70
     1
102
RTVSPropertyOp23
 70
     1
102
RTVSPropertyOp24
 70
     1
102
RTVSPropertyOp25
 70
     1
102
RTVSPropertyOp26
 70
     1
102
RTVSPropertyOp27
 70
     1
102
RTVSPropertyOp28
 70
     1
102
RTVSPropertyOp29
 70
     1
102
RTVSPropertyOp30
 70
     1
102
RTVSPropertyOp31
 70
     1
102
RTVSPropertyOp32
 70
     1
102
RTVSPropertyOp33
 70
     1
102
RTVSPropertyOp34
 70
     1
102
RTVSPropertyOp35
 70
     1
102
RTVSPropertyOp36
 70
     1
102
RTVSPropertyOp37
 70
     1
102
RTVSPropertyOp38
 70
     1
102
RTVSPropertyOp39
 70
     1
102
RTVSPropertyOp40
 70
     1
102
RTVSPropertyOp41
 70
     1
102
RTVSPropertyOp42
 70
     1
102
RTVSPropertyOp43
 70
     1
102
RTVSPropertyOp44
 70
     1
102
RTVSPropertyOp45
 70
     1
102
RTVSPropertyOp46
 70
     1
102
RTVSPropertyOp47
 70
     1
102
RTVSPropertyOp48
 70
     1
102
RTVSPropertyOp49
 70
     1
102
RTVSPropertyOp50
 70
     1
102
RTVSPropertyOp51
 70
     0
102
RTVSPropertyOp52
 70
     0
102
RTVSPropertyOp53
 70
     1
102
RTVSPropertyOp54
 70
     1
102
RTVSPropertyOp55
 70
     1
102
RTVSPropertyOp56
 70
     1
102
RTVSPropertyOp57
 70
     1
102
RTVSPost2010Prop28
280
     0
102
RTVSPost2010PropOp28
 70
     1
102
RTVSPost2010Prop29
280
     1
102
RTVSPost2010PropOp29
 70
     1
102
RTVSPost2010Prop30
280
     1
102
RTVSPost2010PropOp30
 70
     1
102
RTVSPost2010Prop31
280
     0
102
RTVSPost2010PropOp31
 70
     1
102
RTVSPost2010Prop32
280
     0
102
RTVSPost2010PropOp32
 70
     1
102
RTVSPost2010Prop33
280
     0
102
RTVSPost2010PropOp33
 70
     1
102
RTVSPost2010Prop34
280
     0
102
RTVSPost2010PropOp34
 70
     1
102
RTVSPost2010Prop35
280
     0
102
RTVSPost2010PropOp35
 70
     1
102
RTVSPost2010Prop36
280
     0
102
RTVSPost2010PropOp36
 70
     1
102
RTVSPost2010Prop37
 90
       50
102
RTVSPost2010PropOp37
 70
     1
102
RTVSPost2010Prop38
140
0.0
102
RTVSPost2010PropOp38
 70
     1
102
RTVSPost2010Prop39
140
1.0
102
RTVSPost2010PropOp39
 70
     1
102
RTVSPost2010Prop40
 90
        0
102
RTVSPost2010PropOp40
 70
     1
102
RTVSPost2010Prop41ColorIndex
 90
       18
102
RTVSPost2010Prop41ColorRGB
 90
        0
102
RTVSPost2010PropOp41
 70
     1
102
RTVSPost2010Prop42
 90
       50
102
RTVSPost2010PropOp42
 70
     1
102
RTVSPost2010Prop43
 90
        3
102
RTVSPost2010PropOp43
 70
     1
102
RTVSPost2010Prop44ColorIndex
 90
        5
102
RTVSPost2010Prop44ColorRGB
 90
      255
102
RTVSPost2010PropOp44
 70
     1
102
RTVSPost2010Prop45
280
     0
102
RTVSPost2010PropOp45
 70
     1
102
RTVSPost2010Prop46
 90
       50
102
RTVSPost2010PropOp46
 70
     1
102
RTVSPost2010Prop47
 90
       50
102
RTVSPost2010PropOp47
 70
     1
102
RTVSPost2010Prop48
 90
       50
102
RTVSPost2010PropOp48
 70
     1
102
RTVSPost2010Prop49
280
     0
102
RTVSPost2010PropOp49
 70
     1
102
RTVSPost2010Prop50
 90
       50
102
RTVSPost2010PropOp50
 70
     1
102
RTVSPost2010Prop51ColorIndex
 90
      256
102
RTVSPost2010Prop51ColorRGB
 90
-16777216
102
RTVSPost2010PropOp51
 70
     0
102
RTVSPost2010Prop52
140
1.0
102
RTVSPost2010PropOp52
 70
     0
102
RTVSPost2010Prop53
 90
        2
102
RTVSPost2010PropOp53
 70
     1
102
RTVSPost2010Prop54
  1
strokes_ogs.tif
102
RTVSPost2010PropOp54
 70
     1
102
RTVSPost2010Prop55
280
     0
102
RTVSPost2010PropOp55
 70
     1
102
RTVSPost2010Prop56
140
1.0
102
RTVSPost2010PropOp56
 70
     1
102
RTVSPost2010Prop57
140
1.0
102
RTVSPost2010PropOp57
 70
     1
  0
XRECORD
  5
41F
102
{ACAD_REACTORS
330
41E
102
}
330
41E
100
AcDbXrecord
280
     1
102
RTVSPropertyOp0
 70
     1
102
RTVSPropertyOp1
 70
     1
102
RTVSPropertyOp2
 70
     1
102
RTVSPropertyOp3
 70
     1
102
RTVSPropertyOp4
 70
     1
102
RTVSPropertyOp5
 70
     1
102
RTVSPropertyOp6
 70
     1
102
RTVSPropertyOp7
 70
     1
102
RTVSPropertyOp8
 70
     1
102
RTVSPropertyOp9
 70
     1
102
RTVSPropertyOp10
 70
     1
102
RTVSPropertyOp11
 70
     1
102
RTVSPropertyOp12
 70
     1
102
RTVSPropertyOp13
 70
     1
102
RTVSPropertyOp14
 70
     1
102
RTVSPropertyOp15
 70
     1
102
RTVSPropertyOp16
 70
     1
102
RTVSPropertyOp17
 70
     1
102
RTVSPropertyOp18
 70
     1
102
RTVSPropertyOp19
 70
     1
102
RTVSPropertyOp20
 70
     1
102
RTVSPropertyOp21
 70
     1
102
RTVSPropertyOp22
 70
     1
102
RTVSPropertyOp23
 70
     1
102
RTVSPropertyOp24
 70
     1
102
RTVSPropertyOp25
 70
     1
102
RTVSPropertyOp26
 70
     1
102
RTVSPropertyOp27
 70
     1
102
RTVSPropertyOp28
 70
     1
102
RTVSPropertyOp29
 70
     1
102
RTVSPropertyOp30
 70
     1
102
RTVSPropertyOp31
 70
     1
102
RTVSPropertyOp32
 70
     1
102
RTVSPropertyOp33
 70
     1
102
RTVSPropertyOp34
 70
     1
102
RTVSPropertyOp35
 70
     1
102
RTVSPropertyOp36
 70
     1
102
RTVSPropertyOp37
 70
     1
102
RTVSPropertyOp38
 70
     1
102
RTVSPropertyOp39
 70
     1
102
RTVSPropertyOp40
 70
     1
102
RTVSPropertyOp41
 70
     1
102
RTVSPropertyOp42
 70
     1
102
RTVSPropertyOp43
 70
     1
102
RTVSPropertyOp44
 70
     1
102
RTVSPropertyOp45
 70
     1
102
RTVSPropertyOp46
 70
     1
102
RTVSPropertyOp47
 70
     1
102
RTVSPropertyOp48
 70
     1
102
RTVSPropertyOp49
 70
     1
102
RTVSPropertyOp50
 70
     1
102
RTVSPropertyOp51
 70
     0
102
RTVSPropertyOp52
 70
     0
102
RTVSPropertyOp53
 70
     1
102
RTVSPropertyOp54
 70
     1
102
RTVSPropertyOp55
 70
     1
102
RTVSPropertyOp56
 70
     1
102
RTVSPropertyOp57
 70
     1
102
RTVSPost2010Prop28
280
     0
102
RTVSPost2010PropOp28
 70
     1
102
RTVSPost2010Prop29
280
     1
102
RTVSPost2010PropOp29
 70
     1
102
RTVSPost2010Prop30
280
     1
102
RTVSPost2010PropOp30
 70
     1
102
RTVSPost2010Prop31
280
     0
102
RTVSPost2010PropOp31
 70
     1
102
RTVSPost2010Prop32
280
     0
102
RTVSPost2010PropOp32
 70
     1
102
RTVSPost2010Prop33
280
     0
102
RTVSPost2010PropOp33
 70
     1
102
RTVSPost2010Prop34
280
     0
102
RTVSPost2010PropOp34
 70
     1
102
RTVSPost2010Prop35
280
     0
102
RTVSPost2010PropOp35
 70
     1
102
RTVSPost2010Prop36
280
     0
102
RTVSPost2010PropOp36
 70
     1
102
RTVSPost2010Prop37
 90
       50
102
RTVSPost2010PropOp37
 70
     1
102
RTVSPost2010Prop38
140
0.0
102
RTVSPost2010PropOp38
 70
     1
102
RTVSPost2010Prop39
140
1.0
102
RTVSPost2010PropOp39
 70
     1
102
RTVSPost2010Prop40
 90
        0
102
RTVSPost2010PropOp40
 70
     1
102
RTVSPost2010Prop41ColorIndex
 90
       18
102
RTVSPost2010Prop41ColorRGB
 90
        0
102
RTVSPost2010PropOp41
 70
     1
102
RTVSPost2010Prop42
 90
       50
102
RTVSPost2010PropOp42
 70
     1
102
RTVSPost2010Prop43
 90
        3
102
RTVSPost2010PropOp43
 70
     1
102
RTVSPost2010Prop44ColorIndex
 90
        5
102
RTVSPost2010Prop44ColorRGB
 90
      255
102
RTVSPost2010PropOp44
 70
     1
102
RTVSPost2010Prop45
280
     0
102
RTVSPost2010PropOp45
 70
     1
102
RTVSPost2010Prop46
 90
       50
102
RTVSPost2010PropOp46
 70
     1
102
RTVSPost2010Prop47
 90
       50
102
RTVSPost2010PropOp47
 70
     1
102
RTVSPost2010Prop48
 90
       50
102
RTVSPost2010PropOp48
 70
     1
102
RTVSPost2010Prop49
280
     0
102
RTVSPost2010PropOp49
 70
     1
102
RTVSPost2010Prop50
 90
       50
102
RTVSPost2010PropOp50
 70
     1
102
RTVSPost2010Prop51ColorIndex
 90
      256
102
RTVSPost2010Prop51ColorRGB
 90
-16777216
102
RTVSPost2010PropOp51
 70
     0
102
RTVSPost2010Prop52
140
1.0
102
RTVSPost2010PropOp52
 70
     0
102
RTVSPost2010Prop53
 90
        2
102
RTVSPost2010PropOp53
 70
     1
102
RTVSPost2010Prop54
  1
strokes_ogs.tif
102
RTVSPost2010PropOp54
 70
     1
102
RTVSPost2010Prop55
280
     0
102
RTVSPost2010PropOp55
 70
     1
102
RTVSPost2010Prop56
140
1.0
102
RTVSPost2010PropOp56
 70
     1
102
RTVSPost2010Prop57
140
1.0
102
RTVSPost2010PropOp57
 70
     1
  0
XRECORD
  5
40F
102
{ACAD_REACTORS
330
40E
102
}
330
40E
100
AcDbXrecord
280
     1
102
RTVSPropertyOp0
 70
     1
102
RTVSPropertyOp1
 70
     1
102
RTVSPropertyOp2
 70
     1
102
RTVSPropertyOp3
 70
     1
102
RTVSPropertyOp4
 70
     1
102
RTVSPropertyOp5
 70
     1
102
RTVSPropertyOp6
 70
     1
102
RTVSPropertyOp7
 70
     1
102
RTVSPropertyOp8
 70
     1
102
RTVSPropertyOp9
 70
     1
102
RTVSPropertyOp10
 70
     1
102
RTVSPropertyOp11
 70
     1
102
RTVSPropertyOp12
 70
     1
102
RTVSPropertyOp13
 70
     1
102
RTVSPropertyOp14
 70
     1
102
RTVSPropertyOp15
 70
     1
102
RTVSPropertyOp16
 70
     1
102
RTVSPropertyOp17
 70
     1
102
RTVSPropertyOp18
 70
     1
102
RTVSPropertyOp19
 70
     1
102
RTVSPropertyOp20
 70
     1
102
RTVSPropertyOp21
 70
     1
102
RTVSPropertyOp22
 70
     1
102
RTVSPropertyOp23
 70
     1
102
RTVSPropertyOp24
 70
     1
102
RTVSPropertyOp25
 70
     1
102
RTVSPropertyOp26
 70
     1
102
RTVSPropertyOp27
 70
     1
102
RTVSPropertyOp28
 70
     1
102
RTVSPropertyOp29
 70
     1
102
RTVSPropertyOp30
 70
     1
102
RTVSPropertyOp31
 70
     1
102
RTVSPropertyOp32
 70
     1
102
RTVSPropertyOp33
 70
     1
102
RTVSPropertyOp34
 70
     1
102
RTVSPropertyOp35
 70
     1
102
RTVSPropertyOp36
 70
     1
102
RTVSPropertyOp37
 70
     1
102
RTVSPropertyOp38
 70
     1
102
RTVSPropertyOp39
 70
     1
102
RTVSPropertyOp40
 70
     1
102
RTVSPropertyOp41
 70
     1
102
RTVSPropertyOp42
 70
     1
102
RTVSPropertyOp43
 70
     1
102
RTVSPropertyOp44
 70
     1
102
RTVSPropertyOp45
 70
     1
102
RTVSPropertyOp46
 70
     1
102
RTVSPropertyOp47
 70
     1
102
RTVSPropertyOp48
 70
     1
102
RTVSPropertyOp49
 70
     1
102
RTVSPropertyOp50
 70
     1
102
RTVSPropertyOp51
 70
     0
102
RTVSPropertyOp52
 70
     0
102
RTVSPropertyOp53
 70
     1
102
RTVSPropertyOp54
 70
     1
102
RTVSPropertyOp55
 70
     1
102
RTVSPropertyOp56
 70
     1
102
RTVSPropertyOp57
 70
     1
102
RTVSPost2010Prop28
280
     0
102
RTVSPost2010PropOp28
 70
     1
102
RTVSPost2010Prop29
280
     1
102
RTVSPost2010PropOp29
 70
     1
102
RTVSPost2010Prop30
280
     1
102
RTVSPost2010PropOp30
 70
     1
102
RTVSPost2010Prop31
280
     0
102
RTVSPost2010PropOp31
 70
     1
102
RTVSPost2010Prop32
280
     0
102
RTVSPost2010PropOp32
 70
     1
102
RTVSPost2010Prop33
280
     0
102
RTVSPost2010PropOp33
 70
     1
102
RTVSPost2010Prop34
280
     0
102
RTVSPost2010PropOp34
 70
     1
102
RTVSPost2010Prop35
280
     0
102
RTVSPost2010PropOp35
 70
     1
102
RTVSPost2010Prop36
280
     0
102
RTVSPost2010PropOp36
 70
     1
102
RTVSPost2010Prop37
 90
       50
102
RTVSPost2010PropOp37
 70
     1
102
RTVSPost2010Prop38
140
0.0
102
RTVSPost2010PropOp38
 70
     1
102
RTVSPost2010Prop39
140
1.0
102
RTVSPost2010PropOp39
 70
     1
102
RTVSPost2010Prop40
 90
        0
102
RTVSPost2010PropOp40
 70
     1
102
RTVSPost2010Prop41ColorIndex
 90
       18
102
RTVSPost2010Prop41ColorRGB
 90
        0
102
RTVSPost2010PropOp41
 70
     1
102
RTVSPost2010Prop42
 90
       50
102
RTVSPost2010PropOp42
 70
     1
102
RTVSPost2010Prop43
 90
        3
102
RTVSPost2010PropOp43
 70
     1
102
RTVSPost2010Prop44ColorIndex
 90
        5
102
RTVSPost2010Prop44ColorRGB
 90
      255
102
RTVSPost2010PropOp44
 70
     1
102
RTVSPost2010Prop45
280
     0
102
RTVSPost2010PropOp45
 70
     1
102
RTVSPost2010Prop46
 90
       50
102
RTVSPost2010PropOp46
 70
     1
102
RTVSPost2010Prop47
 90
       50
102
RTVSPost2010PropOp47
 70
     1
102
RTVSPost2010Prop48
 90
       50
102
RTVSPost2010PropOp48
 70
     1
102
RTVSPost2010Prop49
280
     0
102
RTVSPost2010PropOp49
 70
     1
102
RTVSPost2010Prop50
 90
       50
102
RTVSPost2010PropOp50
 70
     1
102
RTVSPost2010Prop51ColorIndex
 90
      256
102
RTVSPost2010Prop51ColorRGB
 90
-16777216
102
RTVSPost2010PropOp51
 70
     0
102
RTVSPost2010Prop52
140
1.0
102
RTVSPost2010PropOp52
 70
     0
102
RTVSPost2010Prop53
 90
        2
102
RTVSPost2010PropOp53
 70
     1
102
RTVSPost2010Prop54
  1
strokes_ogs.tif
102
RTVSPost2010PropOp54
 70
     1
102
RTVSPost2010Prop55
280
     0
102
RTVSPost2010PropOp55
 70
     1
102
RTVSPost2010Prop56
140
1.0
102
RTVSPost2010PropOp56
 70
     1
102
RTVSPost2010Prop57
140
1.0
102
RTVSPost2010PropOp57
 70
     1
  0
XRECORD
  5
401
102
{ACAD_REACTORS
330
400
102
}
330
400
100
AcDbXrecord
280
     1
102
RTVSPropertyOp0
 70
     1
102
RTVSPropertyOp1
 70
     1
102
RTVSPropertyOp2
 70
     1
102
RTVSPropertyOp3
 70
     1
102
RTVSPropertyOp4
 70
     1
102
RTVSPropertyOp5
 70
     1
102
RTVSPropertyOp6
 70
     1
102
RTVSPropertyOp7
 70
     1
102
RTVSPropertyOp8
 70
     1
102
RTVSPropertyOp9
 70
     1
102
RTVSPropertyOp10
 70
     1
102
RTVSPropertyOp11
 70
     1
102
RTVSPropertyOp12
 70
     1
102
RTVSPropertyOp13
 70
     1
102
RTVSPropertyOp14
 70
     1
102
RTVSPropertyOp15
 70
     1
102
RTVSPropertyOp16
 70
     1
102
RTVSPropertyOp17
 70
     1
102
RTVSPropertyOp18
 70
     1
102
RTVSPropertyOp19
 70
     1
102
RTVSPropertyOp20
 70
     1
102
RTVSPropertyOp21
 70
     1
102
RTVSPropertyOp22
 70
     1
102
RTVSPropertyOp23
 70
     1
102
RTVSPropertyOp24
 70
     1
102
RTVSPropertyOp25
 70
     1
102
RTVSPropertyOp26
 70
     1
102
RTVSPropertyOp27
 70
     1
102
RTVSPropertyOp28
 70
     1
102
RTVSPropertyOp29
 70
     1
102
RTVSPropertyOp30
 70
     1
102
RTVSPropertyOp31
 70
     1
102
RTVSPropertyOp32
 70
     1
102
RTVSPropertyOp33
 70
     1
102
RTVSPropertyOp34
 70
     1
102
RTVSPropertyOp35
 70
     1
102
RTVSPropertyOp36
 70
     1
102
RTVSPropertyOp37
 70
     1
102
RTVSPropertyOp38
 70
     1
102
RTVSPropertyOp39
 70
     1
102
RTVSPropertyOp40
 70
     1
102
RTVSPropertyOp41
 70
     1
102
RTVSPropertyOp42
 70
     1
102
RTVSPropertyOp43
 70
     1
102
RTVSPropertyOp44
 70
     1
102
RTVSPropertyOp45
 70
     1
102
RTVSPropertyOp46
 70
     1
102
RTVSPropertyOp47
 70
     1
102
RTVSPropertyOp48
 70
     1
102
RTVSPropertyOp49
 70
     1
102
RTVSPropertyOp50
 70
     1
102
RTVSPropertyOp51
 70
     0
102
RTVSPropertyOp52
 70
     0
102
RTVSPropertyOp53
 70
     1
102
RTVSPropertyOp54
 70
     1
102
RTVSPropertyOp55
 70
     1
102
RTVSPropertyOp56
 70
     1
102
RTVSPropertyOp57
 70
     1
102
RTVSPost2010Prop28
280
     0
102
RTVSPost2010PropOp28
 70
     1
102
RTVSPost2010Prop29
280
     1
102
RTVSPost2010PropOp29
 70
     1
102
RTVSPost2010Prop30
280
     1
102
RTVSPost2010PropOp30
 70
     1
102
RTVSPost2010Prop31
280
     0
102
RTVSPost2010PropOp31
 70
     1
102
RTVSPost2010Prop32
280
     0
102
RTVSPost2010PropOp32
 70
     1
102
RTVSPost2010Prop33
280
     0
102
RTVSPost2010PropOp33
 70
     1
102
RTVSPost2010Prop34
280
     0
102
RTVSPost2010PropOp34
 70
     1
102
RTVSPost2010Prop35
280
     0
102
RTVSPost2010PropOp35
 70
     1
102
RTVSPost2010Prop36
280
     0
102
RTVSPost2010PropOp36
 70
     1
102
RTVSPost2010Prop37
 90
       50
102
RTVSPost2010PropOp37
 70
     1
102
RTVSPost2010Prop38
140
0.0
102
RTVSPost2010PropOp38
 70
     1
102
RTVSPost2010Prop39
140
1.0
102
RTVSPost2010PropOp39
 70
     1
102
RTVSPost2010Prop40
 90
        0
102
RTVSPost2010PropOp40
 70
     1
102
RTVSPost2010Prop41ColorIndex
 90
       18
102
RTVSPost2010Prop41ColorRGB
 90
        0
102
RTVSPost2010PropOp41
 70
     1
102
RTVSPost2010Prop42
 90
       50
102
RTVSPost2010PropOp42
 70
     1
102
RTVSPost2010Prop43
 90
        3
102
RTVSPost2010PropOp43
 70
     1
102
RTVSPost2010Prop44ColorIndex
 90
        5
102
RTVSPost2010Prop44ColorRGB
 90
      255
102
RTVSPost2010PropOp44
 70
     1
102
RTVSPost2010Prop45
280
     0
102
RTVSPost2010PropOp45
 70
     1
102
RTVSPost2010Prop46
 90
       50
102
RTVSPost2010PropOp46
 70
     1
102
RTVSPost2010Prop47
 90
       50
102
RTVSPost2010PropOp47
 70
     1
102
RTVSPost2010Prop48
 90
       50
102
RTVSPost2010PropOp48
 70
     1
102
RTVSPost2010Prop49
280
     0
102
RTVSPost2010PropOp49
 70
     1
102
RTVSPost2010Prop50
 90
       50
102
RTVSPost2010PropOp50
 70
     1
102
RTVSPost2010Prop51ColorIndex
 90
      256
102
RTVSPost2010Prop51ColorRGB
 90
-16777216
102
RTVSPost2010PropOp51
 70
     0
102
RTVSPost2010Prop52
140
1.0
102
RTVSPost2010PropOp52
 70
     0
102
RTVSPost2010Prop53
 90
        2
102
RTVSPost2010PropOp53
 70
     1
102
RTVSPost2010Prop54
  1
strokes_ogs.tif
102
RTVSPost2010PropOp54
 70
     1
102
RTVSPost2010Prop55
280
     0
102
RTVSPost2010PropOp55
 70
     1
102
RTVSPost2010Prop56
140
1.0
102
RTVSPost2010PropOp56
 70
     1
102
RTVSPost2010Prop57
140
1.0
102
RTVSPost2010PropOp57
 70
     1
  0
XRECORD
  5
421
102
{ACAD_REACTORS
330
420
102
}
330
420
100
AcDbXrecord
280
     1
102
RTVSPropertyOp0
 70
     1
102
RTVSPropertyOp1
 70
     1
102
RTVSPropertyOp2
 70
     1
102
RTVSPropertyOp3
 70
     1
102
RTVSPropertyOp4
 70
     1
102
RTVSPropertyOp5
 70
     1
102
RTVSPropertyOp6
 70
     1
102
RTVSPropertyOp7
 70
     1
102
RTVSPropertyOp8
 70
     1
102
RTVSPropertyOp9
 70
     1
102
RTVSPropertyOp10
 70
     1
102
RTVSPropertyOp11
 70
     1
102
RTVSPropertyOp12
 70
     1
102
RTVSPropertyOp13
 70
     1
102
RTVSPropertyOp14
 70
     1
102
RTVSPropertyOp15
 70
     1
102
RTVSPropertyOp16
 70
     1
102
RTVSPropertyOp17
 70
     1
102
RTVSPropertyOp18
 70
     1
102
RTVSPropertyOp19
 70
     1
102
RTVSPropertyOp20
 70
     1
102
RTVSPropertyOp21
 70
     1
102
RTVSPropertyOp22
 70
     1
102
RTVSPropertyOp23
 70
     1
102
RTVSPropertyOp24
 70
     1
102
RTVSPropertyOp25
 70
     1
102
RTVSPropertyOp26
 70
     1
102
RTVSPropertyOp27
 70
     1
102
RTVSPropertyOp28
 70
     1
102
RTVSPropertyOp29
 70
     1
102
RTVSPropertyOp30
 70
     1
102
RTVSPropertyOp31
 70
     1
102
RTVSPropertyOp32
 70
     1
102
RTVSPropertyOp33
 70
     1
102
RTVSPropertyOp34
 70
     1
102
RTVSPropertyOp35
 70
     1
102
RTVSPropertyOp36
 70
     1
102
RTVSPropertyOp37
 70
     1
102
RTVSPropertyOp38
 70
     1
102
RTVSPropertyOp39
 70
     1
102
RTVSPropertyOp40
 70
     1
102
RTVSPropertyOp41
 70
     1
102
RTVSPropertyOp42
 70
     1
102
RTVSPropertyOp43
 70
     1
102
RTVSPropertyOp44
 70
     1
102
RTVSPropertyOp45
 70
     1
102
RTVSPropertyOp46
 70
     1
102
RTVSPropertyOp47
 70
     1
102
RTVSPropertyOp48
 70
     1
102
RTVSPropertyOp49
 70
     1
102
RTVSPropertyOp50
 70
     1
102
RTVSPropertyOp51
 70
     0
102
RTVSPropertyOp52
 70
     0
102
RTVSPropertyOp53
 70
     1
102
RTVSPropertyOp54
 70
     1
102
RTVSPropertyOp55
 70
     1
102
RTVSPropertyOp56
 70
     1
102
RTVSPropertyOp57
 70
     1
102
RTVSPost2010Prop28
280
     0
102
RTVSPost2010PropOp28
 70
     1
102
RTVSPost2010Prop29
280
     1
102
RTVSPost2010PropOp29
 70
     1
102
RTVSPost2010Prop30
280
     1
102
RTVSPost2010PropOp30
 70
     1
102
RTVSPost2010Prop31
280
     0
102
RTVSPost2010PropOp31
 70
     1
102
RTVSPost2010Prop32
280
     0
102
RTVSPost2010PropOp32
 70
     1
102
RTVSPost2010Prop33
280
     0
102
RTVSPost2010PropOp33
 70
     1
102
RTVSPost2010Prop34
280
     0
102
RTVSPost2010PropOp34
 70
     1
102
RTVSPost2010Prop35
280
     0
102
RTVSPost2010PropOp35
 70
     1
102
RTVSPost2010Prop36
280
     0
102
RTVSPost2010PropOp36
 70
     1
102
RTVSPost2010Prop37
 90
       50
102
RTVSPost2010PropOp37
 70
     1
102
RTVSPost2010Prop38
140
0.0
102
RTVSPost2010PropOp38
 70
     1
102
RTVSPost2010Prop39
140
1.0
102
RTVSPost2010PropOp39
 70
     1
102
RTVSPost2010Prop40
 90
        0
102
RTVSPost2010PropOp40
 70
     1
102
RTVSPost2010Prop41ColorIndex
 90
       18
102
RTVSPost2010Prop41ColorRGB
 90
        0
102
RTVSPost2010PropOp41
 70
     1
102
RTVSPost2010Prop42
 90
       50
102
RTVSPost2010PropOp42
 70
     1
102
RTVSPost2010Prop43
 90
        3
102
RTVSPost2010PropOp43
 70
     1
102
RTVSPost2010Prop44ColorIndex
 90
        5
102
RTVSPost2010Prop44ColorRGB
 90
      255
102
RTVSPost2010PropOp44
 70
     1
102
RTVSPost2010Prop45
280
     0
102
RTVSPost2010PropOp45
 70
     1
102
RTVSPost2010Prop46
 90
       50
102
RTVSPost2010PropOp46
 70
     1
102
RTVSPost2010Prop47
 90
       50
102
RTVSPost2010PropOp47
 70
     1
102
RTVSPost2010Prop48
 90
       50
102
RTVSPost2010PropOp48
 70
     1
102
RTVSPost2010Prop49
280
     0
102
RTVSPost2010PropOp49
 70
     1
102
RTVSPost2010Prop50
 90
       50
102
RTVSPost2010PropOp50
 70
     1
102
RTVSPost2010Prop51ColorIndex
 90
      256
102
RTVSPost2010Prop51ColorRGB
 90
-16777216
102
RTVSPost2010PropOp51
 70
     0
102
RTVSPost2010Prop52
140
1.0
102
RTVSPost2010PropOp52
 70
     0
102
RTVSPost2010Prop53
 90
        2
102
RTVSPost2010PropOp53
 70
     1
102
RTVSPost2010Prop54
  1
strokes_ogs.tif
102
RTVSPost2010PropOp54
 70
     1
102
RTVSPost2010Prop55
280
     0
102
RTVSPost2010PropOp55
 70
     1
102
RTVSPost2010Prop56
140
1.0
102
RTVSPost2010PropOp56
 70
     1
102
RTVSPost2010Prop57
140
1.0
102
RTVSPost2010PropOp57
 70
     1
  0
ENDSEC
  0
EOF
