  0
SECTION
  2
HEADER
  9
$ACADVER
  1
AC1015
  9
$ACADMAINTVER
 70
     6
  9
$DWGCODEPAGE
  3
ANSI_932
  9
$INSBASE
 10
0.0
 20
0.0
 30
0.0
  9
$EXTMIN
 10
0.0
 20
0.0
 30
0.0
  9
$EXTMAX
 10
209.0
 20
296.0
 30
0.0
  9
$LIMMIN
 10
0.0
 20
0.0
  9
$LIMMAX
 10
209.0
 20
296.0
  9
$ORTHOMODE
 70
     0
  9
$REGENMODE
 70
     1
  9
$FILLMODE
 70
     1
  9
$QTEXTMODE
 70
     0
  9
$MIRRTEXT
 70
     1
  9
$LTSCALE
 40
1.0
  9
$ATTMODE
 70
     1
  9
$TEXTSIZE
 40
2.5
  9
$TRACEWID
 40
1.0
  9
$TEXTSTYLE
  7
Standard
  9
$CLAYER
  8
0
  9
$CELTYPE
  6
ByLayer
  9
$CECOLOR
 62
   256
  9
$CELTSCALE
 40
1.0
  9
$DISPSILH
 70
     0
  9
$DIMSCALE
 40
1.0
  9
$DIMASZ
 40
2.5
  9
$DIMEXO
 40
0.625
  9
$DIMDLI
 40
3.75
  9
$DIMRND
 40
0.0
  9
$DIMDLE
 40
0.0
  9
$DIMEXE
 40
1.25
  9
$DIMTP
 40
0.0
  9
$DIMTM
 40
0.0
  9
$DIMTXT
 40
2.5
  9
$DIMCEN
 40
2.5
  9
$DIMTSZ
 40
0.0
  9
$DIMTOL
 70
     0
  9
$DIMLIM
 70
     0
  9
$DIMTIH
 70
     0
  9
$DIMTOH
 70
     0
  9
$DIMSE1
 70
     0
  9
$DIMSE2
 70
     0
  9
$DIMTAD
 70
     1
  9
$DIMZIN
 70
     8
  9
$DIMBLK
  1

  9
$DIMASO
 70
     1
  9
$DIMSHO
 70
     1
  9
$DIMPOST
  1

  9
$DIMAPOST
  1

  9
$DIMALT
 70
     0
  9
$DIMALTD
 70
     3
  9
$DIMALTF
 40
0.0393700787
  9
$DIMLFAC
 40
1.0
  9
$DIMTOFL
 70
     1
  9
$DIMTVP
 40
0.0
  9
$DIMTIX
 70
     0
  9
$DIMSOXD
 70
     0
  9
$DIMSAH
 70
     0
  9
$DIMBLK1
  1

  9
$DIMBLK2
  1

  9
$DIMSTYLE
  2
ISO-25
  9
$DIMCLRD
 70
     0
  9
$DIMCLRE
 70
     0
  9
$DIMCLRT
 70
     0
  9
$DIMTFAC
 40
1.0
  9
$DIMGAP
 40
0.625
  9
$DIMJUST
 70
     0
  9
$DIMSD1
 70
     0
  9
$DIMSD2
 70
     0
  9
$DIMTOLJ
 70
     0
  9
$DIMTZIN
 70
     8
  9
$DIMALTZ
 70
     0
  9
$DIMALTTZ
 70
     0
  9
$DIMUPT
 70
     0
  9
$DIMDEC
 70
     2
  9
$DIMTDEC
 70
     2
  9
$DIMALTU
 70
     2
  9
$DIMALTTD
 70
     3
  9
$DIMTXSTY
  7
Standard
  9
$DIMAUNIT
 70
     0
  9
$DIMADEC
 70
     0
  9
$DIMALTRND
 40
0.0
  9
$DIMAZIN
 70
     0
  9
$DIMDSEP
 70
    44
  9
$DIMATFIT
 70
     3
  9
$DIMFRAC
 70
     0
  9
$DIMLDRBLK
  1

  9
$DIMLUNIT
 70
     2
  9
$DIMLWD
 70
    -2
  9
$DIMLWE
 70
    -2
  9
$DIMTMOVE
 70
     0
  9
$LUNITS
 70
     2
  9
$LUPREC
 70
     4
  9
$SKETCHINC
 40
1.0
  9
$FILLETRAD
 40
10.0
  9
$AUNITS
 70
     0
  9
$AUPREC
 70
     0
  9
$MENU
  1
.
  9
$ELEVATION
 40
0.0
  9
$PELEVATION
 40
0.0
  9
$THICKNESS
 40
0.0
  9
$LIMCHECK
 70
     0
  9
$CHAMFERA
 40
0.0
  9
$CHAMFERB
 40
0.0
  9
$CHAMFERC
 40
0.0
  9
$CHAMFERD
 40
0.0
  9
$SKPOLY
 70
     0
  9
$TDCREATE
 40
2458163.576889664
  9
$TDUCREATE
 40
2458163.201889664
  9
$TDUPDATE
 40
2458163.576890926
  9
$TDUUPDATE
 40
2458163.201890926
  9
$TDINDWG
 40
0.0000000116
  9
$TDUSRTIMER
 40
0.0000000116
  9
$USRTIMER
 70
     1
  9
$ANGBASE
 50
0.0
  9
$ANGDIR
 70
     0
  9
$PDMODE
 70
     0
  9
$PDSIZE
 40
0.0
  9
$PLINEWID
 40
0.0
  9
$SPLFRAME
 70
     0
  9
$SPLINETYPE
 70
     6
  9
$SPLINESEGS
 70
     8
  9
$HANDSEED
  5
2FB
  9
$SURFTAB1
 70
     6
  9
$SURFTAB2
 70
     6
  9
$SURFTYPE
 70
     6
  9
$SURFU
 70
     6
  9
$SURFV
 70
     6
  9
$UCSBASE
  2

  9
$UCSNAME
  2

  9
$UCSORG
 10
0.0
 20
0.0
 30
0.0
  9
$UCSXDIR
 10
1.0
 20
0.0
 30
0.0
  9
$UCSYDIR
 10
0.0
 20
1.0
 30
0.0
  9
$UCSORTHOREF
  2

  9
$UCSORTHOVIEW
 70
     0
  9
$UCSORGTOP
 10
0.0
 20
0.0
 30
0.0
  9
$UCSORGBOTTOM
 10
0.0
 20
0.0
 30
0.0
  9
$UCSORGLEFT
 10
0.0
 20
0.0
 30
0.0
  9
$UCSORGRIGHT
 10
0.0
 20
0.0
 30
0.0
  9
$UCSORGFRONT
 10
0.0
 20
0.0
 30
0.0
  9
$UCSORGBACK
 10
0.0
 20
0.0
 30
0.0
  9
$PUCSBASE
  2

  9
$PUCSNAME
  2

  9
$PUCSORG
 10
0.0
 20
0.0
 30
0.0
  9
$PUCSXDIR
 10
1.0
 20
0.0
 30
0.0
  9
$PUCSYDIR
 10
0.0
 20
1.0
 30
0.0
  9
$PUCSORTHOREF
  2

  9
$PUCSORTHOVIEW
 70
     0
  9
$PUCSORGTOP
 10
0.0
 20
0.0
 30
0.0
  9
$PUCSORGBOTTOM
 10
0.0
 20
0.0
 30
0.0
  9
$PUCSORGLEFT
 10
0.0
 20
0.0
 30
0.0
  9
$PUCSORGRIGHT
 10
0.0
 20
0.0
 30
0.0
  9
$PUCSORGFRONT
 10
0.0
 20
0.0
 30
0.0
  9
$PUCSORGBACK
 10
0.0
 20
0.0
 30
0.0
  9
$USERI1
 70
     0
  9
$USERI2
 70
     0
  9
$USERI3
 70
     0
  9
$USERI4
 70
     0
  9
$USERI5
 70
     0
  9
$USERR1
 40
0.0
  9
$USERR2
 40
0.0
  9
$USERR3
 40
0.0
  9
$USERR4
 40
0.0
  9
$USERR5
 40
0.0
  9
$WORLDVIEW
 70
     1
  9
$SHADEDGE
 70
     3
  9
$SHADEDIF
 70
    70
  9
$TILEMODE
 70
     1
  9
$MAXACTVP
 70
    64
  9
$PINSBASE
 10
0.0
 20
0.0
 30
0.0
  9
$PLIMCHECK
 70
     0
  9
$PEXTMIN
 10
0.0
 20
0.0
 30
0.0
  9
$PEXTMAX
 10
209.0
 20
296.0
 30
0.0
  9
$PLIMMIN
 10
0.0
 20
0.0
  9
$PLIMMAX
 10
209.0
 20
296.0
  9
$UNITMODE
 70
     0
  9
$VISRETAIN
 70
     1
  9
$PLINEGEN
 70
     0
  9
$PSLTSCALE
 70
     1
  9
$TREEDEPTH
 70
  3020
  9
$CMLSTYLE
  2
Standard
  9
$CMLJUST
 70
     0
  9
$CMLSCALE
 40
20.0
  9
$PROXYGRAPHICS
 70
     1
  9
$MEASUREMENT
 70
     1
  9
$CELWEIGHT
370
    -1
  9
$ENDCAPS
280
     0
  9
$JOINSTYLE
280
     0
  9
$LWDISPLAY
290
     0
  9
$INSUNITS
 70
     4
  9
$HYPERLINKBASE
  1

  9
$STYLESHEET
  1

  9
$XEDIT
290
     1
  9
$CEPSNTYPE
380
     0
  9
$PSTYLEMODE
290
     1
  9
$FINGERPRINTGUID
  2
{1C0142A5-E89A-4A08-BF1F-F047E66D27C2}
  9
$VERSIONGUID
  2
{FAEB1C32-E019-11D5-929B-00C0DF256EC4}
  9
$EXTNAMES
290
     1
  9
$PSVPSCALE
 40
0.0
  9
$OLESTARTUP
290
     0
  0
ENDSEC
  0
SECTION
  2
CLASSES
  0
CLASS
  1
ACDBDICTIONARYWDFLT
  2
AcDbDictionaryWithDefault
  3
ObjectDBX Classes
 90
        0
280
     0
281
     0
  0
CLASS
  1
VISUALSTYLE
  2
AcDbVisualStyle
  3
ObjectDBX Classes
 90
     4095
280
     0
281
     0
  0
CLASS
  1
MATERIAL
  2
AcDbMaterial
  3
ObjectDBX Classes
 90
     1153
280
     0
281
     0
  0
CLASS
  1
SCALE
  2
AcDbScale
  3
ObjectDBX Classes
 90
     1153
280
     0
281
     0
  0
CLASS
  1
SUN
  2
AcDbSun
  3
SCENEOE
 90
     1153
280
     0
281
     0
  0
CLASS
  1
DICTIONARYVAR
  2
AcDbDictionaryVar
  3
ObjectDBX Classes
 90
        0
280
     0
281
     0
  0
CLASS
  1
ACDBPLACEHOLDER
  2
AcDbPlaceHolder
  3
ObjectDBX Classes
 90
        0
280
     0
281
     0
  0
CLASS
  1
LAYOUT
  2
AcDbLayout
  3
ObjectDBX Classes
 90
        0
280
     0
281
     0
  0
ENDSEC
  0
SECTION
  2
TABLES
  0
TABLE
  2
VPORT
  5
8
330
0
100
AcDbSymbolTable
 70
     1
  0
VPORT
  5
29
330
8
100
AcDbSymbolTableRecord
100
AcDbViewportTableRecord
  2
*Active
 70
     0
 10
0.0
 20
0.0
 11
1.0
 21
1.0
 12
344.1869158879
 22
148.5
 13
0.0
 23
0.0
 14
10.0
 24
10.0
 15
10.0
 25
10.0
 16
0.0
 26
0.0
 36
1.0
 17
0.0
 27
0.0
 37
0.0
 40
297.0
 41
1.9729729729
 42
50.0
 43
0.0
 44
0.0
 50
0.0
 51
0.0
 71
     0
 72
   100
 73
     1
 74
     3
 75
     0
 76
     0
 77
     0
 78
     0
281
     0
 65
     1
110
0.0
120
0.0
130
0.0
111
1.0
121
0.0
131
0.0
112
0.0
122
1.0
132
0.0
 79
     0
146
0.0
  0
ENDTAB
  0
TABLE
  2
LTYPE
  5
5
330
0
100
AcDbSymbolTable
 70
     1
  0
LTYPE
  5
14
330
5
100
AcDbSymbolTableRecord
100
AcDbLinetypeTableRecord
  2
ByBlock
 70
     0
  3

 72
    65
 73
     0
 40
0.0
  0
LTYPE
  5
15
330
5
100
AcDbSymbolTableRecord
100
AcDbLinetypeTableRecord
  2
ByLayer
 70
     0
  3

 72
    65
 73
     0
 40
0.0
  0
LTYPE
  5
16
330
5
100
AcDbSymbolTableRecord
100
AcDbLinetypeTableRecord
  2
Continuous
 70
     0
  3
Solid line
 72
    65
 73
     0
 40
0.0
  0
ENDTAB
  0
TABLE
  2
LAYER
  5
2
330
0
100
AcDbSymbolTable
 70
     7
  0
LAYER
  5
10
330
2
100
AcDbSymbolTableRecord
100
AcDbLayerTableRecord
  2
0
 70
     0
 62
     7
  6
Continuous
370
    -3
390
F
  0
LAYER
  5
6A
330
2
100
AcDbSymbolTableRecord
100
AcDbLayerTableRecord
  2
Default
 70
     0
 62
     7
  6
Continuous
370
    -3
390
F
  0
LAYER
  5
75
330
2
100
AcDbSymbolTableRecord
100
AcDbLayerTableRecord
  2
Standard
 70
     0
 62
     7
  6
Continuous
370
    -3
390
F
  0
LAYER
  5
134
330
2
100
AcDbSymbolTableRecord
100
AcDbLayerTableRecord
  2
Layer3
 70
     0
 62
     7
  6
Continuous
370
    -3
390
F
  0
LAYER
  5
15A
330
2
100
AcDbSymbolTableRecord
100
AcDbLayerTableRecord
  2
09841K31_RING_AN
 70
     0
 62
     7
  6
Continuous
370
    -3
390
F
  0
LAYER
  5
1A0
330
2
100
AcDbSymbolTableRecord
100
AcDbLayerTableRecord
  2
DV2_0
 70
     0
 62
     7
  6
Continuous
370
    -3
390
F
  0
LAYER
  5
278
330
2
100
AcDbSymbolTableRecord
100
AcDbLayerTableRecord
  2
Layer1
 70
     0
 62
     7
  6
Continuous
370
    -3
390
F
  0
ENDTAB
  0
TABLE
  2
STYLE
  5
3
330
0
100
AcDbSymbolTable
 70
     2
  0
STYLE
  5
11
330
3
100
AcDbSymbolTableRecord
100
AcDbTextStyleTableRecord
  2
Standard
 70
     0
 40
0.0
 41
1.0
 50
0.0
 71
     0
 42
2.5
  3
txt
  4

  0
STYLE
  5
1E8
330
3
100
AcDbSymbolTableRecord
100
AcDbTextStyleTableRecord
  2
SEACAD_Arial
 70
     0
 40
0.0
 41
1.0
 50
0.0
 71
     0
 42
2.5
  3
arial.ttf
  4

1001
ACAD
1000
Arial
1071
        0
  0
ENDTAB
  0
TABLE
  2
VIEW
  5
6
330
0
100
AcDbSymbolTable
 70
     0
  0
ENDTAB
  0
TABLE
  2
UCS
  5
7
330
0
100
AcDbSymbolTable
 70
     0
  0
ENDTAB
  0
TABLE
  2
APPID
  5
9
330
0
100
AcDbSymbolTable
 70
     1
  0
APPID
  5
12
330
9
100
AcDbSymbolTableRecord
100
AcDbRegAppTableRecord
  2
ACAD
 70
     0
  0
ENDTAB
  0
TABLE
  2
DIMSTYLE
  5
A
330
0
100
AcDbSymbolTable
 70
     2
100
AcDbDimStyleTable
  0
DIMSTYLE
105
27
330
A
100
AcDbSymbolTableRecord
100
AcDbDimStyleTableRecord
  2
ISO-25
 70
     0
 41
2.5
 42
0.625
 43
3.75
 44
1.25
 73
     0
 74
     0
 77
     1
 78
     8
140
2.5
141
2.5
143
0.0393700787
147
0.625
171
     3
172
     1
178
     0
271
     2
272
     2
274
     3
278
    44
283
     0
284
     8
340
11
  0
DIMSTYLE
105
1D6
102
{ACAD_REACTORS
330
1E9
330
1F4
330
1FF
330
20A
330
215
330
220
330
22A
330
235
330
23E
330
249
330
252
102
}
330
A
100
AcDbSymbolTableRecord
100
AcDbDimStyleTableRecord
  2
Standard
 70
     0
178
     0
340
11
  0
ENDTAB
  0
TABLE
  2
BLOCK_RECORD
  5
1
330
0
100
AcDbSymbolTable
 70
    18
  0
BLOCK_RECORD
  5
1F
330
1
100
AcDbSymbolTableRecord
100
AcDbBlockTableRecord
  2
*Model_Space
340
22
  0
BLOCK_RECORD
  5
1B
330
1
100
AcDbSymbolTableRecord
100
AcDbBlockTableRecord
  2
*Paper_Space
340
1E
  0
BLOCK_RECORD
  5
158
330
1
100
AcDbSymbolTableRecord
100
AcDbBlockTableRecord
  2
SE
340
0
102
{BLKREFS
331
159
102
}
  0
BLOCK_RECORD
  5
19E
330
1
100
AcDbSymbolTableRecord
100
AcDbBlockTableRecord
  2
SE1
340
0
102
{BLKREFS
331
19F
102
}
  0
BLOCK_RECORD
  5
1D7
330
1
100
AcDbSymbolTableRecord
100
AcDbBlockTableRecord
  2
_OBLIQUE
340
0
  0
BLOCK_RECORD
  5
1DB
330
1
100
AcDbSymbolTableRecord
100
AcDbBlockTableRecord
  2
_DOT
340
0
  0
BLOCK_RECORD
  5
1E3
330
1
100
AcDbSymbolTableRecord
100
AcDbBlockTableRecord
  2
_SE_FILLED
340
0
  0
BLOCK_RECORD
  5
1EA
330
1
100
AcDbSymbolTableRecord
100
AcDbBlockTableRecord
  2
DMBLK131
340
0
  0
BLOCK_RECORD
  5
1F5
330
1
100
AcDbSymbolTableRecord
100
AcDbBlockTableRecord
  2
DMBLK132
340
0
  0
BLOCK_RECORD
  5
200
330
1
100
AcDbSymbolTableRecord
100
AcDbBlockTableRecord
  2
DMBLK133
340
0
  0
BLOCK_RECORD
  5
20B
330
1
100
AcDbSymbolTableRecord
100
AcDbBlockTableRecord
  2
DMBLK134
340
0
  0
BLOCK_RECORD
  5
216
330
1
100
AcDbSymbolTableRecord
100
AcDbBlockTableRecord
  2
DMBLK135
340
0
  0
BLOCK_RECORD
  5
221
330
1
100
AcDbSymbolTableRecord
100
AcDbBlockTableRecord
  2
DMBLK136
340
0
  0
BLOCK_RECORD
  5
22B
330
1
100
AcDbSymbolTableRecord
100
AcDbBlockTableRecord
  2
DMBLK137
340
0
  0
BLOCK_RECORD
  5
236
330
1
100
AcDbSymbolTableRecord
100
AcDbBlockTableRecord
  2
DMBLK138
340
0
  0
BLOCK_RECORD
  5
23F
330
1
100
AcDbSymbolTableRecord
100
AcDbBlockTableRecord
  2
DMBLK139
340
0
  0
BLOCK_RECORD
  5
24A
330
1
100
AcDbSymbolTableRecord
100
AcDbBlockTableRecord
  2
DMBLK140
340
0
  0
BLOCK_RECORD
  5
253
330
1
100
AcDbSymbolTableRecord
100
AcDbBlockTableRecord
  2
DMBLK141
340
0
  0
BLOCK_RECORD
  5
279
330
1
100
AcDbSymbolTableRecord
100
AcDbBlockTableRecord
  2
symb_tb_GroheLogo2013_ori
340
0
102
{BLKREFS
331
2B9
102
}
  0
ENDTAB
  0
ENDSEC
  0
SECTION
  2
BLOCKS
  0
BLOCK
  5
20
330
1F
100
AcDbEntity
  8
0
100
AcDbBlockBegin
  2
*Model_Space
 70
     0
 10
0.0
 20
0.0
 30
0.0
  3
*Model_Space
  1
*Model_Space
  0
ENDBLK
  5
21
330
1F
100
AcDbEntity
  8
0
100
AcDbBlockEnd
  0
BLOCK
  5
1C
330
1B
100
AcDbEntity
 67
     1
  8
0
100
AcDbBlockBegin
  2
*Paper_Space
 70
     0
 10
0.0
 20
0.0
 30
0.0
  3
*Paper_Space
  1
*Paper_Space
  0
ENDBLK
  5
1D
330
1B
100
AcDbEntity
 67
     1
  8
0
100
AcDbBlockEnd
  0
BLOCK
  5
19C
330
158
100
AcDbEntity
  8
0
100
AcDbBlockBegin
  2
SE
 70
     0
 10
0.0
 20
0.0
 30
0.0
  3
SE
  1
SE
  0
SPLINE
  5
15B
330
158
100
AcDbEntity
  8
09841K31_RING_AN
  6
Continuous
 62
     7
100
AcDbSpline
210
0.0
220
0.0
230
1.0
 70
     8
 71
     3
 72
    23
 73
    19
 74
     0
 42
0.000000001
 43
0.0000000001
 40
0.0
 40
0.0
 40
0.0
 40
0.0
 40
0.1265682291621881
 40
0.1265682291621881
 40
0.1265682291621881
 40
0.2523457621902336
 40
0.2523457621902336
 40
0.2523457621902336
 40
0.4418320186206078
 40
0.4418320186206078
 40
0.4418320186206078
 40
0.5842671745463797
 40
0.5842671745463797
 40
0.5842671745463797
 40
0.7269213500832622
 40
0.7269213500832622
 40
0.7269213500832622
 40
1.0
 40
1.0
 40
1.0
 40
1.0
 10
109.3949540304511
 20
269.1508181113471
 30
0.0
 10
109.392151147372
 20
269.1231495706817
 30
0.0
 10
109.3892757026859
 20
269.0993595844416
 30
0.0
 10
109.3812210663863
 20
269.0763410240981
 30
0.0
 10
109.3732167489528
 20
269.0534662651398
 30
0.0
 10
109.3600977485927
 20
269.0313533236923
 30
0.0
 10
109.3448900947168
 20
269.0115673963019
 30
0.0
 10
109.3219794736172
 20
268.9817595186872
 30
0.0
 10
109.2943284448899
 20
268.9572330317403
 30
0.0
 10
109.2642589672586
 20
268.9368696663761
 30
0.0
 10
109.2416560048289
 20
268.9215627033516
 30
0.0
 10
109.2176865227671
 20
268.9086080692784
 30
0.0
 10
109.1926957728508
 20
268.8975841398499
 30
0.0
 10
109.1676665951722
 20
268.8865432591517
 30
0.0
 10
109.1416130064592
 20
268.8774390252731
 30
0.0
 10
109.1158974516407
 20
268.8707838685818
 30
0.0
 10
109.0666709290714
 20
268.858044099855
 30
0.0
 10
109.0186831082971
 20
268.8542788048622
 30
0.0
 10
108.9617994937192
 20
268.8508181113471
 30
0.0
  0
SPLINE
  5
15C
330
158
100
AcDbEntity
  8
09841K31_RING_AN
  6
Continuous
 62
     7
100
AcDbSpline
210
0.0
220
0.0
230
1.0
 70
     8
 71
     3
 72
    20
 73
    16
 74
     0
 42
0.000000001
 43
0.0000000001
 40
0.0
 40
0.0
 40
0.0
 40
0.0
 40
0.2851675103273436
 40
0.2851675103273436
 40
0.2851675103273436
 40
0.53086241254947
 40
0.53086241254947
 40
0.53086241254947
 40
0.7250288895169203
 40
0.7250288895169203
 40
0.7250288895169203
 40
0.8874993330557535
 40
0.8874993330557535
 40
0.8874993330557535
 40
1.0
 40
1.0
 40
1.0
 40
1.0
 10
106.6929939521062
 20
268.8508181113471
 30
0.0
 10
106.7481197321002
 20
268.855014462795
 30
0.0
 10
106.7951038966517
 20
268.8599767172558
 30
0.0
 10
106.8417334295519
 20
268.8754743818407
 30
0.0
 10
106.881908548076
 20
268.8888268748386
 30
0.0
 10
106.9218204158013
 20
268.9100000322362
 30
0.0
 10
106.9562861706917
 20
268.9369638512235
 30
0.0
 10
106.9835235864565
 20
268.958272676482
 30
0.0
 10
107.0073597186212
 20
268.9831979678138
 30
0.0
 10
107.0264723582469
 20
269.0123663542392
 30
0.0
 10
107.0424650212734
 20
269.0367732485387
 30
0.0
 10
107.0551504614147
 20
269.0641510083752
 30
0.0
 10
107.0616702266761
 20
269.0913311878871
 30
0.0
 10
107.0661847582073
 20
269.1101517699952
 30
0.0
 10
107.0677430334466
 20
269.12887761826
 30
0.0
 10
107.0691907731811
 20
269.1508181113471
 30
0.0
  0
SPLINE
  5
15D
330
158
100
AcDbEntity
  8
09841K31_RING_AN
  6
Continuous
 62
     7
100
AcDbSpline
210
0.0
220
0.0
230
1.0
 70
     8
 71
     3
 72
    23
 73
    19
 74
     0
 42
0.000000001
 43
0.0000000001
 40
0.0
 40
0.0
 40
0.0
 40
0.0
 40
0.1870390560097791
 40
0.1870390560097791
 40
0.1870390560097791
 40
0.3739210750585424
 40
0.3739210750585424
 40
0.3739210750585424
 40
0.6090062717493573
 40
0.6090062717493573
 40
0.6090062717493573
 40
0.7762803617148623
 40
0.7762803617148623
 40
0.7762803617148623
 40
0.9026071396400148
 40
0.9026071396400148
 40
0.9026071396400148
 40
1.0
 40
1.0
 40
1.0
 40
1.0
 10
108.9617994937192
 20
271.950818111347
 30
0.0
 10
109.0008127223358
 20
271.949187598233
 30
0.0
 10
109.0338211811113
 20
271.9473027146021
 30
0.0
 10
109.0678525818863
 20
271.9415313029361
 30
0.0
 10
109.1018554100847
 20
271.9357647369155
 30
0.0
 10
109.1368794632909
 20
271.9261181663351
 30
0.0
 10
109.1704618998496
 20
271.9131802409779
 30
0.0
 10
109.2127063797838
 20
271.8969051881779
 30
0.0
 10
109.2526696494449
 20
271.8754219045056
 30
0.0
 10
109.2880828117276
 20
271.8473002542428
 30
0.0
 10
109.3132809295888
 20
271.8272903875126
 30
0.0
 10
109.336175334135
 20
271.8039195246052
 30
0.0
 10
109.3547825902269
 20
271.7762809950946
 30
0.0
 10
109.3688349441127
 20
271.7554081487357
 30
0.0
 10
109.3804421676887
 20
271.7321012833373
 30
0.0
 10
109.386746550422
 20
271.7085736802449
 30
0.0
 10
109.3916069757196
 20
271.6904348453897
 30
0.0
 10
109.3933155041685
 20
271.6721648087009
 30
0.0
 10
109.3949540304511
 20
271.6508181113471
 30
0.0
  0
SPLINE
  5
15E
330
158
100
AcDbEntity
  8
09841K31_RING_AN
  6
Continuous
 62
     7
100
AcDbSpline
210
0.0
220
0.0
230
1.0
 70
     8
 71
     3
 72
    20
 73
    16
 74
     0
 42
0.000000001
 43
0.0000000001
 40
0.0
 40
0.0
 40
0.0
 40
0.0
 40
0.1450960597108387
 40
0.1450960597108387
 40
0.1450960597108387
 40
0.2895376389574061
 40
0.2895376389574061
 40
0.2895376389574061
 40
0.491110395653473
 40
0.491110395653473
 40
0.491110395653473
 40
0.7630325939613867
 40
0.7630325939613867
 40
0.7630325939613867
 40
1.0
 40
1.0
 40
1.0
 40
1.0
 10
108.2621974526475
 20
271.6508181113471
 30
0.0
 10
108.2593083636193
 20
271.6803874562256
 30
0.0
 10
108.2563085932223
 20
271.7057643960493
 30
0.0
 10
108.2477135870885
 20
271.730485754741
 30
0.0
 10
108.2391573501923
 20
271.7550956035382
 30
0.0
 10
108.2250562402435
 20
271.7790557720853
 30
0.0
 10
108.2085413172059
 20
271.8003799823942
 30
0.0
 10
108.1854942238364
 20
271.8301385870755
 30
0.0
 10
108.157746210557
 20
271.8547636424271
 30
0.0
 10
108.1267842238819
 20
271.8753035612469
 30
0.0
 10
108.0850164194489
 20
271.9030119677304
 30
0.0
 10
108.0373997993767
 20
271.9232862086208
 30
0.0
 10
107.9906033298121
 20
271.9347639694163
 30
0.0
 10
107.9498224076457
 20
271.9447662980963
 30
0.0
 10
107.9096643326014
 20
271.9480883135167
 30
0.0
 10
107.8623404737164
 20
271.950818111347
 30
0.0
  0
SPLINE
  5
15F
330
158
100
AcDbEntity
  8
09841K31_RING_AN
  6
Continuous
 62
     7
100
AcDbSpline
210
0.0
220
0.0
230
1.0
 70
     8
 71
     3
 72
    23
 73
    19
 74
     0
 42
0.000000001
 43
0.0000000001
 40
0.0
 40
0.0
 40
0.0
 40
0.0
 40
0.1597015800418732
 40
0.1597015800418732
 40
0.1597015800418732
 40
0.3188594070231253
 40
0.3188594070231253
 40
0.3188594070231253
 40
0.4904945727695389
 40
0.4904945727695389
 40
0.4904945727695389
 40
0.6979457322402364
 40
0.6979457322402364
 40
0.6979457322402364
 40
0.94951609503734
 40
0.94951609503734
 40
0.94951609503734
 40
1.0
 40
1.0
 40
1.0
 40
1.0
 10
120.9360577589137
 20
269.1508181113471
 30
0.0
 10
120.9349627550652
 20
269.1197245534807
 30
0.0
 10
120.9338023455981
 20
269.0930629853112
 30
0.0
 10
120.9304458406277
 20
269.0670011470355
 30
0.0
 10
120.927100763909
 20
269.0410280442897
 30
0.0
 10
120.921574520791
 20
269.0156505944612
 30
0.0
 10
120.9149767449598
 20
268.9931296277325
 30
0.0
 10
120.9078617298215
 20
268.9688431070468
 30
0.0
 10
120.8995005886191
 20
268.9478784989806
 30
0.0
 10
120.890280642738
 20
268.92998776649
 30
0.0
 10
120.8791367232797
 20
268.9083636827377
 30
0.0
 10
120.8667381798321
 20
268.891230210335
 30
0.0
 10
120.8533831877148
 20
268.8784461732526
 30
0.0
 10
120.8371879530356
 20
268.8629433201712
 30
0.0
 10
120.8195861887228
 20
268.8538366385326
 30
0.0
 10
120.8030546379578
 20
268.8515845970902
 30
0.0
 10
120.7997371675355
 20
268.8511326684732
 30
0.0
 10
120.7964627951387
 20
268.850956779585
 30
0.0
 10
120.7926393377179
 20
268.8508181113471
 30
0.0
  0
SPLINE
  5
160
330
158
100
AcDbEntity
  8
09841K31_RING_AN
  6
Continuous
 62
     7
100
AcDbSpline
210
0.0
220
0.0
230
1.0
 70
     8
 71
     3
 72
    23
 73
    19
 74
     0
 42
0.000000001
 43
0.0000000001
 40
0.0
 40
0.0
 40
0.0
 40
0.0
 40
0.187039056009785
 40
0.187039056009785
 40
0.187039056009785
 40
0.3739210750585552
 40
0.3739210750585552
 40
0.3739210750585552
 40
0.6090062717493783
 40
0.6090062717493783
 40
0.6090062717493783
 40
0.7762803617148746
 40
0.7762803617148746
 40
0.7762803617148746
 40
0.9026071396400264
 40
0.9026071396400264
 40
0.9026071396400264
 40
1.0
 40
1.0
 40
1.0
 40
1.0
 10
118.5238337961049
 20
268.8508181113471
 30
0.0
 10
118.5321431862015
 20
268.852448624461
 30
0.0
 10
118.5391577792936
 20
268.8543335080919
 30
0.0
 10
118.546234518823
 20
268.860104919758
 30
0.0
 10
118.5533053167607
 20
268.8658714857786
 30
0.0
 10
118.5604381568239
 20
268.8755180563591
 30
0.0
 10
118.567160157198
 20
268.8884559817163
 30
0.0
 10
118.575615988252
 20
268.9047310345162
 30
0.0
 10
118.5834217076964
 20
268.9262143181884
 30
0.0
 10
118.5902135685051
 20
268.9543359684512
 30
0.0
 10
118.5950462944782
 20
268.9743458351815
 30
0.0
 10
118.5993657051721
 20
268.9977166980889
 30
0.0
 10
118.6028434902257
 20
269.0253552275995
 30
0.0
 10
118.6054699422973
 20
269.0462280739583
 30
0.0
 10
118.607616381982
 20
269.0695349393569
 30
0.0
 10
118.608781711709
 20
269.0930625424492
 30
0.0
 10
118.609680134017
 20
269.1112013773044
 30
0.0
 10
118.6099954052413
 20
269.1294714139932
 30
0.0
 10
118.6102945016437
 20
269.1508181113471
 30
0.0
  0
SPLINE
  5
161
330
158
100
AcDbEntity
  8
09841K31_RING_AN
  6
Continuous
 62
     7
100
AcDbSpline
210
0.0
220
0.0
230
1.0
 70
     8
 71
     3
 72
    20
 73
    16
 74
     0
 42
0.000000001
 43
0.0000000001
 40
0.0
 40
0.0
 40
0.0
 40
0.0
 40
0.2711621439775135
 40
0.2711621439775135
 40
0.2711621439775135
 40
0.5321421994191989
 40
0.5321421994191989
 40
0.5321421994191989
 40
0.7223617642439706
 40
0.7223617642439706
 40
0.7223617642439706
 40
0.8733220968693193
 40
0.8733220968693193
 40
0.8733220968693193
 40
1.0
 40
1.0
 40
1.0
 40
1.0
 10
119.6232928161077
 20
271.950818111347
 30
0.0
 10
119.64000957665
 20
271.9472769371381
 30
0.0
 10
119.6541938029604
 20
271.9429904505742
 30
0.0
 10
119.6682346467072
 20
271.9297356697672
 30
0.0
 10
119.6817482593588
 20
271.9169786035368
 30
0.0
 10
119.6951290552567
 20
271.8959141134625
 30
0.0
 10
119.7066860082082
 20
271.8680060605226
 30
0.0
 10
119.715109481632
 20
271.8476648215098
 30
0.0
 10
119.7225640456601
 20
271.8236879666268
 30
0.0
 10
119.728694467977
 20
271.7950626935266
 30
0.0
 10
119.733559638355
 20
271.7723453628847
 30
0.0
 10
119.7375908399645
 20
271.7467003730786
 30
0.0
 10
119.7398587699757
 20
271.7206565605918
 30
0.0
 10
119.741761896534
 20
271.6988019747018
 30
0.0
 10
119.7424233843477
 20
271.6766665507985
 30
0.0
 10
119.7430510794472
 20
271.6508181113471
 30
0.0
  0
SPLINE
  5
162
330
158
100
AcDbEntity
  8
09841K31_RING_AN
  6
Continuous
 62
     7
100
AcDbSpline
210
0.0
220
0.0
230
1.0
 70
     8
 71
     3
 72
    23
 73
    19
 74
     0
 42
0.000000001
 43
0.0000000001
 40
0.0
 40
0.0
 40
0.0
 40
0.0
 40
0.1265682291621836
 40
0.1265682291621836
 40
0.1265682291621836
 40
0.2523457621902282
 40
0.2523457621902282
 40
0.2523457621902282
 40
0.4418320186206036
 40
0.4418320186206036
 40
0.4418320186206036
 40
0.5842671745463808
 40
0.5842671745463808
 40
0.5842671745463808
 40
0.7269213500832682
 40
0.7269213500832682
 40
0.7269213500832682
 40
1.0
 40
1.0
 40
1.0
 40
1.0
 10
118.6102945016437
 20
271.6508181113471
 30
0.0
 10
118.6097835452786
 20
271.6784866520123
 30
0.0
 10
118.6092532035401
 20
271.7022766382525
 30
0.0
 10
118.6077605028873
 20
271.725295198596
 30
0.0
 10
118.6062771274233
 20
271.7481699575543
 30
0.0
 10
118.6038433795698
 20
271.7702828990019
 30
0.0
 10
118.6009906449409
 20
271.7900688263921
 30
0.0
 10
118.5966929457221
 20
271.8198767040069
 30
0.0
 10
118.5914443141963
 20
271.8444031909538
 30
0.0
 10
118.5856244957755
 20
271.864766556318
 30
0.0
 10
118.5812497893465
 20
271.8800735193424
 30
0.0
 10
118.5765523396484
 20
271.8930281534157
 30
0.0
 10
118.5715909537814
 20
271.9040520828442
 30
0.0
 10
118.5666219388934
 20
271.9150929635424
 30
0.0
 10
118.561388175514
 20
271.924197197421
 30
0.0
 10
118.5561291552219
 20
271.9308523541123
 30
0.0
 10
118.5460619689246
 20
271.9435921228391
 30
0.0
 10
118.5359022304203
 20
271.9473574178318
 30
0.0
 10
118.5238337961049
 20
271.950818111347
 30
0.0
  0
SPLINE
  5
163
330
158
100
AcDbEntity
  8
09841K31_RING_AN
  6
Continuous
 62
     7
100
AcDbSpline
210
0.0
220
0.0
230
1.0
 70
     8
 71
     3
 72
    20
 73
    16
 74
     0
 42
0.000000001
 43
0.0000000001
 40
0.0
 40
0.0
 40
0.0
 40
0.0
 40
0.2851675103273451
 40
0.2851675103273451
 40
0.2851675103273451
 40
0.530862412549479
 40
0.530862412549479
 40
0.530862412549479
 40
0.7250288895169341
 40
0.7250288895169341
 40
0.7250288895169341
 40
0.887499333055771
 40
0.887499333055771
 40
0.887499333055771
 40
1.0
 40
1.0
 40
1.0
 40
1.0
 10
102.2596956967309
 20
268.8508181113471
 30
0.0
 10
102.204569916737
 20
268.855014462795
 30
0.0
 10
102.1575857521855
 20
268.8599767172558
 30
0.0
 10
102.1109562192852
 20
268.8754743818407
 30
0.0
 10
102.0707811007612
 20
268.8888268748386
 30
0.0
 10
102.0308692330358
 20
268.9100000322362
 30
0.0
 10
101.9964034781454
 20
268.9369638512235
 30
0.0
 10
101.9691660623806
 20
268.958272676482
 30
0.0
 10
101.9453299302159
 20
268.9831979678138
 30
0.0
 10
101.9262172905902
 20
269.0123663542392
 30
0.0
 10
101.9102246275637
 20
269.0367732485387
 30
0.0
 10
101.8975391874225
 20
269.0641510083752
 30
0.0
 10
101.891019422161
 20
269.0913311878871
 30
0.0
 10
101.8865048906298
 20
269.1101517699952
 30
0.0
 10
101.8849466153906
 20
269.12887761826
 30
0.0
 10
101.883498875656
 20
269.1508181113471
 30
0.0
  0
SPLINE
  5
164
330
158
100
AcDbEntity
  8
09841K31_RING_AN
  6
Continuous
 62
     7
100
AcDbSpline
210
0.0
220
0.0
230
1.0
 70
     8
 71
     3
 72
    20
 73
    16
 74
     0
 42
0.000000001
 43
0.0000000001
 40
0.0
 40
0.0
 40
0.0
 40
0.0
 40
0.1450960597108425
 40
0.1450960597108425
 40
0.1450960597108425
 40
0.2895376389574102
 40
0.2895376389574102
 40
0.2895376389574102
 40
0.4911103956534836
 40
0.4911103956534836
 40
0.4911103956534836
 40
0.7630325939613856
 40
0.7630325939613856
 40
0.7630325939613856
 40
1.0
 40
1.0
 40
1.0
 40
1.0
 10
100.6904921961896
 20
271.6508181113471
 30
0.0
 10
100.6933812852178
 20
271.6803874562256
 30
0.0
 10
100.6963810556149
 20
271.7057643960493
 30
0.0
 10
100.7049760617486
 20
271.730485754741
 30
0.0
 10
100.7135322986448
 20
271.7550956035382
 30
0.0
 10
100.7276334085936
 20
271.7790557720853
 30
0.0
 10
100.7441483316313
 20
271.8003799823942
 30
0.0
 10
100.7671954250007
 20
271.8301385870755
 30
0.0
 10
100.7949434382801
 20
271.8547636424271
 30
0.0
 10
100.8259054249553
 20
271.8753035612468
 30
0.0
 10
100.8676732293882
 20
271.9030119677304
 30
0.0
 10
100.9152898494605
 20
271.9232862086208
 30
0.0
 10
100.9620863190251
 20
271.9347639694163
 30
0.0
 10
101.0028672411914
 20
271.9447662980962
 30
0.0
 10
101.0430253162358
 20
271.9480883135167
 30
0.0
 10
101.0903491751207
 20
271.950818111347
 30
0.0
  0
LINE
  5
165
330
158
100
AcDbEntity
  8
09841K31_RING_AN
  6
Continuous
 62
     7
100
AcDbLine
 10
110.2390554964
 20
269.3508181113
 30
0.0
 11
115.1291994273
 21
269.3508181113
 31
0.0
  0
LINE
  5
166
330
158
100
AcDbEntity
  8
09841K31_RING_AN
  6
Continuous
 62
     7
100
AcDbLine
 10
118.1291994273
 20
269.3508181113
 30
0.0
 11
118.6102945016
 21
269.3508181113
 31
0.0
  0
LINE
  5
167
330
158
100
AcDbEntity
  8
09841K31_RING_AN
  6
Continuous
 62
     7
100
AcDbLine
 10
114.4925229044
 20
273.9508181113
 30
0.0
 11
113.9857939447
 21
272.9508181113
 31
0.0
  0
LINE
  5
168
330
158
100
AcDbEntity
  8
09841K31_RING_AN
  6
Continuous
 62
     7
100
AcDbLine
 10
110.1623958855
 20
273.9508181113
 30
0.0
 11
114.4925229044
 21
273.9508181113
 31
0.0
  0
LINE
  5
169
330
158
100
AcDbEntity
  8
09841K31_RING_AN
  6
Continuous
 62
     7
100
AcDbLine
 10
113.9857939447
 20
272.9508181113
 30
0.0
 11
110.1623958855
 21
272.9508181113
 31
0.0
  0
LINE
  5
16A
330
158
100
AcDbEntity
  8
09841K31_RING_AN
  6
Continuous
 62
     7
100
AcDbLine
 10
118.6102945016
 20
271.6508181113
 30
0.0
 11
118.6102945016
 21
269.1508181113
 31
0.0
  0
LINE
  5
16B
330
158
100
AcDbEntity
  8
09841K31_RING_AN
  6
Continuous
 62
     7
100
AcDbLine
 10
113.706684337
 20
272.9508181113
 30
0.0
 11
113.706684337
 21
271.9508181113
 31
0.0
  0
LINE
  5
16C
330
158
100
AcDbEntity
  8
09841K31_RING_AN
  6
Continuous
 62
     7
100
AcDbLine
 10
109.3949540305
 20
269.1508181113
 30
0.0
 11
109.3949540305
 21
271.6508181113
 31
0.0
  0
LINE
  5
16D
330
158
100
AcDbEntity
  8
09841K31_RING_AN
  6
Continuous
 62
     7
100
AcDbLine
 10
120.9360577589
 20
271.3508181113
 30
0.0
 11
122.1763448244
 21
271.3508181113
 31
0.0
  0
LINE
  5
16E
330
158
100
AcDbEntity
  8
09841K31_RING_AN
  6
Continuous
 62
     7
100
AcDbLine
 10
120.3763448244
 20
281.3508181113
 30
0.0
 11
120.2678757891
 21
281.3508181113
 31
0.0
  0
LINE
  5
16F
330
158
100
AcDbEntity
  8
09841K31_RING_AN
  6
Continuous
 62
     7
100
AcDbLine
 10
121.937158093
 20
271.3508181113
 30
0.0
 11
121.937158093
 21
281.3508181113
 31
0.0
  0
LINE
  5
170
330
158
100
AcDbEntity
  8
09841K31_RING_AN
  6
Continuous
 62
     7
100
AcDbLine
 10
121.137158093
 20
271.3508181113
 30
0.0
 11
121.137158093
 21
281.3508181113
 31
0.0
  0
LINE
  5
171
330
158
100
AcDbEntity
  8
09841K31_RING_AN
  6
Continuous
 62
     7
100
AcDbLine
 10
121.137158093
 20
281.3508181113
 30
0.0
 11
120.3763448244
 21
281.3508181113
 31
0.0
  0
LINE
  5
172
330
158
100
AcDbEntity
  8
09841K31_RING_AN
  6
Continuous
 62
     7
100
AcDbLine
 10
121.937158093
 20
281.3508181113
 30
0.0
 11
121.137158093
 21
281.3508181113
 31
0.0
  0
LINE
  5
173
330
158
100
AcDbEntity
  8
09841K31_RING_AN
  6
Continuous
 62
     7
100
AcDbLine
 10
100.6904921962
 20
271.6508181113
 30
0.0
 11
100.6904921962
 21
271.3508181113
 31
0.0
  0
LINE
  5
174
330
158
100
AcDbEntity
  8
09841K31_RING_AN
  6
Continuous
 62
     7
100
AcDbLine
 10
101.8834988757
 20
271.3508181113
 30
0.0
 11
101.8834988757
 21
269.1508181113
 31
0.0
  0
LINE
  5
175
330
158
100
AcDbEntity
  8
09841K31_RING_AN
  6
Continuous
 62
     7
100
AcDbLine
 10
102.2596956967
 20
268.8508181113
 30
0.0
 11
119.7377221739
 21
268.8508181113
 31
0.0
  0
LINE
  5
176
330
158
100
AcDbEntity
  8
09841K31_RING_AN
  6
Continuous
 62
     7
100
AcDbLine
 10
120.452022715
 20
268.8508181113
 30
0.0
 11
120.7926393377
 21
268.8508181113
 31
0.0
  0
LINE
  5
177
330
158
100
AcDbEntity
  8
09841K31_RING_AN
  6
Continuous
 62
     7
100
AcDbLine
 10
119.7430510794
 20
271.3508181113
 30
0.0
 11
119.7430510794
 21
271.6508181113
 31
0.0
  0
LINE
  5
178
330
158
100
AcDbEntity
  8
09841K31_RING_AN
  6
Continuous
 62
     7
100
AcDbLine
 10
120.9360577589
 20
271.3508181113
 30
0.0
 11
119.7430510794
 21
271.3508181113
 31
0.0
  0
LINE
  5
179
330
158
100
AcDbEntity
  8
09841K31_RING_AN
  6
Continuous
 62
     7
100
AcDbLine
 10
120.9360577589
 20
269.1508181113
 30
0.0
 11
120.9360577589
 21
271.3508181113
 31
0.0
  0
LINE
  5
17A
330
158
100
AcDbEntity
  8
09841K31_RING_AN
  6
Continuous
 62
     7
100
AcDbLine
 10
108.2621974526
 20
271.6508181113
 30
0.0
 11
108.2621974526
 21
271.3508181113
 31
0.0
  0
LINE
  5
17B
330
158
100
AcDbEntity
  8
09841K31_RING_AN
  6
Continuous
 62
     7
100
AcDbLine
 10
108.2621974526
 20
271.3508181113
 30
0.0
 11
107.0691907732
 21
271.3508181113
 31
0.0
  0
LINE
  5
17C
330
158
100
AcDbEntity
  8
09841K31_RING_AN
  6
Continuous
 62
     7
100
AcDbLine
 10
107.0691907732
 20
271.3508181113
 30
0.0
 11
107.0691907732
 21
269.1508181113
 31
0.0
  0
LINE
  5
17D
330
158
100
AcDbEntity
  8
09841K31_RING_AN
  6
Continuous
 62
     7
100
AcDbLine
 10
119.6232928161
 20
271.9508181113
 30
0.0
 11
114.4925229044
 21
271.9508181113
 31
0.0
  0
LINE
  5
17E
330
158
100
AcDbEntity
  8
09841K31_RING_AN
  6
Continuous
 62
     7
100
AcDbLine
 10
114.4925229044
 20
271.9508181113
 30
0.0
 11
114.4925229044
 21
273.9508181113
 31
0.0
  0
LINE
  5
17F
330
158
100
AcDbEntity
  8
09841K31_RING_AN
  6
Continuous
 62
     7
100
AcDbLine
 10
110.1623958855
 20
273.9508181113
 30
0.0
 11
110.1623958855
 21
271.9508181113
 31
0.0
  0
LINE
  5
180
330
158
100
AcDbEntity
  8
09841K31_RING_AN
  6
Continuous
 62
     7
100
AcDbLine
 10
110.1623958855
 20
271.9508181113
 30
0.0
 11
101.0903491751
 21
271.9508181113
 31
0.0
  0
LINE
  5
181
330
158
100
AcDbEntity
  8
09841K31_RING_AN
  6
Continuous
 62
     7
100
AcDbLine
 10
114.4925229044
 20
271.9508181113
 30
0.0
 11
113.706684337
 21
271.9508181113
 31
0.0
  0
LINE
  5
182
330
158
100
AcDbEntity
  8
09841K31_RING_AN
  6
Continuous
 62
     7
100
AcDbLine
 10
110.2390554964
 20
269.3508181113
 30
0.0
 11
110.2390554964
 21
268.8508181113
 31
0.0
  0
LINE
  5
183
330
158
100
AcDbEntity
  8
09841K31_RING_AN
  6
Continuous
 62
     7
100
AcDbLine
 10
111.4513169847
 20
269.3508181113
 30
0.0
 11
111.4513169847
 21
268.8508181113
 31
0.0
  0
LINE
  5
184
330
158
100
AcDbEntity
  8
09841K31_RING_AN
  6
Continuous
 62
     7
100
AcDbLine
 10
115.1291994273
 20
269.3508181113
 30
0.0
 11
115.1291994273
 21
271.9508181113
 31
0.0
  0
LINE
  5
185
330
158
100
AcDbEntity
  8
09841K31_RING_AN
  6
Continuous
 62
     7
100
AcDbLine
 10
118.1291994273
 20
271.9508181113
 30
0.0
 11
118.1291994273
 21
269.3508181113
 31
0.0
  0
LINE
  5
186
330
158
100
AcDbEntity
  8
09841K31_RING_AN
  6
Continuous
 62
     7
100
AcDbLine
 10
116.1459120155
 20
271.9508181113
 30
0.0
 11
116.1459120155
 21
269.3508181113
 31
0.0
  0
LINE
  5
187
330
158
100
AcDbEntity
  8
09841K31_RING_AN
  6
Continuous
 62
     7
100
AcDbLine
 10
116.1459120155
 20
269.3508181113
 30
0.0
 11
115.1291994273
 21
269.3508181113
 31
0.0
  0
LINE
  5
188
330
158
100
AcDbEntity
  8
09841K31_RING_AN
  6
Continuous
 62
     7
100
AcDbLine
 10
120.0228868458
 20
280.8508181113
 30
0.0
 11
120.0228868458
 21
281.3508181113
 31
0.0
  0
LINE
  5
189
330
158
100
AcDbEntity
  8
09841K31_RING_AN
  6
Continuous
 62
     7
100
AcDbLine
 10
120.2678757891
 20
281.3508181113
 30
0.0
 11
120.2678757891
 21
280.8508181113
 31
0.0
  0
LINE
  5
18A
330
158
100
AcDbEntity
  8
09841K31_RING_AN
  6
Continuous
 62
     7
100
AcDbLine
 10
120.0228868458
 20
280.8508181113
 30
0.0
 11
120.2678757891
 21
280.8508181113
 31
0.0
  0
LINE
  5
18B
330
158
100
AcDbEntity
  8
09841K31_RING_AN
  6
Continuous
 62
     7
100
AcDbLine
 10
120.2678757891
 20
281.3508181113
 30
0.0
 11
120.0228868458
 21
281.3508181113
 31
0.0
  0
LINE
  5
18C
330
158
100
AcDbEntity
  8
09841K31_RING_AN
  6
Continuous
 62
     7
100
AcDbLine
 10
119.7377221739
 20
261.8508181113
 30
0.0
 11
119.7377221739
 21
268.8508181113
 31
0.0
  0
LINE
  5
18D
330
158
100
AcDbEntity
  8
09841K31_RING_AN
  6
Continuous
 62
     7
100
AcDbLine
 10
120.3992966425
 20
261.8508181113
 30
0.0
 11
120.452022715
 21
261.8508181113
 31
0.0
  0
LINE
  5
18E
330
158
100
AcDbEntity
  8
09841K31_RING_AN
  6
Continuous
 62
     7
100
AcDbLine
 10
119.9762563881
 20
261.8508181113
 30
0.0
 11
120.3992966425
 21
261.8508181113
 31
0.0
  0
LINE
  5
18F
330
158
100
AcDbEntity
  8
09841K31_RING_AN
  6
Continuous
 62
     7
100
AcDbLine
 10
119.7377221739
 20
261.8508181113
 30
0.0
 11
119.9762563881
 21
261.8508181113
 31
0.0
  0
LINE
  5
190
330
158
100
AcDbEntity
  8
09841K31_RING_AN
  6
Continuous
 62
     7
100
AcDbLine
 10
120.3992966425
 20
268.8508181113
 30
0.0
 11
120.452022715
 21
268.8508181113
 31
0.0
  0
LINE
  5
191
330
158
100
AcDbEntity
  8
09841K31_RING_AN
  6
Continuous
 62
     7
100
AcDbLine
 10
119.9762563881
 20
268.8508181113
 30
0.0
 11
120.3992966425
 21
268.8508181113
 31
0.0
  0
LINE
  5
192
330
158
100
AcDbEntity
  8
09841K31_RING_AN
  6
Continuous
 62
     7
100
AcDbLine
 10
119.7377221739
 20
268.8508181113
 30
0.0
 11
119.9762563881
 21
268.8508181113
 31
0.0
  0
LINE
  5
193
330
158
100
AcDbEntity
  8
09841K31_RING_AN
  6
Continuous
 62
     7
100
AcDbLine
 10
86.7763448244
 20
261.8508181113
 30
0.0
 11
119.7377221739
 21
261.8508181113
 31
0.0
  0
LINE
  5
194
330
158
100
AcDbEntity
  8
09841K31_RING_AN
  6
Continuous
 62
     7
100
AcDbLine
 10
120.452022715
 20
261.8508181113
 30
0.0
 11
122.1763448244
 21
261.8508181113
 31
0.0
  0
LINE
  5
195
330
158
100
AcDbEntity
  8
09841K31_RING_AN
  6
Continuous
 62
     7
100
AcDbLine
 10
86.7763448244
 20
271.3508181113
 30
0.0
 11
101.8834988757
 21
271.3508181113
 31
0.0
  0
LINE
  5
196
330
158
100
AcDbEntity
  8
09841K31_RING_AN
  6
Continuous
 62
     7
100
AcDbLine
 10
120.0228868458
 20
281.3508181113
 30
0.0
 11
88.5763448244
 21
281.3508181113
 31
0.0
  0
LINE
  5
197
330
158
100
AcDbEntity
  8
09841K31_RING_AN
  6
Continuous
 62
     7
100
AcDbLine
 10
88.5763448244
 20
281.3508181113
 30
0.0
 11
88.5763448244
 21
271.3508181113
 31
0.0
  0
LINE
  5
198
330
158
100
AcDbEntity
  8
09841K31_RING_AN
  6
Continuous
 62
     7
100
AcDbLine
 10
120.3763448244
 20
271.3508181113
 30
0.0
 11
120.3763448244
 21
281.3508181113
 31
0.0
  0
LINE
  5
199
330
158
100
AcDbEntity
  8
09841K31_RING_AN
  6
Continuous
 62
     7
100
AcDbLine
 10
86.7763448244
 20
271.3508181113
 30
0.0
 11
86.7763448244
 21
261.8508181113
 31
0.0
  0
LINE
  5
19A
330
158
100
AcDbEntity
  8
09841K31_RING_AN
  6
Continuous
 62
     7
100
AcDbLine
 10
122.1763448244
 20
261.8508181113
 30
0.0
 11
122.1763448244
 21
271.3508181113
 31
0.0
  0
LINE
  5
19B
330
158
100
AcDbEntity
  8
09841K31_RING_AN
  6
Continuous
 62
     7
100
AcDbLine
 10
120.452022715
 20
261.8508181113
 30
0.0
 11
120.452022715
 21
268.8508181113
 31
0.0
  0
ENDBLK
  5
19D
330
158
100
AcDbEntity
  8
0
100
AcDbBlockEnd
  0
BLOCK
  5
1D4
330
19E
100
AcDbEntity
  8
0
100
AcDbBlockBegin
  2
SE1
 70
     0
 10
0.0
 20
0.0
 30
0.0
  3
SE1
  1
SE1
  0
LINE
  5
1A1
330
19E
100
AcDbEntity
  8
DV2_0
  6
Continuous
 62
     7
100
AcDbLine
 10
110.4763448244
 20
200.8508181113
 30
0.0
 11
98.4763448244
 21
200.8508181113
 31
0.0
  0
LINE
  5
1A2
330
19E
100
AcDbEntity
  8
DV2_0
  6
Continuous
 62
     7
100
AcDbLine
 10
112.4763448244
 20
198.8508181113
 30
0.0
 11
96.4763448244
 21
198.8508181113
 31
0.0
  0
LINE
  5
1A3
330
19E
100
AcDbEntity
  8
DV2_0
  6
Continuous
 62
     7
100
AcDbLine
 10
110.2263448244
 20
168.8508181113
 30
0.0
 11
98.7263448244
 21
168.8508181113
 31
0.0
  0
LINE
  5
1A4
330
19E
100
AcDbEntity
  8
DV2_0
  6
Continuous
 62
     7
100
AcDbLine
 10
109.7263448244
 20
168.3508181113
 30
0.0
 11
99.2263448244
 21
168.3508181113
 31
0.0
  0
LINE
  5
1A5
330
19E
100
AcDbEntity
  8
DV2_0
  6
Continuous
 62
     7
100
AcDbLine
 10
108.1816920955
 20
171.8008181113
 30
0.0
 11
108.1816920955
 21
185.3508181113
 31
0.0
  0
LINE
  5
1A6
330
19E
100
AcDbEntity
  8
DV2_0
  6
Continuous
 62
     7
100
AcDbLine
 10
111.1633023987
 20
185.3508181113
 30
0.0
 11
111.1633023987
 21
171.8008181113
 31
0.0
  0
LINE
  5
1A7
330
19E
100
AcDbEntity
  8
DV2_0
  6
Continuous
 62
     7
100
AcDbLine
 10
101.4947345212
 20
171.8008181113
 30
0.0
 11
101.4947345212
 21
185.3508181113
 31
0.0
  0
LINE
  5
1A8
330
19E
100
AcDbEntity
  8
DV2_0
  6
Continuous
 62
     7
100
AcDbLine
 10
107.4579551276
 20
185.3508181113
 30
0.0
 11
107.4579551276
 21
171.8008181113
 31
0.0
  0
LINE
  5
1A9
330
19E
100
AcDbEntity
  8
DV2_0
  6
Continuous
 62
     7
100
AcDbLine
 10
97.7893872501
 20
171.8008181113
 30
0.0
 11
97.7893872501
 21
185.3508181113
 31
0.0
  0
LINE
  5
1AA
330
19E
100
AcDbEntity
  8
DV2_0
  6
Continuous
 62
     7
100
AcDbLine
 10
100.7709975533
 20
185.3508181113
 30
0.0
 11
100.7709975533
 21
171.8008181113
 31
0.0
  0
LINE
  5
1AB
330
19E
100
AcDbEntity
  8
DV2_0
  6
Continuous
 62
     7
100
AcDbLine
 10
110.4763448244
 20
193.8508181113
 30
0.0
 11
98.4763448244
 21
193.8508181113
 31
0.0
  0
LINE
  5
1AC
330
19E
100
AcDbEntity
  8
DV2_0
  6
Continuous
 62
     7
100
AcDbLine
 10
112.4763448244
 20
195.0055186497
 30
0.0
 11
96.4763448244
 21
195.0055186497
 31
0.0
  0
LINE
  5
1AD
330
19E
100
AcDbEntity
  8
DV2_0
  6
Continuous
 62
     7
100
AcDbLine
 10
110.2263448244
 20
170.8508181113
 30
0.0
 11
98.7263448244
 21
170.8508181113
 31
0.0
  0
LINE
  5
1AE
330
19E
100
AcDbEntity
  8
DV2_0
  6
Continuous
 62
     7
100
AcDbLine
 10
108.1816920955
 20
171.8008181113
 30
0.0
 11
107.4579551276
 21
171.8008181113
 31
0.0
  0
LINE
  5
1AF
330
19E
100
AcDbEntity
  8
DV2_0
  6
Continuous
 62
     7
100
AcDbLine
 10
101.4947345212
 20
171.8008181113
 30
0.0
 11
100.7709975533
 21
171.8008181113
 31
0.0
  0
LINE
  5
1B0
330
19E
100
AcDbEntity
  8
DV2_0
  6
Continuous
 62
     7
100
AcDbLine
 10
97.7893872501
 20
171.8008181113
 30
0.0
 11
97.7763448244
 21
171.8008181113
 31
0.0
  0
LINE
  5
1B1
330
19E
100
AcDbEntity
  8
DV2_0
  6
Continuous
 62
     7
100
AcDbLine
 10
111.1633023987
 20
171.8008181113
 30
0.0
 11
111.1763448244
 21
171.8008181113
 31
0.0
  0
LINE
  5
1B2
330
19E
100
AcDbEntity
  8
DV2_0
  6
Continuous
 62
     7
100
AcDbLine
 10
108.1816920955
 20
185.3508181113
 30
0.0
 11
107.4579551276
 21
185.3508181113
 31
0.0
  0
LINE
  5
1B3
330
19E
100
AcDbEntity
  8
DV2_0
  6
Continuous
 62
     7
100
AcDbLine
 10
101.4947345212
 20
185.3508181113
 30
0.0
 11
100.7709975533
 21
185.3508181113
 31
0.0
  0
LINE
  5
1B4
330
19E
100
AcDbEntity
  8
DV2_0
  6
Continuous
 62
     7
100
AcDbLine
 10
97.7893872501
 20
185.3508181113
 30
0.0
 11
97.7763448244
 21
185.3508181113
 31
0.0
  0
LINE
  5
1B5
330
19E
100
AcDbEntity
  8
DV2_0
  6
Continuous
 62
     7
100
AcDbLine
 10
111.1633023987
 20
185.3508181113
 30
0.0
 11
111.1763448244
 21
185.3508181113
 31
0.0
  0
SPLINE
  5
1B6
330
19E
100
AcDbEntity
  8
DV2_0
  6
Continuous
 62
     7
100
AcDbSpline
210
0.0
220
0.0
230
1.0
 70
     8
 71
     3
 72
    47
 73
    43
 74
     0
 42
0.000000001
 43
0.0000000001
 40
0.0
 40
0.0
 40
0.0
 40
0.0
 40
0.0740005694149884
 40
0.0740005694149884
 40
0.0740005694149884
 40
0.1480359951424287
 40
0.1480359951424287
 40
0.1480359951424287
 40
0.2220080430567302
 40
0.2220080430567302
 40
0.2220080430567302
 40
0.2983760942390278
 40
0.2983760942390278
 40
0.2983760942390278
 40
0.3748268558955137
 40
0.3748268558955137
 40
0.3748268558955137
 40
0.4511621572635507
 40
0.4511621572635507
 40
0.4511621572635507
 40
0.519363012857811
 40
0.519363012857811
 40
0.519363012857811
 40
0.5876491526935373
 40
0.5876491526935373
 40
0.5876491526935373
 40
0.6558584276455585
 40
0.6558584276455585
 40
0.6558584276455585
 40
0.7268341686617178
 40
0.7268341686617178
 40
0.7268341686617178
 40
0.7978879739980856
 40
0.7978879739980856
 40
0.7978879739980856
 40
0.8688922713530001
 40
0.8688922713530001
 40
0.8688922713530001
 40
0.9343868302779438
 40
0.9343868302779438
 40
0.9343868302779438
 40
1.0
 40
1.0
 40
1.0
 40
1.0
 10
111.1633023987127
 20
171.800818111347
 30
0.0
 10
111.0864874130251
 20
171.7342634616727
 30
0.0
 10
111.0216353544559
 20
171.6786850274569
 30
0.0
 10
110.9527374051234
 20
171.6243253247563
 30
0.0
 10
110.8838070029534
 20
171.569940017134
 30
0.0
 10
110.8108268976699
 20
171.5167745894097
 30
0.0
 10
110.7380943296874
 20
171.4680882119178
 30
0.0
 10
110.6654240242104
 20
171.4194435122593
 30
0.0
 10
110.5930008324086
 20
171.3752701975593
 30
0.0
 10
110.5197157393338
 20
171.3354886474829
 30
0.0
 10
110.44405689391
 20
171.2944185468435
 30
0.0
 10
110.3674794078475
 20
171.2580293227555
 30
0.0
 10
110.2904317328337
 20
171.2269992810868
 30
0.0
 10
110.2133006112785
 20
171.1959356323085
 30
0.0
 10
110.1356982817434
 20
171.1702427807686
 30
0.0
 10
110.0577010552569
 20
171.1503080480945
 30
0.0
 10
109.979821624618
 20
171.1304034219875
 30
0.0
 10
109.9015484889188
 20
171.1162395354025
 30
0.0
 10
109.8231238458627
 20
171.1083761417774
 30
0.0
 10
109.753056293102
 20
171.1013506874529
 30
0.0
 10
109.6828678024148
 20
171.0993544843217
 30
0.0
 10
109.6127307879801
 20
171.1022138158247
 30
0.0
 10
109.5425060681638
 20
171.1050767228828
 30
0.0
 10
109.4723329534212
 20
171.1128073157278
 30
0.0
 10
109.402368372524
 20
171.1252950347857
 30
0.0
 10
109.332482545813
 20
171.1377686973004
 30
0.0
 10
109.262804783748
 20
171.1549887825337
 30
0.0
 10
109.1935092559868
 20
171.1768133370379
 30
0.0
 10
109.1214032053739
 20
171.1995230627955
 30
0.0
 10
109.0497110235394
 20
171.2272183328987
 30
0.0
 10
108.978459119071
 20
171.2593790222315
 30
0.0
 10
108.9071288465376
 20
171.2915750842468
 30
0.0
 10
108.8362398204015
 20
171.3282463936841
 30
0.0
 10
108.7661698903512
 20
171.3687345074916
 30
0.0
 10
108.69614878275
 20
171.4091944104976
 30
0.0
 10
108.6269456301932
 20
171.4534658008763
 30
0.0
 10
108.5574609579289
 20
171.5018511299228
 30
0.0
 10
108.4933681053617
 20
171.5464818903471
 30
0.0
 10
108.4290357282749
 20
171.5946129001567
 30
0.0
 10
108.3681878750265
 20
171.6433628572832
 30
0.0
 10
108.3072298261756
 20
171.6922011006943
 30
0.0
 10
108.2497689335528
 20
171.7416605352822
 30
0.0
 10
108.1816920955376
 20
171.800818111347
 30
0.0
  0
ARC
  5
1B7
330
19E
100
AcDbEntity
  8
DV2_0
  6
Continuous
 62
     7
100
AcDbCircle
 10
104.4763448244
 20
177.796397638
 30
0.0
 40
6.696041656075191
100
AcDbArc
 50
243.558775393
 51
296.441224607
  0
SPLINE
  5
1B8
330
19E
100
AcDbEntity
  8
DV2_0
  6
Continuous
 62
     7
100
AcDbSpline
210
0.0
220
0.0
230
1.0
 70
     8
 71
     3
 72
    47
 73
    43
 74
     0
 42
0.000000001
 43
0.0000000001
 40
0.0
 40
0.0
 40
0.0
 40
0.0
 40
0.0740005694149884
 40
0.0740005694149884
 40
0.0740005694149884
 40
0.1480359951424288
 40
0.1480359951424288
 40
0.1480359951424288
 40
0.2220080430567304
 40
0.2220080430567304
 40
0.2220080430567304
 40
0.2983760942390279
 40
0.2983760942390279
 40
0.2983760942390279
 40
0.3748268558955138
 40
0.3748268558955138
 40
0.3748268558955138
 40
0.4511621572635509
 40
0.4511621572635509
 40
0.4511621572635509
 40
0.519363012857811
 40
0.519363012857811
 40
0.519363012857811
 40
0.5876491526935376
 40
0.5876491526935376
 40
0.5876491526935376
 40
0.6558584276455588
 40
0.6558584276455588
 40
0.6558584276455588
 40
0.7268341686617185
 40
0.7268341686617185
 40
0.7268341686617185
 40
0.7978879739980861
 40
0.7978879739980861
 40
0.7978879739980861
 40
0.8688922713530005
 40
0.8688922713530005
 40
0.8688922713530005
 40
0.934386830277944
 40
0.934386830277944
 40
0.934386830277944
 40
1.0
 40
1.0
 40
1.0
 40
1.0
 10
100.7709975532994
 20
171.800818111347
 30
0.0
 10
100.6941825676119
 20
171.7342634616727
 30
0.0
 10
100.6293305090426
 20
171.6786850274569
 30
0.0
 10
100.5604325597101
 20
171.6243253247563
 30
0.0
 10
100.4915021575402
 20
171.569940017134
 30
0.0
 10
100.4185220522567
 20
171.5167745894097
 30
0.0
 10
100.3457894842742
 20
171.4680882119178
 30
0.0
 10
100.2731191787971
 20
171.4194435122593
 30
0.0
 10
100.2006959869953
 20
171.3752701975593
 30
0.0
 10
100.1274108939206
 20
171.3354886474829
 30
0.0
 10
100.0517520484967
 20
171.2944185468435
 30
0.0
 10
99.97517456243426
 20
171.2580293227555
 30
0.0
 10
99.89812688742039
 20
171.2269992810868
 30
0.0
 10
99.82099576586525
 20
171.1959356323085
 30
0.0
 10
99.74339343633012
 20
171.1702427807686
 30
0.0
 10
99.66539620984366
 20
171.1503080480945
 30
0.0
 10
99.58751677920479
 20
171.1304034219875
 30
0.0
 10
99.50924364350553
 20
171.1162395354025
 30
0.0
 10
99.43081900044939
 20
171.1083761417774
 30
0.0
 10
99.36075144768878
 20
171.1013506874529
 30
0.0
 10
99.29056295700153
 20
171.0993544843217
 30
0.0
 10
99.22042594256689
 20
171.1022138158247
 30
0.0
 10
99.1502012227505
 20
171.1050767228828
 30
0.0
 10
99.08002810800791
 20
171.1128073157278
 30
0.0
 10
99.0100635271107
 20
171.1252950347857
 30
0.0
 10
98.94017770039972
 20
171.1377686973004
 30
0.0
 10
98.8704999383347
 20
171.1549887825337
 30
0.0
 10
98.80120441057349
 20
171.1768133370379
 30
0.0
 10
98.72909835996062
 20
171.1995230627955
 30
0.0
 10
98.6574061781261
 20
171.2272183328987
 30
0.0
 10
98.5861542736577
 20
171.2593790222315
 30
0.0
 10
98.5148240011243
 20
171.2915750842468
 30
0.0
 10
98.44393497498825
 20
171.3282463936841
 30
0.0
 10
98.37386504493794
 20
171.3687345074916
 30
0.0
 10
98.30384393733678
 20
171.4091944104976
 30
0.0
 10
98.23464078477997
 20
171.4534658008764
 30
0.0
 10
98.1651561125156
 20
171.5018511299228
 30
0.0
 10
98.10106325994848
 20
171.5464818903471
 30
0.0
 10
98.03673088286168
 20
171.5946129001567
 30
0.0
 10
97.97588302961323
 20
171.6433628572832
 30
0.0
 10
97.91492498076236
 20
171.6922011006943
 30
0.0
 10
97.85746408813954
 20
171.7416605352822
 30
0.0
 10
97.78938725012432
 20
171.800818111347
 30
0.0
  0
LINE
  5
1B9
330
19E
100
AcDbEntity
  8
DV2_0
  6
Continuous
 62
     7
100
AcDbLine
 10
97.7893872501
 20
185.3508181113
 30
0.0
 11
99.2801924017
 21
185.3508181113
 31
0.0
  0
LINE
  5
1BA
330
19E
100
AcDbEntity
  8
DV2_0
  6
Continuous
 62
     7
100
AcDbLine
 10
99.2801924017
 20
185.3508181113
 30
0.0
 11
100.7709975533
 21
185.3508181113
 31
0.0
  0
LINE
  5
1BB
330
19E
100
AcDbEntity
  8
DV2_0
  6
Continuous
 62
     7
100
AcDbLine
 10
101.4947345212
 20
185.3508181113
 30
0.0
 11
104.4763448244
 21
185.3508181113
 31
0.0
  0
LINE
  5
1BC
330
19E
100
AcDbEntity
  8
DV2_0
  6
Continuous
 62
     7
100
AcDbLine
 10
104.4763448244
 20
185.3508181113
 30
0.0
 11
107.4579551276
 21
185.3508181113
 31
0.0
  0
LINE
  5
1BD
330
19E
100
AcDbEntity
  8
DV2_0
  6
Continuous
 62
     7
100
AcDbLine
 10
108.1816920955
 20
185.3508181113
 30
0.0
 11
109.6724972471
 21
185.3508181113
 31
0.0
  0
LINE
  5
1BE
330
19E
100
AcDbEntity
  8
DV2_0
  6
Continuous
 62
     7
100
AcDbLine
 10
109.6724972471
 20
185.3508181113
 30
0.0
 11
111.1633023987
 21
185.3508181113
 31
0.0
  0
LINE
  5
1BF
330
19E
100
AcDbEntity
  8
DV2_0
  6
Continuous
 62
     7
100
AcDbLine
 10
97.7763448244
 20
171.8008181113
 30
0.0
 11
98.7263448244
 21
170.8508181113
 31
0.0
  0
LINE
  5
1C0
330
19E
100
AcDbEntity
  8
DV2_0
  6
Continuous
 62
     7
100
AcDbLine
 10
110.2263448244
 20
170.8508181113
 30
0.0
 11
111.1763448244
 21
171.8008181113
 31
0.0
  0
LINE
  5
1C1
330
19E
100
AcDbEntity
  8
DV2_0
  6
Continuous
 62
     7
100
AcDbLine
 10
97.7763448244
 20
185.3508181113
 30
0.0
 11
97.7763448244
 21
171.8008181113
 31
0.0
  0
LINE
  5
1C2
330
19E
100
AcDbEntity
  8
DV2_0
  6
Continuous
 62
     7
100
AcDbLine
 10
111.1763448244
 20
171.8008181113
 30
0.0
 11
111.1763448244
 21
185.3508181113
 31
0.0
  0
LINE
  5
1C3
330
19E
100
AcDbEntity
  8
DV2_0
  6
Continuous
 62
     7
100
AcDbLine
 10
110.4763448244
 20
185.3508181113
 30
0.0
 11
110.4763448244
 21
193.8508181113
 31
0.0
  0
LINE
  5
1C4
330
19E
100
AcDbEntity
  8
DV2_0
  6
Continuous
 62
     7
100
AcDbLine
 10
98.4763448244
 20
193.8508181113
 30
0.0
 11
98.4763448244
 21
185.3508181113
 31
0.0
  0
LINE
  5
1C5
330
19E
100
AcDbEntity
  8
DV2_0
  6
Continuous
 62
     7
100
AcDbLine
 10
96.4763448244
 20
195.0055186497
 30
0.0
 11
98.4763448244
 21
193.8508181113
 31
0.0
  0
LINE
  5
1C6
330
19E
100
AcDbEntity
  8
DV2_0
  6
Continuous
 62
     7
100
AcDbLine
 10
110.4763448244
 20
193.8508181113
 30
0.0
 11
112.4763448244
 21
195.0055186497
 31
0.0
  0
LINE
  5
1C7
330
19E
100
AcDbEntity
  8
DV2_0
  6
Continuous
 62
     7
100
AcDbLine
 10
110.2263448244
 20
168.8508181113
 30
0.0
 11
110.2263448244
 21
170.8508181113
 31
0.0
  0
LINE
  5
1C8
330
19E
100
AcDbEntity
  8
DV2_0
  6
Continuous
 62
     7
100
AcDbLine
 10
98.7263448244
 20
170.8508181113
 30
0.0
 11
98.7263448244
 21
168.8508181113
 31
0.0
  0
LINE
  5
1C9
330
19E
100
AcDbEntity
  8
DV2_0
  6
Continuous
 62
     7
100
AcDbLine
 10
98.7263448244
 20
168.8508181113
 30
0.0
 11
99.2263448244
 21
168.3508181113
 31
0.0
  0
LINE
  5
1CA
330
19E
100
AcDbEntity
  8
DV2_0
  6
Continuous
 62
     7
100
AcDbLine
 10
109.7263448244
 20
168.3508181113
 30
0.0
 11
110.2263448244
 21
168.8508181113
 31
0.0
  0
LINE
  5
1CB
330
19E
100
AcDbEntity
  8
DV2_0
  6
Continuous
 62
     7
100
AcDbLine
 10
112.4763448244
 20
198.8508181113
 30
0.0
 11
110.4763448244
 21
200.8508181113
 31
0.0
  0
LINE
  5
1CC
330
19E
100
AcDbEntity
  8
DV2_0
  6
Continuous
 62
     7
100
AcDbLine
 10
98.4763448244
 20
200.8508181113
 30
0.0
 11
96.4763448244
 21
198.8508181113
 31
0.0
  0
LINE
  5
1CD
330
19E
100
AcDbEntity
  8
DV2_0
  6
Continuous
 62
     7
100
AcDbLine
 10
112.4763448244
 20
195.0055186497
 30
0.0
 11
112.4763448244
 21
198.8508181113
 31
0.0
  0
LINE
  5
1CE
330
19E
100
AcDbEntity
  8
DV2_0
  6
Continuous
 62
     7
100
AcDbLine
 10
96.4763448244
 20
198.8508181113
 30
0.0
 11
96.4763448244
 21
195.0055186497
 31
0.0
  0
LINE
  5
1CF
330
19E
100
AcDbEntity
  8
DV2_0
  6
Continuous
 62
     7
100
AcDbLine
 10
97.7263448244
 20
194.2838308132
 30
0.0
 11
97.7263448244
 21
200.1008181113
 31
0.0
  0
LINE
  5
1D0
330
19E
100
AcDbEntity
  8
DV2_0
  6
Continuous
 62
     7
100
AcDbLine
 10
111.2263448244
 20
194.2838308132
 30
0.0
 11
111.2263448244
 21
200.1008181113
 31
0.0
  0
LINE
  5
1D1
330
19E
100
AcDbEntity
  8
DV2_0
  6
Continuous
 62
     7
100
AcDbLine
 10
107.4167137073
 20
165.8508181113
 30
0.0
 11
101.5359759416
 21
165.8508181113
 31
0.0
  0
LINE
  5
1D2
330
19E
100
AcDbEntity
  8
DV2_0
  6
Continuous
 62
     7
100
AcDbLine
 10
101.4049564933
 20
168.3508181113
 30
0.0
 11
101.5359759416
 21
165.8508181113
 31
0.0
  0
LINE
  5
1D3
330
19E
100
AcDbEntity
  8
DV2_0
  6
Continuous
 62
     7
100
AcDbLine
 10
107.4167137073
 20
165.8508181113
 30
0.0
 11
107.5477331555
 21
168.3508181113
 31
0.0
  0
ENDBLK
  5
1D5
330
19E
100
AcDbEntity
  8
0
100
AcDbBlockEnd
  0
BLOCK
  5
1D8
330
1D7
100
AcDbEntity
  8
0
100
AcDbBlockBegin
  2
_OBLIQUE
 70
     0
 10
0.0
 20
0.0
 30
0.0
  3
_OBLIQUE
  1
_OBLIQUE
  0
LINE
  5
1DA
330
1D7
100
AcDbEntity
  8
0
  6
ByBlock
 62
     0
370
    -2
100
AcDbLine
 10
-0.5
 20
-0.5
 30
0.0
 11
0.5
 21
0.5
 31
0.0
  0
ENDBLK
  5
1D9
330
1D7
100
AcDbEntity
  8
0
100
AcDbBlockEnd
  0
BLOCK
  5
1DC
330
1DB
100
AcDbEntity
  8
0
100
AcDbBlockBegin
  2
_DOT
 70
     0
 10
0.0
 20
0.0
 30
0.0
  3
_DOT
  1
_DOT
  0
POLYLINE
  5
1DE
330
1DB
100
AcDbEntity
  8
0
  6
ByBlock
 62
     0
100
AcDb2dPolyline
 66
     1
 10
0.0
 20
0.0
 30
0.0
 70
     1
 40
0.5
 41
0.5
  0
VERTEX
  5
1E0
330
1DE
100
AcDbEntity
  8
0
  6
ByBlock
 62
     0
100
AcDbVertex
100
AcDb2dVertex
 10
-0.25
 20
0.0
 30
0.0
 42
1.0
  0
VERTEX
  5
1E1
330
1DE
100
AcDbEntity
  8
0
  6
ByBlock
 62
     0
100
AcDbVertex
100
AcDb2dVertex
 10
0.25
 20
0.0
 30
0.0
 42
1.0
  0
SEQEND
  5
1E2
330
1DE
100
AcDbEntity
  8
0
  6
ByBlock
 62
     0
  0
LINE
  5
1DF
330
1DB
100
AcDbEntity
  8
0
  6
ByBlock
 62
     0
370
    -2
100
AcDbLine
 10
-0.5
 20
0.0
 30
0.0
 11
-1.0
 21
0.0
 31
0.0
  0
ENDBLK
  5
1DD
330
1DB
100
AcDbEntity
  8
0
100
AcDbBlockEnd
  0
BLOCK
  5
1E6
330
1E3
100
AcDbEntity
  8
0
100
AcDbBlockBegin
  2
_SE_FILLED
 70
     0
 10
0.0
 20
0.0
 30
0.0
  3
_SE_FILLED
  1
_SE_FILLED
  0
SOLID
  5
1E4
330
1E3
100
AcDbEntity
  8
0
 62
     0
100
AcDbTrace
 10
0.0
 20
0.0
 30
0.0
 11
-1.0
 21
-0.1665
 31
0.0
 12
-1.0
 22
0.1665
 32
0.0
 13
0.0
 23
0.0
 33
0.0
  0
LINE
  5
1E5
330
1E3
100
AcDbEntity
  8
0
 62
     0
100
AcDbLine
 10
0.0
 20
0.0
 30
0.0
 11
-1.0
 21
0.0
 31
0.0
  0
ENDBLK
  5
1E7
330
1E3
100
AcDbEntity
  8
0
100
AcDbBlockEnd
  0
BLOCK
  5
1F2
330
1EA
100
AcDbEntity
  8
0
100
AcDbBlockBegin
  2
DMBLK131
 70
     0
 10
0.0
 20
0.0
 30
0.0
  3
DMBLK131
  1
DMBLK131
  0
HATCH
  5
1EB
330
1EA
100
AcDbEntity
  8
Layer3
  6
Continuous
 62
     7
100
AcDbHatch
 10
0.0
 20
0.0
 30
0.0
210
0.0
220
0.0
230
1.0
  2
SOLID
 70
     1
 71
     0
 91
        1
 92
        1
 93
        3
 72
     1
 10
146.9723500076284
 20
267.8508181635011
 11
144.9723499902437
 21
267.8508181635011
 72
     1
 10
144.9723499902437
 20
267.8508181635011
 11
145.9723499989361
 21
261.8508181113471
 72
     1
 10
145.9723499989361
 20
261.8508181113471
 11
146.9723500076284
 21
267.8508181635011
 97
        0
 75
     0
 76
     1
 98
        0
  0
HATCH
  5
1EC
330
1EA
100
AcDbEntity
  8
Layer3
  6
Continuous
 62
     7
100
AcDbHatch
 10
0.0
 20
0.0
 30
0.0
210
0.0
220
0.0
230
1.0
  2
SOLID
 70
     1
 71
     0
 91
        1
 92
        1
 93
        3
 72
     1
 10
146.9723500076284
 20
275.350818059193
 11
145.9723499989361
 21
281.3508181113471
 72
     1
 10
145.9723499989361
 20
281.3508181113471
 11
144.9723499902437
 21
275.350818059193
 72
     1
 10
144.9723499902437
 20
275.350818059193
 11
146.9723500076284
 21
275.350818059193
 97
        0
 75
     0
 76
     1
 98
        0
  0
LINE
  5
1ED
330
1EA
100
AcDbEntity
  8
Layer3
  6
Continuous
 62
     7
100
AcDbLine
 10
122.1763448244
 20
261.8508181113
 30
0.0
 11
148.972350025
 21
261.8508181113
 31
0.0
  0
LINE
  5
1EE
330
1EA
100
AcDbEntity
  8
Layer3
  6
Continuous
 62
     7
100
AcDbLine
 10
120.0228868458
 20
281.3508181113
 30
0.0
 11
148.972350025
 21
281.3508181113
 31
0.0
  0
LINE
  5
1EF
330
1EA
100
AcDbEntity
  8
Layer3
  6
Continuous
 62
     7
100
AcDbLine
 10
145.9723499989
 20
261.8508181113
 30
0.0
 11
145.9723499989
 21
266.5008181285
 31
0.0
  0
LINE
  5
1F0
330
1EA
100
AcDbEntity
  8
Layer3
  6
Continuous
 62
     7
100
AcDbLine
 10
145.9723499989
 20
276.7008180942
 30
0.0
 11
145.9723499989
 21
281.3508181113
 31
0.0
  0
TEXT
  5
1F1
330
1EA
100
AcDbEntity
  8
Layer3
  6
Continuous
 62
     7
100
AcDbText
 10
141.276697825
 20
268.6008183125
 30
0.0
 40
6.0
  1
20
  7
SEACAD_Arial
 11
141.276697825
 21
274.6008183125
 31
0.0
100
AcDbText
 73
     3
  0
ENDBLK
  5
1F3
330
1EA
100
AcDbEntity
  8
0
100
AcDbBlockEnd
  0
BLOCK
  5
1FD
330
1F5
100
AcDbEntity
  8
0
100
AcDbBlockBegin
  2
DMBLK132
 70
     0
 10
0.0
 20
0.0
 30
0.0
  3
DMBLK132
  1
DMBLK132
  0
HATCH
  5
1F6
330
1F5
100
AcDbEntity
  8
Layer3
  6
Continuous
 62
     7
100
AcDbHatch
 10
0.0
 20
0.0
 30
0.0
210
0.0
220
0.0
230
1.0
  2
SOLID
 70
     1
 71
     0
 91
        1
 92
        1
 93
        3
 72
     1
 10
92.77634487657264
 20
252.546712962386
 11
92.77634487657264
 21
254.5467129797706
 72
     1
 10
92.77634487657264
 20
254.5467129797706
 11
86.77634482441857
 21
253.5467129710783
 72
     1
 10
86.77634482441857
 20
253.5467129710783
 11
92.77634487657264
 21
252.546712962386
 97
        0
 75
     0
 76
     1
 98
        0
  0
HATCH
  5
1F7
330
1F5
100
AcDbEntity
  8
Layer3
  6
Continuous
 62
     7
100
AcDbHatch
 10
0.0
 20
0.0
 30
0.0
210
0.0
220
0.0
230
1.0
  2
SOLID
 70
     1
 71
     0
 91
        1
 92
        1
 93
        3
 72
     1
 10
116.1763447722645
 20
252.546712962386
 11
122.1763448244186
 21
253.5467129710783
 72
     1
 10
122.1763448244186
 20
253.5467129710783
 11
116.1763447722645
 21
254.5467129797706
 72
     1
 10
116.1763447722645
 20
254.5467129797706
 11
116.1763447722645
 21
252.546712962386
 97
        0
 75
     0
 76
     1
 98
        0
  0
LINE
  5
1F8
330
1F5
100
AcDbEntity
  8
Layer3
  6
Continuous
 62
     7
100
AcDbLine
 10
86.7763448244
 20
261.8508181113
 30
0.0
 11
86.7763448244
 21
250.546712945
 31
0.0
  0
LINE
  5
1F9
330
1F5
100
AcDbEntity
  8
Layer3
  6
Continuous
 62
     7
100
AcDbLine
 10
122.1763448244
 20
261.8508181113
 30
0.0
 11
122.1763448244
 21
250.546712945
 31
0.0
  0
LINE
  5
1FA
330
1F5
100
AcDbEntity
  8
Layer3
  6
Continuous
 62
     7
100
AcDbLine
 10
86.7763448244
 20
253.5467129711
 30
0.0
 11
97.6806923485
 21
253.5467129711
 31
0.0
  0
LINE
  5
1FB
330
1F5
100
AcDbEntity
  8
Layer3
  6
Continuous
 62
     7
100
AcDbLine
 10
111.271996369
 20
253.5467129711
 30
0.0
 11
122.1763448244
 21
253.5467129711
 31
0.0
  0
TEXT
  5
1FC
330
1F5
100
AcDbEntity
  8
Layer3
  6
Continuous
 62
     7
100
AcDbText
 10
99.7806923853
 20
250.5467129711
 30
0.0
 40
6.0
  1
35
  7
SEACAD_Arial
 11
99.7806923853
 21
256.5467129711
 31
0.0
100
AcDbText
 73
     3
  0
ENDBLK
  5
1FE
330
1F5
100
AcDbEntity
  8
0
100
AcDbBlockEnd
  0
BLOCK
  5
208
330
200
100
AcDbEntity
  8
0
100
AcDbBlockBegin
  2
DMBLK133
 70
     0
 10
0.0
 20
0.0
 30
0.0
  3
DMBLK133
  1
DMBLK133
  0
HATCH
  5
201
330
200
100
AcDbEntity
  8
Layer3
  6
Continuous
 62
     7
100
AcDbHatch
 10
0.0
 20
0.0
 30
0.0
210
0.0
220
0.0
230
1.0
  2
SOLID
 70
     1
 71
     0
 91
        1
 92
        1
 93
        3
 72
     1
 10
95.47634487657255
 20
52.71956758111413
 11
95.47634487657255
 21
54.71956759849883
 72
     1
 10
95.47634487657255
 20
54.71956759849883
 11
89.47634482441849
 21
53.71956758980648
 72
     1
 10
89.47634482441849
 20
53.71956758980648
 11
95.47634487657255
 21
52.71956758111413
 97
        0
 75
     0
 76
     1
 98
        0
  0
HATCH
  5
202
330
200
100
AcDbEntity
  8
Layer3
  6
Continuous
 62
     7
100
AcDbHatch
 10
0.0
 20
0.0
 30
0.0
210
0.0
220
0.0
230
1.0
  2
SOLID
 70
     1
 71
     0
 91
        1
 92
        1
 93
        3
 72
     1
 10
113.4763447722645
 20
52.71956758111413
 11
119.4763448244185
 21
53.71956758980648
 72
     1
 10
119.4763448244185
 20
53.71956758980648
 11
113.4763447722645
 21
54.71956759849883
 72
     1
 10
113.4763447722645
 20
54.71956759849883
 11
113.4763447722645
 21
52.71956758111413
 97
        0
 75
     0
 76
     1
 98
        0
  0
LINE
  5
203
330
200
100
AcDbEntity
  8
Layer3
  6
Continuous
 62
     7
100
AcDbLine
 10
89.4763448244
 20
70.7508181113
 30
0.0
 11
89.4763448244
 21
50.7195675637
 31
0.0
  0
LINE
  5
204
330
200
100
AcDbEntity
  8
Layer3
  6
Continuous
 62
     7
100
AcDbLine
 10
119.4763448244
 20
70.7508181113
 30
0.0
 11
119.4763448244
 21
50.7195675637
 31
0.0
  0
LINE
  5
205
330
200
100
AcDbEntity
  8
Layer3
  6
Continuous
 62
     7
100
AcDbLine
 10
89.4763448244
 20
53.7195675898
 30
0.0
 11
97.6806922784
 21
53.7195675898
 31
0.0
  0
LINE
  5
206
330
200
100
AcDbEntity
  8
Layer3
  6
Continuous
 62
     7
100
AcDbLine
 10
111.2719964391
 20
53.7195675898
 30
0.0
 11
119.4763448244
 21
53.7195675898
 31
0.0
  0
TEXT
  5
207
330
200
100
AcDbEntity
  8
Layer3
  6
Continuous
 62
     7
100
AcDbText
 10
99.7806923152
 20
50.7195675898
 30
0.0
 40
6.0
  1
30
  7
SEACAD_Arial
 11
99.7806923152
 21
56.7195675898
 31
0.0
100
AcDbText
 73
     3
  0
ENDBLK
  5
209
330
200
100
AcDbEntity
  8
0
100
AcDbBlockEnd
  0
BLOCK
  5
213
330
20B
100
AcDbEntity
  8
0
100
AcDbBlockBegin
  2
DMBLK134
 70
     0
 10
0.0
 20
0.0
 30
0.0
  3
DMBLK134
  1
DMBLK134
  0
HATCH
  5
20C
330
20B
100
AcDbEntity
  8
Layer3
  6
Continuous
 62
     7
100
AcDbHatch
 10
0.0
 20
0.0
 30
0.0
210
0.0
220
0.0
230
1.0
  2
SOLID
 70
     1
 71
     0
 91
        1
 92
        1
 93
        3
 72
     1
 10
146.1828326526633
 20
123.8508180591929
 11
145.1828326439709
 21
129.850818111347
 72
     1
 10
145.1828326439709
 20
129.850818111347
 11
144.1828326352786
 21
123.8508180591929
 72
     1
 10
144.1828326352786
 20
123.8508180591929
 11
146.1828326526633
 21
123.8508180591929
 97
        0
 75
     0
 76
     1
 98
        0
  0
HATCH
  5
20D
330
20B
100
AcDbEntity
  8
Layer3
  6
Continuous
 62
     7
100
AcDbHatch
 10
0.0
 20
0.0
 30
0.0
210
0.0
220
0.0
230
1.0
  2
SOLID
 70
     1
 71
     0
 91
        1
 92
        1
 93
        3
 72
     1
 10
146.1828326526633
 20
76.55081816350118
 11
144.1828326352786
 21
76.55081816350118
 72
     1
 10
144.1828326352786
 20
76.55081816350118
 11
145.1828326439709
 21
70.55081811134711
 72
     1
 10
145.1828326439709
 20
70.55081811134711
 11
146.1828326526633
 21
76.55081816350118
 97
        0
 75
     0
 76
     1
 98
        0
  0
LINE
  5
20E
330
20B
100
AcDbEntity
  8
Layer3
  6
Continuous
 62
     7
100
AcDbLine
 10
124.4763448244
 20
129.8508181113
 30
0.0
 11
148.18283267
 21
129.8508181113
 31
0.0
  0
LINE
  5
20F
330
20B
100
AcDbEntity
  8
Layer3
  6
Continuous
 62
     7
100
AcDbLine
 10
119.2763448244
 20
70.5508181113
 30
0.0
 11
148.18283267
 21
70.5508181113
 31
0.0
  0
LINE
  5
210
330
20B
100
AcDbEntity
  8
Layer3
  6
Continuous
 62
     7
100
AcDbLine
 10
145.182832644
 20
129.8508181113
 30
0.0
 11
145.182832644
 21
105.3008179057
 31
0.0
  0
LINE
  5
211
330
20B
100
AcDbEntity
  8
Layer3
  6
Continuous
 62
     7
100
AcDbLine
 10
145.182832644
 20
95.1008164543
 30
0.0
 11
145.182832644
 21
70.5508181113
 31
0.0
  0
TEXT
  5
212
330
20B
100
AcDbEntity
  8
Layer3
  6
Continuous
 62
     7
100
AcDbText
 10
140.4871804701
 20
97.200817256
 30
0.0
 40
6.0
  1
59
  7
SEACAD_Arial
 11
140.4871804701
 21
103.200817256
 31
0.0
100
AcDbText
 73
     3
  0
ENDBLK
  5
214
330
20B
100
AcDbEntity
  8
0
100
AcDbBlockEnd
  0
BLOCK
  5
21E
330
216
100
AcDbEntity
  8
0
100
AcDbBlockBegin
  2
DMBLK135
 70
     0
 10
0.0
 20
0.0
 30
0.0
  3
DMBLK135
  1
DMBLK135
  0
HATCH
  5
217
330
216
100
AcDbEntity
  8
Layer3
  6
Continuous
 62
     7
100
AcDbHatch
 10
0.0
 20
0.0
 30
0.0
210
0.0
220
0.0
230
1.0
  2
SOLID
 70
     1
 71
     0
 91
        1
 92
        1
 93
        3
 72
     1
 10
146.1828326526633
 20
135.8508181635011
 11
144.1828326352786
 21
135.8508181635011
 72
     1
 10
144.1828326352786
 20
135.8508181635011
 11
145.1828326439709
 21
129.850818111347
 72
     1
 10
145.1828326439709
 20
129.850818111347
 11
146.1828326526633
 21
135.8508181635011
 97
        0
 75
     0
 76
     1
 98
        0
  0
HATCH
  5
218
330
216
100
AcDbEntity
  8
Layer3
  6
Continuous
 62
     7
100
AcDbHatch
 10
0.0
 20
0.0
 30
0.0
210
0.0
220
0.0
230
1.0
  2
SOLID
 70
     1
 71
     0
 91
        1
 92
        1
 93
        3
 72
     1
 10
146.1828326526633
 20
157.8508180591929
 11
145.1828326439709
 21
163.850818111347
 72
     1
 10
145.1828326439709
 20
163.850818111347
 11
144.1828326352786
 21
157.8508180591929
 72
     1
 10
144.1828326352786
 20
157.8508180591929
 11
146.1828326526633
 21
157.8508180591929
 97
        0
 75
     0
 76
     1
 98
        0
  0
LINE
  5
219
330
216
100
AcDbEntity
  8
Layer3
  6
Continuous
 62
     7
100
AcDbLine
 10
124.4763448244
 20
129.8508181113
 30
0.0
 11
148.18283267
 21
129.8508181113
 31
0.0
  0
LINE
  5
21A
330
216
100
AcDbEntity
  8
Layer3
  6
Continuous
 62
     7
100
AcDbLine
 10
113.2506729191
 20
163.8508181113
 30
0.0
 11
148.18283267
 21
163.8508181113
 31
0.0
  0
LINE
  5
21B
330
216
100
AcDbEntity
  8
Layer3
  6
Continuous
 62
     7
100
AcDbLine
 10
145.182832644
 20
129.8508181113
 30
0.0
 11
145.182832644
 21
141.7508193169
 31
0.0
  0
LINE
  5
21C
330
216
100
AcDbEntity
  8
Layer3
  6
Continuous
 62
     7
100
AcDbLine
 10
145.182832644
 20
151.9508187685
 30
0.0
 11
145.182832644
 21
163.8508181113
 31
0.0
  0
TEXT
  5
21D
330
216
100
AcDbEntity
  8
Layer3
  6
Continuous
 62
     7
100
AcDbText
 10
140.4871804701
 20
143.8508190352
 30
0.0
 40
6.0
  1
34
  7
SEACAD_Arial
 11
140.4871804701
 21
149.8508190352
 31
0.0
100
AcDbText
 73
     3
  0
ENDBLK
  5
21F
330
216
100
AcDbEntity
  8
0
100
AcDbBlockEnd
  0
BLOCK
  5
228
330
221
100
AcDbEntity
  8
0
100
AcDbBlockBegin
  2
DMBLK136
 70
     0
 10
0.0
 20
0.0
 30
0.0
  3
DMBLK136
  1
DMBLK136
  0
HATCH
  5
222
330
221
100
AcDbEntity
  8
Layer3
  6
Continuous
 62
     7
100
AcDbHatch
 10
0.0
 20
0.0
 30
0.0
210
0.0
220
0.0
230
1.0
  2
SOLID
 70
     1
 71
     0
 91
        1
 92
        1
 93
        3
 72
     1
 10
80.47634477226443
 20
122.5966557827157
 11
80.47634477226443
 21
120.596655765331
 72
     1
 10
80.47634477226443
 20
120.596655765331
 11
86.47634482441849
 21
121.5966557740234
 72
     1
 10
86.47634482441849
 20
121.5966557740234
 11
80.47634477226443
 21
122.5966557827157
 97
        0
 75
     0
 76
     1
 98
        0
  0
HATCH
  5
223
330
221
100
AcDbEntity
  8
Layer3
  6
Continuous
 62
     7
100
AcDbHatch
 10
0.0
 20
0.0
 30
0.0
210
0.0
220
0.0
230
1.0
  2
SOLID
 70
     1
 71
     0
 91
        1
 92
        1
 93
        3
 72
     1
 10
128.4763448765726
 20
122.5966557827157
 11
122.4763448244185
 21
121.5966557740234
 72
     1
 10
122.4763448244185
 20
121.5966557740234
 11
128.4763448765726
 21
120.596655765331
 72
     1
 10
128.4763448765726
 20
120.596655765331
 11
128.4763448765726
 21
122.5966557827157
 97
        0
 75
     0
 76
     1
 98
        0
  0
LINE
  5
224
330
221
100
AcDbEntity
  8
Layer3
  6
Continuous
 62
     7
100
AcDbLine
 10
58.5238190597
 20
121.596655774
 30
0.0
 11
86.4763448244
 21
121.596655774
 31
0.0
  0
LINE
  5
225
330
221
100
AcDbEntity
  8
Layer3
  6
Continuous
 62
     7
100
AcDbLine
 10
122.4763448244
 20
121.596655774
 30
0.0
 11
134.4763449287
 21
121.596655774
 31
0.0
  0
TEXT
  5
226
330
221
100
AcDbEntity
  8
Layer3
  6
Continuous
 62
     7
100
AcDbText
 10
68.7368634474
 20
123.096655774
 30
0.0
 40
6.0
  1
36
  7
SEACAD_Arial
 11
68.7368634474
 21
129.096655774
 31
0.0
100
AcDbText
 73
     3
  0
TEXT
  5
227
330
221
100
AcDbEntity
  8
Layer3
  6
Continuous
 62
     7
100
AcDbText
 10
60.6238199691
 20
123.096655774
 30
0.0
 40
6.0
  1
M
  7
SEACAD_Arial
 11
60.6238199691
 21
129.096655774
 31
0.0
100
AcDbText
 73
     3
  0
ENDBLK
  5
229
330
221
100
AcDbEntity
  8
0
100
AcDbBlockEnd
  0
BLOCK
  5
233
330
22B
100
AcDbEntity
  8
0
100
AcDbBlockBegin
  2
DMBLK137
 70
     0
 10
0.0
 20
0.0
 30
0.0
  3
DMBLK137
  1
DMBLK137
  0
HATCH
  5
22C
330
22B
100
AcDbEntity
  8
Layer3
  6
Continuous
 62
     7
100
AcDbHatch
 10
0.0
 20
0.0
 30
0.0
210
0.0
220
0.0
230
1.0
  2
SOLID
 70
     1
 71
     0
 91
        1
 92
        1
 93
        3
 72
     1
 10
146.4409020977278
 20
213.650818163501
 11
144.4409020803431
 21
213.650818163501
 72
     1
 10
144.4409020803431
 20
213.650818163501
 11
145.4409020890354
 21
207.650818111347
 72
     1
 10
145.4409020890354
 20
207.650818111347
 11
146.4409020977278
 21
213.650818163501
 97
        0
 75
     0
 76
     1
 98
        0
  0
HATCH
  5
22D
330
22B
100
AcDbEntity
  8
Layer3
  6
Continuous
 62
     7
100
AcDbHatch
 10
0.0
 20
0.0
 30
0.0
210
0.0
220
0.0
230
1.0
  2
SOLID
 70
     1
 71
     0
 91
        1
 92
        1
 93
        3
 72
     1
 10
146.4409020977278
 20
236.4508180591929
 11
145.4409020890354
 21
242.4508181113469
 72
     1
 10
145.4409020890354
 20
242.4508181113469
 11
144.4409020803431
 21
236.4508180591929
 72
     1
 10
144.4409020803431
 20
236.4508180591929
 11
146.4409020977278
 21
236.4508180591929
 97
        0
 75
     0
 76
     1
 98
        0
  0
LINE
  5
22E
330
22B
100
AcDbEntity
  8
Layer3
  6
Continuous
 62
     7
100
AcDbLine
 10
119.242341717
 20
207.6508181113
 30
0.0
 11
148.4409021151
 21
207.6508181113
 31
0.0
  0
LINE
  5
22F
330
22B
100
AcDbEntity
  8
Layer3
  6
Continuous
 62
     7
100
AcDbLine
 10
114.492341717
 20
242.4508181113
 30
0.0
 11
148.4409021151
 21
242.4508181113
 31
0.0
  0
LINE
  5
230
330
22B
100
AcDbEntity
  8
Layer3
  6
Continuous
 62
     7
100
AcDbLine
 10
145.440902089
 20
207.6508181113
 30
0.0
 11
145.440902089
 21
219.9508186374
 31
0.0
  0
LINE
  5
231
330
22B
100
AcDbEntity
  8
Layer3
  6
Continuous
 62
     7
100
AcDbLine
 10
145.440902089
 20
230.1508185167
 30
0.0
 11
145.440902089
 21
242.4508181113
 31
0.0
  0
TEXT
  5
232
330
22B
100
AcDbEntity
  8
Layer3
  6
Continuous
 62
     7
100
AcDbText
 10
140.7452499151
 20
222.0508183557
 30
0.0
 40
6.0
  1
35
  7
SEACAD_Arial
 11
140.7452499151
 21
228.0508183557
 31
0.0
100
AcDbText
 73
     3
  0
ENDBLK
  5
234
330
22B
100
AcDbEntity
  8
0
100
AcDbBlockEnd
  0
BLOCK
  5
23C
330
236
100
AcDbEntity
  8
0
100
AcDbBlockBegin
  2
DMBLK138
 70
     0
 10
0.0
 20
0.0
 30
0.0
  3
DMBLK138
  1
DMBLK138
  0
HATCH
  5
237
330
236
100
AcDbEntity
  8
Layer3
  6
Continuous
 62
     7
100
AcDbHatch
 10
0.0
 20
0.0
 30
0.0
210
0.0
220
0.0
230
1.0
  2
SOLID
 70
     1
 71
     0
 91
        1
 92
        1
 93
        3
 72
     1
 10
121.9504834482037
 20
234.4245478022482
 11
121.9504834482037
 21
236.4245478196329
 72
     1
 10
121.9504834482037
 20
236.4245478196329
 11
115.9504833960496
 21
235.4245478109406
 72
     1
 10
115.9504833960496
 20
235.4245478109406
 11
121.9504834482037
 21
234.4245478022482
 97
        0
 75
     0
 76
     1
 98
        0
  0
HATCH
  5
238
330
236
100
AcDbEntity
  8
Layer3
  6
Continuous
 62
     7
100
AcDbHatch
 10
0.0
 20
0.0
 30
0.0
210
0.0
220
0.0
230
1.0
  2
SOLID
 70
     1
 71
     0
 91
        1
 92
        1
 93
        3
 72
     1
 10
88.03419998587714
 20
234.4245478022482
 11
94.0342000380312
 21
235.4245478109406
 72
     1
 10
94.0342000380312
 20
235.4245478109406
 11
88.03419998587714
 21
236.4245478196329
 72
     1
 10
88.03419998587714
 20
236.4245478196329
 11
88.03419998587714
 21
234.4245478022482
 97
        0
 75
     0
 76
     1
 98
        0
  0
LINE
  5
239
330
236
100
AcDbEntity
  8
Layer3
  6
Continuous
 62
     7
100
AcDbLine
 10
127.9504835004
 20
235.4245478109
 30
0.0
 11
115.950483396
 21
235.4245478109
 31
0.0
  0
LINE
  5
23A
330
236
100
AcDbEntity
  8
Layer3
  6
Continuous
 62
     7
100
AcDbLine
 10
94.034200038
 20
235.4245478109
 30
0.0
 11
72.6191489652
 21
235.4245478109
 31
0.0
  0
TEXT
  5
23B
330
236
100
AcDbEntity
  8
Layer3
  6
Continuous
 62
     7
100
AcDbText
 10
74.7191491023
 20
236.9245478109
 30
0.0
 40
6.0
  1
22
  7
SEACAD_Arial
 11
74.7191491023
 21
242.9245478109
 31
0.0
100
AcDbText
 73
     3
  0
ENDBLK
  5
23D
330
236
100
AcDbEntity
  8
0
100
AcDbBlockEnd
  0
BLOCK
  5
247
330
23F
100
AcDbEntity
  8
0
100
AcDbBlockBegin
  2
DMBLK139
 70
     0
 10
0.0
 20
0.0
 30
0.0
  3
DMBLK139
  1
DMBLK139
  0
HATCH
  5
240
330
23F
100
AcDbEntity
  8
Layer3
  6
Continuous
 62
     7
100
AcDbHatch
 10
0.0
 20
0.0
 30
0.0
210
0.0
220
0.0
230
1.0
  2
SOLID
 70
     1
 71
     0
 91
        1
 92
        1
 93
        3
 72
     1
 10
146.3074924740543
 20
194.8508180591929
 11
145.3074924653619
 21
200.850818111347
 72
     1
 10
145.3074924653619
 20
200.850818111347
 11
144.3074924566696
 21
194.8508180591929
 72
     1
 10
144.3074924566696
 20
194.8508180591929
 11
146.3074924740543
 21
194.8508180591929
 97
        0
 75
     0
 76
     1
 98
        0
  0
HATCH
  5
241
330
23F
100
AcDbEntity
  8
Layer3
  6
Continuous
 62
     7
100
AcDbHatch
 10
0.0
 20
0.0
 30
0.0
210
0.0
220
0.0
230
1.0
  2
SOLID
 70
     1
 71
     0
 91
        1
 92
        1
 93
        3
 72
     1
 10
146.3074924740543
 20
171.850818163501
 11
144.3074924566696
 21
171.850818163501
 72
     1
 10
144.3074924566696
 20
171.850818163501
 11
145.3074924653619
 21
165.850818111347
 72
     1
 10
145.3074924653619
 20
165.850818111347
 11
146.3074924740543
 21
171.850818163501
 97
        0
 75
     0
 76
     1
 98
        0
  0
LINE
  5
242
330
23F
100
AcDbEntity
  8
Layer3
  6
Continuous
 62
     7
100
AcDbLine
 10
110.4763448244
 20
200.8508181113
 30
0.0
 11
148.3074924914
 21
200.8508181113
 31
0.0
  0
LINE
  5
243
330
23F
100
AcDbEntity
  8
Layer3
  6
Continuous
 62
     7
100
AcDbLine
 10
107.4167137073
 20
165.8508181113
 30
0.0
 11
148.3074924914
 21
165.8508181113
 31
0.0
  0
LINE
  5
244
330
23F
100
AcDbEntity
  8
Layer3
  6
Continuous
 62
     7
100
AcDbLine
 10
145.3074924654
 20
200.8508181113
 30
0.0
 11
145.3074924654
 21
188.4508177552
 31
0.0
  0
LINE
  5
245
330
23F
100
AcDbEntity
  8
Layer3
  6
Continuous
 62
     7
100
AcDbLine
 10
145.3074924654
 20
178.2508184675
 30
0.0
 11
145.3074924654
 21
165.8508181113
 31
0.0
  0
TEXT
  5
246
330
23F
100
AcDbEntity
  8
Layer3
  6
Continuous
 62
     7
100
AcDbText
 10
140.6118402914
 20
180.3508180368
 30
0.0
 40
6.0
  1
35
  7
SEACAD_Arial
 11
140.6118402914
 21
186.3508180368
 31
0.0
100
AcDbText
 73
     3
  0
ENDBLK
  5
248
330
23F
100
AcDbEntity
  8
0
100
AcDbBlockEnd
  0
BLOCK
  5
250
330
24A
100
AcDbEntity
  8
0
100
AcDbBlockBegin
  2
DMBLK140
 70
     0
 10
0.0
 20
0.0
 30
0.0
  3
DMBLK140
  1
DMBLK140
  0
HATCH
  5
24B
330
24A
100
AcDbEntity
  8
Layer3
  6
Continuous
 62
     7
100
AcDbHatch
 10
0.0
 20
0.0
 30
0.0
210
0.0
220
0.0
230
1.0
  2
SOLID
 70
     1
 71
     0
 91
        1
 92
        1
 93
        3
 72
     1
 10
118.4763448765726
 20
195.8545314235953
 11
118.4763448765726
 21
197.8545314409801
 72
     1
 10
118.4763448765726
 20
197.8545314409801
 11
112.4763448244185
 21
196.8545314322877
 72
     1
 10
112.4763448244185
 20
196.8545314322877
 11
118.4763448765726
 21
195.8545314235953
 97
        0
 75
     0
 76
     1
 98
        0
  0
HATCH
  5
24C
330
24A
100
AcDbEntity
  8
Layer3
  6
Continuous
 62
     7
100
AcDbHatch
 10
0.0
 20
0.0
 30
0.0
210
0.0
220
0.0
230
1.0
  2
SOLID
 70
     1
 71
     0
 91
        1
 92
        1
 93
        3
 72
     1
 10
90.47634477226444
 20
195.8545314235953
 11
96.4763448244185
 21
196.8545314322877
 72
     1
 10
96.4763448244185
 20
196.8545314322877
 11
90.47634477226444
 21
197.8545314409801
 72
     1
 10
90.47634477226444
 20
197.8545314409801
 11
90.47634477226444
 21
195.8545314235953
 97
        0
 75
     0
 76
     1
 98
        0
  0
LINE
  5
24D
330
24A
100
AcDbEntity
  8
Layer3
  6
Continuous
 62
     7
100
AcDbLine
 10
124.4763449287
 20
196.8545314323
 30
0.0
 11
112.4763448244
 21
196.8545314323
 31
0.0
  0
LINE
  5
24E
330
24A
100
AcDbEntity
  8
Layer3
  6
Continuous
 62
     7
100
AcDbLine
 10
96.4763448244
 20
196.8545314323
 30
0.0
 11
72.8850927806
 21
196.8545314323
 31
0.0
  0
TEXT
  5
24F
330
24A
100
AcDbEntity
  8
Layer3
  6
Continuous
 62
     7
100
AcDbText
 10
74.9850920942
 20
198.3545314323
 30
0.0
 40
6.0
  1
16
  7
SEACAD_Arial
 11
74.9850920942
 21
204.3545314323
 31
0.0
100
AcDbText
 73
     3
  0
ENDBLK
  5
251
330
24A
100
AcDbEntity
  8
0
100
AcDbBlockEnd
  0
BLOCK
  5
259
330
253
100
AcDbEntity
  8
0
100
AcDbBlockBegin
  2
DMBLK141
 70
     0
 10
0.0
 20
0.0
 30
0.0
  3
DMBLK141
  1
DMBLK141
  0
HATCH
  5
254
330
253
100
AcDbEntity
  8
Layer3
  6
Continuous
 62
     7
100
AcDbHatch
 10
0.0
 20
0.0
 30
0.0
210
0.0
220
0.0
230
1.0
  2
SOLID
 70
     1
 71
     0
 91
        1
 92
        1
 93
        3
 72
     1
 10
119.5513448765726
 20
160.6955862521224
 11
113.5513448244185
 21
159.6955862434301
 72
     1
 10
113.5513448244185
 20
159.6955862434301
 11
119.5513448765726
 21
158.6955862347377
 72
     1
 10
119.5513448765726
 20
158.6955862347377
 11
119.5513448765726
 21
160.6955862521224
 97
        0
 75
     0
 76
     1
 98
        0
  0
HATCH
  5
255
330
253
100
AcDbEntity
  8
Layer3
  6
Continuous
 62
     7
100
AcDbHatch
 10
0.0
 20
0.0
 30
0.0
210
0.0
220
0.0
230
1.0
  2
SOLID
 70
     1
 71
     0
 91
        1
 92
        1
 93
        3
 72
     1
 10
89.40134477226444
 20
160.6955862521224
 11
89.40134477226444
 21
158.6955862347377
 72
     1
 10
89.40134477226444
 20
158.6955862347377
 11
95.4013448244185
 21
159.6955862434301
 72
     1
 10
95.4013448244185
 20
159.6955862434301
 11
89.40134477226444
 21
160.6955862521224
 97
        0
 75
     0
 76
     1
 98
        0
  0
LINE
  5
256
330
253
100
AcDbEntity
  8
Layer3
  6
Continuous
 62
     7
100
AcDbLine
 10
125.5513449287
 20
159.6955862434
 30
0.0
 11
113.5513448244
 21
159.6955862434
 31
0.0
  0
LINE
  5
257
330
253
100
AcDbEntity
  8
Layer3
  6
Continuous
 62
     7
100
AcDbLine
 10
95.4013448244
 20
159.6955862434
 30
0.0
 11
72.1883699334
 21
159.6955862434
 31
0.0
  0
TEXT
  5
258
330
253
100
AcDbEntity
  8
Layer3
  6
Continuous
 62
     7
100
AcDbText
 10
74.2883701053
 20
161.1955862434
 30
0.0
 40
6.0
  1
18
  7
SEACAD_Arial
 11
74.2883701053
 21
167.1955862434
 31
0.0
100
AcDbText
 73
     3
  0
ENDBLK
  5
25A
330
253
100
AcDbEntity
  8
0
100
AcDbBlockEnd
  0
BLOCK
  5
2B7
330
279
100
AcDbEntity
  8
0
100
AcDbBlockBegin
  2
symb_tb_GroheLogo2013_ori
 70
     0
 10
0.0
 20
0.0
 30
0.0
  3
symb_tb_GroheLogo2013_ori
  1
symb_tb_GroheLogo2013_ori
  0
HATCH
  5
27A
330
279
100
AcDbEntity
  8
Standard
  6
Continuous
 62
     7
100
AcDbHatch
 10
0.0
 20
0.0
 30
0.0
210
0.0
220
0.0
230
1.0
  2
SOLID
 70
     1
 71
     0
 91
        9
 92
        1
 93
        4
 72
     1
 10
20.1320023102195
 20
15.45781230744146
 11
0.0
 21
15.45781230744146
 72
     1
 10
0.0
 20
15.45781230744146
 11
0.0
 21
0.0000000000000373
 72
     1
 10
0.0
 20
0.0000000000000284
 11
20.1320023102195
 21
0.0000000000000007
 72
     1
 10
20.1320023102195
 20
0.0
 11
20.1320023102195
 21
15.45781230744145
 97
        0
 92
        1
 93
        1
 72
     4
 94
        3
 73
     1
 74
     0
 95
       19
 96
       15
 40
0.0
 40
0.0
 40
0.0
 40
0.0
 40
0.576972079187426
 40
0.576972079187426
 40
0.8087884250258078
 40
0.8087884250258078
 40
0.8087884250258078
 40
0.8585481612372913
 40
0.8585481612372913
 40
0.8585481612372913
 40
0.9292740806186457
 40
0.9292740806186457
 40
0.9292740806186457
 40
1.0
 40
1.0
 40
1.0
 40
1.0
 10
11.46799090897963
 20
10.53350423551331
 42
1.08047789209601
 10
11.15134096082077
 20
10.87514302682462
 42
0.986882803952448
 10
10.69711027311541
 20
11.07146344343644
 42
0.960056839920445
 10
9.990877002577506
 20
11.07146344343644
 42
1.01604804301204
 10
9.801985283517666
 20
11.04147310806695
 42
1.04287400704405
 10
9.623784716721097
 20
10.9846336521683
 42
1.08047789209601
 10
8.940730305162269
 20
10.76673253851368
 42
0.949278918900485
 10
8.523147123926407
 20
10.23914070703063
 42
0.949278918900485
 10
8.523147123926407
 20
9.594067440522593
 42
1.08047789209601
 10
8.523147123926407
 20
8.470493468490844
 42
0.77464325294993
 10
9.556926438753003
 20
7.823976345336916
 42
0.77464325294993
 10
10.74664227133307
 20
8.203501228876803
 42
1.08047789209601
 10
11.93634708210673
 20
8.583037134223133
 42
0.77464325294993
 10
12.27172963078638
 20
9.666337425461052
 42
0.77464325294993
 10
11.46799090897963
 20
10.53350423551331
 42
1.08047789209601
 97
        0
 92
        1
 93
       12
 72
     1
 10
12.35280603908395
 20
10.94643207098838
 11
12.35280603908395
 21
8.241702810056726
 72
     1
 10
12.35280603908395
 20
8.241702810056722
 11
13.05198535348936
 21
8.24170281005675
 72
     1
 10
13.05198535348936
 20
8.24170281005675
 11
13.05198535348936
 21
9.390781242229906
 72
     1
 10
13.05198535348936
 20
9.390781242229906
 11
14.29894844880703
 21
9.390781242229878
 72
     1
 10
14.29894844880703
 20
9.390781242229878
 11
14.29894844880708
 21
8.241702810056722
 72
     1
 10
14.29894844880708
 20
8.241702810056722
 11
15.00253648579529
 21
8.24170281005675
 72
     1
 10
15.00253648579529
 20
8.24170281005675
 11
15.00253648579528
 21
10.9464320709884
 72
     1
 10
15.00253648579528
 20
10.94643207098841
 11
14.29894844880707
 21
10.94643207098838
 72
     1
 10
14.29894844880707
 20
10.94643207098838
 11
14.29894844880708
 21
9.948903477598794
 72
     1
 10
14.29894844880708
 20
9.948903477598805
 11
13.05198535348941
 21
9.948903477598805
 72
     1
 10
13.05198535348941
 20
9.948903477598805
 11
13.05198535348937
 21
10.94643207098839
 72
     1
 10
13.05198535348936
 20
10.94643207098838
 11
12.35280603908394
 21
10.94643207098838
 97
        0
 92
        1
 93
       11
 72
     1
 10
7.093740066326241
 20
10.94643207098838
 11
5.782067945299608
 21
10.94643207098838
 72
     1
 10
5.782067945299609
 20
10.94643207098838
 11
5.782067945299623
 21
8.241702810056726
 72
     1
 10
5.782067945299623
 20
8.241702810056722
 11
6.500248854036888
 21
8.24170281005675
 72
     1
 10
6.500248854036883
 20
8.24170281005675
 11
6.500248854036855
 21
10.42939913009116
 72
     1
 10
6.500248854036855
 20
10.42939913009116
 11
6.965490326392723
 21
10.42939913009116
 72
     4
 94
        3
 73
     0
 74
     0
 95
       15
 96
       11
 40
0.0
 40
0.0
 40
0.0
 40
0.0
 40
0.1729865553416529
 40
0.3342463836783639
 40
0.4999999999999963
 40
0.4999999999999963
 40
0.4999999999999963
 40
0.6728584706586043
 40
0.8410305318392429
 40
1.0
 40
1.0
 40
1.0
 40
1.0
 10
6.965490326392711
 20
10.42939913009116
 10
7.074507014058817
 20
10.43245217047976
 10
7.229649961747356
 20
10.37276908851513
 10
7.314264369917616
 20
10.26467823259148
 10
7.378510479755413
 20
10.12433757097466
 10
7.378675806852257
 20
9.99925108949435
 10
7.378510479755413
 20
9.874164608013984
 10
7.314264369917616
 20
9.733812924590694
 10
7.233121830781286
 20
9.630174878475657
 10
7.093211019616326
 20
9.57343461883508
 10
7.00312979544335
 20
9.56938961586539
 72
     1
 10
7.00312979544335
 20
9.56938961586539
 11
6.590528470726049
 21
9.56938961586539
 72
     1
 10
6.590528470726049
 20
9.56938961586539
 11
7.583670385145745
 21
8.241702810056754
 72
     1
 10
7.583670385145744
 20
8.24170281005675
 11
8.474221325063843
 21
8.24170281005675
 72
     1
 10
8.474221325063844
 20
8.24170281005675
 11
7.568394161396378
 21
9.326887830198766
 72
     4
 94
        3
 73
     0
 74
     0
 95
       18
 96
       14
 40
0.0
 40
0.0
 40
0.0
 40
0.0
 40
0.010760420324004
 40
0.010760420324004
 40
0.010760420324004
 40
0.057351634176115
 40
0.2756344009928203
 40
0.4999999999999988
 40
0.4999999999999988
 40
0.4999999999999988
 40
0.6657536163216358
 40
0.8270134446583466
 40
1.0
 40
1.0
 40
1.0
 40
1.0
 10
7.568394161396377
 20
9.326887830198757
 10
7.575734684496737
 20
9.32967634723235
 10
7.582942945919577
 20
9.332508951491775
 10
7.590018945664994
 20
9.335374621170615
 10
7.620659567615405
 20
9.347807218854086
 10
7.780365543177155
 20
9.422623241084125
 10
7.926404478732223
 20
9.57649868103016
 10
8.079783937387653
 20
9.852914565164895
 10
8.080180722420089
 20
10.09926296128498
 10
8.079783937387653
 20
10.34562237921159
 10
7.926404478732223
 20
10.62202724153994
 10
7.724385788182104
 20
10.8348913896437
 10
7.354020025807955
 20
10.95244997731388
 10
7.093740066326241
 20
10.94643207098838
 97
        0
 92
        1
 93
        6
 72
     4
 94
        3
 73
     1
 74
     0
 95
       24
 96
       20
 40
0.0
 40
0.0
 40
0.0
 40
0.0
 40
0.2499999999999994
 40
0.2499999999999994
 40
0.2499999999999994
 40
0.3364932776708256
 40
0.4171231918391822
 40
0.4999999999999989
 40
0.4999999999999989
 40
0.4999999999999989
 40
0.5000191898804309
 40
0.5000191898804309
 40
0.5000191898804309
 40
0.582889636457092
 40
0.6635133615118
 40
0.7500000000000008
 40
0.7500000000000008
 40
0.7500000000000008
 40
1.0
 40
1.0
 40
1.0
 40
1.0
 10
5.104326044453018
 20
10.75563357941147
 42
1.0
 10
4.734346045304903
 20
10.93423093124051
 42
0.983215874790017
 10
4.333846664077356
 20
11.02583316470455
 42
0.983215874790017
 10
3.923019850199637
 20
11.02583316470455
 42
1.0
 10
3.511542749740947
 20
11.03599527025787
 42
1.0
 10
2.926020303519991
 20
10.83734925248359
 42
1.0
 10
2.606652439622302
 20
10.47763055514693
 42
1.0
 10
2.364161675762148
 20
10.01052639749983
 42
1.0
 10
2.363544454600579
 20
9.59421072400653
 42
1.0
 10
2.363544618007474
 20
9.594100506063086
 42
1.0
 10
2.363544781414291
 20
9.593990288119642
 42
1.0
 10
2.363544944821193
 20
9.593880070176226
 42
1.0
 10
2.364161675762148
 20
9.177608483545328
 42
1.0
 10
2.606652439622302
 20
8.7105043258982
 42
1.0
 10
2.926020303519991
 20
8.35078562856151
 42
1.0
 10
3.511542749740947
 20
8.152128588980815
 42
1.0
 10
3.923019850199637
 20
8.162290694534107
 42
1.0
 10
4.369799796740047
 20
8.162290694534107
 42
0.979410758195494
 10
4.802780441596298
 20
8.272475693684612
 42
0.979410758195494
 10
5.195211860497345
 20
8.486023193788782
 42
1.0
 72
     1
 10
5.195211860497345
 20
8.486023193788782
 11
5.195211860497345
 21
9.594067440522585
 72
     1
 10
5.195211860497345
 20
9.594067440522565
 11
4.472941861564536
 21
9.594067440522593
 72
     1
 10
4.472941861564536
 20
9.594067440522593
 11
4.472941861564522
 21
8.799825045425665
 72
     4
 94
        3
 73
     1
 74
     0
 95
       21
 96
       17
 40
0.0
 40
0.0
 40
0.0
 40
0.0
 40
0.2499999999999987
 40
0.2499999999999987
 40
0.2499999999999987
 40
0.3364932776708245
 40
0.4171231918391831
 40
0.5000000000000027
 40
0.5000000000000027
 40
0.5000000000000027
 40
0.5828768081608185
 40
0.6635067223291754
 40
0.7500000000000012
 40
0.7500000000000012
 40
0.7500000000000012
 40
1.0
 40
1.0
 40
1.0
 40
1.0
 10
4.472941861564522
 20
8.799825045425592
 42
1.0
 10
4.284314665859632
 20
8.707517416348338
 42
0.982778304235208
 10
4.07972789440506
 20
8.660189779422069
 42
0.982778304235208
 10
3.869729415980075
 20
8.660288975680203
 42
1.0
 10
3.669386040011439
 20
8.653664869999517
 42
1.0
 10
3.384318037807951
 20
8.783237226707854
 42
1.0
 10
3.228811370506321
 20
9.017858420757733
 42
1.0
 10
3.11075680154552
 20
9.322523194841807
 42
1.0
 10
3.110459212771204
 20
9.594067440522593
 42
1.0
 10
3.11083395419071
 20
9.865611686203351
 42
1.0
 10
3.262725468974466
 20
10.17027646028737
 42
1.0
 10
3.462771256168786
 20
10.40489765433728
 42
1.0
 10
3.829521866024976
 20
10.53447001104561
 42
1.0
 10
4.087255788215202
 20
10.52784590536498
 42
1.0
 10
4.45128401187656
 20
10.52782386175204
 42
0.972058195946033
 10
4.800047033594993
 20
10.4235245072496
 42
0.972058195946033
 10
5.104326044453018
 20
10.22367711257149
 42
1.0
 72
     1
 10
5.104326044453018
 20
10.22367711257149
 11
5.104326044453018
 21
10.7556335794115
 97
        0
 92
        1
 93
       12
 72
     1
 10
15.76676650190979
 20
8.24170281005675
 11
17.79408451618858
 21
8.24170281005675
 72
     1
 10
17.79408451618858
 20
8.24170281005675
 11
17.79408451618858
 21
8.758779838179787
 72
     1
 10
17.79408451618858
 20
8.758779838179805
 11
16.46595683812166
 21
8.758779838179805
 72
     1
 10
16.46595683812166
 20
8.758779838179805
 11
16.46595683812166
 21
9.423615203665284
 72
     1
 10
16.46595683812166
 20
9.423615203665264
 11
17.42883287201053
 21
9.423615203665264
 72
     1
 10
17.42883287201052
 20
9.423615203665264
 11
17.42883287201052
 21
9.924280761973897
 72
     1
 10
17.42883287201052
 20
9.924280761973904
 11
16.46595683812166
 21
9.924280761973904
 72
     1
 10
16.46595683812166
 20
9.924280761973904
 11
16.46595683812166
 21
10.42934402105888
 72
     1
 10
16.46595683812166
 20
10.42934402105888
 11
17.6135142610038
 21
10.42934402105888
 72
     1
 10
17.6135142610038
 20
10.42934402105888
 11
17.6135142610038
 21
10.94643207098838
 72
     1
 10
17.6135142610038
 20
10.94643207098838
 11
15.76676650190981
 21
10.94643207098838
 72
     1
 10
15.76676650190981
 20
10.94643207098838
 11
15.76676650190981
 21
8.241702810056752
 97
        0
 92
        1
 93
        4
 72
     4
 94
        3
 73
     1
 74
     0
 95
        8
 96
        4
 40
0.0
 40
0.0
 40
0.0
 40
0.0
 40
1.0
 40
1.0
 40
1.0
 40
1.0
 10
2.998995684071666
 20
6.959293585173413
 42
1.0
 10
3.065479220620205
 20
6.841404343309449
 42
0.996524898131218
 10
3.143634850206745
 20
6.730921755384628
 42
0.996524898131218
 10
3.232657980959814
 20
6.628970045657496
 42
1.0
 72
     4
 94
        3
 73
     0
 74
     0
 95
       15
 96
       11
 40
0.0
 40
0.0
 40
0.0
 40
0.0
 40
0.0208137023656323
 40
0.2611989665798511
 40
0.5000000000000027
 40
0.5000000000000027
 40
0.5000000000000027
 40
0.7388010334201498
 40
0.9791862976343679
 40
1.0
 40
1.0
 40
1.0
 40
1.0
 10
3.232657980959814
 20
6.628970045657496
 10
3.329231049135934
 20
6.61881896191062
 10
4.541122756307416
 20
6.550109020457768
 10
6.85950463550239
 20
8.124254440451125
 10
9.082029863940804
 20
6.623481186041943
 10
10.18962221660991
 20
6.61361666926291
 10
11.29721456927896
 20
6.623481186041943
 10
13.51973979771746
 20
8.124254440451125
 10
15.83811065510588
 20
6.550109020457768
 10
17.05001338408385
 20
6.61881896191062
 10
17.14658645225997
 20
6.628970045657496
 72
     4
 94
        3
 73
     1
 74
     0
 95
        8
 96
        4
 40
0.0
 40
0.0
 40
0.0
 40
0.0
 40
1.0
 40
1.0
 40
1.0
 40
1.0
 10
17.14658645225997
 20
6.628970045657496
 42
1.0
 10
17.2355985612066
 20
6.730921755384628
 42
0.996524898131218
 10
17.31376521259956
 20
6.841404343309449
 42
0.996524898131218
 10
17.38024874914812
 20
6.959293585173413
 42
1.0
 72
     4
 94
        3
 73
     0
 74
     0
 95
       13
 96
        9
 40
0.0
 40
0.0
 40
0.0
 40
0.0
 40
0.0348463403164052
 40
0.2674231701582032
 40
0.4999999999999981
 40
0.7325768298417971
 40
0.965153659683592
 40
1.0
 40
1.0
 40
1.0
 40
1.0
 10
17.38024874914812
 20
6.959293585173413
 10
17.21312509784082
 20
6.93076915006273
 10
15.93064974211877
 20
6.803202762129558
 10
13.53443186572459
 20
8.430010373374358
 10
10.18961670570665
 20
6.156696660782046
 10
6.844801545688732
 20
8.430010373374358
 10
4.448594691101043
 20
6.803202762129558
 10
3.166108313572508
 20
6.93076915006273
 10
2.998995684071666
 20
6.959293585173413
 97
        0
 92
        1
 93
        4
 72
     4
 94
        3
 73
     1
 74
     0
 95
        8
 96
        4
 40
0.0
 40
0.0
 40
0.0
 40
0.0
 40
1.0
 40
1.0
 40
1.0
 40
1.0
 10
4.105585052353177
 20
5.935896812029256
 42
1.0
 10
4.186705547876564
 20
5.850356572116567
 42
0.997360588447966
 10
4.275111457468064
 20
5.772377291433401
 42
0.997360588447966
 10
4.370108407320828
 20
5.702554147528417
 42
1.0
 72
     4
 94
        3
 73
     0
 74
     0
 95
       19
 96
       15
 40
0.0
 40
0.0
 40
0.0
 40
0.0
 40
0.2499999999999999
 40
0.2499999999999999
 40
0.2499999999999999
 40
0.3122787705541569
 40
0.5
 40
0.5
 40
0.5
 40
0.6877212294458419
 40
0.75
 40
0.75
 40
0.75
 40
1.0
 40
1.0
 40
1.0
 40
1.0
 10
4.370108407320828
 20
5.702554147528417
 10
4.835019225483016
 20
5.842035108241561
 10
5.299919021838711
 20
5.981505047148289
 10
5.764829840000878
 20
6.120986007861433
 10
6.132230736438039
 20
6.231204072431296
 10
7.606981505802302
 20
6.560723020075841
 10
9.082029863940804
 20
5.564682370557932
 10
10.18962221660991
 20
5.5548288755854
 10
11.29721456927896
 20
5.564682370557932
 10
12.77225190561104
 20
6.560723020075841
 10
14.24701369678172
 20
6.231204072431296
 10
14.61440357141247
 20
6.120986007861433
 10
15.07931438957463
 20
5.981505047148289
 10
15.54422520773677
 20
5.842035108241561
 10
16.00913602589896
 20
5.702554147528417
 72
     4
 94
        3
 73
     1
 74
     0
 95
        8
 96
        4
 40
0.0
 40
0.0
 40
0.0
 40
0.0
 40
1.0
 40
1.0
 40
1.0
 40
1.0
 10
16.00913602589896
 20
5.702554147528417
 42
1.0
 10
16.10412195394523
 20
5.772377291433401
 42
0.997360588447966
 10
16.19252786353676
 20
5.850356572116567
 42
0.997360588447966
 10
16.27365938086661
 20
5.935896812029256
 42
1.0
 72
     4
 94
        3
 73
     0
 74
     0
 95
       18
 96
       14
 40
0.0
 40
0.0
 40
0.0
 40
0.0
 40
0.25
 40
0.25
 40
0.25
 40
0.311033251196408
 40
0.5000000000000001
 40
0.5000000000000001
 40
0.6889667488035931
 40
0.7500000000000001
 40
0.7500000000000001
 40
0.7500000000000001
 40
1.0
 40
1.0
 40
1.0
 40
1.0
 10
16.27365938086661
 20
5.935896812029256
 10
15.72057411104858
 20
6.100077641012518
 10
15.16748884123051
 20
6.264258469995809
 10
14.61440357141247
 20
6.4284392989791
 10
14.25435421988208
 20
6.535317756192484
 10
12.77960345051785
 20
6.858190554543455
 10
11.3045550923793
 20
5.855669082828825
 10
9.074678319034028
 20
5.855669082828825
 10
7.599629960895477
 20
6.858190554543455
 10
6.124879191531264
 20
6.535317756192484
 10
5.764829840000878
 20
6.4284392989791
 10
5.21174457018278
 20
6.264258469995809
 10
4.658670322171183
 20
6.100077641012518
 10
4.105585052353177
 20
5.935896812029256
 97
        0
 92
        1
 93
        4
 72
     1
 10
5.306961956164734
 20
5.222477323681375
 11
5.681703375702289
 21
5.036792950300529
 72
     4
 94
        3
 73
     0
 74
     0
 95
       13
 96
        9
 40
0.0
 40
0.0
 40
0.0
 40
0.0
 40
0.131481813034251
 40
0.5
 40
0.5
 40
0.5
 40
0.8685181869657492
 40
1.0
 40
1.0
 40
1.0
 40
1.0
 10
5.681703375702263
 20
5.036792950300537
 10
6.076813093572333
 20
5.159553830618449
 10
7.579272684369421
 20
5.520639231955812
 10
9.082029863940804
 20
4.505883555073979
 10
10.18962221660991
 20
4.496030060101418
 10
11.29721456927896
 20
4.505883555073979
 10
12.79997174885037
 20
5.520639231955812
 10
14.30243133964746
 20
5.159553830618449
 10
14.69754105751753
 20
5.036792950300537
 72
     1
 10
14.69754105751753
 20
5.036792950300537
 11
15.07228247705508
 21
5.222477323681383
 72
     4
 94
        3
 73
     0
 74
     0
 95
       12
 96
        8
 40
0.0
 40
0.0
 40
0.0
 40
0.0
 40
0.157509693652257
 40
0.5
 40
0.5
 40
0.842490306347743
 40
1.0
 40
1.0
 40
1.0
 40
1.0
 10
15.07228247705505
 20
5.222477323681375
 10
14.55959212790187
 20
5.3954976414432
 10
12.93225546994714
 20
5.903140003239059
 10
11.3045550923793
 20
4.796870267344843
 10
9.074678319034028
 20
4.796870267344843
 10
7.446988963272702
 20
5.903140003239059
 10
5.819652305317923
 20
5.3954976414432
 10
5.306961956164734
 20
5.222477323681375
 97
        0
 75
     0
 76
     1
 98
        0
  0
HATCH
  5
27B
330
279
100
AcDbEntity
  8
Standard
  6
Continuous
 62
     7
100
AcDbHatch
 10
0.0
 20
0.0
 30
0.0
210
0.0
220
0.0
230
1.0
  2
SOLID
 70
     1
 71
     0
 91
        1
 92
        1
 93
        1
 72
     4
 94
        3
 73
     0
 74
     0
 95
       25
 96
       21
 40
0.0
 40
0.0
 40
0.0
 40
0.0
 40
0.086493277670826
 40
0.167123191839183
 40
0.2499999999999999
 40
0.2499999999999999
 40
0.2499999999999999
 40
0.3328768081608169
 40
0.4135067223291728
 40
0.4999999999999999
 40
0.4999999999999999
 40
0.4999999999999999
 40
0.586493277670826
 40
0.6671231918391831
 40
0.75
 40
0.75
 40
0.75
 40
0.832876808160817
 40
0.913506722329174
 40
1.0
 40
1.0
 40
1.0
 40
1.0
 10
10.1852134940271
 20
10.53350009207739
 10
9.941576462295409
 20
10.54016828498388
 10
9.594885540190894
 20
10.40981338001708
 10
9.405784406808365
 20
10.17375935112779
 10
9.262203334093194
 20
9.867253935365426
 10
9.261839614480131
 20
9.594067440522593
 10
9.262203334093194
 20
9.320880945679676
 10
9.405784406808365
 20
9.014364508110873
 10
9.594885540190894
 20
8.778321501028046
 10
9.941576462295409
 20
8.647966596061252
 10
10.1852134940271
 20
8.65463478896774
 10
10.42885052575882
 20
8.647966596061252
 10
10.77553042605687
 20
8.778321501028046
 10
10.96464258124583
 20
9.014364508110873
 10
11.10821263215459
 20
9.320880945679676
 10
11.1085763517676
 20
9.594067440522593
 10
11.10821263215459
 20
9.867253935365426
 10
10.96464258124583
 20
10.17375935112779
 10
10.71903264615831
 20
10.39242096942795
 10
10.42885052575882
 20
10.54016828498388
 10
10.1852134940271
 20
10.53350009207739
 97
        0
 75
     0
 76
     1
 98
        0
  0
LINE
  5
27C
330
279
100
AcDbEntity
  8
Layer1
  6
Continuous
 62
     7
100
AcDbLine
 10
13.0519853535
 20
9.3907812422
 30
0.0
 11
14.2989484488
 21
9.3907812422
 31
0.0
  0
LINE
  5
27D
330
279
100
AcDbEntity
  8
Layer1
  6
Continuous
 62
     7
100
AcDbLine
 10
7.5836703851
 20
8.2417028101
 30
0.0
 11
8.4742213251
 21
8.2417028101
 31
0.0
  0
LINE
  5
27E
330
279
100
AcDbEntity
  8
Layer1
  6
Continuous
 62
     7
100
AcDbLine
 10
17.428832872
 20
9.4236152037
 30
0.0
 11
16.4659568381
 21
9.4236152037
 31
0.0
  0
LINE
  5
27F
330
279
100
AcDbEntity
  8
Layer1
  6
Continuous
 62
     7
100
AcDbLine
 10
5.1952118605
 20
8.4860231938
 30
0.0
 11
5.1952118605
 21
9.5940674405
 31
0.0
  0
LINE
  5
280
330
279
100
AcDbEntity
  8
Layer1
  6
Continuous
 62
     7
100
AcDbLine
 10
16.4659568381
 20
9.4236152037
 30
0.0
 11
16.4659568381
 21
8.7587798382
 31
0.0
  0
SPLINE
  5
281
330
279
100
AcDbEntity
  8
Layer1
  6
Continuous
 62
     7
100
AcDbSpline
210
0.0
220
0.0
230
1.0
 70
     8
 71
     3
 72
    18
 73
    14
 74
     0
 42
0.000000001
 43
0.0000000001
 40
0.0
 40
0.0
 40
0.0
 40
0.0
 40
0.25
 40
0.25
 40
0.25
 40
0.311033251196408
 40
0.5000000000000001
 40
0.5000000000000001
 40
0.6889667488035931
 40
0.7500000000000001
 40
0.7500000000000001
 40
0.7500000000000001
 40
1.0
 40
1.0
 40
1.0
 40
1.0
 10
16.27365938086661
 20
5.935896812029256
 30
0.0
 10
15.72057411104858
 20
6.100077641012518
 30
0.0
 10
15.16748884123051
 20
6.264258469995809
 30
0.0
 10
14.61440357141247
 20
6.4284392989791
 30
0.0
 10
14.25435421988208
 20
6.535317756192484
 30
0.0
 10
12.77960345051785
 20
6.858190554543455
 30
0.0
 10
11.3045550923793
 20
5.855669082828825
 30
0.0
 10
9.074678319034028
 20
5.855669082828825
 30
0.0
 10
7.599629960895477
 20
6.858190554543455
 30
0.0
 10
6.124879191531264
 20
6.535317756192484
 30
0.0
 10
5.764829840000878
 20
6.4284392989791
 30
0.0
 10
5.21174457018278
 20
6.264258469995809
 30
0.0
 10
4.658670322171183
 20
6.100077641012518
 30
0.0
 10
4.105585052353177
 20
5.935896812029256
 30
0.0
  0
LINE
  5
282
330
279
100
AcDbEntity
  8
Layer1
  6
Continuous
 62
     7
100
AcDbLine
 10
15.7667665019
 20
10.946432071
 30
0.0
 11
17.613514261
 21
10.946432071
 31
0.0
  0
SPLINE
  5
283
330
279
100
AcDbEntity
  8
Layer1
  6
Continuous
 62
     7
100
AcDbSpline
210
0.0
220
0.0
230
1.0
 70
    12
 71
     3
 72
     8
 73
     4
 74
     0
 42
0.000000001
 43
0.0000000001
 40
0.0
 40
0.0
 40
0.0
 40
0.0
 40
1.0
 40
1.0
 40
1.0
 40
1.0
 10
3.232657980959814
 20
6.628970045657496
 30
0.0
 41
1.0
 10
3.143634850206745
 20
6.730921755384628
 30
0.0
 41
0.996524898131218
 10
3.065479220620205
 20
6.841404343309449
 30
0.0
 41
0.996524898131218
 10
2.998995684071666
 20
6.959293585173413
 30
0.0
 41
1.0
  0
LINE
  5
284
330
279
100
AcDbEntity
  8
Layer1
  6
Continuous
 62
     7
100
AcDbLine
 10
7.0031297954
 20
9.5693896159
 30
0.0
 11
6.5905284707
 21
9.5693896159
 31
0.0
  0
SPLINE
  5
285
330
279
100
AcDbEntity
  8
Layer1
  6
Continuous
 62
     7
100
AcDbSpline
210
0.0
220
0.0
230
1.0
 70
    12
 71
     3
 72
     8
 73
     4
 74
     0
 42
0.000000001
 43
0.0000000001
 40
0.0
 40
0.0
 40
0.0
 40
0.0
 40
1.0
 40
1.0
 40
1.0
 40
1.0
 10
16.00913602589896
 20
5.702554147528417
 30
0.0
 41
1.0
 10
16.10412195394523
 20
5.772377291433401
 30
0.0
 41
0.997360588447966
 10
16.19252786353676
 20
5.850356572116567
 30
0.0
 41
0.997360588447966
 10
16.27365938086661
 20
5.935896812029256
 30
0.0
 41
1.0
  0
LINE
  5
286
330
279
100
AcDbEntity
  8
Layer1
  6
Continuous
 62
     7
100
AcDbLine
 10
12.3528060391
 20
8.2417028101
 30
0.0
 11
13.0519853535
 21
8.2417028101
 31
0.0
  0
LINE
  5
287
330
279
100
AcDbEntity
  8
Layer1
  6
Continuous
 62
     7
100
AcDbLine
 10
12.3528060391
 20
10.946432071
 30
0.0
 11
12.3528060391
 21
8.2417028101
 31
0.0
  0
LINE
  5
288
330
279
100
AcDbEntity
  8
Layer1
  6
Continuous
 62
     7
100
AcDbLine
 10
16.4659568381
 20
9.924280762
 30
0.0
 11
17.428832872
 21
9.924280762
 31
0.0
  0
SPLINE
  5
289
330
279
100
AcDbEntity
  8
Layer1
  6
Continuous
 62
     7
100
AcDbSpline
210
0.0
220
0.0
230
1.0
 70
     8
 71
     3
 72
    18
 73
    14
 74
     0
 42
0.000000001
 43
0.0000000001
 40
0.0
 40
0.0
 40
0.0
 40
0.0
 40
0.010760420324004
 40
0.010760420324004
 40
0.010760420324004
 40
0.057351634176115
 40
0.2756344009928203
 40
0.4999999999999988
 40
0.4999999999999988
 40
0.4999999999999988
 40
0.6657536163216358
 40
0.8270134446583466
 40
1.0
 40
1.0
 40
1.0
 40
1.0
 10
7.568394161396377
 20
9.326887830198757
 30
0.0
 10
7.575734684496737
 20
9.32967634723235
 30
0.0
 10
7.582942945919577
 20
9.332508951491775
 30
0.0
 10
7.590018945664994
 20
9.335374621170615
 30
0.0
 10
7.620659567615405
 20
9.347807218854086
 30
0.0
 10
7.780365543177155
 20
9.422623241084125
 30
0.0
 10
7.926404478732223
 20
9.57649868103016
 30
0.0
 10
8.079783937387653
 20
9.852914565164895
 30
0.0
 10
8.080180722420089
 20
10.09926296128498
 30
0.0
 10
8.079783937387653
 20
10.34562237921159
 30
0.0
 10
7.926404478732223
 20
10.62202724153994
 30
0.0
 10
7.724385788182104
 20
10.8348913896437
 30
0.0
 10
7.354020025807955
 20
10.95244997731388
 30
0.0
 10
7.093740066326241
 20
10.94643207098838
 30
0.0
  0
LINE
  5
28A
330
279
100
AcDbEntity
  8
Layer1
  6
Continuous
 62
     7
100
AcDbLine
 10
14.2989484488
 20
8.2417028101
 30
0.0
 11
15.0025364858
 21
8.2417028101
 31
0.0
  0
LINE
  5
28B
330
279
100
AcDbEntity
  8
Layer1
  6
Continuous
 62
     7
100
AcDbLine
 10
17.7940845162
 20
8.2417028101
 30
0.0
 11
15.7667665019
 21
8.2417028101
 31
0.0
  0
LINE
  5
28C
330
279
100
AcDbEntity
  8
Layer1
  6
Continuous
 62
     7
100
AcDbLine
 10
16.4659568381
 20
8.7587798382
 30
0.0
 11
17.7940845162
 21
8.7587798382
 31
0.0
  0
SPLINE
  5
28D
330
279
100
AcDbEntity
  8
Layer1
  6
Continuous
 62
     7
100
AcDbSpline
210
0.0
220
0.0
230
1.0
 70
     8
 71
     3
 72
    12
 73
     8
 74
     0
 42
0.000000001
 43
0.0000000001
 40
0.0
 40
0.0
 40
0.0
 40
0.0
 40
0.157509693652257
 40
0.5
 40
0.5
 40
0.842490306347743
 40
1.0
 40
1.0
 40
1.0
 40
1.0
 10
15.07228247705505
 20
5.222477323681375
 30
0.0
 10
14.55959212790187
 20
5.3954976414432
 30
0.0
 10
12.93225546994714
 20
5.903140003239059
 30
0.0
 10
11.3045550923793
 20
4.796870267344843
 30
0.0
 10
9.074678319034028
 20
4.796870267344843
 30
0.0
 10
7.446988963272702
 20
5.903140003239059
 30
0.0
 10
5.819652305317923
 20
5.3954976414432
 30
0.0
 10
5.306961956164734
 20
5.222477323681375
 30
0.0
  0
LINE
  5
28E
330
279
100
AcDbEntity
  8
Layer1
  6
Continuous
 62
     7
100
AcDbLine
 10
14.2989484488
 20
9.9489034776
 30
0.0
 11
13.0519853535
 21
9.9489034776
 31
0.0
  0
LINE
  5
28F
330
279
100
AcDbEntity
  8
Layer1
  6
Continuous
 62
     7
100
AcDbLine
 10
17.613514261
 20
10.946432071
 30
0.0
 11
17.613514261
 21
10.4293440211
 31
0.0
  0
SPLINE
  5
290
330
279
100
AcDbEntity
  8
Layer1
  6
Continuous
 62
     7
100
AcDbSpline
210
0.0
220
0.0
230
1.0
 70
     8
 71
     3
 72
    13
 73
     9
 74
     0
 42
0.000000001
 43
0.0000000001
 40
0.0
 40
0.0
 40
0.0
 40
0.0
 40
0.0348463403164079
 40
0.2674231701582029
 40
0.5000000000000019
 40
0.7325768298417968
 40
0.9651536596835948
 40
1.0
 40
1.0
 40
1.0
 40
1.0
 10
2.998995684071666
 20
6.959293585173413
 30
0.0
 10
3.166108313572508
 20
6.93076915006273
 30
0.0
 10
4.448594691101043
 20
6.803202762129558
 30
0.0
 10
6.844801545688732
 20
8.430010373374358
 30
0.0
 10
10.18961670570665
 20
6.156696660782046
 30
0.0
 10
13.53443186572459
 20
8.430010373374358
 30
0.0
 10
15.93064974211877
 20
6.803202762129558
 30
0.0
 10
17.21312509784082
 20
6.93076915006273
 30
0.0
 10
17.38024874914812
 20
6.959293585173413
 30
0.0
  0
SPLINE
  5
291
330
279
100
AcDbEntity
  8
Layer1
  6
Continuous
 62
     7
100
AcDbSpline
210
0.0
220
0.0
230
1.0
 70
    12
 71
     3
 72
    24
 73
    20
 74
     0
 42
0.000000001
 43
0.0000000001
 40
0.0
 40
0.0
 40
0.0
 40
0.0
 40
0.2499999999999994
 40
0.2499999999999994
 40
0.2499999999999994
 40
0.3364932776708256
 40
0.4171231918391822
 40
0.4999999999999988
 40
0.4999999999999988
 40
0.4999999999999988
 40
0.5000191898804309
 40
0.5000191898804309
 40
0.5000191898804309
 40
0.582889636457092
 40
0.6635133615118
 40
0.7500000000000008
 40
0.7500000000000008
 40
0.7500000000000008
 40
1.0
 40
1.0
 40
1.0
 40
1.0
 10
5.104326044453018
 20
10.75563357941147
 30
0.0
 41
1.0
 10
4.734346045304903
 20
10.93423093124051
 30
0.0
 41
0.983215874790017
 10
4.333846664077356
 20
11.02583316470455
 30
0.0
 41
0.983215874790017
 10
3.923019850199637
 20
11.02583316470455
 30
0.0
 41
1.0
 10
3.511542749740947
 20
11.03599527025787
 30
0.0
 41
1.0
 10
2.926020303519991
 20
10.83734925248359
 30
0.0
 41
1.0
 10
2.606652439622302
 20
10.47763055514693
 30
0.0
 41
1.0
 10
2.364161675762148
 20
10.01052639749983
 30
0.0
 41
1.0
 10
2.363544454600579
 20
9.59421072400653
 30
0.0
 41
1.0
 10
2.363544618007474
 20
9.594100506063086
 30
0.0
 41
1.0
 10
2.363544781414291
 20
9.593990288119642
 30
0.0
 41
1.0
 10
2.363544944821193
 20
9.593880070176226
 30
0.0
 41
1.0
 10
2.364161675762148
 20
9.177608483545328
 30
0.0
 41
1.0
 10
2.606652439622302
 20
8.7105043258982
 30
0.0
 41
1.0
 10
2.926020303519991
 20
8.35078562856151
 30
0.0
 41
1.0
 10
3.511542749740947
 20
8.152128588980815
 30
0.0
 41
1.0
 10
3.923019850199637
 20
8.162290694534107
 30
0.0
 41
1.0
 10
4.369799796740047
 20
8.162290694534107
 30
0.0
 41
0.979410758195494
 10
4.802780441596298
 20
8.272475693684612
 30
0.0
 41
0.979410758195494
 10
5.195211860497345
 20
8.486023193788782
 30
0.0
 41
1.0
  0
LINE
  5
292
330
279
100
AcDbEntity
  8
Layer1
  6
Continuous
 62
     7
100
AcDbLine
 10
15.7667665019
 20
8.2417028101
 30
0.0
 11
15.7667665019
 21
10.946432071
 31
0.0
  0
LINE
  5
293
330
279
100
AcDbEntity
  8
Layer1
  6
Continuous
 62
     7
100
AcDbLine
 10
5.7820679453
 20
8.2417028101
 30
0.0
 11
6.500248854
 21
8.2417028101
 31
0.0
  0
LINE
  5
294
330
279
100
AcDbEntity
  8
Layer1
  6
Continuous
 62
     7
100
AcDbLine
 10
5.3069619562
 20
5.2224773237
 30
0.0
 11
5.6817033757
 21
5.0367929503
 31
0.0
  0
LINE
  5
295
330
279
100
AcDbEntity
  8
Layer1
  6
Continuous
 62
     7
100
AcDbLine
 10
13.0519853535
 20
10.946432071
 30
0.0
 11
12.3528060391
 21
10.946432071
 31
0.0
  0
LINE
  5
296
330
279
100
AcDbEntity
  8
Layer1
  6
Continuous
 62
     7
100
AcDbLine
 10
16.4659568381
 20
10.4293440211
 30
0.0
 11
16.4659568381
 21
9.924280762
 31
0.0
  0
SPLINE
  5
297
330
279
100
AcDbEntity
  8
Layer1
  6
Continuous
 62
     7
100
AcDbSpline
210
0.0
220
0.0
230
1.0
 70
     8
 71
     3
 72
    19
 73
    15
 74
     0
 42
0.000000001
 43
0.0000000001
 40
0.0
 40
0.0
 40
0.0
 40
0.0
 40
0.2499999999999999
 40
0.2499999999999999
 40
0.2499999999999999
 40
0.3122787705541569
 40
0.5
 40
0.5
 40
0.5
 40
0.6877212294458419
 40
0.75
 40
0.75
 40
0.75
 40
1.0
 40
1.0
 40
1.0
 40
1.0
 10
4.370108407320828
 20
5.702554147528417
 30
0.0
 10
4.835019225483016
 20
5.842035108241561
 30
0.0
 10
5.299919021838711
 20
5.981505047148289
 30
0.0
 10
5.764829840000878
 20
6.120986007861433
 30
0.0
 10
6.132230736438039
 20
6.231204072431296
 30
0.0
 10
7.606981505802302
 20
6.560723020075841
 30
0.0
 10
9.082029863940804
 20
5.564682370557932
 30
0.0
 10
10.18962221660991
 20
5.5548288755854
 30
0.0
 10
11.29721456927896
 20
5.564682370557932
 30
0.0
 10
12.77225190561104
 20
6.560723020075841
 30
0.0
 10
14.24701369678172
 20
6.231204072431296
 30
0.0
 10
14.61440357141247
 20
6.120986007861433
 30
0.0
 10
15.07931438957463
 20
5.981505047148289
 30
0.0
 10
15.54422520773677
 20
5.842035108241561
 30
0.0
 10
16.00913602589896
 20
5.702554147528417
 30
0.0
  0
SPLINE
  5
298
330
279
100
AcDbEntity
  8
Layer1
  6
Continuous
 62
     7
100
AcDbSpline
210
0.0
220
0.0
230
1.0
 70
    11
 71
     3
 72
    25
 73
    21
 74
     0
 42
0.000000001
 43
0.0000000001
 40
0.0
 40
0.0
 40
0.0
 40
0.0
 40
0.086493277670826
 40
0.167123191839183
 40
0.2499999999999999
 40
0.2499999999999999
 40
0.2499999999999999
 40
0.3328768081608169
 40
0.413506722329174
 40
0.5000000000000001
 40
0.5000000000000001
 40
0.5000000000000001
 40
0.5864932776708272
 40
0.6671231918391831
 40
0.7500000000000001
 40
0.7500000000000001
 40
0.7500000000000001
 40
0.832876808160817
 40
0.913506722329174
 40
1.0
 40
1.0
 40
1.0
 40
1.0
 10
10.1852134940271
 20
10.53350009207739
 30
0.0
 10
10.42885052575882
 20
10.54016828498388
 30
0.0
 10
10.71903264615831
 20
10.39242096942795
 30
0.0
 10
10.96464258124583
 20
10.17375935112779
 30
0.0
 10
11.10821263215459
 20
9.867253935365426
 30
0.0
 10
11.1085763517676
 20
9.594067440522593
 30
0.0
 10
11.10821263215459
 20
9.320880945679676
 30
0.0
 10
10.96464258124583
 20
9.014364508110873
 30
0.0
 10
10.77553042605687
 20
8.778321501028046
 30
0.0
 10
10.42885052575882
 20
8.647966596061252
 30
0.0
 10
10.1852134940271
 20
8.65463478896774
 30
0.0
 10
9.941576462295409
 20
8.647966596061252
 30
0.0
 10
9.594885540190894
 20
8.778321501028046
 30
0.0
 10
9.405784406808365
 20
9.014364508110873
 30
0.0
 10
9.262203334093194
 20
9.320880945679676
 30
0.0
 10
9.261839614480131
 20
9.594067440522593
 30
0.0
 10
9.262203334093194
 20
9.867253935365426
 30
0.0
 10
9.405784406808365
 20
10.17375935112779
 30
0.0
 10
9.594885540190894
 20
10.40981338001708
 30
0.0
 10
9.941576462295409
 20
10.54016828498388
 30
0.0
 10
10.1852134940271
 20
10.53350009207739
 30
0.0
  0
LINE
  5
299
330
279
100
AcDbEntity
  8
Layer1
  6
Continuous
 62
     7
100
AcDbLine
 10
13.0519853535
 20
8.2417028101
 30
0.0
 11
13.0519853535
 21
9.3907812422
 31
0.0
  0
LINE
  5
29A
330
279
100
AcDbEntity
  8
Layer1
  6
Continuous
 62
     7
100
AcDbLine
 10
5.7820679453
 20
10.946432071
 30
0.0
 11
5.7820679453
 21
8.2417028101
 31
0.0
  0
LINE
  5
29B
330
279
100
AcDbEntity
  8
Layer1
  6
Continuous
 62
     7
100
AcDbLine
 10
15.0025364858
 20
8.2417028101
 30
0.0
 11
15.0025364858
 21
10.946432071
 31
0.0
  0
SPLINE
  5
29C
330
279
100
AcDbEntity
  8
Layer1
  6
Continuous
 62
     7
100
AcDbSpline
210
0.0
220
0.0
230
1.0
 70
    12
 71
     3
 72
    21
 73
    17
 74
     0
 42
0.000000001
 43
0.0000000001
 40
0.0
 40
0.0
 40
0.0
 40
0.0
 40
0.2499999999999987
 40
0.2499999999999987
 40
0.2499999999999987
 40
0.3364932776708245
 40
0.4171231918391832
 40
0.5000000000000027
 40
0.5000000000000027
 40
0.5000000000000027
 40
0.5828768081608185
 40
0.6635067223291754
 40
0.7500000000000012
 40
0.7500000000000012
 40
0.7500000000000012
 40
1.0
 40
1.0
 40
1.0
 40
1.0
 10
4.472941861564522
 20
8.799825045425592
 30
0.0
 41
1.0
 10
4.284314665859632
 20
8.707517416348338
 30
0.0
 41
0.982778304235208
 10
4.07972789440506
 20
8.660189779422069
 30
0.0
 41
0.982778304235208
 10
3.869729415980075
 20
8.660288975680203
 30
0.0
 41
1.0
 10
3.669386040011439
 20
8.653664869999517
 30
0.0
 41
1.0
 10
3.384318037807951
 20
8.783237226707854
 30
0.0
 41
1.0
 10
3.228811370506321
 20
9.017858420757733
 30
0.0
 41
1.0
 10
3.11075680154552
 20
9.322523194841807
 30
0.0
 41
1.0
 10
3.110459212771204
 20
9.594067440522593
 30
0.0
 41
1.0
 10
3.11083395419071
 20
9.865611686203351
 30
0.0
 41
1.0
 10
3.262725468974466
 20
10.17027646028737
 30
0.0
 41
1.0
 10
3.462771256168786
 20
10.40489765433728
 30
0.0
 41
1.0
 10
3.829521866024976
 20
10.53447001104561
 30
0.0
 41
1.0
 10
4.087255788215202
 20
10.52784590536498
 30
0.0
 41
1.0
 10
4.45128401187656
 20
10.52782386175204
 30
0.0
 41
0.972058195946033
 10
4.800047033594993
 20
10.4235245072496
 30
0.0
 41
0.972058195946033
 10
5.104326044453018
 20
10.22367711257149
 30
0.0
 41
1.0
  0
LINE
  5
29D
330
279
100
AcDbEntity
  8
Layer1
  6
Continuous
 62
     7
100
AcDbLine
 10
6.500248854
 20
8.2417028101
 30
0.0
 11
6.500248854
 21
10.4293991301
 31
0.0
  0
SPLINE
  5
29E
330
279
100
AcDbEntity
  8
Layer1
  6
Continuous
 62
     7
100
AcDbSpline
210
0.0
220
0.0
230
1.0
 70
     8
 71
     3
 72
    13
 73
     9
 74
     0
 42
0.000000001
 43
0.0000000001
 40
0.0
 40
0.0
 40
0.0
 40
0.0
 40
0.131481813034251
 40
0.5
 40
0.5
 40
0.5
 40
0.8685181869657492
 40
1.0
 40
1.0
 40
1.0
 40
1.0
 10
5.681703375702263
 20
5.036792950300537
 30
0.0
 10
6.076813093572333
 20
5.159553830618449
 30
0.0
 10
7.579272684369421
 20
5.520639231955812
 30
0.0
 10
9.082029863940804
 20
4.505883555073979
 30
0.0
 10
10.18962221660991
 20
4.496030060101418
 30
0.0
 10
11.29721456927896
 20
4.505883555073979
 30
0.0
 10
12.79997174885037
 20
5.520639231955812
 30
0.0
 10
14.30243133964746
 20
5.159553830618449
 30
0.0
 10
14.69754105751753
 20
5.036792950300537
 30
0.0
  0
LINE
  5
29F
330
279
100
AcDbEntity
  8
Layer1
  6
Continuous
 62
     7
100
AcDbLine
 10
8.4742213251
 20
8.2417028101
 30
0.0
 11
7.5683941614
 21
9.3268878302
 31
0.0
  0
SPLINE
  5
2A0
330
279
100
AcDbEntity
  8
Layer1
  6
Continuous
 62
     7
100
AcDbSpline
210
0.0
220
0.0
230
1.0
 70
    12
 71
     3
 72
     8
 73
     4
 74
     0
 42
0.000000001
 43
0.0000000001
 40
0.0
 40
0.0
 40
0.0
 40
0.0
 40
1.0
 40
1.0
 40
1.0
 40
1.0
 10
4.105585052353177
 20
5.935896812029256
 30
0.0
 41
1.0
 10
4.186705547876564
 20
5.850356572116567
 30
0.0
 41
0.997360588447966
 10
4.275111457468064
 20
5.772377291433401
 30
0.0
 41
0.997360588447966
 10
4.370108407320828
 20
5.702554147528417
 30
0.0
 41
1.0
  0
LINE
  5
2A1
330
279
100
AcDbEntity
  8
Layer1
  6
Continuous
 62
     7
100
AcDbLine
 10
14.2989484488
 20
10.946432071
 30
0.0
 11
14.2989484488
 21
9.9489034776
 31
0.0
  0
LINE
  5
2A2
330
279
100
AcDbEntity
  8
Layer1
  6
Continuous
 62
     7
100
AcDbLine
 10
14.6975410575
 20
5.0367929503
 30
0.0
 11
15.0722824771
 21
5.2224773237
 31
0.0
  0
LINE
  5
2A3
330
279
100
AcDbEntity
  8
Layer1
  6
Continuous
 62
     7
100
AcDbLine
 10
14.2989484488
 20
9.3907812422
 30
0.0
 11
14.2989484488
 21
8.2417028101
 31
0.0
  0
SPLINE
  5
2A4
330
279
100
AcDbEntity
  8
Layer1
  6
Continuous
 62
     7
100
AcDbSpline
210
0.0
220
0.0
230
1.0
 70
     8
 71
     3
 72
    15
 73
    11
 74
     0
 42
0.000000001
 43
0.0000000001
 40
0.0
 40
0.0
 40
0.0
 40
0.0
 40
0.1729865553416529
 40
0.3342463836783639
 40
0.4999999999999963
 40
0.4999999999999963
 40
0.4999999999999963
 40
0.6728584706586043
 40
0.8410305318392429
 40
1.0
 40
1.0
 40
1.0
 40
1.0
 10
6.965490326392711
 20
10.42939913009116
 30
0.0
 10
7.074507014058817
 20
10.43245217047976
 30
0.0
 10
7.229649961747356
 20
10.37276908851513
 30
0.0
 10
7.314264369917616
 20
10.26467823259148
 30
0.0
 10
7.378510479755413
 20
10.12433757097466
 30
0.0
 10
7.378675806852257
 20
9.99925108949435
 30
0.0
 10
7.378510479755413
 20
9.874164608013984
 30
0.0
 10
7.314264369917616
 20
9.733812924590694
 30
0.0
 10
7.233121830781286
 20
9.630174878475657
 30
0.0
 10
7.093211019616326
 20
9.57343461883508
 30
0.0
 10
7.00312979544335
 20
9.56938961586539
 30
0.0
  0
LINE
  5
2A5
330
279
100
AcDbEntity
  8
Layer1
  6
Continuous
 62
     7
100
AcDbLine
 10
17.7940845162
 20
8.7587798382
 30
0.0
 11
17.7940845162
 21
8.2417028101
 31
0.0
  0
LINE
  5
2A6
330
279
100
AcDbEntity
  8
Layer1
  6
Continuous
 62
     7
100
AcDbLine
 10
5.1952118605
 20
9.5940674405
 30
0.0
 11
4.4729418616
 21
9.5940674405
 31
0.0
  0
LINE
  5
2A7
330
279
100
AcDbEntity
  8
Layer1
  6
Continuous
 62
     7
100
AcDbLine
 10
17.428832872
 20
9.924280762
 30
0.0
 11
17.428832872
 21
9.4236152037
 31
0.0
  0
LINE
  5
2A8
330
279
100
AcDbEntity
  8
Layer1
  6
Continuous
 62
     7
100
AcDbLine
 10
13.0519853535
 20
9.9489034776
 30
0.0
 11
13.0519853535
 21
10.946432071
 31
0.0
  0
LINE
  5
2A9
330
279
100
AcDbEntity
  8
Layer1
  6
Continuous
 62
     7
100
AcDbLine
 10
17.613514261
 20
10.4293440211
 30
0.0
 11
16.4659568381
 21
10.4293440211
 31
0.0
  0
LINE
  5
2AA
330
279
100
AcDbEntity
  8
Layer1
  6
Continuous
 62
     7
100
AcDbLine
 10
15.0025364858
 20
10.946432071
 30
0.0
 11
14.2989484488
 21
10.946432071
 31
0.0
  0
SPLINE
  5
2AB
330
279
100
AcDbEntity
  8
Layer1
  6
Continuous
 62
     7
100
AcDbSpline
210
0.0
220
0.0
230
1.0
 70
    12
 71
     3
 72
     8
 73
     4
 74
     0
 42
0.000000001
 43
0.0000000001
 40
0.0
 40
0.0
 40
0.0
 40
0.0
 40
1.0
 40
1.0
 40
1.0
 40
1.0
 10
17.38024874914812
 20
6.959293585173413
 30
0.0
 41
1.0
 10
17.31376521259956
 20
6.841404343309449
 30
0.0
 41
0.996524898131218
 10
17.2355985612066
 20
6.730921755384628
 30
0.0
 41
0.996524898131218
 10
17.14658645225997
 20
6.628970045657496
 30
0.0
 41
1.0
  0
LINE
  5
2AC
330
279
100
AcDbEntity
  8
Layer1
  6
Continuous
 62
     7
100
AcDbLine
 10
6.5905284707
 20
9.5693896159
 30
0.0
 11
7.5836703851
 21
8.2417028101
 31
0.0
  0
LINE
  5
2AD
330
279
100
AcDbEntity
  8
Layer1
  6
Continuous
 62
     7
100
AcDbLine
 10
7.0937400663
 20
10.946432071
 30
0.0
 11
5.7820679453
 21
10.946432071
 31
0.0
  0
LINE
  5
2AE
330
279
100
AcDbEntity
  8
Layer1
  6
Continuous
 62
     7
100
AcDbLine
 10
5.1043260445
 20
10.2236771126
 30
0.0
 11
5.1043260445
 21
10.7556335794
 31
0.0
  0
SPLINE
  5
2AF
330
279
100
AcDbEntity
  8
Layer1
  6
Continuous
 62
     7
100
AcDbSpline
210
0.0
220
0.0
230
1.0
 70
     8
 71
     3
 72
    15
 73
    11
 74
     0
 42
0.000000001
 43
0.0000000001
 40
0.0
 40
0.0
 40
0.0
 40
0.0
 40
0.020813702365632
 40
0.2611989665798501
 40
0.4999999999999973
 40
0.4999999999999973
 40
0.4999999999999973
 40
0.7388010334201489
 40
0.9791862976343677
 40
1.0
 40
1.0
 40
1.0
 40
1.0
 10
17.14658645225997
 20
6.628970045657496
 30
0.0
 10
17.05001338408385
 20
6.61881896191062
 30
0.0
 10
15.83811065510588
 20
6.550109020457768
 30
0.0
 10
13.51973979771746
 20
8.124254440451125
 30
0.0
 10
11.29721456927896
 20
6.623481186041943
 30
0.0
 10
10.18962221660991
 20
6.61361666926291
 30
0.0
 10
9.082029863940804
 20
6.623481186041943
 30
0.0
 10
6.85950463550239
 20
8.124254440451125
 30
0.0
 10
4.541122756307416
 20
6.550109020457768
 30
0.0
 10
3.329231049135934
 20
6.61881896191062
 30
0.0
 10
3.232657980959814
 20
6.628970045657496
 30
0.0
  0
LINE
  5
2B0
330
279
100
AcDbEntity
  8
Layer1
  6
Continuous
 62
     7
100
AcDbLine
 10
6.500248854
 20
10.4293991301
 30
0.0
 11
6.9654903264
 21
10.4293991301
 31
0.0
  0
LINE
  5
2B1
330
279
100
AcDbEntity
  8
Layer1
  6
Continuous
 62
     7
100
AcDbLine
 10
4.4729418616
 20
9.5940674405
 30
0.0
 11
4.4729418616
 21
8.7998250454
 31
0.0
  0
SPLINE
  5
2B2
330
279
100
AcDbEntity
  8
Layer1
  6
Continuous
 62
     7
100
AcDbSpline
210
0.0
220
0.0
230
1.0
 70
    15
 71
     3
 72
    19
 73
    15
 74
     0
 42
0.000000001
 43
0.0000000001
 40
0.0
 40
0.0
 40
0.0
 40
0.0
 40
0.0707259193813543
 40
0.0707259193813543
 40
0.0707259193813543
 40
0.1414518387627087
 40
0.1414518387627087
 40
0.1414518387627087
 40
0.1912115749741922
 40
0.1912115749741922
 40
0.1912115749741922
 40
0.423027920812574
 40
0.423027920812574
 40
1.0
 40
1.0
 40
1.0
 40
1.0
 10
11.46799090897963
 20
10.53350423551331
 30
0.0
 41
1.08047789209601
 10
12.27172963078638
 20
9.666337425461052
 30
0.0
 41
0.77464325294993
 10
11.93634708210673
 20
8.583037134223133
 30
0.0
 41
0.77464325294993
 10
10.74664227133307
 20
8.203501228876803
 30
0.0
 41
1.08047789209601
 10
9.556926438753003
 20
7.823976345336916
 30
0.0
 41
0.77464325294993
 10
8.523147123926407
 20
8.470493468490844
 30
0.0
 41
0.77464325294993
 10
8.523147123926407
 20
9.594067440522593
 30
0.0
 41
1.08047789209601
 10
8.523147123926407
 20
10.23914070703063
 30
0.0
 41
0.949278918900485
 10
8.940730305162269
 20
10.76673253851368
 30
0.0
 41
0.949278918900485
 10
9.623784716721097
 20
10.9846336521683
 30
0.0
 41
1.08047789209601
 10
9.801985283517666
 20
11.04147310806695
 30
0.0
 41
1.04287400704405
 10
9.990877002577506
 20
11.07146344343644
 30
0.0
 41
1.01604804301204
 10
10.69711027311541
 20
11.07146344343644
 30
0.0
 41
0.960056839920445
 10
11.15134096082077
 20
10.87514302682462
 30
0.0
 41
0.986882803952448
 10
11.46799090897963
 20
10.53350423551331
 30
0.0
 41
1.08047789209601
  0
LINE
  5
2B3
330
279
100
AcDbEntity
  8
Standard
  6
Continuous
 62
     7
100
AcDbLine
 10
0.0
 20
0.0
 30
0.0
 11
0.0
 21
15.4578123074
 31
0.0
  0
LINE
  5
2B4
330
279
100
AcDbEntity
  8
Standard
  6
Continuous
 62
     7
100
AcDbLine
 10
0.0
 20
15.4578123074
 30
0.0
 11
20.1320023102
 21
15.4578123074
 31
0.0
  0
LINE
  5
2B5
330
279
100
AcDbEntity
  8
Standard
  6
Continuous
 62
     7
100
AcDbLine
 10
20.1320023102
 20
15.4578123074
 30
0.0
 11
20.1320023102
 21
0.0
 31
0.0
  0
LINE
  5
2B6
330
279
100
AcDbEntity
  8
Standard
  6
Continuous
 62
     7
100
AcDbLine
 10
20.1320023102
 20
0.0
 30
0.0
 11
0.0
 21
0.0
 31
0.0
  0
ENDBLK
  5
2B8
330
279
100
AcDbEntity
  8
0
100
AcDbBlockEnd
  0
ENDSEC
  0
SECTION
  2
ENTITIES
  0
MTEXT
  5
6B
330
1F
100
AcDbEntity
  8
Default
100
AcDbMText
 10
104.0
 20
21.95
 30
0.0
 40
2.5
 41
78.0
 71
     5
 72
     1
  1
{\fSolid Edge ISO|b0||i0||c0|p34;\C7;\H3.8;\W1.;STEUERUNG 3/4}
 73
     1
 44
1.0
1001
ACAD
1000
ACAD_MTEXT_DEFINED_HEIGHT_BEGIN
1070
    46
1040
6.3
1000
ACAD_MTEXT_DEFINED_HEIGHT_END
  0
MTEXT
  5
6C
330
1F
100
AcDbEntity
  8
Default
100
AcDbMText
 10
104.0
 20
15.95
 30
0.0
 40
2.5
 41
78.0
 71
     5
 72
     1
  1
{\fSolid Edge ISO|b0||i0||c0|p34;\C7;\H3.8;\W1.;CONTROL}
 73
     1
 44
1.0
1001
ACAD
1000
ACAD_MTEXT_DEFINED_HEIGHT_BEGIN
1070
    46
1040
6.3
1000
ACAD_MTEXT_DEFINED_HEIGHT_END
  0
MTEXT
  5
6D
330
1F
100
AcDbEntity
  8
Default
100
AcDbMText
 10
104.0
 20
8.5
 30
0.0
 40
2.5
 41
112.0
 71
     5
 72
     1
  1
{\fSolid Edge ISO|b0||i0||c0|p34;\C7;\H3.;\W1.;47220000 14102040}
 73
     1
 44
1.0
1001
ACAD
1000
ACAD_MTEXT_DEFINED_HEIGHT_BEGIN
1070
    46
1040
5.0
1000
ACAD_MTEXT_DEFINED_HEIGHT_END
  0
MTEXT
  5
6E
330
1F
100
AcDbEntity
  8
Default
100
AcDbMText
 10
182.75
 20
17.1
 30
0.0
 40
2.5
 41
39.5
 71
     5
 72
     1
  1
{\fSolid Edge ISO|b0||i0||c0|p34;\C7;\H5.;\W1.;47220000}
 73
     1
 44
1.0
1001
ACAD
1000
ACAD_MTEXT_DEFINED_HEIGHT_BEGIN
1070
    46
1040
8.2
1000
ACAD_MTEXT_DEFINED_HEIGHT_END
  0
MTEXT
  5
6F
330
1F
100
AcDbEntity
  8
Default
100
AcDbMText
 10
54.85
 20
42.6
 30
0.0
 40
2.5
 41
18.9
 71
     5
 72
     1
  1
{\fSolid Edge ISO|b0||i0||c0|p34;\C7;\H2.2;\W1.;LTS}
 73
     1
 44
1.0
1001
ACAD
1000
ACAD_MTEXT_DEFINED_HEIGHT_BEGIN
1070
    46
1040
4.0
1000
ACAD_MTEXT_DEFINED_HEIGHT_END
  0
MTEXT
  5
70
330
1F
100
AcDbEntity
  8
Default
100
AcDbMText
 10
54.85
 20
37.6
 30
0.0
 40
2.5
 41
18.9
 71
     5
 72
     1
  1
{\fSolid Edge ISO|b0||i0||c0|p34;\C7;\H2.2;\W1.;13. 2.2018}
 73
     1
 44
1.0
1001
ACAD
1000
ACAD_MTEXT_DEFINED_HEIGHT_BEGIN
1070
    46
1040
4.0
1000
ACAD_MTEXT_DEFINED_HEIGHT_END
  0
MTEXT
  5
71
330
1F
100
AcDbEntity
  8
Default
100
AcDbMText
 10
54.85
 20
32.4
 30
0.0
 40
2.5
 41
18.9
 71
     5
 72
     1
  1
{\fSolid Edge ISO|b0||i0||c0|p34;\C7;\H2.2;\W1.;Matsumoto}
 73
     1
 44
1.0
1001
ACAD
1000
ACAD_MTEXT_DEFINED_HEIGHT_BEGIN
1070
    46
1040
4.0
1000
ACAD_MTEXT_DEFINED_HEIGHT_END
  0
MTEXT
  5
72
330
1F
100
AcDbEntity
  8
Default
100
AcDbMText
 10
54.85
 20
27.6
 30
0.0
 40
2.5
 41
18.9
 71
     5
 72
     1
  1
{\fSolid Edge ISO|b0||i0||c0|p34;\C7;\H2.2;\W1.;Rikukawa}
 73
     1
 44
1.0
1001
ACAD
1000
ACAD_MTEXT_DEFINED_HEIGHT_BEGIN
1070
    46
1040
4.0
1000
ACAD_MTEXT_DEFINED_HEIGHT_END
  0
MTEXT
  5
73
330
1F
100
AcDbEntity
  8
Default
100
AcDbMText
 10
15.8
 20
32.9
 30
0.0
 40
2.5
 41
16.8
 71
     5
 72
     1
  1
{\fSolid Edge ISO|b0||i0||c0|p34;\C7;\H5.;\W1.;1:1}
 73
     1
 44
1.0
1001
ACAD
1000
ACAD_MTEXT_DEFINED_HEIGHT_BEGIN
1070
    46
1040
8.2
1000
ACAD_MTEXT_DEFINED_HEIGHT_END
  0
MTEXT
  5
74
330
1F
100
AcDbEntity
  8
Default
100
AcDbMText
 10
183.25
 20
6.9
 30
0.0
 40
2.5
 41
37.5
 71
     5
 72
     1
  1
{\fArial|b0||i0||c0|p34;\C7;\H3.;\W1.;m47220}
 73
     1
 44
1.0
1001
ACAD
1000
ACAD_MTEXT_DEFINED_HEIGHT_BEGIN
1070
    46
1040
5.0
1000
ACAD_MTEXT_DEFINED_HEIGHT_END
  0
LINE
  5
76
330
1F
100
AcDbEntity
  8
Standard
  6
Continuous
 62
     7
100
AcDbLine
 10
102.2968953526
 20
61.8508181113
 30
0.0
 11
106.6557942962
 21
64.8508181113
 31
0.0
  0
LINE
  5
77
330
1F
100
AcDbEntity
  8
Standard
  6
Continuous
 62
     7
100
AcDbLine
 10
106.6557942962
 20
61.8508181113
 30
0.0
 11
102.2968953526
 21
64.8508181113
 31
0.0
  0
ELLIPSE
  5
78
330
1F
100
AcDbEntity
  8
Standard
  6
Continuous
 62
     7
100
AcDbEllipse
 10
86.9513448244
 20
125.8508181113
 30
0.0
 11
-9.185154333542442E-17
 21
-1.499999999999996
 31
0.0
210
0.0
220
0.0
230
1.0
 40
0.65
 41
0.0
 42
6.283185307179586
  0
ELLIPSE
  5
79
330
1F
100
AcDbEntity
  8
Standard
  6
Continuous
 62
     7
100
AcDbEllipse
 10
122.0013448244
 20
125.8508181113
 30
0.0
 11
-9.185154333542442E-17
 21
-1.499999999999996
 31
0.0
210
0.0
220
0.0
230
1.0
 40
0.65
 41
0.0
 42
6.283185307179586
  0
LINE
  5
7A
330
1F
100
AcDbEntity
  8
Standard
  6
Continuous
 62
     7
100
AcDbLine
 10
86.9513448244
 20
124.3508181113
 30
0.0
 11
87.6263448244
 21
124.3508181113
 31
0.0
  0
LINE
  5
7B
330
1F
100
AcDbEntity
  8
Standard
  6
Continuous
 62
     7
100
AcDbLine
 10
121.3263448244
 20
124.3508181113
 30
0.0
 11
122.0013448244
 21
124.3508181113
 31
0.0
  0
ELLIPSE
  5
7C
330
1F
100
AcDbEntity
  8
Standard
  6
Continuous
 62
     7
100
AcDbEllipse
 10
95.8888448244
 20
150.6508181113
 30
0.0
 11
-6.123436222361545E-17
 21
-0.9999999999999836
 31
0.0
210
0.0
220
0.0
230
1.0
 40
0.5875
 41
0.0
 42
6.283185307179586
  0
ELLIPSE
  5
7D
330
1F
100
AcDbEntity
  8
Standard
  6
Continuous
 62
     7
100
AcDbEllipse
 10
113.0638448244
 20
150.6508181113
 30
0.0
 11
-6.123436222361545E-17
 21
-0.9999999999999836
 31
0.0
210
0.0
220
0.0
230
1.0
 40
0.5875
 41
0.0
 42
6.283185307179586
  0
LINE
  5
7E
330
1F
100
AcDbEntity
  8
Standard
  6
Continuous
 62
     7
100
AcDbLine
 10
96.3394213656
 20
149.6508181113
 30
0.0
 11
112.6132682833
 21
149.6508181113
 31
0.0
  0
LINE
  5
7F
330
1F
100
AcDbEntity
  8
Standard
  6
Continuous
 62
     7
100
AcDbLine
 10
112.6132682833
 20
151.6508181113
 30
0.0
 11
96.3394213656
 21
151.6508181113
 31
0.0
  0
ELLIPSE
  5
80
330
1F
100
AcDbEntity
  8
Standard
  6
Continuous
 62
     7
100
AcDbEllipse
 10
95.9888448244
 20
161.3508181113
 30
0.0
 11
1.083738165025744E-15
 21
-1.0
 31
0.0
210
0.0
220
0.0
230
1.0
 40
0.5875
 41
0.0
 42
6.283185307179586
  0
ELLIPSE
  5
81
330
1F
100
AcDbEntity
  8
Standard
  6
Continuous
 62
     7
100
AcDbEllipse
 10
112.9638448244
 20
161.3508181113
 30
0.0
 11
-1.206206889472977E-15
 21
-1.0
 31
0.0
210
0.0
220
0.0
230
1.0
 40
0.5875
 41
0.0
 42
6.283185307179586
  0
LINE
  5
82
330
1F
100
AcDbEntity
  8
Standard
  6
Continuous
 62
     7
100
AcDbLine
 10
96.4394213656
 20
160.3508181113
 30
0.0
 11
112.5132682833
 21
160.3508181113
 31
0.0
  0
LINE
  5
83
330
1F
100
AcDbEntity
  8
Standard
  6
Continuous
 62
     7
100
AcDbLine
 10
112.5132682833
 20
162.3508181113
 30
0.0
 11
96.4394213656
 21
162.3508181113
 31
0.0
  0
LINE
  5
84
330
1F
100
AcDbEntity
  8
Standard
  6
Continuous
 62
     7
100
AcDbLine
 10
88.4825320988
 20
135.2763006702
 30
0.0
 11
88.4825320988
 21
138.9253355524
 31
0.0
  0
LINE
  5
85
330
1F
100
AcDbEntity
  8
Standard
  6
Continuous
 62
     7
100
AcDbLine
 10
120.47015755
 20
135.2763006702
 30
0.0
 11
120.47015755
 21
138.9253355524
 31
0.0
  0
LINE
  5
86
330
1F
100
AcDbEntity
  8
Standard
  6
Continuous
 62
     7
100
AcDbLine
 10
120.0513448244
 20
134.8508181113
 30
0.0
 11
120.0513448244
 21
139.349630837
 31
0.0
  0
LINE
  5
87
330
1F
100
AcDbEntity
  8
Standard
  6
Continuous
 62
     7
100
AcDbLine
 10
88.9013448244
 20
134.8520053857
 30
0.0
 11
88.9013448244
 21
139.349630837
 31
0.0
  0
ARC
  5
88
330
1F
100
AcDbEntity
  8
Standard
  6
Continuous
 62
     7
100
AcDbCircle
 10
86.3298604724
 20
105.6450326741
 30
0.0
 40
47.67744167031042
100
AcDbArc
 50
44.2691941942
 51
44.9856508444
  0
ARC
  5
89
330
1F
100
AcDbEntity
  8
Standard
  6
Continuous
 62
     7
100
AcDbCircle
 10
122.6228291758
 20
105.6450326747
 30
0.0
 40
47.67744166941693
100
AcDbArc
 50
135.0143491556
 51
135.7308058058
  0
ARC
  5
8A
330
1F
100
AcDbEntity
  8
Standard
  6
Continuous
 62
     7
100
AcDbCircle
 10
86.3298604684
 20
168.5566035525
 30
0.0
 40
47.67744167592942
100
AcDbArc
 50
315.0143491557
 51
315.7308058058
  0
ARC
  5
8B
330
1F
100
AcDbEntity
  8
Standard
  6
Continuous
 62
     7
100
AcDbCircle
 10
122.6228291733
 20
168.5566035454
 30
0.0
 40
47.67744166582604
100
AcDbArc
 50
224.2691941941
 51
224.9856508444
  0
LINE
  5
8C
330
1F
100
AcDbEntity
  8
Standard
  6
Continuous
 62
     7
100
AcDbLine
 10
119.7263448244
 20
131.8508181113
 30
0.0
 11
119.7263448244
 21
134.8508181113
 31
0.0
  0
LINE
  5
8D
330
1F
100
AcDbEntity
  8
Standard
  6
Continuous
 62
     7
100
AcDbLine
 10
124.4763448244
 20
129.8508181113
 30
0.0
 11
124.4763448244
 21
131.8508181113
 31
0.0
  0
LINE
  5
8E
330
1F
100
AcDbEntity
  8
Standard
  6
Continuous
 62
     7
100
AcDbLine
 10
84.4763448244
 20
129.8508181113
 30
0.0
 11
124.4763448244
 21
129.8508181113
 31
0.0
  0
LINE
  5
8F
330
1F
100
AcDbEntity
  8
Standard
  6
Continuous
 62
     7
100
AcDbLine
 10
122.7763448244
 20
129.4508181113
 30
0.0
 11
122.7763448244
 21
129.8508181113
 31
0.0
  0
LINE
  5
90
330
1F
100
AcDbEntity
  8
Standard
  6
Continuous
 62
     7
100
AcDbLine
 10
122.9513448244
 20
128.79770922
 30
0.0
 11
122.7763448244
 21
129.4508181113
 31
0.0
  0
LINE
  5
91
330
1F
100
AcDbEntity
  8
Standard
  6
Continuous
 62
     7
100
AcDbLine
 10
122.9513448244
 20
127.4192337886
 30
0.0
 11
122.9513448244
 21
128.79770922
 31
0.0
  0
LINE
  5
92
330
1F
100
AcDbEntity
  8
Standard
  6
Continuous
 62
     7
100
AcDbLine
 10
121.2545558887
 20
127.2707839924
 30
0.0
 11
122.9513448244
 21
127.4192337886
 31
0.0
  0
ARC
  5
93
330
1F
100
AcDbEntity
  8
Standard
  6
Continuous
 62
     7
100
AcDbCircle
 10
121.2763448244
 20
127.0217353178
 30
0.0
 40
0.2500000000000002
100
AcDbArc
 50
95.0
 51
180.0
  0
LINE
  5
94
330
1F
100
AcDbEntity
  8
Standard
  6
Continuous
 62
     7
100
AcDbLine
 10
121.0263448244
 20
124.7543715019
 30
0.0
 11
121.0263448244
 21
127.0217353178
 31
0.0
  0
ARC
  5
95
330
1F
100
AcDbEntity
  8
Standard
  6
Continuous
 62
     7
100
AcDbCircle
 10
121.2763448244
 20
124.7543715019
 30
0.0
 40
0.2499999999999991
100
AcDbArc
 50
180.0
 51
225.0
  0
LINE
  5
96
330
1F
100
AcDbEntity
  8
Standard
  6
Continuous
 62
     7
100
AcDbLine
 10
122.4763448244
 20
123.2008181113
 30
0.0
 11
121.0995681291
 21
124.5775948066
 31
0.0
  0
LINE
  5
97
330
1F
100
AcDbEntity
  8
Standard
  6
Continuous
 62
     7
100
AcDbLine
 10
122.4763448244
 20
119.3154477171
 30
0.0
 11
122.4763448244
 21
123.2008181113
 31
0.0
  0
LINE
  5
98
330
1F
100
AcDbEntity
  8
Standard
  6
Continuous
 62
     7
100
AcDbLine
 10
121.0263448244
 20
117.8654477171
 30
0.0
 11
122.4763448244
 21
119.3154477171
 31
0.0
  0
LINE
  5
99
330
1F
100
AcDbEntity
  8
Standard
  6
Continuous
 62
     7
100
AcDbLine
 10
121.0263448244
 20
117.8508181113
 30
0.0
 11
121.0263448244
 21
117.8654477171
 31
0.0
  0
LINE
  5
9A
330
1F
100
AcDbEntity
  8
Standard
  6
Continuous
 62
     7
100
AcDbLine
 10
119.6263448244
 20
95.3508181113
 30
0.0
 11
119.6263448244
 21
117.8508181113
 31
0.0
  0
ARC
  5
9B
330
1F
100
AcDbEntity
  8
Standard
  6
Continuous
 62
     7
100
AcDbCircle
 10
119.3263448244
 20
95.3508181113
 30
0.0
 40
0.2999999999999999
100
AcDbArc
 50
270.0
 51
0.0
  0
LINE
  5
9C
330
1F
100
AcDbEntity
  8
Standard
  6
Continuous
 62
     7
100
AcDbLine
 10
120.05015755
 20
139.3508181113
 30
0.0
 11
120.0513448244
 21
139.349630837
 31
0.0
  0
LINE
  5
9D
330
1F
100
AcDbEntity
  8
Standard
  6
Continuous
 62
     7
100
AcDbLine
 10
116.9763448244
 20
139.3508181113
 30
0.0
 11
116.9763448244
 21
141.8508181113
 31
0.0
  0
LINE
  5
9E
330
1F
100
AcDbEntity
  8
Standard
  6
Continuous
 62
     7
100
AcDbLine
 10
112.7263448244
 20
141.8508181113
 30
0.0
 11
112.7263448244
 21
144.9508181113
 31
0.0
  0
LINE
  5
9F
330
1F
100
AcDbEntity
  8
Standard
  6
Continuous
 62
     7
100
AcDbLine
 10
116.9763448244
 20
144.9508181113
 30
0.0
 11
116.9763448244
 21
147.1508181113
 31
0.0
  0
LINE
  5
A0
330
1F
100
AcDbEntity
  8
Standard
  6
Continuous
 62
     7
100
AcDbLine
 10
116.4763448244
 20
147.6508181113
 30
0.0
 11
116.9763448244
 21
147.1508181113
 31
0.0
  0
LINE
  5
A1
330
1F
100
AcDbEntity
  8
Standard
  6
Continuous
 62
     7
100
AcDbLine
 10
113.6513448244
 20
147.6508181113
 30
0.0
 11
113.6513448244
 21
149.3994460573
 31
0.0
  0
ARC
  5
A2
330
1F
100
AcDbEntity
  8
Standard
  6
Continuous
 62
     7
100
AcDbCircle
 10
113.4513448244
 20
149.3994460573
 30
0.0
 40
0.1999999999999863
100
AcDbArc
 50
0.0
 51
87.0
  0
LINE
  5
A3
330
1F
100
AcDbEntity
  8
Standard
  6
Continuous
 62
     7
100
AcDbLine
 10
113.4618120157
 20
149.5991719643
 30
0.0
 11
112.6658776332
 21
149.6408851177
 31
0.0
  0
ARC
  5
A4
330
1F
100
AcDbEntity
  8
Standard
  6
Continuous
 62
     7
100
AcDbCircle
 10
112.6763448244
 20
149.8406110247
 30
0.0
 40
0.1999999999999793
100
AcDbArc
 50
180.0
 51
266.9999999999
  0
LINE
  5
A5
330
1F
100
AcDbEntity
  8
Standard
  6
Continuous
 62
     7
100
AcDbLine
 10
112.4763448244
 20
149.8406110247
 30
0.0
 11
112.4763448244
 21
151.461025198
 31
0.0
  0
ARC
  5
A6
330
1F
100
AcDbEntity
  8
Standard
  6
Continuous
 62
     7
100
AcDbCircle
 10
112.6763448244
 20
151.461025198
 30
0.0
 40
0.2000000000000005
100
AcDbArc
 50
93.0
 51
180.0
  0
LINE
  5
A7
330
1F
100
AcDbEntity
  8
Standard
  6
Continuous
 62
     7
100
AcDbLine
 10
112.6658776332
 20
151.660751105
 30
0.0
 11
113.4618120157
 21
151.7024642584
 31
0.0
  0
ARC
  5
A8
330
1F
100
AcDbEntity
  8
Standard
  6
Continuous
 62
     7
100
AcDbCircle
 10
113.4513448244
 20
151.9021901653
 30
0.0
 40
0.2000000000000005
100
AcDbArc
 50
273.0
 51
0.0
  0
LINE
  5
A9
330
1F
100
AcDbEntity
  8
Standard
  6
Continuous
 62
     7
100
AcDbLine
 10
113.6513448244
 20
151.9021901653
 30
0.0
 11
113.6513448244
 21
153.8508181113
 31
0.0
  0
LINE
  5
AA
330
1F
100
AcDbEntity
  8
Standard
  6
Continuous
 62
     7
100
AcDbLine
 10
113.2263448244
 20
153.8508181113
 30
0.0
 11
113.2263448244
 21
158.8508181113
 31
0.0
  0
LINE
  5
AB
330
1F
100
AcDbEntity
  8
Standard
  6
Continuous
 62
     7
100
AcDbLine
 10
113.5513448244
 20
158.8508181113
 30
0.0
 11
113.5513448244
 21
160.0994460573
 31
0.0
  0
ARC
  5
AC
330
1F
100
AcDbEntity
  8
Standard
  6
Continuous
 62
     7
100
AcDbCircle
 10
113.3513448244
 20
160.0994460573
 30
0.0
 40
0.2000000000000005
100
AcDbArc
 50
0.0
 51
87.0
  0
LINE
  5
AD
330
1F
100
AcDbEntity
  8
Standard
  6
Continuous
 62
     7
100
AcDbLine
 10
113.3618120157
 20
160.2991719643
 30
0.0
 11
112.5658776332
 21
160.3408851177
 31
0.0
  0
ARC
  5
AE
330
1F
100
AcDbEntity
  8
Standard
  6
Continuous
 62
     7
100
AcDbCircle
 10
112.5763448244
 20
160.5406110247
 30
0.0
 40
0.1999999999999862
100
AcDbArc
 50
180.0
 51
266.9999999999
  0
LINE
  5
AF
330
1F
100
AcDbEntity
  8
Standard
  6
Continuous
 62
     7
100
AcDbLine
 10
112.3763448244
 20
160.5406110247
 30
0.0
 11
112.3763448244
 21
162.161025198
 31
0.0
  0
ARC
  5
B0
330
1F
100
AcDbEntity
  8
Standard
  6
Continuous
 62
     7
100
AcDbCircle
 10
112.5763448244
 20
162.161025198
 30
0.0
 40
0.2000000000000005
100
AcDbArc
 50
93.0
 51
180.0
  0
LINE
  5
B1
330
1F
100
AcDbEntity
  8
Standard
  6
Continuous
 62
     7
100
AcDbLine
 10
112.5658776332
 20
162.360751105
 30
0.0
 11
113.3590177797
 21
162.4023178187
 31
0.0
  0
ARC
  5
B2
330
1F
100
AcDbEntity
  8
Standard
  6
Continuous
 62
     7
100
AcDbCircle
 10
113.3485505885
 20
162.6020437256
 30
0.0
 40
0.2000000000000013
100
AcDbArc
 50
273.0
 51
359.8718191318
  0
LINE
  5
B3
330
1F
100
AcDbEntity
  8
Standard
  6
Continuous
 62
     7
100
AcDbLine
 10
113.548550088
 20
162.6015962904
 30
0.0
 11
113.5506721684
 21
163.5501469585
 31
0.0
  0
ARC
  5
B4
330
1F
100
AcDbEntity
  8
Standard
  6
Continuous
 62
     7
100
AcDbCircle
 10
113.2506729191
 20
163.5508181113
 30
0.0
 40
0.2999999999999947
100
AcDbArc
 50
359.8718191322
 51
90.0
  0
LINE
  5
B5
330
1F
100
AcDbEntity
  8
Standard
  6
Continuous
 62
     7
100
AcDbLine
 10
88.9013448244
 20
134.8520053857
 30
0.0
 11
88.9025320988
 21
134.8508181113
 31
0.0
  0
LINE
  5
B6
330
1F
100
AcDbEntity
  8
Standard
  6
Continuous
 62
     7
100
AcDbLine
 10
88.9025320988
 20
134.8508181113
 30
0.0
 11
120.0513448244
 21
134.8508181113
 31
0.0
  0
LINE
  5
B7
330
1F
100
AcDbEntity
  8
Standard
  6
Continuous
 62
     7
100
AcDbLine
 10
89.2263448244
 20
134.8508181113
 30
0.0
 11
89.2263448244
 21
131.8508181113
 31
0.0
  0
LINE
  5
B8
330
1F
100
AcDbEntity
  8
Standard
  6
Continuous
 62
     7
100
AcDbLine
 10
124.4763448244
 20
131.8508181113
 30
0.0
 11
84.4763448244
 21
131.8508181113
 31
0.0
  0
LINE
  5
B9
330
1F
100
AcDbEntity
  8
Standard
  6
Continuous
 62
     7
100
AcDbLine
 10
84.4763448244
 20
131.8508181113
 30
0.0
 11
84.4763448244
 21
129.8508181113
 31
0.0
  0
LINE
  5
BA
330
1F
100
AcDbEntity
  8
Standard
  6
Continuous
 62
     7
100
AcDbLine
 10
86.1763448244
 20
129.8508181113
 30
0.0
 11
86.1763448244
 21
129.4508181113
 31
0.0
  0
LINE
  5
BB
330
1F
100
AcDbEntity
  8
Standard
  6
Continuous
 62
     7
100
AcDbLine
 10
86.1763448244
 20
129.4508181113
 30
0.0
 11
86.0013448244
 21
128.79770922
 31
0.0
  0
LINE
  5
BC
330
1F
100
AcDbEntity
  8
Standard
  6
Continuous
 62
     7
100
AcDbLine
 10
86.0013448244
 20
128.79770922
 30
0.0
 11
86.0013448244
 21
127.4192337886
 31
0.0
  0
LINE
  5
BD
330
1F
100
AcDbEntity
  8
Standard
  6
Continuous
 62
     7
100
AcDbLine
 10
86.0013448244
 20
127.4192337886
 30
0.0
 11
87.6981337601
 21
127.2707839924
 31
0.0
  0
ARC
  5
BE
330
1F
100
AcDbEntity
  8
Standard
  6
Continuous
 62
     7
100
AcDbCircle
 10
87.6763448244
 20
127.0217353178
 30
0.0
 40
0.2499999999999945
100
AcDbArc
 50
0.0
 51
85.0
  0
LINE
  5
BF
330
1F
100
AcDbEntity
  8
Standard
  6
Continuous
 62
     7
100
AcDbLine
 10
87.9263448244
 20
127.0217353178
 30
0.0
 11
87.9263448244
 21
124.7543715019
 31
0.0
  0
ARC
  5
C0
330
1F
100
AcDbEntity
  8
Standard
  6
Continuous
 62
     7
100
AcDbCircle
 10
87.6763448244
 20
124.7543715019
 30
0.0
 40
0.2500000000000002
100
AcDbArc
 50
315.0
 51
0.0
  0
LINE
  5
C1
330
1F
100
AcDbEntity
  8
Standard
  6
Continuous
 62
     7
100
AcDbLine
 10
87.8531215197
 20
124.5775948066
 30
0.0
 11
86.4763448244
 21
123.2008181113
 31
0.0
  0
LINE
  5
C2
330
1F
100
AcDbEntity
  8
Standard
  6
Continuous
 62
     7
100
AcDbLine
 10
86.4763448244
 20
123.2008181113
 30
0.0
 11
86.4763448244
 21
119.3154477171
 31
0.0
  0
LINE
  5
C3
330
1F
100
AcDbEntity
  8
Standard
  6
Continuous
 62
     7
100
AcDbLine
 10
86.4763448244
 20
119.3154477171
 30
0.0
 11
87.9263448244
 21
117.8654477171
 31
0.0
  0
LINE
  5
C4
330
1F
100
AcDbEntity
  8
Standard
  6
Continuous
 62
     7
100
AcDbLine
 10
87.9263448244
 20
117.8654477171
 30
0.0
 11
87.9263448244
 21
117.8508181113
 31
0.0
  0
LINE
  5
C5
330
1F
100
AcDbEntity
  8
Standard
  6
Continuous
 62
     7
100
AcDbLine
 10
87.9263448244
 20
117.8508181113
 30
0.0
 11
121.0263448244
 21
117.8508181113
 31
0.0
  0
LINE
  5
C6
330
1F
100
AcDbEntity
  8
Standard
  6
Continuous
 62
     7
100
AcDbLine
 10
89.3263448244
 20
117.8508181113
 30
0.0
 11
89.3263448244
 21
95.3508181113
 31
0.0
  0
ARC
  5
C7
330
1F
100
AcDbEntity
  8
Standard
  6
Continuous
 62
     7
100
AcDbCircle
 10
89.6263448244
 20
95.3508181113
 30
0.0
 40
0.2999999999999947
100
AcDbArc
 50
180.0
 51
270.0
  0
LINE
  5
C8
330
1F
100
AcDbEntity
  8
Standard
  6
Continuous
 62
     7
100
AcDbLine
 10
88.9013448244
 20
139.349630837
 30
0.0
 11
88.9025320988
 21
139.3508181113
 31
0.0
  0
LINE
  5
C9
330
1F
100
AcDbEntity
  8
Standard
  6
Continuous
 62
     7
100
AcDbLine
 10
88.9025320988
 20
139.3508181113
 30
0.0
 11
120.05015755
 21
139.3508181113
 31
0.0
  0
LINE
  5
CA
330
1F
100
AcDbEntity
  8
Standard
  6
Continuous
 62
     7
100
AcDbLine
 10
91.9763448244
 20
141.8508181113
 30
0.0
 11
91.9763448244
 21
139.3508181113
 31
0.0
  0
LINE
  5
CB
330
1F
100
AcDbEntity
  8
Standard
  6
Continuous
 62
     7
100
AcDbLine
 10
116.9763448244
 20
141.8508181113
 30
0.0
 11
91.9763448244
 21
141.8508181113
 31
0.0
  0
LINE
  5
CC
330
1F
100
AcDbEntity
  8
Standard
  6
Continuous
 62
     7
100
AcDbLine
 10
96.2263448244
 20
144.9508181113
 30
0.0
 11
96.2263448244
 21
141.8508181113
 31
0.0
  0
LINE
  5
CD
330
1F
100
AcDbEntity
  8
Standard
  6
Continuous
 62
     7
100
AcDbLine
 10
91.9763448244
 20
144.9508181113
 30
0.0
 11
116.9763448244
 21
144.9508181113
 31
0.0
  0
LINE
  5
CE
330
1F
100
AcDbEntity
  8
Standard
  6
Continuous
 62
     7
100
AcDbLine
 10
91.9763448244
 20
147.1508181113
 30
0.0
 11
91.9763448244
 21
144.9508181113
 31
0.0
  0
LINE
  5
CF
330
1F
100
AcDbEntity
  8
Standard
  6
Continuous
 62
     7
100
AcDbLine
 10
91.9763448244
 20
147.1508181113
 30
0.0
 11
92.4763448244
 21
147.6508181113
 31
0.0
  0
LINE
  5
D0
330
1F
100
AcDbEntity
  8
Standard
  6
Continuous
 62
     7
100
AcDbLine
 10
116.4763448244
 20
147.6508181113
 30
0.0
 11
92.4763448244
 21
147.6508181113
 31
0.0
  0
LINE
  5
D1
330
1F
100
AcDbEntity
  8
Standard
  6
Continuous
 62
     7
100
AcDbLine
 10
95.3013448244
 20
149.3994460573
 30
0.0
 11
95.3013448244
 21
147.6508181113
 31
0.0
  0
ARC
  5
D2
330
1F
100
AcDbEntity
  8
Standard
  6
Continuous
 62
     7
100
AcDbCircle
 10
95.5013448244
 20
149.3994460573
 30
0.0
 40
0.2000000000000005
100
AcDbArc
 50
93.0
 51
180.0
  0
LINE
  5
D3
330
1F
100
AcDbEntity
  8
Standard
  6
Continuous
 62
     7
100
AcDbLine
 10
96.2868120157
 20
149.6408851177
 30
0.0
 11
95.4908776332
 21
149.5991719643
 31
0.0
  0
ARC
  5
D4
330
1F
100
AcDbEntity
  8
Standard
  6
Continuous
 62
     7
100
AcDbCircle
 10
96.2763448244
 20
149.8406110247
 30
0.0
 40
0.2000000000000005
100
AcDbArc
 50
273.0000000001
 51
0.0
  0
LINE
  5
D5
330
1F
100
AcDbEntity
  8
Standard
  6
Continuous
 62
     7
100
AcDbLine
 10
96.4763448244
 20
151.461025198
 30
0.0
 11
96.4763448244
 21
149.8406110247
 31
0.0
  0
ARC
  5
D6
330
1F
100
AcDbEntity
  8
Standard
  6
Continuous
 62
     7
100
AcDbCircle
 10
96.2763448244
 20
151.461025198
 30
0.0
 40
0.2000000000000005
100
AcDbArc
 50
0.0
 51
87.0
  0
LINE
  5
D7
330
1F
100
AcDbEntity
  8
Standard
  6
Continuous
 62
     7
100
AcDbLine
 10
95.4908776332
 20
151.7024642584
 30
0.0
 11
96.2868120157
 21
151.660751105
 31
0.0
  0
ARC
  5
D8
330
1F
100
AcDbEntity
  8
Standard
  6
Continuous
 62
     7
100
AcDbCircle
 10
95.5013448244
 20
151.9021901653
 30
0.0
 40
0.2000000000000001
100
AcDbArc
 50
180.0
 51
267.0
  0
LINE
  5
D9
330
1F
100
AcDbEntity
  8
Standard
  6
Continuous
 62
     7
100
AcDbLine
 10
95.3013448244
 20
153.8508181113
 30
0.0
 11
95.3013448244
 21
151.9021901653
 31
0.0
  0
LINE
  5
DA
330
1F
100
AcDbEntity
  8
Standard
  6
Continuous
 62
     7
100
AcDbLine
 10
113.6513448244
 20
153.8508181113
 30
0.0
 11
95.3013448244
 21
153.8508181113
 31
0.0
  0
LINE
  5
DB
330
1F
100
AcDbEntity
  8
Standard
  6
Continuous
 62
     7
100
AcDbLine
 10
95.7263448244
 20
158.8508181113
 30
0.0
 11
95.7263448244
 21
153.8508181113
 31
0.0
  0
LINE
  5
DC
330
1F
100
AcDbEntity
  8
Standard
  6
Continuous
 62
     7
100
AcDbLine
 10
95.4013448244
 20
158.8508181113
 30
0.0
 11
113.5513448244
 21
158.8508181113
 31
0.0
  0
LINE
  5
DD
330
1F
100
AcDbEntity
  8
Standard
  6
Continuous
 62
     7
100
AcDbLine
 10
95.4013448244
 20
160.0994460573
 30
0.0
 11
95.4013448244
 21
158.8508181113
 31
0.0
  0
ARC
  5
DE
330
1F
100
AcDbEntity
  8
Standard
  6
Continuous
 62
     7
100
AcDbCircle
 10
95.6013448244
 20
160.0994460573
 30
0.0
 40
0.2000000000000005
100
AcDbArc
 50
93.0
 51
180.0
  0
LINE
  5
DF
330
1F
100
AcDbEntity
  8
Standard
  6
Continuous
 62
     7
100
AcDbLine
 10
96.3868120157
 20
160.3408851177
 30
0.0
 11
95.5908776332
 21
160.2991719643
 31
0.0
  0
ARC
  5
E0
330
1F
100
AcDbEntity
  8
Standard
  6
Continuous
 62
     7
100
AcDbCircle
 10
96.3763448244
 20
160.5406110247
 30
0.0
 40
0.2000000000000005
100
AcDbArc
 50
273.0000000001
 51
0.0
  0
LINE
  5
E1
330
1F
100
AcDbEntity
  8
Standard
  6
Continuous
 62
     7
100
AcDbLine
 10
96.5763448244
 20
162.161025198
 30
0.0
 11
96.5763448244
 21
160.5406110247
 31
0.0
  0
ARC
  5
E2
330
1F
100
AcDbEntity
  8
Standard
  6
Continuous
 62
     7
100
AcDbCircle
 10
96.3763448244
 20
162.161025198
 30
0.0
 40
0.1999999999999934
100
AcDbArc
 50
0.0
 51
87.0
  0
LINE
  5
E3
330
1F
100
AcDbEntity
  8
Standard
  6
Continuous
 62
     7
100
AcDbLine
 10
95.5936718691
 20
162.4023178187
 30
0.0
 11
96.3868120157
 21
162.360751105
 31
0.0
  0
ARC
  5
E4
330
1F
100
AcDbEntity
  8
Standard
  6
Continuous
 62
     7
100
AcDbCircle
 10
95.6041390604
 20
162.6020437256
 30
0.0
 40
0.2000000000000001
100
AcDbArc
 50
180.1281808682
 51
267.0
  0
LINE
  5
E5
330
1F
100
AcDbEntity
  8
Standard
  6
Continuous
 62
     7
100
AcDbLine
 10
95.4020174805
 20
163.5501469585
 30
0.0
 11
95.4041395609
 21
162.6015962904
 31
0.0
  0
ARC
  5
E6
330
1F
100
AcDbEntity
  8
Standard
  6
Continuous
 62
     7
100
AcDbCircle
 10
95.7020167297
 20
163.5508181113
 30
0.0
 40
0.3000000000000001
100
AcDbArc
 50
90.0
 51
180.1281808678
  0
LINE
  5
E7
330
1F
100
AcDbEntity
  8
Standard
  6
Continuous
 62
     7
100
AcDbLine
 10
113.2506729191
 20
163.8508181113
 30
0.0
 11
95.7020167297
 21
163.8508181113
 31
0.0
  0
LINE
  5
E8
330
1F
100
AcDbEntity
  8
Standard
  6
Continuous
 62
     7
100
AcDbLine
 10
87.3963448244
 20
118.3954477171
 30
0.0
 11
87.3963448244
 21
124.1208181113
 31
0.0
  0
LINE
  5
E9
330
1F
100
AcDbEntity
  8
Standard
  6
Continuous
 62
     7
100
AcDbLine
 10
121.5563448244
 20
118.3954477171
 30
0.0
 11
121.5563448244
 21
124.1208181113
 31
0.0
  0
LINE
  5
EA
330
1F
100
AcDbEntity
  8
Standard
  6
Continuous
 62
     7
100
AcDbLine
 10
119.4763448244
 20
70.7508181113
 30
0.0
 11
119.2763448244
 21
70.5508181113
 31
0.0
  0
LINE
  5
EB
330
1F
100
AcDbEntity
  8
Standard
  6
Continuous
 62
     7
100
AcDbLine
 10
89.6763448244
 20
70.5508181113
 30
0.0
 11
89.4763448244
 21
70.7508181113
 31
0.0
  0
ARC
  5
EC
330
1F
100
AcDbEntity
  8
Standard
  6
Continuous
 62
     7
100
AcDbCircle
 10
119.3763448244
 20
84.4008181113
 30
0.0
 40
0.0999999999999994
100
AcDbArc
 50
270.0
 51
0.0
  0
LINE
  5
ED
330
1F
100
AcDbEntity
  8
Standard
  6
Continuous
 62
     7
100
AcDbLine
 10
119.3763448244
 20
84.3008181113
 30
0.0
 11
118.1013448244
 21
84.3008181113
 31
0.0
  0
LINE
  5
EE
330
1F
100
AcDbEntity
  8
Standard
  6
Continuous
 62
     7
100
AcDbLine
 10
119.4763448244
 20
84.8008181113
 30
0.0
 11
119.4763448244
 21
84.4008181113
 31
0.0
  0
LINE
  5
EF
330
1F
100
AcDbEntity
  8
Standard
  6
Continuous
 62
     7
100
AcDbLine
 10
118.923306375
 20
84.8983337113
 30
0.0
 11
119.4763448244
 21
84.8008181113
 31
0.0
  0
ARC
  5
F0
330
1F
100
AcDbEntity
  8
Standard
  6
Continuous
 62
     7
100
AcDbCircle
 10
118.9580360106
 20
85.0952952619
 30
0.0
 40
0.1999999999999929
100
AcDbArc
 50
170.0
 51
260.0
  0
LINE
  5
F1
330
1F
100
AcDbEntity
  8
Standard
  6
Continuous
 62
     7
100
AcDbLine
 10
119.4763448244
 20
89.1865247116
 30
0.0
 11
118.76107446
 21
85.1300248975
 31
0.0
  0
LINE
  5
F2
330
1F
100
AcDbEntity
  8
Standard
  6
Continuous
 62
     7
100
AcDbLine
 10
119.4763448244
 20
94.8508181113
 30
0.0
 11
119.4763448244
 21
89.1865247116
 31
0.0
  0
LINE
  5
F3
330
1F
100
AcDbEntity
  8
Standard
  6
Continuous
 62
     7
100
AcDbLine
 10
119.2763448244
 20
95.0508181113
 30
0.0
 11
119.4763448244
 21
94.8508181113
 31
0.0
  0
LINE
  5
F4
330
1F
100
AcDbEntity
  8
Standard
  6
Continuous
 62
     7
100
AcDbLine
 10
118.1013448244
 20
81.3008181113
 30
0.0
 11
119.3763448244
 21
81.3008181113
 31
0.0
  0
ARC
  5
F5
330
1F
100
AcDbEntity
  8
Standard
  6
Continuous
 62
     7
100
AcDbCircle
 10
119.3763448244
 20
81.2008181113
 30
0.0
 40
0.1000000000000029
100
AcDbArc
 50
0.0
 51
90.0
  0
LINE
  5
F6
330
1F
100
AcDbEntity
  8
Standard
  6
Continuous
 62
     7
100
AcDbLine
 10
119.4763448244
 20
81.2008181113
 30
0.0
 11
119.4763448244
 21
80.8008181113
 31
0.0
  0
LINE
  5
F7
330
1F
100
AcDbEntity
  8
Standard
  6
Continuous
 62
     7
100
AcDbLine
 10
119.4763448244
 20
80.8008181113
 30
0.0
 11
118.923306375
 21
80.7033025113
 31
0.0
  0
ARC
  5
F8
330
1F
100
AcDbEntity
  8
Standard
  6
Continuous
 62
     7
100
AcDbCircle
 10
118.9580360106
 20
80.5063409607
 30
0.0
 40
0.199999999999997
100
AcDbArc
 50
100.0
 51
190.0
  0
LINE
  5
F9
330
1F
100
AcDbEntity
  8
Standard
  6
Continuous
 62
     7
100
AcDbLine
 10
118.76107446
 20
80.4716113252
 30
0.0
 11
119.4763448244
 21
76.4151115111
 31
0.0
  0
LINE
  5
FA
330
1F
100
AcDbEntity
  8
Standard
  6
Continuous
 62
     7
100
AcDbLine
 10
119.4763448244
 20
76.4151115111
 30
0.0
 11
119.4763448244
 21
70.7508181113
 31
0.0
  0
ARC
  5
FB
330
1F
100
AcDbEntity
  8
Standard
  6
Continuous
 62
     7
100
AcDbCircle
 10
89.5763448244
 20
84.4008181113
 30
0.0
 40
0.0999999999999959
100
AcDbArc
 50
180.0
 51
270.0
  0
LINE
  5
FC
330
1F
100
AcDbEntity
  8
Standard
  6
Continuous
 62
     7
100
AcDbLine
 10
119.3763448244
 20
84.3008181113
 30
0.0
 11
89.5763448244
 21
84.3008181113
 31
0.0
  0
LINE
  5
FD
330
1F
100
AcDbEntity
  8
Standard
  6
Continuous
 62
     7
100
AcDbLine
 10
89.4763448244
 20
84.4008181113
 30
0.0
 11
89.4763448244
 21
84.8008181113
 31
0.0
  0
LINE
  5
FE
330
1F
100
AcDbEntity
  8
Standard
  6
Continuous
 62
     7
100
AcDbLine
 10
89.4763448244
 20
84.8008181113
 30
0.0
 11
90.0293832738
 21
84.8983337113
 31
0.0
  0
ARC
  5
FF
330
1F
100
AcDbEntity
  8
Standard
  6
Continuous
 62
     7
100
AcDbCircle
 10
90.8513448244
 20
84.1008181113
 30
0.0
 40
0.1999999999999988
100
AcDbArc
 50
0.0
 51
90.0
  0
ARC
  5
100
330
1F
100
AcDbEntity
  8
Standard
  6
Continuous
 62
     7
100
AcDbCircle
 10
89.9946536383
 20
85.0952952619
 30
0.0
 40
0.1999999999999974
100
AcDbArc
 50
280.0
 51
10.0
  0
LINE
  5
101
330
1F
100
AcDbEntity
  8
Standard
  6
Continuous
 62
     7
100
AcDbLine
 10
91.0513448244
 20
81.5008181113
 30
0.0
 11
91.0513448244
 21
84.1008181113
 31
0.0
  0
LINE
  5
102
330
1F
100
AcDbEntity
  8
Standard
  6
Continuous
 62
     7
100
AcDbLine
 10
90.1916151889
 20
85.1300248975
 30
0.0
 11
89.4763448244
 21
89.1865247116
 31
0.0
  0
LINE
  5
103
330
1F
100
AcDbEntity
  8
Standard
  6
Continuous
 62
     7
100
AcDbLine
 10
89.4763448244
 20
89.1865247116
 30
0.0
 11
89.4763448244
 21
94.8508181113
 31
0.0
  0
ARC
  5
104
330
1F
100
AcDbEntity
  8
Standard
  6
Continuous
 62
     7
100
AcDbCircle
 10
90.8513448244
 20
81.5008181113
 30
0.0
 40
0.2000000000000005
100
AcDbArc
 50
270.0
 51
0.0
  0
LINE
  5
105
330
1F
100
AcDbEntity
  8
Standard
  6
Continuous
 62
     7
100
AcDbLine
 10
89.4763448244
 20
94.8508181113
 30
0.0
 11
89.6763448244
 21
95.0508181113
 31
0.0
  0
LINE
  5
106
330
1F
100
AcDbEntity
  8
Standard
  6
Continuous
 62
     7
100
AcDbLine
 10
89.6263448244
 20
95.0508181113
 30
0.0
 11
119.3263448244
 21
95.0508181113
 31
0.0
  0
LINE
  5
107
330
1F
100
AcDbEntity
  8
Standard
  6
Continuous
 62
     7
100
AcDbLine
 10
89.5763448244
 20
81.3008181113
 30
0.0
 11
119.3763448244
 21
81.3008181113
 31
0.0
  0
ARC
  5
108
330
1F
100
AcDbEntity
  8
Standard
  6
Continuous
 62
     7
100
AcDbCircle
 10
89.5763448244
 20
81.2008181113
 30
0.0
 40
0.0999999999999994
100
AcDbArc
 50
90.0
 51
180.0
  0
LINE
  5
109
330
1F
100
AcDbEntity
  8
Standard
  6
Continuous
 62
     7
100
AcDbLine
 10
89.4763448244
 20
80.8008181113
 30
0.0
 11
89.4763448244
 21
81.2008181113
 31
0.0
  0
LINE
  5
10A
330
1F
100
AcDbEntity
  8
Standard
  6
Continuous
 62
     7
100
AcDbLine
 10
90.0293832738
 20
80.7033025113
 30
0.0
 11
89.4763448244
 21
80.8008181113
 31
0.0
  0
ARC
  5
10B
330
1F
100
AcDbEntity
  8
Standard
  6
Continuous
 62
     7
100
AcDbCircle
 10
89.9946536383
 20
80.5063409607
 30
0.0
 40
0.1999999999999964
100
AcDbArc
 50
350.0
 51
80.0
  0
LINE
  5
10C
330
1F
100
AcDbEntity
  8
Standard
  6
Continuous
 62
     7
100
AcDbLine
 10
89.4763448244
 20
76.4151115111
 30
0.0
 11
90.1916151889
 21
80.4716113252
 31
0.0
  0
LINE
  5
10D
330
1F
100
AcDbEntity
  8
Standard
  6
Continuous
 62
     7
100
AcDbLine
 10
119.2763448244
 20
70.5508181113
 30
0.0
 11
89.6763448244
 21
70.5508181113
 31
0.0
  0
LINE
  5
10E
330
1F
100
AcDbEntity
  8
Standard
  6
Continuous
 62
     7
100
AcDbLine
 10
89.4763448244
 20
70.7508181113
 30
0.0
 11
89.4763448244
 21
76.4151115111
 31
0.0
  0
LINE
  5
10F
330
1F
100
AcDbEntity
  8
Standard
  6
Continuous
 62
     7
100
AcDbLine
 10
110.4763448244
 20
67.2008181113
 30
0.0
 11
98.4763448244
 21
67.2008181113
 31
0.0
  0
LINE
  5
110
330
1F
100
AcDbEntity
  8
Standard
  6
Continuous
 62
     7
100
AcDbLine
 10
107.9763448244
 20
59.3508181113
 30
0.0
 11
100.9763448244
 21
59.3508181113
 31
0.0
  0
LINE
  5
111
330
1F
100
AcDbEntity
  8
Standard
  6
Continuous
 62
     7
100
AcDbLine
 10
108.9763448244
 20
64.8508181113
 30
0.0
 11
109.4763448244
 21
64.8508181113
 31
0.0
  0
LINE
  5
112
330
1F
100
AcDbEntity
  8
Standard
  6
Continuous
 62
     7
100
AcDbLine
 10
108.9763448244
 20
61.8508181113
 30
0.0
 11
108.9763448244
 21
64.8508181113
 31
0.0
  0
LINE
  5
113
330
1F
100
AcDbEntity
  8
Standard
  6
Continuous
 62
     7
100
AcDbLine
 10
108.9763448244
 20
61.8508181113
 30
0.0
 11
109.4763448244
 21
61.8508181113
 31
0.0
  0
LINE
  5
114
330
1F
100
AcDbEntity
  8
Standard
  6
Continuous
 62
     7
100
AcDbLine
 10
99.9763448244
 20
64.8508181113
 30
0.0
 11
99.4763448244
 21
64.8508181113
 31
0.0
  0
LINE
  5
115
330
1F
100
AcDbEntity
  8
Standard
  6
Continuous
 62
     7
100
AcDbLine
 10
99.9763448244
 20
61.8508181113
 30
0.0
 11
99.4763448244
 21
61.8508181113
 31
0.0
  0
LINE
  5
116
330
1F
100
AcDbEntity
  8
Standard
  6
Continuous
 62
     7
100
AcDbLine
 10
99.9763448244
 20
64.8508181113
 30
0.0
 11
99.9763448244
 21
61.8508181113
 31
0.0
  0
LINE
  5
117
330
1F
100
AcDbEntity
  8
Standard
  6
Continuous
 62
     7
100
AcDbLine
 10
102.2968953526
 20
64.8508181113
 30
0.0
 11
106.6557942962
 21
64.8508181113
 31
0.0
  0
LINE
  5
118
330
1F
100
AcDbEntity
  8
Standard
  6
Continuous
 62
     7
100
AcDbLine
 10
102.2968953526
 20
61.8508181113
 30
0.0
 11
106.6557942962
 21
61.8508181113
 31
0.0
  0
LINE
  5
119
330
1F
100
AcDbEntity
  8
Standard
  6
Continuous
 62
     7
100
AcDbLine
 10
106.6557942962
 20
64.8508181113
 30
0.0
 11
106.6557942962
 21
61.8508181113
 31
0.0
  0
LINE
  5
11A
330
1F
100
AcDbEntity
  8
Standard
  6
Continuous
 62
     7
100
AcDbLine
 10
102.2968953526
 20
61.8508181113
 30
0.0
 11
102.2968953526
 21
64.8508181113
 31
0.0
  0
LINE
  5
11B
330
1F
100
AcDbEntity
  8
Standard
  6
Continuous
 62
     7
100
AcDbLine
 10
111.9763448244
 20
68.7008181113
 30
0.0
 11
111.9763448244
 21
70.5508181113
 31
0.0
  0
LINE
  5
11C
330
1F
100
AcDbEntity
  8
Standard
  6
Continuous
 62
     7
100
AcDbLine
 10
96.9763448244
 20
70.5508181113
 30
0.0
 11
96.9763448244
 21
68.7008181113
 31
0.0
  0
LINE
  5
11D
330
1F
100
AcDbEntity
  8
Standard
  6
Continuous
 62
     7
100
AcDbLine
 10
109.4763448244
 20
64.8508181113
 30
0.0
 11
109.4763448244
 21
67.2008181113
 31
0.0
  0
LINE
  5
11E
330
1F
100
AcDbEntity
  8
Standard
  6
Continuous
 62
     7
100
AcDbLine
 10
109.4763448244
 20
60.8508181113
 30
0.0
 11
109.4763448244
 21
61.8508181113
 31
0.0
  0
LINE
  5
11F
330
1F
100
AcDbEntity
  8
Standard
  6
Continuous
 62
     7
100
AcDbLine
 10
99.4763448244
 20
61.8508181113
 30
0.0
 11
99.4763448244
 21
60.8508181113
 31
0.0
  0
LINE
  5
120
330
1F
100
AcDbEntity
  8
Standard
  6
Continuous
 62
     7
100
AcDbLine
 10
99.4763448244
 20
67.2008181113
 30
0.0
 11
99.4763448244
 21
64.8508181113
 31
0.0
  0
ARC
  5
121
330
1F
100
AcDbEntity
  8
Standard
  6
Continuous
 62
     7
100
AcDbCircle
 10
110.4763448244
 20
68.7008181113
 30
0.0
 40
1.499999999999998
100
AcDbArc
 50
270.0
 51
0.0
  0
ARC
  5
122
330
1F
100
AcDbEntity
  8
Standard
  6
Continuous
 62
     7
100
AcDbCircle
 10
98.4763448244
 20
68.7008181113
 30
0.0
 40
1.5
100
AcDbArc
 50
180.0
 51
270.0
  0
ARC
  5
123
330
1F
100
AcDbEntity
  8
Standard
  6
Continuous
 62
     7
100
AcDbCircle
 10
107.9763448244
 20
60.8508181113
 30
0.0
 40
1.500000000000001
100
AcDbArc
 50
270.0
 51
0.0
  0
ARC
  5
124
330
1F
100
AcDbEntity
  8
Standard
  6
Continuous
 62
     7
100
AcDbCircle
 10
100.9763448244
 20
60.8508181113
 30
0.0
 40
1.5
100
AcDbArc
 50
180.0
 51
270.0
  0
ARC
  5
125
330
1F
100
AcDbEntity
  8
Standard
  6
Continuous
 62
     7
100
AcDbCircle
 10
118.1013448244
 20
84.1008181113
 30
0.0
 40
0.1999999999999988
100
AcDbArc
 50
90.0
 51
180.0
  0
LINE
  5
126
330
1F
100
AcDbEntity
  8
Standard
  6
Continuous
 62
     7
100
AcDbLine
 10
117.9013448244
 20
81.5008181113
 30
0.0
 11
117.9013448244
 21
84.1008181113
 31
0.0
  0
ARC
  5
127
330
1F
100
AcDbEntity
  8
Standard
  6
Continuous
 62
     7
100
AcDbCircle
 10
118.1013448244
 20
81.5008181113
 30
0.0
 40
0.2000000000000005
100
AcDbArc
 50
180.0
 51
270.0
  0
LINE
  5
128
330
1F
100
AcDbEntity
  8
Standard
  6
Continuous
 62
     7
100
AcDbLine
 10
119.4763448244
 20
76.4151115111
 30
0.0
 11
89.4763448244
 21
76.4151115111
 31
0.0
  0
LINE
  5
129
330
1F
100
AcDbEntity
  8
Standard
  6
Continuous
 62
     7
100
AcDbLine
 10
119.4763448244
 20
80.8008181113
 30
0.0
 11
89.4763448244
 21
80.8008181113
 31
0.0
  0
LINE
  5
12A
330
1F
100
AcDbEntity
  8
Standard
  6
Continuous
 62
     7
100
AcDbLine
 10
119.4763448244
 20
84.8008181113
 30
0.0
 11
89.4763448244
 21
84.8008181113
 31
0.0
  0
LINE
  5
12B
330
1F
100
AcDbEntity
  8
Standard
  6
Continuous
 62
     7
100
AcDbLine
 10
119.4763448244
 20
89.1865247116
 30
0.0
 11
89.4763448244
 21
89.1865247116
 31
0.0
  0
LINE
  5
12C
330
1F
100
AcDbEntity
  8
Standard
  6
Continuous
 62
     7
100
AcDbLine
 10
86.1763448244
 20
129.4508181113
 30
0.0
 11
122.7763448244
 21
129.4508181113
 31
0.0
  0
LINE
  5
12D
330
1F
100
AcDbEntity
  8
Standard
  6
Continuous
 62
     7
100
AcDbLine
 10
86.0013448244
 20
128.79770922
 30
0.0
 11
122.9513448244
 21
128.79770922
 31
0.0
  0
LINE
  5
12E
330
1F
100
AcDbEntity
  8
Standard
  6
Continuous
 62
     7
100
AcDbLine
 10
86.0013448244
 20
127.4192337886
 30
0.0
 11
122.9513448244
 21
127.4192337886
 31
0.0
  0
LINE
  5
12F
330
1F
100
AcDbEntity
  8
Standard
  6
Continuous
 62
     7
100
AcDbLine
 10
86.4763448244
 20
123.2008181113
 30
0.0
 11
122.4763448244
 21
123.2008181113
 31
0.0
  0
LINE
  5
130
330
1F
100
AcDbEntity
  8
Standard
  6
Continuous
 62
     7
100
AcDbLine
 10
86.4763448244
 20
119.3154477171
 30
0.0
 11
122.4763448244
 21
119.3154477171
 31
0.0
  0
LINE
  5
131
330
1F
100
AcDbEntity
  8
Standard
  6
Continuous
 62
     7
100
AcDbLine
 10
110.4135158679
 20
144.9508181113
 30
0.0
 11
110.4135158679
 21
147.1508181113
 31
0.0
  0
LINE
  5
132
330
1F
100
AcDbEntity
  8
Standard
  6
Continuous
 62
     7
100
AcDbLine
 10
111.0340387443
 20
144.9508181113
 30
0.0
 11
111.0340387443
 21
147.1508181113
 31
0.0
  0
LINE
  5
133
330
1F
100
AcDbEntity
  8
Standard
  6
Continuous
 62
     7
100
AcDbLine
 10
104.4763448244
 20
147.6508181113
 30
0.0
 11
112.1351345983
 21
147.6508181113
 31
0.0
  0
LINE
  5
135
330
1F
100
AcDbEntity
  8
Layer3
  6
Continuous
 62
     7
100
AcDbLine
 10
111.0340387443
 20
147.1508181113
 30
0.0
 11
110.4135158679
 21
147.1508181113
 31
0.0
  0
LINE
  5
136
330
1F
100
AcDbEntity
  8
Standard
  6
Continuous
 62
     7
100
AcDbLine
 10
111.0340387443
 20
139.3508181113
 30
0.0
 11
111.0340387443
 21
141.8508181113
 31
0.0
  0
LINE
  5
137
330
1F
100
AcDbEntity
  8
Standard
  6
Continuous
 62
     7
100
AcDbLine
 10
110.4135158679
 20
139.3508181113
 30
0.0
 11
110.4135158679
 21
141.8508181113
 31
0.0
  0
LINE
  5
138
330
1F
100
AcDbEntity
  8
Standard
  6
Continuous
 62
     7
100
AcDbLine
 10
111.0340387443
 20
147.1508181113
 30
0.0
 11
111.5340387443
 21
147.6508181113
 31
0.0
  0
LINE
  5
139
330
1F
100
AcDbEntity
  8
Standard
  6
Continuous
 62
     7
100
AcDbLine
 10
109.9135158679
 20
147.6508181113
 30
0.0
 11
110.4135158679
 21
147.1508181113
 31
0.0
  0
LINE
  5
13A
330
1F
100
AcDbEntity
  8
Standard
  6
Continuous
 62
     7
100
AcDbLine
 10
98.5391737809
 20
144.9508181113
 30
0.0
 11
98.5391737809
 21
147.1508181113
 31
0.0
  0
LINE
  5
13B
330
1F
100
AcDbEntity
  8
Standard
  6
Continuous
 62
     7
100
AcDbLine
 10
97.9186509045
 20
144.9508181113
 30
0.0
 11
97.9186509045
 21
147.1508181113
 31
0.0
  0
LINE
  5
13C
330
1F
100
AcDbEntity
  8
Layer3
  6
Continuous
 62
     7
100
AcDbLine
 10
97.9186509045
 20
147.1508181113
 30
0.0
 11
98.5391737809
 21
147.1508181113
 31
0.0
  0
LINE
  5
13D
330
1F
100
AcDbEntity
  8
Standard
  6
Continuous
 62
     7
100
AcDbLine
 10
97.9186509045
 20
139.3508181113
 30
0.0
 11
97.9186509045
 21
141.8508181113
 31
0.0
  0
LINE
  5
13E
330
1F
100
AcDbEntity
  8
Standard
  6
Continuous
 62
     7
100
AcDbLine
 10
98.5391737809
 20
139.3508181113
 30
0.0
 11
98.5391737809
 21
141.8508181113
 31
0.0
  0
LINE
  5
13F
330
1F
100
AcDbEntity
  8
Standard
  6
Continuous
 62
     7
100
AcDbLine
 10
97.9186509045
 20
147.1508181113
 30
0.0
 11
97.4186509045
 21
147.6508181113
 31
0.0
  0
LINE
  5
140
330
1F
100
AcDbEntity
  8
Standard
  6
Continuous
 62
     7
100
AcDbLine
 10
99.0391737809
 20
147.6508181113
 30
0.0
 11
98.5391737809
 21
147.1508181113
 31
0.0
  0
LINE
  5
141
330
1F
100
AcDbEntity
  8
Standard
  6
Continuous
 62
     7
100
AcDbLine
 10
114.9917702258
 20
231.1463896026
 30
0.0
 11
114.9917702258
 21
242.112767267
 31
0.0
  0
LINE
  5
142
330
1F
100
AcDbEntity
  8
Standard
  6
Continuous
 62
     7
100
AcDbLine
 10
94.9929132083
 20
231.1463896026
 30
0.0
 11
94.9929132083
 21
242.0628888359
 31
0.0
  0
LINE
  5
143
330
1F
100
AcDbEntity
  8
Standard
  6
Continuous
 62
     7
100
AcDbLine
 10
119.242341717
 20
210.1508181113
 30
0.0
 11
90.742341717
 21
210.1508181113
 31
0.0
  0
LINE
  5
144
330
1F
100
AcDbEntity
  8
Standard
  6
Continuous
 62
     7
100
AcDbLine
 10
94.034200038
 20
230.1876764323
 30
0.0
 11
94.034200038
 21
241.1121957757
 31
0.0
  0
LINE
  5
145
330
1F
100
AcDbEntity
  8
Standard
  6
Continuous
 62
     7
100
AcDbLine
 10
115.950483396
 20
230.1876764323
 30
0.0
 11
115.950483396
 21
241.1121957757
 31
0.0
  0
LINE
  5
146
330
1F
100
AcDbEntity
  8
Standard
  6
Continuous
 62
     7
100
AcDbLine
 10
114.9917702258
 20
242.112767267
 30
0.0
 11
115.950483396
 21
241.1121957757
 31
0.0
  0
LINE
  5
147
330
1F
100
AcDbEntity
  8
Standard
  6
Continuous
 62
     7
100
AcDbLine
 10
94.034200038
 20
241.1121957757
 30
0.0
 11
94.0698951941
 21
241.1508181113
 31
0.0
  0
LINE
  5
148
330
1F
100
AcDbEntity
  8
Standard
  6
Continuous
 62
     7
100
AcDbLine
 10
94.0931637417
 20
241.1672389216
 30
0.0
 11
94.0931637417
 21
241.1508181113
 31
0.0
  0
SPLINE
  5
149
330
1F
100
AcDbEntity
  8
Standard
  6
Continuous
 62
     7
100
AcDbSpline
210
0.0
220
0.0
230
1.0
 70
     8
 71
     3
 72
     8
 73
     4
 74
     0
 42
0.000000001
 43
0.0000000001
 40
0.0
 40
0.0
 40
0.0
 40
0.0
 40
1.0
 40
1.0
 40
1.0
 40
1.0
 10
94.09316374168016
 20
241.1672389216246
 30
0.0
 10
94.42246935642359
 20
241.4951671675932
 30
0.0
 10
94.75183659244124
 20
241.8230339337081
 30
0.0
 10
95.0812850139039
 20
242.150818111347
 30
0.0
  0
LINE
  5
14A
330
1F
100
AcDbEntity
  8
Standard
  6
Continuous
 62
     7
100
AcDbLine
 10
95.5451199032
 20
242.1508181113
 30
0.0
 11
95.5451199032
 21
242.4508181113
 31
0.0
  0
LINE
  5
14B
330
1F
100
AcDbEntity
  8
Standard
  6
Continuous
 62
     7
100
AcDbLine
 10
95.0812850139
 20
242.1508181113
 30
0.0
 11
114.9537193814
 21
242.1508181113
 31
0.0
  0
LINE
  5
14C
330
1F
100
AcDbEntity
  8
Standard
  6
Continuous
 62
     7
100
AcDbLine
 10
114.492341717
 20
242.4508181113
 30
0.0
 11
95.5451199032
 21
242.4508181113
 31
0.0
  0
LINE
  5
14D
330
1F
100
AcDbEntity
  8
Standard
  6
Continuous
 62
     7
100
AcDbLine
 10
114.9917702258
 20
231.1463896026
 30
0.0
 11
115.992341717
 21
230.1458181113
 31
0.0
  0
LINE
  5
14E
330
1F
100
AcDbEntity
  8
Standard
  6
Continuous
 62
     7
100
AcDbLine
 10
115.992341717
 20
230.1458181113
 30
0.0
 11
115.992341717
 21
210.1508181113
 31
0.0
  0
LINE
  5
14F
330
1F
100
AcDbEntity
  8
Standard
  6
Continuous
 62
     7
100
AcDbLine
 10
119.242341717
 20
210.1508181113
 30
0.0
 11
119.242341717
 21
207.6508181113
 31
0.0
  0
LINE
  5
150
330
1F
100
AcDbEntity
  8
Standard
  6
Continuous
 62
     7
100
AcDbLine
 10
114.9537193814
 20
242.1508181113
 30
0.0
 11
114.9917702258
 21
242.112767267
 31
0.0
  0
LINE
  5
151
330
1F
100
AcDbEntity
  8
Standard
  6
Continuous
 62
     7
100
AcDbLine
 10
114.492341717
 20
242.4508181113
 30
0.0
 11
114.492341717
 21
242.1508181113
 31
0.0
  0
LINE
  5
152
330
1F
100
AcDbEntity
  8
Standard
  6
Continuous
 62
     7
100
AcDbLine
 10
93.992341717
 20
230.1458181113
 30
0.0
 11
94.9929132083
 21
231.1463896026
 31
0.0
  0
LINE
  5
153
330
1F
100
AcDbEntity
  8
Standard
  6
Continuous
 62
     7
100
AcDbLine
 10
93.992341717
 20
210.1508181113
 30
0.0
 11
93.992341717
 21
230.1458181113
 31
0.0
  0
LINE
  5
154
330
1F
100
AcDbEntity
  8
Standard
  6
Continuous
 62
     7
100
AcDbLine
 10
90.742341717
 20
207.6508181113
 30
0.0
 11
90.742341717
 21
210.1508181113
 31
0.0
  0
LINE
  5
155
330
1F
100
AcDbEntity
  8
Standard
  6
Continuous
 62
     7
100
AcDbLine
 10
119.242341717
 20
207.6508181113
 30
0.0
 11
90.742341717
 21
207.6508181113
 31
0.0
  0
LINE
  5
156
330
1F
100
AcDbEntity
  8
Standard
  6
Continuous
 62
     7
100
AcDbLine
 10
94.0931637417
 20
241.1672389216
 30
0.0
 11
115.8977429479
 21
241.1672389216
 31
0.0
  0
LINE
  5
157
330
1F
100
AcDbEntity
  8
Standard
  6
Continuous
 62
     7
100
AcDbLine
 10
94.034200038
 20
231.1463896026
 30
0.0
 11
115.950483396
 21
231.1463896026
 31
0.0
  0
INSERT
  5
159
330
1F
100
AcDbEntity
  8
0
100
AcDbBlockReference
  2
SE
 10
0.0
 20
0.0
 30
0.0
  0
INSERT
  5
19F
330
1F
100
AcDbEntity
  8
0
100
AcDbBlockReference
  2
SE1
 10
0.0
 20
0.0
 30
0.0
  0
DIMENSION
  5
1E9
330
1F
100
AcDbEntity
  8
Layer3
  6
Continuous
 62
     7
100
AcDbDimension
  2
DMBLK131
 10
145.9723499989
 20
281.3508181113
 30
0.0
 11
145.9723499989
 21
271.6008183125
 31
0.0
 70
   160
  1
\A1;<>
 71
     5
 42
-1.0
  3
Standard
100
AcDbAlignedDimension
 13
122.1763448244
 23
261.8508181113
 33
0.0
 14
120.0228868458
 24
281.3508181113
 34
0.0
 50
90.0
100
AcDbRotatedDimension
  0
DIMENSION
  5
1F4
330
1F
100
AcDbEntity
  8
Layer3
  6
Continuous
 62
     7
100
AcDbDimension
  2
DMBLK132
 10
86.7763448244
 20
253.5467129711
 30
0.0
 11
104.4763445592
 21
253.5467129711
 31
0.0
 70
   161
  1
\A1;<>
 71
     5
 42
-1.0
  3
Standard
100
AcDbAlignedDimension
 13
86.7763448244
 23
261.8508181113
 33
0.0
 14
122.1763448244
 24
261.8508181113
 34
0.0
  0
DIMENSION
  5
1FF
330
1F
100
AcDbEntity
  8
Layer3
  6
Continuous
 62
     7
100
AcDbDimension
  2
DMBLK133
 10
89.4763448244
 20
53.7195675898
 30
0.0
 11
104.4763444891
 21
53.7195675898
 31
0.0
 70
   161
  1
\A1;<>
 71
     5
 42
-1.0
  3
Standard
100
AcDbAlignedDimension
 13
89.4763448244
 23
70.7508181113
 33
0.0
 14
119.4763448244
 24
70.7508181113
 34
0.0
  0
DIMENSION
  5
20A
330
1F
100
AcDbEntity
  8
Layer3
  6
Continuous
 62
     7
100
AcDbDimension
  2
DMBLK134
 10
145.182832644
 20
70.5508181113
 30
0.0
 11
145.182832644
 21
100.200817256
 31
0.0
 70
   160
  1
\A1;<>
 71
     5
 42
-1.0
  3
Standard
100
AcDbAlignedDimension
 13
124.4763448244
 23
129.8508181113
 33
0.0
 14
119.2763448244
 24
70.5508181113
 34
0.0
 50
90.0
100
AcDbRotatedDimension
  0
DIMENSION
  5
215
330
1F
100
AcDbEntity
  8
Layer3
  6
Continuous
 62
     7
100
AcDbDimension
  2
DMBLK135
 10
145.182832644
 20
163.8508181113
 30
0.0
 11
145.182832644
 21
146.8508190352
 31
0.0
 70
   160
  1
\A1;<>
 71
     5
 42
-1.0
  3
Standard
100
AcDbAlignedDimension
 13
124.4763448244
 23
129.8508181113
 33
0.0
 14
113.2506729191
 24
163.8508181113
 34
0.0
 50
90.0
100
AcDbRotatedDimension
  0
DIMENSION
  5
220
330
1F
100
AcDbEntity
  8
Layer3
  6
Continuous
 62
     7
100
AcDbDimension
  2
DMBLK136
 10
86.4763448244
 20
121.596655774
 30
0.0
 11
80.2281677952
 21
121.596655774
 31
0.0
 70
   161
  1
\A1;M <>
 71
     5
 42
-1.0
  3
Standard
100
AcDbAlignedDimension
 13
86.4763448244
 23
119.3154477171
 33
0.0
 14
122.4763448244
 24
119.3154477171
 34
0.0
  0
DIMENSION
  5
22A
330
1F
100
AcDbEntity
  8
Layer3
  6
Continuous
 62
     7
100
AcDbDimension
  2
DMBLK137
 10
145.440902089
 20
242.4508181113
 30
0.0
 11
145.440902089
 21
225.0508183557
 31
0.0
 70
   160
  1
\A1;<>
 71
     5
 42
-1.0
  3
Standard
100
AcDbAlignedDimension
 13
119.242341717
 23
207.6508181113
 33
0.0
 14
114.492341717
 24
242.4508181113
 34
0.0
 50
90.0
100
AcDbRotatedDimension
  0
DIMENSION
  5
235
330
1F
100
AcDbEntity
  8
Layer3
  6
Continuous
 62
     7
100
AcDbDimension
  2
DMBLK138
 10
94.034200038
 20
235.4245478109
 30
0.0
 11
86.2104534501
 21
235.4245478109
 31
0.0
 70
   160
  1
\A1;<>
 71
     5
 42
-1.0
  3
Standard
100
AcDbAlignedDimension
 13
115.950483396
 23
241.1121957757
 33
0.0
 14
94.034200038
 24
241.1121957757
 34
0.0
100
AcDbRotatedDimension
  0
DIMENSION
  5
23E
330
1F
100
AcDbEntity
  8
Layer3
  6
Continuous
 62
     7
100
AcDbDimension
  2
DMBLK139
 10
145.3074924654
 20
165.8508181113
 30
0.0
 11
145.3074924654
 21
183.3508180368
 31
0.0
 70
   160
  1
\A1;<>
 71
     5
 42
-1.0
  3
Standard
100
AcDbAlignedDimension
 13
110.4763448244
 23
200.8508181113
 33
0.0
 14
107.4167137073
 24
165.8508181113
 34
0.0
 50
90.0
100
AcDbRotatedDimension
  0
DIMENSION
  5
249
330
1F
100
AcDbEntity
  8
Layer3
  6
Continuous
 62
     7
100
AcDbDimension
  2
DMBLK140
 10
96.4763448244
 20
196.8545314323
 30
0.0
 11
86.476396442
 21
196.8545314323
 31
0.0
 70
   160
  1
\A1;<>
 71
     5
 42
-1.0
  3
Standard
100
AcDbAlignedDimension
 13
112.4763448244
 23
198.8508181113
 33
0.0
 14
96.4763448244
 24
198.8508181113
 34
0.0
100
AcDbRotatedDimension
  0
DIMENSION
  5
252
330
1F
100
AcDbEntity
  8
Layer3
  6
Continuous
 62
     7
100
AcDbDimension
  2
DMBLK141
 10
95.4013448244
 20
159.6955862434
 30
0.0
 11
85.7796744531
 21
159.6955862434
 31
0.0
 70
   160
  1
\A1;<>
 71
     5
 42
-1.0
  3
Standard
100
AcDbAlignedDimension
 13
113.5513448244
 23
158.8508181113
 33
0.0
 14
95.4013448244
 24
158.8508181113
 34
0.0
100
AcDbRotatedDimension
  0
LINE
  5
25B
330
1F
100
AcDbEntity
  8
Standard
  6
Continuous
 62
     7
100
AcDbLine
 10
6.6
 20
291.0
 30
0.0
 11
6.6
 21
5.0
 31
0.0
  0
LINE
  5
25C
330
1F
100
AcDbEntity
  8
Standard
  6
Continuous
 62
     7
100
AcDbLine
 10
6.6
 20
5.0
 30
0.0
 11
203.0048694642
 21
5.0
 31
0.0
  0
LINE
  5
25D
330
1F
100
AcDbEntity
  8
Standard
  6
Continuous
 62
     7
100
AcDbLine
 10
203.0048694642
 20
291.0
 30
0.0
 11
6.6
 21
291.0
 31
0.0
  0
LINE
  5
25E
330
1F
100
AcDbEntity
  8
Default
  6
Continuous
 62
     7
100
AcDbLine
 10
6.6
 20
45.0
 30
0.0
 11
203.0048694642
 21
45.0
 31
0.0
  0
LINE
  5
25F
330
1F
100
AcDbEntity
  8
Default
  6
Continuous
 62
     7
100
AcDbLine
 10
6.6
 20
25.0
 30
0.0
 11
203.0048694642
 21
25.0
 31
0.0
  0
LINE
  5
260
330
1F
100
AcDbEntity
  8
Default
  6
Continuous
 62
     7
100
AcDbLine
 10
6.6
 20
40.0
 30
0.0
 11
105.0
 21
40.0
 31
0.0
  0
LINE
  5
261
330
1F
100
AcDbEntity
  8
Default
  6
Continuous
 62
     7
100
AcDbLine
 10
25.0
 20
35.0
 30
0.0
 11
105.0
 21
35.0
 31
0.0
  0
LINE
  5
262
330
1F
100
AcDbEntity
  8
Default
  6
Continuous
 62
     7
100
AcDbLine
 10
25.0
 20
30.0
 30
0.0
 11
85.0
 21
30.0
 31
0.0
  0
LINE
  5
263
330
1F
100
AcDbEntity
  8
Default
  6
Continuous
 62
     7
100
AcDbLine
 10
25.0
 20
45.0
 30
0.0
 11
25.0
 21
5.0
 31
0.0
  0
LINE
  5
264
330
1F
100
AcDbEntity
  8
Default
  6
Continuous
 62
     7
100
AcDbLine
 10
45.0
 20
45.0
 30
0.0
 11
45.0
 21
5.0
 31
0.0
  0
LINE
  5
265
330
1F
100
AcDbEntity
  8
Default
  6
Continuous
 62
     7
100
AcDbLine
 10
65.0
 20
45.0
 30
0.0
 11
65.0
 21
25.0
 31
0.0
  0
LINE
  5
266
330
1F
100
AcDbEntity
  8
Default
  6
Continuous
 62
     7
100
AcDbLine
 10
85.0
 20
45.0
 30
0.0
 11
85.0
 21
25.0
 31
0.0
  0
LINE
  5
267
330
1F
100
AcDbEntity
  8
Default
  6
Continuous
 62
     7
100
AcDbLine
 10
105.0
 20
45.0
 30
0.0
 11
105.0
 21
25.0
 31
0.0
  0
LINE
  5
268
330
1F
100
AcDbEntity
  8
Default
  6
Continuous
 62
     7
100
AcDbLine
 10
25.0
 20
12.0
 30
0.0
 11
203.0048694642
 21
12.0
 31
0.0
  0
LINE
  5
269
330
1F
100
AcDbEntity
  8
Default
  6
Continuous
 62
     7
100
AcDbLine
 10
6.6
 20
20.0
 30
0.0
 11
25.0
 21
20.0
 31
0.0
  0
LINE
  5
26A
330
1F
100
AcDbEntity
  8
Default
  6
Continuous
 62
     7
100
AcDbLine
 10
163.0
 20
25.0
 30
0.0
 11
163.0
 21
5.0
 31
0.0
  0
MTEXT
  5
26B
330
1F
100
AcDbEntity
  8
Default
100
AcDbMText
 10
6.9540142599
 20
43.7920376842
 30
0.0
 40
2.5
 41
18.4529619592
 71
     1
 72
     1
  1
{\fArial|b0||i0||c0|p34;\C7;\H2.;\W0.9;Ma\U+00DFstab / Scale}
  7
SEACAD_Arial
 73
     1
 44
1.0
1001
ACAD
1000
ACAD_MTEXT_DEFINED_HEIGHT_BEGIN
1070
    46
1040
3.1304447826
1000
ACAD_MTEXT_DEFINED_HEIGHT_END
  0
MTEXT
  5
26C
330
1F
100
AcDbEntity
  8
Default
100
AcDbMText
 10
26.9540142599
 20
43.7920376842
 30
0.0
 40
2.5
 41
18.4529619592
 71
     1
 72
     1
  1
{\fArial|b0||i0||c0|p34;\C7;\H2.;\W0.9;\U+00C4M-Nr. / ECN}
  7
SEACAD_Arial
 73
     1
 44
1.0
1001
ACAD
1000
ACAD_MTEXT_DEFINED_HEIGHT_BEGIN
1070
    46
1040
3.1304447826
1000
ACAD_MTEXT_DEFINED_HEIGHT_END
  0
MTEXT
  5
26D
330
1F
100
AcDbEntity
  8
Default
100
AcDbMText
 10
26.9540142599
 20
38.7920376842
 30
0.0
 40
2.5
 41
18.4529619592
 71
     1
 72
     1
  1
{\fArial|b0||i0||c0|p34;\C7;\H2.;\W0.9;Datum / Date}
  7
SEACAD_Arial
 73
     1
 44
1.0
1001
ACAD
1000
ACAD_MTEXT_DEFINED_HEIGHT_BEGIN
1070
    46
1040
3.1304447826
1000
ACAD_MTEXT_DEFINED_HEIGHT_END
  0
MTEXT
  5
26E
330
1F
100
AcDbEntity
  8
Default
100
AcDbMText
 10
25.5253978501
 20
33.6729863168
 30
0.0
 40
2.5
 41
20.0012594728
 71
     1
 72
     1
  1
{\fArial|b0||i0||c0|p34;\C7;\H2.;\W0.8;Verantw. / Respons.}
  7
SEACAD_Arial
 73
     1
 44
1.0
1001
ACAD
1000
ACAD_MTEXT_DEFINED_HEIGHT_BEGIN
1070
    46
1040
3.4528045251
1000
ACAD_MTEXT_DEFINED_HEIGHT_END
  0
MTEXT
  5
26F
330
1F
100
AcDbEntity
  8
Default
100
AcDbMText
 10
25.6444492176
 20
28.7920376842
 30
0.0
 40
2.5
 41
18.3913143478
 71
     1
 72
     1
  1
{\fArial|b0||i0||c0|p34;\C7;\H2.;\W0.8;Gepr\U+00FCft / Approved}
  7
SEACAD_Arial
 73
     1
 44
1.0
1001
ACAD
1000
ACAD_MTEXT_DEFINED_HEIGHT_BEGIN
1070
    46
1040
3.1304447826
1000
ACAD_MTEXT_DEFINED_HEIGHT_END
  0
MTEXT
  5
270
330
1F
100
AcDbEntity
  8
Default
100
AcDbMText
 10
15.5292897758
 20
22.8214279273
 30
0.0
 40
2.5
 41
18.4529619592
 71
     5
 72
     1
  1
{\fArial|b0||i0||c0|p34;\C7;\H2.;\W1.;Status}
 73
     1
 44
1.0
1001
ACAD
1000
ACAD_MTEXT_DEFINED_HEIGHT_BEGIN
1070
    46
1040
4.7620546991
1000
ACAD_MTEXT_DEFINED_HEIGHT_END
  0
MTEXT
  5
271
330
1F
100
AcDbEntity
  8
Default
100
AcDbMText
 10
25.8842381149
 20
17.7084237573
 30
0.0
 40
2.5
 41
20.1196811039
 71
     4
 72
     1
  1
{\fArial|b0||i0||c0|p34;\C7;\H2.;\W1.;Benennung /\P}{\fArial|b0||i0||c0|p34;\C7;\H2.;\W1.;Title}
 73
     1
 44
1.0
1001
ACAD
1000
ACAD_MTEXT_DEFINED_HEIGHT_BEGIN
1070
    46
1040
15.0004723023
1000
ACAD_MTEXT_DEFINED_HEIGHT_END
  0
MTEXT
  5
272
330
1F
100
AcDbEntity
  8
Default
100
AcDbMText
 10
25.8272330627
 20
8.2971610949
 30
0.0
 40
2.5
 41
20.0006297364
 71
     4
 72
     1
  1
{\fArial|b0||i0||c0|p34;\C7;\H2.;\W1.;Prod.-No. +\P}{\fArial|b0||i0||c0|p34;\C7;\H2.;\W1.;variants:}
 73
     1
 44
1.0
1001
ACAD
1000
ACAD_MTEXT_DEFINED_HEIGHT_BEGIN
1070
    46
1040
6.2608695652
1000
ACAD_MTEXT_DEFINED_HEIGHT_END
  0
MTEXT
  5
273
330
1F
100
AcDbEntity
  8
Default
100
AcDbMText
 10
94.7996622009
 20
30.2349931318
 30
0.0
 40
2.5
 41
19.9738722629
 71
     5
 72
     1
  1
{\fArial|b0||i0||c0|p34;\C7;\H2.;\W1.;Copyright\P}{\fArial|b0||i0||c0|p34;\C7;\H2.;\W1.;reserved}
 73
     1
 44
1.0
1001
ACAD
1000
ACAD_MTEXT_DEFINED_HEIGHT_BEGIN
1070
    46
1040
9.8176660275
1000
ACAD_MTEXT_DEFINED_HEIGHT_END
  0
MTEXT
  5
274
330
1F
100
AcDbEntity
  8
Default
100
AcDbMText
 10
163.7763570233
 20
23.3589041336
 30
0.0
 40
2.5
 41
36.0869665217
 71
     4
 72
     1
  1
{\fArial|b0||i0||c0|p34;\C7;\H2.;\W1.;Zeichnung Nr. / Drawing No.:}
 73
     1
 44
1.0
1001
ACAD
1000
ACAD_MTEXT_DEFINED_HEIGHT_BEGIN
1070
    46
1040
3.1304347826
1000
ACAD_MTEXT_DEFINED_HEIGHT_END
  0
MTEXT
  5
275
330
1F
100
AcDbEntity
  8
Default
100
AcDbMText
 10
177.9167122798
 20
10.4191450781
 30
0.0
 40
2.5
 41
28.4674013043
 71
     5
 72
     1
  1
{\fArial|b0||i0||c0|p34;\C7;\H1.5;\W1.;TPI-Referenz / TPI-Reference:}
 73
     1
 44
1.0
1001
ACAD
1000
ACAD_MTEXT_DEFINED_HEIGHT_BEGIN
1070
    46
1040
2.347826087
1000
ACAD_MTEXT_DEFINED_HEIGHT_END
  0
LINE
  5
276
330
1F
100
AcDbEntity
  8
Default
  6
Continuous
 62
     7
100
AcDbLine
 10
203.005
 20
5.0
 30
0.0
 11
203.0048694642
 21
291.0
 31
0.0
  0
MTEXT
  5
277
330
1F
100
AcDbEntity
  8
Default
100
AcDbMText
 10
125.9819791287
 20
35.0860625795
 30
0.0
 40
2.5
 41
35.2174885633
 71
     5
 72
     1
  1
{\fArial|b0||i0||c0|p34;\C7;\H2.;\W1.;Grohe AG\P}{\fArial|b0||i0||c0|p34;\C7;\H2.;\W1.;Industriepark Edelburg\P}{\fArial|b0||i0||c0|p34;\C7;\H2.;\W1.;D-58675 Hemer\P}{\fArial|b0||i0||c0|p34;\C7;\H2.;\W1.;Tel. 02372 / 93-0}
 73
     1
 44
1.0
1001
ACAD
1000
ACAD_MTEXT_DEFINED_HEIGHT_BEGIN
1070
    46
1040
20.0099366837
1000
ACAD_MTEXT_DEFINED_HEIGHT_END
  0
INSERT
  5
2B9
330
1F
100
AcDbEntity
  8
Default
 62
     7
100
AcDbBlockReference
  2
symb_tb_GroheLogo2013_ori
 10
180.6
 20
27.27
 30
0.0
  0
ENDSEC
  0
SECTION
  2
OBJECTS
  0
DICTIONARY
  5
C
330
0
100
AcDbDictionary
281
     1
  3
ACAD_GROUP
350
D
  3
ACAD_LAYOUT
350
1A
  3
ACAD_MATERIAL
350
43
  3
ACAD_MLEADERSTYLE
350
2BC
  3
ACAD_MLINESTYLE
350
17
  3
ACAD_PLOTSETTINGS
350
19
  3
ACAD_PLOTSTYLENAME
350
E
  3
ACAD_SCALELIST
350
47
  3
ACAD_VISUALSTYLE
350
2A
  3
AcDbVariableDictionary
350
2BA
  0
DICTIONARY
  5
D
102
{ACAD_REACTORS
330
C
102
}
330
C
100
AcDbDictionary
281
     1
  0
DICTIONARY
  5
1A
102
{ACAD_REACTORS
330
C
102
}
330
C
100
AcDbDictionary
281
     1
  3
Layout1
350
1E
  3
Model
350
22
  0
DICTIONARY
  5
43
102
{ACAD_REACTORS
330
C
102
}
330
C
100
AcDbDictionary
281
     1
  3
ByBlock
350
45
  3
ByLayer
350
44
  3
Global
350
46
  0
DICTIONARY
  5
2BC
102
{ACAD_REACTORS
330
C
102
}
330
C
100
AcDbDictionary
281
     1
  0
DICTIONARY
  5
17
102
{ACAD_REACTORS
330
C
102
}
330
C
100
AcDbDictionary
281
     1
  3
Standard
350
18
  0
DICTIONARY
  5
19
102
{ACAD_REACTORS
330
C
102
}
330
C
100
AcDbDictionary
281
     1
  0
ACDBDICTIONARYWDFLT
  5
E
102
{ACAD_REACTORS
330
C
102
}
330
C
100
AcDbDictionary
281
     1
  3
Normal
350
F
100
AcDbDictionaryWithDefault
340
F
  0
DICTIONARY
  5
47
102
{ACAD_REACTORS
330
C
102
}
330
C
100
AcDbDictionary
281
     1
  3
A0
350
48
  3
A1
350
49
  3
A2
350
4A
  3
A3
350
4B
  3
A4
350
4C
  3
A5
350
4D
  3
A6
350
4E
  3
A7
350
4F
  3
A8
350
50
  3
A9
350
51
  3
B0
350
52
  3
B1
350
53
  3
B2
350
54
  3
B3
350
55
  3
B4
350
56
  3
B5
350
57
  3
B6
350
58
  3
B7
350
59
  3
B8
350
5A
  3
B9
350
5B
  3
C0
350
5C
  3
C1
350
5D
  3
C2
350
5E
  3
C3
350
5F
  3
C4
350
60
  3
C5
350
61
  3
C6
350
62
  3
C7
350
63
  3
C8
350
64
  3
C9
350
65
  3
D0
350
66
  3
D1
350
67
  3
D2
350
68
  0
DICTIONARY
  5
2A
102
{ACAD_REACTORS
330
C
102
}
330
C
100
AcDbDictionary
281
     1
  3
2dWireframe
350
2F
  3
Basic
350
32
  3
Brighten
350
36
  3
ColorChange
350
3A
  3
Conceptual
350
34
  3
Dim
350
35
  3
EdgeColorOff
350
3D
  3
Facepattern
350
39
  3
Flat
350
2B
  3
FlatWithEdges
350
2C
  3
Gouraud
350
2D
  3
GouraudWithEdges
350
2E
  3
Hidden
350
31
  3
JitterOff
350
3B
  3
Linepattern
350
38
  3
OverhangOff
350
3C
  3
Realistic
350
33
  3
Shaded
350
42
  3
Shaded with edges
350
41
  3
Shades of Gray
350
3E
  3
Sketchy
350
3F
  3
Thicken
350
37
  3
Wireframe
350
30
  3
X-Ray
350
40
  0
DICTIONARY
  5
2BA
102
{ACAD_REACTORS
330
C
102
}
330
C
100
AcDbDictionary
281
     1
  3
CANNOSCALE
350
2C3
  3
DIMASSOC
350
2C1
  3
HIDETEXT
350
2C2
  3
MSLTSCALE
350
2C4
  3
PSOLHEIGHT
350
2BE
  3
PSOLWIDTH
350
2BD
  0
LAYOUT
  5
1E
102
{ACAD_REACTORS
330
1A
102
}
330
1A
100
AcDbPlotSettings
  1

  2
none_device
  4

  6

 40
0.0
 41
0.0
 42
0.0
 43
0.0
 44
0.0
 45
0.0
 46
0.0
 47
0.0
 48
0.0
 49
0.0
140
0.0
141
0.0
142
1.0
143
1.0
 70
   688
 72
     1
 73
     0
 74
     5
  7

 75
    16
147
1.0
148
0.0
149
0.0
100
AcDbLayout
  1
Layout1
 70
     1
 71
     1
 10
0.0
 20
0.0
 11
209.0
 21
296.0
 12
0.0
 22
0.0
 32
0.0
 14
0.0
 24
0.0
 34
0.0
 15
209.0
 25
296.0
 35
0.0
146
0.0
 13
0.0
 23
0.0
 33
0.0
 16
1.0
 26
0.0
 36
0.0
 17
0.0
 27
1.0
 37
0.0
 76
     0
330
1B
  0
LAYOUT
  5
22
102
{ACAD_REACTORS
330
1A
102
}
330
1A
100
AcDbPlotSettings
  1

  2
none_device
  4
Letter_(8.50_x_11.00_Inches)
  6

 40
6.35
 41
6.35
 42
6.35000508
 43
6.35000508
 44
215.9
 45
279.4
 46
0.0
 47
0.0
 48
0.0
 49
0.0
140
0.0
141
0.0
142
1.0
143
1.0
 70
  1712
 72
     1
 73
     0
 74
     0
  7

 75
     0
147
1.0
148
0.0
149
0.0
100
AcDbLayout
  1
Model
 70
     1
 71
     0
 10
0.0
 20
0.0
 11
209.0
 21
296.0
 12
0.0
 22
0.0
 32
0.0
 14
0.0
 24
0.0
 34
0.0
 15
209.0
 25
296.0
 35
0.0
146
0.0
 13
0.0
 23
0.0
 33
0.0
 16
1.0
 26
0.0
 36
0.0
 17
0.0
 27
1.0
 37
0.0
 76
     0
330
1F
331
29
  0
MATERIAL
  5
45
102
{ACAD_REACTORS
330
43
102
}
102
{ACAD_XDICTIONARY
360
2F7
102
}
330
43
100
AcDbMaterial
  1
ByBlock
  0
MATERIAL
  5
44
102
{ACAD_REACTORS
330
43
102
}
102
{ACAD_XDICTIONARY
360
2F5
102
}
330
43
100
AcDbMaterial
  1
ByLayer
  0
MATERIAL
  5
46
102
{ACAD_REACTORS
330
43
102
}
102
{ACAD_XDICTIONARY
360
2F9
102
}
330
43
100
AcDbMaterial
  1
Global
  0
MLINESTYLE
  5
18
102
{ACAD_REACTORS
330
17
102
}
330
17
100
AcDbMlineStyle
  2
Standard
 70
     0
  3

 62
   256
 51
90.0
 52
90.0
 71
     2
 49
0.5
 62
   256
  6
BYLAYER
 49
-0.5
 62
   256
  6
BYLAYER
  0
ACDBPLACEHOLDER
  5
F
102
{ACAD_REACTORS
330
E
102
}
330
E
  0
SCALE
  5
48
102
{ACAD_REACTORS
330
47
102
}
330
47
100
AcDbScale
 70
     0
300
1:1
140
1.0
141
1.0
290
     1
  0
SCALE
  5
49
102
{ACAD_REACTORS
330
47
102
}
330
47
100
AcDbScale
 70
     0
300
1:2
140
1.0
141
2.0
290
     0
  0
SCALE
  5
4A
102
{ACAD_REACTORS
330
47
102
}
330
47
100
AcDbScale
 70
     0
300
1:4
140
1.0
141
4.0
290
     0
  0
SCALE
  5
4B
102
{ACAD_REACTORS
330
47
102
}
330
47
100
AcDbScale
 70
     0
300
1:5
140
1.0
141
5.0
290
     0
  0
SCALE
  5
4C
102
{ACAD_REACTORS
330
47
102
}
330
47
100
AcDbScale
 70
     0
300
1:8
140
1.0
141
8.0
290
     0
  0
SCALE
  5
4D
102
{ACAD_REACTORS
330
47
102
}
330
47
100
AcDbScale
 70
     0
300
1:10
140
1.0
141
10.0
290
     0
  0
SCALE
  5
4E
102
{ACAD_REACTORS
330
47
102
}
330
47
100
AcDbScale
 70
     0
300
1:16
140
1.0
141
16.0
290
     0
  0
SCALE
  5
4F
102
{ACAD_REACTORS
330
47
102
}
330
47
100
AcDbScale
 70
     0
300
1:20
140
1.0
141
20.0
290
     0
  0
SCALE
  5
50
102
{ACAD_REACTORS
330
47
102
}
330
47
100
AcDbScale
 70
     0
300
1:30
140
1.0
141
30.0
290
     0
  0
SCALE
  5
51
102
{ACAD_REACTORS
330
47
102
}
330
47
100
AcDbScale
 70
     0
300
1:40
140
1.0
141
40.0
290
     0
  0
SCALE
  5
52
102
{ACAD_REACTORS
330
47
102
}
330
47
100
AcDbScale
 70
     0
300
1:50
140
1.0
141
50.0
290
     0
  0
SCALE
  5
53
102
{ACAD_REACTORS
330
47
102
}
330
47
100
AcDbScale
 70
     0
300
1:100
140
1.0
141
100.0
290
     0
  0
SCALE
  5
54
102
{ACAD_REACTORS
330
47
102
}
330
47
100
AcDbScale
 70
     0
300
2:1
140
2.0
141
1.0
290
     0
  0
SCALE
  5
55
102
{ACAD_REACTORS
330
47
102
}
330
47
100
AcDbScale
 70
     0
300
4:1
140
4.0
141
1.0
290
     0
  0
SCALE
  5
56
102
{ACAD_REACTORS
330
47
102
}
330
47
100
AcDbScale
 70
     0
300
8:1
140
8.0
141
1.0
290
     0
  0
SCALE
  5
57
102
{ACAD_REACTORS
330
47
102
}
330
47
100
AcDbScale
 70
     0
300
10:1
140
10.0
141
1.0
290
     0
  0
SCALE
  5
58
102
{ACAD_REACTORS
330
47
102
}
330
47
100
AcDbScale
 70
     0
300
100:1
140
100.0
141
1.0
290
     0
  0
SCALE
  5
59
102
{ACAD_REACTORS
330
47
102
}
330
47
100
AcDbScale
 70
     0
300
1/128" = 1'-0"
140
0.0078125
141
12.0
290
     0
  0
SCALE
  5
5A
102
{ACAD_REACTORS
330
47
102
}
330
47
100
AcDbScale
 70
     0
300
1/64" = 1'-0"
140
0.015625
141
12.0
290
     0
  0
SCALE
  5
5B
102
{ACAD_REACTORS
330
47
102
}
330
47
100
AcDbScale
 70
     0
300
1/32" = 1'-0"
140
0.03125
141
12.0
290
     0
  0
SCALE
  5
5C
102
{ACAD_REACTORS
330
47
102
}
330
47
100
AcDbScale
 70
     0
300
1/16" = 1'-0"
140
0.0625
141
12.0
290
     0
  0
SCALE
  5
5D
102
{ACAD_REACTORS
330
47
102
}
330
47
100
AcDbScale
 70
     0
300
3/32" = 1'-0"
140
0.09375
141
12.0
290
     0
  0
SCALE
  5
5E
102
{ACAD_REACTORS
330
47
102
}
330
47
100
AcDbScale
 70
     0
300
1/8" = 1'-0"
140
0.125
141
12.0
290
     0
  0
SCALE
  5
5F
102
{ACAD_REACTORS
330
47
102
}
330
47
100
AcDbScale
 70
     0
300
3/16" = 1'-0"
140
0.1875
141
12.0
290
     0
  0
SCALE
  5
60
102
{ACAD_REACTORS
330
47
102
}
330
47
100
AcDbScale
 70
     0
300
1/4" = 1'-0"
140
0.25
141
12.0
290
     0
  0
SCALE
  5
61
102
{ACAD_REACTORS
330
47
102
}
330
47
100
AcDbScale
 70
     0
300
3/8" = 1'-0"
140
0.375
141
12.0
290
     0
  0
SCALE
  5
62
102
{ACAD_REACTORS
330
47
102
}
330
47
100
AcDbScale
 70
     0
300
1/2" = 1'-0"
140
0.5
141
12.0
290
     0
  0
SCALE
  5
63
102
{ACAD_REACTORS
330
47
102
}
330
47
100
AcDbScale
 70
     0
300
3/4" = 1'-0"
140
0.75
141
12.0
290
     0
  0
SCALE
  5
64
102
{ACAD_REACTORS
330
47
102
}
330
47
100
AcDbScale
 70
     0
300
1" = 1'-0"
140
1.0
141
12.0
290
     0
  0
SCALE
  5
65
102
{ACAD_REACTORS
330
47
102
}
330
47
100
AcDbScale
 70
     0
300
1-1/2" = 1'-0"
140
1.5
141
12.0
290
     0
  0
SCALE
  5
66
102
{ACAD_REACTORS
330
47
102
}
330
47
100
AcDbScale
 70
     0
300
3" = 1'-0"
140
3.0
141
12.0
290
     0
  0
SCALE
  5
67
102
{ACAD_REACTORS
330
47
102
}
330
47
100
AcDbScale
 70
     0
300
6" = 1'-0"
140
6.0
141
12.0
290
     0
  0
SCALE
  5
68
102
{ACAD_REACTORS
330
47
102
}
330
47
100
AcDbScale
 70
     0
300
1'-0" = 1'-0"
140
12.0
141
12.0
290
     0
  0
VISUALSTYLE
  5
2F
102
{ACAD_REACTORS
330
2A
102
}
102
{ACAD_XDICTIONARY
360
2CD
102
}
330
2A
100
AcDbVisualStyle
  2
2dWireframe
 70
     4
 71
     0
 72
     2
 73
     0
 90
        0
 40
0.6
 41
30.0
 62
     5
 63
     7
 74
     1
 91
        4
 64
     7
 65
   257
 75
     1
175
     1
 42
1.0
 92
        0
 66
   257
 43
1.0
 76
     1
 77
     6
 78
     2
 67
     7
 79
     5
170
     0
171
     0
290
     0
174
     0
 93
        1
 44
0.0
173
     0
291
     0
 45
0.0
1001
ACAD
1000
AcDbSavedByObjectVersion
1070
     0
  0
VISUALSTYLE
  5
32
102
{ACAD_REACTORS
330
2A
102
}
102
{ACAD_XDICTIONARY
360
2D3
102
}
330
2A
100
AcDbVisualStyle
  2
Basic
 70
     7
 71
     1
 72
     0
 73
     1
 90
        0
 40
0.6
 41
30.0
 62
     5
 63
     7
 74
     0
 91
        4
 64
     7
 65
   257
 75
     1
175
     1
 42
1.0
 92
        8
 66
     7
 43
1.0
 76
     1
 77
     6
 78
     2
 67
     7
 79
     5
170
     0
171
     0
290
     0
174
     0
 93
        1
 44
0.0
173
     0
291
     1
 45
0.0
1001
ACAD
1000
AcDbSavedByObjectVersion
1070
     0
  0
VISUALSTYLE
  5
36
102
{ACAD_REACTORS
330
2A
102
}
102
{ACAD_XDICTIONARY
360
2DB
102
}
330
2A
100
AcDbVisualStyle
  2
Brighten
 70
    12
 71
     2
 72
     2
 73
     0
 90
        0
 40
0.6
 41
30.0
 62
     5
 63
     7
 74
     1
 91
        4
 64
     7
 65
   257
 75
     1
175
     1
 42
1.0
 92
        8
 66
     7
 43
1.0
 76
     1
 77
     6
 78
     2
 67
     7
 79
     5
170
     0
171
     0
290
     0
174
     0
 93
        1
 44
50.0
173
     0
291
     1
 45
0.0
1001
ACAD
1000
AcDbSavedByObjectVersion
1070
     0
  0
VISUALSTYLE
  5
3A
102
{ACAD_REACTORS
330
2A
102
}
102
{ACAD_XDICTIONARY
360
2E3
102
}
330
2A
100
AcDbVisualStyle
  2
ColorChange
 70
    16
 71
     2
 72
     2
 73
     3
 90
        0
 40
0.6
 41
30.0
 62
     5
 63
     8
 74
     1
 91
        4
 64
     7
 65
   257
 75
     1
175
     1
 42
1.0
 92
        8
 66
     8
 43
1.0
 76
     1
 77
     6
 78
     2
 67
     7
 79
     5
170
     0
171
     0
290
     0
174
     0
 93
        1
 44
0.0
173
     0
291
     1
 45
0.0
1001
ACAD
1000
AcDbSavedByObjectVersion
1070
     0
  0
VISUALSTYLE
  5
34
102
{ACAD_REACTORS
330
2A
102
}
102
{ACAD_XDICTIONARY
360
2D7
102
}
330
2A
100
AcDbVisualStyle
  2
Conceptual
 70
     9
 71
     3
 72
     2
 73
     0
 90
        0
 40
0.6
 41
30.0
 62
     5
 63
     7
 74
     2
 91
        2
 64
     7
 65
   257
 75
     1
175
     1
 42
179.0
 92
        8
 66
     7
 43
1.0
 76
     1
 77
     6
 78
     2
 67
     7
 79
     3
170
     0
171
     0
290
     0
174
     0
 93
        1
 44
0.0
173
     0
291
     0
 45
0.0
1001
ACAD
1000
AcDbSavedByObjectVersion
1070
     0
  0
VISUALSTYLE
  5
35
102
{ACAD_REACTORS
330
2A
102
}
102
{ACAD_XDICTIONARY
360
2D9
102
}
330
2A
100
AcDbVisualStyle
  2
Dim
 70
    11
 71
     2
 72
     2
 73
     0
 90
        0
 40
0.6
 41
30.0
 62
     5
 63
     7
 74
     1
 91
        4
 64
     7
 65
   257
 75
     1
175
     1
 42
1.0
 92
        8
 66
     7
 43
1.0
 76
     1
 77
     6
 78
     2
 67
     7
 79
     5
170
     0
171
     0
290
     0
174
     0
 93
        1
 44
-50.0
173
     0
291
     1
 45
0.0
1001
ACAD
1000
AcDbSavedByObjectVersion
1070
     0
  0
VISUALSTYLE
  5
3D
102
{ACAD_REACTORS
330
2A
102
}
102
{ACAD_XDICTIONARY
360
2E9
102
}
330
2A
100
AcDbVisualStyle
  2
EdgeColorOff
 70
    22
 71
     2
 72
     2
 73
     0
 90
        0
 40
0.6
 41
30.0
 62
     5
 63
     7
 74
     1
 91
        4
 64
     7
 65
   257
 75
     1
175
     1
 42
1.0
 92
        8
 66
     7
 43
1.0
 76
     1
 77
     6
 78
     2
 67
     7
 79
     5
170
     0
171
     0
290
     0
174
     0
 93
        1
 44
0.0
173
     0
291
     1
 45
0.0
1001
ACAD
1000
AcDbSavedByObjectVersion
1070
     0
  0
VISUALSTYLE
  5
39
102
{ACAD_REACTORS
330
2A
102
}
102
{ACAD_XDICTIONARY
360
2E1
102
}
330
2A
100
AcDbVisualStyle
  2
Facepattern
 70
    15
 71
     2
 72
     2
 73
     0
 90
        0
 40
0.6
 41
30.0
 62
     5
 63
     7
 74
     1
 91
        4
 64
     7
 65
   257
 75
     1
175
     1
 42
1.0
 92
        8
 66
     7
 43
1.0
 76
     1
 77
     6
 78
     2
 67
     7
 79
     5
170
     0
171
     0
290
     0
174
     0
 93
        1
 44
0.0
173
     0
291
     1
 45
0.0
1001
ACAD
1000
AcDbSavedByObjectVersion
1070
     0
  0
VISUALSTYLE
  5
2B
102
{ACAD_REACTORS
330
2A
102
}
102
{ACAD_XDICTIONARY
360
2C5
102
}
330
2A
100
AcDbVisualStyle
  2
Flat
 70
     0
 71
     2
 72
     1
 73
     1
 90
        2
 40
0.6
 41
30.0
 62
     5
 63
     7
 74
     0
 91
        0
 64
     7
 65
   257
 75
     1
175
     1
 42
1.0
 92
        8
 66
     7
 43
1.0
 76
     1
 77
     6
 78
     2
 67
     7
 79
     5
170
     0
171
     0
290
     0
174
     0
 93
       13
 44
0.0
173
     0
291
     1
 45
0.0
1001
ACAD
1000
AcDbSavedByObjectVersion
1070
     0
  0
VISUALSTYLE
  5
2C
102
{ACAD_REACTORS
330
2A
102
}
102
{ACAD_XDICTIONARY
360
2C7
102
}
330
2A
100
AcDbVisualStyle
  2
FlatWithEdges
 70
     1
 71
     2
 72
     1
 73
     1
 90
        2
 40
0.6
 41
30.0
 62
     5
 63
     7
 74
     1
 91
        0
 64
     7
 65
   257
 75
     1
175
     1
 42
1.0
 92
        0
 66
   257
 43
1.0
 76
     1
 77
     6
 78
     2
 67
     7
 79
     5
170
     0
171
     0
290
     0
174
     0
 93
       13
 44
0.0
173
     0
291
     1
 45
0.0
1001
ACAD
1000
AcDbSavedByObjectVersion
1070
     0
  0
VISUALSTYLE
  5
2D
102
{ACAD_REACTORS
330
2A
102
}
102
{ACAD_XDICTIONARY
360
2C9
102
}
330
2A
100
AcDbVisualStyle
  2
Gouraud
 70
     2
 71
     2
 72
     2
 73
     1
 90
        2
 40
0.6
 41
30.0
 62
     5
 63
     7
 74
     0
 91
        0
 64
     7
 65
   257
 75
     1
175
     1
 42
1.0
 92
        0
 66
     7
 43
1.0
 76
     1
 77
     6
 78
     2
 67
     7
 79
     5
170
     0
171
     0
290
     0
174
     0
 93
       13
 44
0.0
173
     0
291
     1
 45
0.0
1001
ACAD
1000
AcDbSavedByObjectVersion
1070
     0
  0
VISUALSTYLE
  5
2E
102
{ACAD_REACTORS
330
2A
102
}
102
{ACAD_XDICTIONARY
360
2CB
102
}
330
2A
100
AcDbVisualStyle
  2
GouraudWithEdges
 70
     3
 71
     2
 72
     2
 73
     1
 90
        2
 40
0.6
 41
30.0
 62
     5
 63
     7
 74
     1
 91
        0
 64
     7
 65
   257
 75
     1
175
     1
 42
1.0
 92
        0
 66
   257
 43
1.0
 76
     1
 77
     6
 78
     2
 67
     7
 79
     5
170
     0
171
     0
290
     0
174
     0
 93
       13
 44
0.0
173
     0
291
     1
 45
0.0
1001
ACAD
1000
AcDbSavedByObjectVersion
1070
     0
  0
VISUALSTYLE
  5
31
102
{ACAD_REACTORS
330
2A
102
}
102
{ACAD_XDICTIONARY
360
2D1
102
}
330
2A
100
AcDbVisualStyle
  2
Hidden
 70
     6
 71
     1
 72
     2
 73
     2
 90
        0
 40
0.6
 41
30.0
 62
     5
 63
     7
 74
     2
 91
        2
 64
     7
 65
   257
 75
     2
175
     1
 42
40.0
 92
        0
 66
   257
 43
1.0
 76
     1
 77
     6
 78
     2
 67
     7
 79
     3
170
     0
171
     0
290
     0
174
     0
 93
        1
 44
0.0
173
     0
291
     0
 45
0.0
1001
ACAD
1000
AcDbSavedByObjectVersion
1070
     0
  0
VISUALSTYLE
  5
3B
102
{ACAD_REACTORS
330
2A
102
}
102
{ACAD_XDICTIONARY
360
2E5
102
}
330
2A
100
AcDbVisualStyle
  2
JitterOff
 70
    20
 71
     2
 72
     2
 73
     0
 90
        0
 40
0.6
 41
30.0
 62
     5
 63
     7
 74
     1
 91
        4
 64
     7
 65
   257
 75
     1
175
     1
 42
1.0
 92
       10
 66
     7
 43
1.0
 76
     1
 77
     6
 78
     2
 67
     7
 79
     5
170
     0
171
     0
290
     0
174
     0
 93
        1
 44
0.0
173
     0
291
     1
 45
0.0
1001
ACAD
1000
AcDbSavedByObjectVersion
1070
     0
  0
VISUALSTYLE
  5
38
102
{ACAD_REACTORS
330
2A
102
}
102
{ACAD_XDICTIONARY
360
2DF
102
}
330
2A
100
AcDbVisualStyle
  2
Linepattern
 70
    14
 71
     2
 72
     2
 73
     0
 90
        0
 40
0.6
 41
30.0
 62
     5
 63
     7
 74
     1
 91
        4
 64
     7
 65
   257
 75
     7
175
     7
 42
1.0
 92
        8
 66
     7
 43
1.0
 76
     1
 77
     6
 78
     2
 67
     7
 79
     5
170
     0
171
     0
290
     0
174
     0
 93
        1
 44
0.0
173
     0
291
     1
 45
0.0
1001
ACAD
1000
AcDbSavedByObjectVersion
1070
     0
  0
VISUALSTYLE
  5
3C
102
{ACAD_REACTORS
330
2A
102
}
102
{ACAD_XDICTIONARY
360
2E7
102
}
330
2A
100
AcDbVisualStyle
  2
OverhangOff
 70
    21
 71
     2
 72
     2
 73
     0
 90
        0
 40
0.6
 41
30.0
 62
     5
 63
     7
 74
     1
 91
        4
 64
     7
 65
   257
 75
     1
175
     1
 42
1.0
 92
        9
 66
     7
 43
1.0
 76
     1
 77
     6
 78
     2
 67
     7
 79
     5
170
     0
171
     0
290
     0
174
     0
 93
        1
 44
0.0
173
     0
291
     1
 45
0.0
1001
ACAD
1000
AcDbSavedByObjectVersion
1070
     0
  0
VISUALSTYLE
  5
33
102
{ACAD_REACTORS
330
2A
102
}
102
{ACAD_XDICTIONARY
360
2D5
102
}
330
2A
100
AcDbVisualStyle
  2
Realistic
 70
     8
 71
     2
 72
     3
 73
     0
 90
        2
 40
0.6
 41
30.0
 62
     5
 63
     7
 74
     0
 91
        0
 64
     7
 65
   257
 75
     1
175
     1
 42
1.0
 92
        8
 66
   257
 43
1.0
 76
     1
 77
     6
 78
     2
 67
     7
 79
     3
170
     0
171
     0
290
     0
174
     0
 93
       13
 44
0.0
173
     0
291
     0
 45
0.0
1001
ACAD
1000
AcDbSavedByObjectVersion
1070
     0
  0
VISUALSTYLE
  5
42
102
{ACAD_REACTORS
330
2A
102
}
102
{ACAD_XDICTIONARY
360
2F3
102
}
330
2A
100
AcDbVisualStyle
  2
Shaded
 70
    27
 71
     2
 72
     2
 73
     1
 90
        2
 40
0.6
 41
30.0
 62
     5
 63
     7
 74
     0
 91
        4
 64
     7
 65
   257
 75
     1
175
     1
 42
1.0
 92
        8
 66
   257
 43
1.0
 76
     1
 77
     6
 78
     2
 67
     8
 79
     3
170
     0
171
     0
290
     0
174
     0
 93
        5
 44
0.0
173
     0
291
     0
 45
0.0
1001
ACAD
1000
AcDbSavedByObjectVersion
1070
     0
  0
VISUALSTYLE
  5
41
102
{ACAD_REACTORS
330
2A
102
}
102
{ACAD_XDICTIONARY
360
2F1
102
}
330
2A
100
AcDbVisualStyle
  2
Shaded with edges
 70
    26
 71
     2
 72
     2
 73
     1
 90
        2
 40
0.6
 41
30.0
 62
     5
 63
     7
 74
     1
 91
       10
 64
     7
 65
   257
 75
     2
175
     1
 42
1.0
 92
        8
 66
   257
 43
1.0
 76
     1
 77
     6
 78
     2
 67
     7
 79
     3
170
     0
171
     0
290
     0
174
     0
 93
        5
 44
0.0
173
     0
291
     0
 45
0.0
1001
ACAD
1000
AcDbSavedByObjectVersion
1070
     0
  0
VISUALSTYLE
  5
3E
102
{ACAD_REACTORS
330
2A
102
}
102
{ACAD_XDICTIONARY
360
2EB
102
}
330
2A
100
AcDbVisualStyle
  2
Shades of Gray
 70
    23
 71
     2
 72
     2
 73
     3
 90
        0
 40
0.6
 41
30.0
 62
     5
 63
     7
 74
     2
 91
        2
 64
     7
 65
     7
 75
     1
175
     1
 42
40.0
 92
        8
 66
     7
 43
1.0
 76
     1
 77
     6
 78
     2
 67
     7
 79
     3
170
     0
171
     0
290
     0
174
     0
 93
        1
 44
0.0
173
     0
291
     0
 45
0.0
1001
ACAD
1000
AcDbSavedByObjectVersion
1070
     0
  0
VISUALSTYLE
  5
3F
102
{ACAD_REACTORS
330
2A
102
}
102
{ACAD_XDICTIONARY
360
2ED
102
}
330
2A
100
AcDbVisualStyle
  2
Sketchy
 70
    24
 71
     1
 72
     2
 73
     2
 90
        0
 40
0.6
 41
30.0
 62
     5
 63
     7
 74
     2
 91
        2
 64
     7
 65
     7
 75
     1
175
     1
 42
40.0
 92
       11
 66
     7
 43
1.0
 76
     1
 77
     6
 78
     2
 67
     7
 79
     6
170
     0
171
     0
290
     0
174
     0
 93
        1
 44
0.0
173
     0
291
     0
 45
0.0
1001
ACAD
1000
AcDbSavedByObjectVersion
1070
     0
  0
VISUALSTYLE
  5
37
102
{ACAD_REACTORS
330
2A
102
}
102
{ACAD_XDICTIONARY
360
2DD
102
}
330
2A
100
AcDbVisualStyle
  2
Thicken
 70
    13
 71
     2
 72
     2
 73
     0
 90
        0
 40
0.6
 41
30.0
 62
     5
 63
     7
 74
     1
 91
        4
 64
     7
 65
   257
 75
     1
175
     1
 42
1.0
 92
       12
 66
     7
 43
1.0
 76
     1
 77
     6
 78
     2
 67
     7
 79
     5
170
     0
171
     0
290
     0
174
     0
 93
        1
 44
0.0
173
     0
291
     1
 45
0.0
1001
ACAD
1000
AcDbSavedByObjectVersion
1070
     0
  0
VISUALSTYLE
  5
30
102
{ACAD_REACTORS
330
2A
102
}
102
{ACAD_XDICTIONARY
360
2CF
102
}
330
2A
100
AcDbVisualStyle
  2
Wireframe
 70
     5
 71
     0
 72
     2
 73
     0
 90
        0
 40
0.6
 41
30.0
 62
     5
 63
     7
 74
     1
 91
        4
 64
     7
 65
   257
 75
     1
175
     1
 42
1.0
 92
        0
 66
   257
 43
1.0
 76
     1
 77
     6
 78
     2
 67
     7
 79
     3
170
     0
171
     0
290
     0
174
     0
 93
        1
 44
0.0
173
     0
291
     0
 45
0.0
1001
ACAD
1000
AcDbSavedByObjectVersion
1070
     0
  0
VISUALSTYLE
  5
40
102
{ACAD_REACTORS
330
2A
102
}
102
{ACAD_XDICTIONARY
360
2EF
102
}
330
2A
100
AcDbVisualStyle
  2
X-Ray
 70
    25
 71
     2
 72
     2
 73
     1
 90
        1
 40
0.5
 41
30.0
 62
     5
 63
     7
 74
     1
 91
        0
 64
     7
 65
   257
 75
     1
175
     1
 42
1.0
 92
        8
 66
     7
 43
1.0
 76
     1
 77
     6
 78
     2
 67
     7
 79
     3
170
     0
171
     0
290
     0
174
     0
 93
       13
 44
0.0
173
     0
291
     0
 45
0.0
1001
ACAD
1000
AcDbSavedByObjectVersion
1070
     0
  0
DICTIONARYVAR
  5
2C3
102
{ACAD_REACTORS
330
2BA
102
}
330
2BA
100
DictionaryVariables
280
     0
  1
1:1
  0
DICTIONARYVAR
  5
2C1
102
{ACAD_REACTORS
330
2BA
102
}
330
2BA
100
DictionaryVariables
280
     0
  1
2
  0
DICTIONARYVAR
  5
2C2
102
{ACAD_REACTORS
330
2BA
102
}
330
2BA
100
DictionaryVariables
280
     0
  1
1
  0
DICTIONARYVAR
  5
2C4
102
{ACAD_REACTORS
330
2BA
102
}
330
2BA
100
DictionaryVariables
280
     0
  1
1
  0
DICTIONARYVAR
  5
2BE
102
{ACAD_REACTORS
330
2BA
102
}
330
2BA
100
DictionaryVariables
280
     0
  1
80.000000
  0
DICTIONARYVAR
  5
2BD
102
{ACAD_REACTORS
330
2BA
102
}
330
2BA
100
DictionaryVariables
280
     0
  1
5.000000
  0
DICTIONARY
  5
2F7
330
45
100
AcDbDictionary
280
     1
281
     1
  3
ACAD_XREC_ROUNDTRIP
360
2F8
  0
DICTIONARY
  5
2F5
330
44
100
AcDbDictionary
280
     1
281
     1
  3
ACAD_XREC_ROUNDTRIP
360
2F6
  0
DICTIONARY
  5
2F9
330
46
100
AcDbDictionary
280
     1
281
     1
  3
ACAD_XREC_ROUNDTRIP
360
2FA
  0
DICTIONARY
  5
2CD
330
2F
100
AcDbDictionary
280
     1
281
     1
  3
ACAD_XREC_ROUNDTRIP
360
2CE
  0
DICTIONARY
  5
2D3
330
32
100
AcDbDictionary
280
     1
281
     1
  3
ACAD_XREC_ROUNDTRIP
360
2D4
  0
DICTIONARY
  5
2DB
330
36
100
AcDbDictionary
280
     1
281
     1
  3
ACAD_XREC_ROUNDTRIP
360
2DC
  0
DICTIONARY
  5
2E3
330
3A
100
AcDbDictionary
280
     1
281
     1
  3
ACAD_XREC_ROUNDTRIP
360
2E4
  0
DICTIONARY
  5
2D7
330
34
100
AcDbDictionary
280
     1
281
     1
  3
ACAD_XREC_ROUNDTRIP
360
2D8
  0
DICTIONARY
  5
2D9
330
35
100
AcDbDictionary
280
     1
281
     1
  3
ACAD_XREC_ROUNDTRIP
360
2DA
  0
DICTIONARY
  5
2E9
330
3D
100
AcDbDictionary
280
     1
281
     1
  3
ACAD_XREC_ROUNDTRIP
360
2EA
  0
DICTIONARY
  5
2E1
330
39
100
AcDbDictionary
280
     1
281
     1
  3
ACAD_XREC_ROUNDTRIP
360
2E2
  0
DICTIONARY
  5
2C5
330
2B
100
AcDbDictionary
280
     1
281
     1
  3
ACAD_XREC_ROUNDTRIP
360
2C6
  0
DICTIONARY
  5
2C7
330
2C
100
AcDbDictionary
280
     1
281
     1
  3
ACAD_XREC_ROUNDTRIP
360
2C8
  0
DICTIONARY
  5
2C9
330
2D
100
AcDbDictionary
280
     1
281
     1
  3
ACAD_XREC_ROUNDTRIP
360
2CA
  0
DICTIONARY
  5
2CB
330
2E
100
AcDbDictionary
280
     1
281
     1
  3
ACAD_XREC_ROUNDTRIP
360
2CC
  0
DICTIONARY
  5
2D1
330
31
100
AcDbDictionary
280
     1
281
     1
  3
ACAD_XREC_ROUNDTRIP
360
2D2
  0
DICTIONARY
  5
2E5
330
3B
100
AcDbDictionary
280
     1
281
     1
  3
ACAD_XREC_ROUNDTRIP
360
2E6
  0
DICTIONARY
  5
2DF
330
38
100
AcDbDictionary
280
     1
281
     1
  3
ACAD_XREC_ROUNDTRIP
360
2E0
  0
DICTIONARY
  5
2E7
330
3C
100
AcDbDictionary
280
     1
281
     1
  3
ACAD_XREC_ROUNDTRIP
360
2E8
  0
DICTIONARY
  5
2D5
330
33
100
AcDbDictionary
280
     1
281
     1
  3
ACAD_XREC_ROUNDTRIP
360
2D6
  0
DICTIONARY
  5
2F3
330
42
100
AcDbDictionary
280
     1
281
     1
  3
ACAD_XREC_ROUNDTRIP
360
2F4
  0
DICTIONARY
  5
2F1
330
41
100
AcDbDictionary
280
     1
281
     1
  3
ACAD_XREC_ROUNDTRIP
360
2F2
  0
DICTIONARY
  5
2EB
330
3E
100
AcDbDictionary
280
     1
281
     1
  3
ACAD_XREC_ROUNDTRIP
360
2EC
  0
DICTIONARY
  5
2ED
330
3F
100
AcDbDictionary
280
     1
281
     1
  3
ACAD_XREC_ROUNDTRIP
360
2EE
  0
DICTIONARY
  5
2DD
330
37
100
AcDbDictionary
280
     1
281
     1
  3
ACAD_XREC_ROUNDTRIP
360
2DE
  0
DICTIONARY
  5
2CF
330
30
100
AcDbDictionary
280
     1
281
     1
  3
ACAD_XREC_ROUNDTRIP
360
2D0
  0
DICTIONARY
  5
2EF
330
40
100
AcDbDictionary
280
     1
281
     1
  3
ACAD_XREC_ROUNDTRIP
360
2F0
  0
XRECORD
  5
2F8
102
{ACAD_REACTORS
330
2F7
102
}
330
2F7
100
AcDbXrecord
280
     1
102
MATERIAL
148
0.0
149
0.0
149
0.0
 93
        0
 94
      127
282
     0
 72
     1
 77
     1
171
     1
175
     1
179
     1
273
     0
  0
XRECORD
  5
2F6
102
{ACAD_REACTORS
330
2F5
102
}
330
2F5
100
AcDbXrecord
280
     1
102
MATERIAL
148
0.0
149
0.0
149
0.0
 93
        0
 94
      127
282
     0
 72
     1
 77
     1
171
     1
175
     1
179
     1
273
     0
  0
XRECORD
  5
2FA
102
{ACAD_REACTORS
330
2F9
102
}
330
2F9
100
AcDbXrecord
280
     1
102
MATERIAL
148
0.0
149
0.0
149
0.0
 93
        0
 94
      127
282
     0
 72
     1
 77
     1
171
     1
175
     1
179
     1
273
     0
  0
XRECORD
  5
2CE
102
{ACAD_REACTORS
330
2CD
102
}
330
2CD
100
AcDbXrecord
280
     1
102
RTVSPropertyOp0
 70
     1
102
RTVSPropertyOp1
 70
     1
102
RTVSPropertyOp2
 70
     1
102
RTVSPropertyOp3
 70
     1
102
RTVSPropertyOp4
 70
     1
102
RTVSPropertyOp5
 70
     1
102
RTVSPropertyOp6
 70
     1
102
RTVSPropertyOp7
 70
     1
102
RTVSPropertyOp8
 70
     1
102
RTVSPropertyOp9
 70
     1
102
RTVSPropertyOp10
 70
     1
102
RTVSPropertyOp11
 70
     1
102
RTVSPropertyOp12
 70
     1
102
RTVSPropertyOp13
 70
     1
102
RTVSPropertyOp14
 70
     1
102
RTVSPropertyOp15
 70
     1
102
RTVSPropertyOp16
 70
     1
102
RTVSPropertyOp17
 70
     1
102
RTVSPropertyOp18
 70
     1
102
RTVSPropertyOp19
 70
     1
102
RTVSPropertyOp20
 70
     1
102
RTVSPropertyOp21
 70
     1
102
RTVSPropertyOp22
 70
     1
102
RTVSPropertyOp23
 70
     1
102
RTVSPropertyOp24
 70
     1
102
RTVSPropertyOp25
 70
     1
102
RTVSPropertyOp26
 70
     1
102
RTVSPropertyOp27
 70
     1
102
RTVSPropertyOp28
 70
     1
102
RTVSPropertyOp29
 70
     1
102
RTVSPropertyOp30
 70
     1
102
RTVSPropertyOp31
 70
     1
102
RTVSPropertyOp32
 70
     1
102
RTVSPropertyOp33
 70
     1
102
RTVSPropertyOp34
 70
     1
102
RTVSPropertyOp35
 70
     1
102
RTVSPropertyOp36
 70
     1
102
RTVSPropertyOp37
 70
     1
102
RTVSPropertyOp38
 70
     1
102
RTVSPropertyOp39
 70
     1
102
RTVSPropertyOp40
 70
     1
102
RTVSPropertyOp41
 70
     1
102
RTVSPropertyOp42
 70
     1
102
RTVSPropertyOp43
 70
     1
102
RTVSPropertyOp44
 70
     1
102
RTVSPropertyOp45
 70
     1
102
RTVSPropertyOp46
 70
     1
102
RTVSPropertyOp47
 70
     1
102
RTVSPropertyOp48
 70
     1
102
RTVSPropertyOp49
 70
     1
102
RTVSPropertyOp50
 70
     1
102
RTVSPropertyOp51
 70
     0
102
RTVSPropertyOp52
 70
     0
102
RTVSPropertyOp53
 70
     1
102
RTVSPropertyOp54
 70
     1
102
RTVSPropertyOp55
 70
     1
102
RTVSPropertyOp56
 70
     1
102
RTVSPropertyOp57
 70
     1
102
RTVSPost2010Prop28
280
     1
102
RTVSPost2010PropOp28
 70
     1
102
RTVSPost2010Prop29
280
     1
102
RTVSPost2010PropOp29
 70
     1
102
RTVSPost2010Prop30
280
     0
102
RTVSPost2010PropOp30
 70
     1
102
RTVSPost2010Prop31
280
     0
102
RTVSPost2010PropOp31
 70
     1
102
RTVSPost2010Prop32
280
     0
102
RTVSPost2010PropOp32
 70
     1
102
RTVSPost2010Prop33
280
     0
102
RTVSPost2010PropOp33
 70
     1
102
RTVSPost2010Prop34
280
     0
102
RTVSPost2010PropOp34
 70
     1
102
RTVSPost2010Prop35
280
     0
102
RTVSPost2010PropOp35
 70
     1
102
RTVSPost2010Prop36
280
     0
102
RTVSPost2010PropOp36
 70
     1
102
RTVSPost2010Prop37
 90
       50
102
RTVSPost2010PropOp37
 70
     1
102
RTVSPost2010Prop38
140
0.0
102
RTVSPost2010PropOp38
 70
     1
102
RTVSPost2010Prop39
140
1.0
102
RTVSPost2010PropOp39
 70
     1
102
RTVSPost2010Prop40
 90
        0
102
RTVSPost2010PropOp40
 70
     1
102
RTVSPost2010Prop41ColorIndex
 90
       18
102
RTVSPost2010Prop41ColorRGB
 90
        0
102
RTVSPost2010PropOp41
 70
     1
102
RTVSPost2010Prop42
 90
       50
102
RTVSPost2010PropOp42
 70
     1
102
RTVSPost2010Prop43
 90
        3
102
RTVSPost2010PropOp43
 70
     1
102
RTVSPost2010Prop44ColorIndex
 90
        5
102
RTVSPost2010Prop44ColorRGB
 90
      255
102
RTVSPost2010PropOp44
 70
     1
102
RTVSPost2010Prop45
280
     0
102
RTVSPost2010PropOp45
 70
     1
102
RTVSPost2010Prop46
 90
       50
102
RTVSPost2010PropOp46
 70
     1
102
RTVSPost2010Prop47
 90
       50
102
RTVSPost2010PropOp47
 70
     1
102
RTVSPost2010Prop48
 90
       50
102
RTVSPost2010PropOp48
 70
     1
102
RTVSPost2010Prop49
280
     0
102
RTVSPost2010PropOp49
 70
     1
102
RTVSPost2010Prop50
 90
       50
102
RTVSPost2010PropOp50
 70
     1
102
RTVSPost2010Prop51ColorIndex
 90
      256
102
RTVSPost2010Prop51ColorRGB
 90
-16777216
102
RTVSPost2010PropOp51
 70
     0
102
RTVSPost2010Prop52
140
1.0
102
RTVSPost2010PropOp52
 70
     0
102
RTVSPost2010Prop53
 90
        2
102
RTVSPost2010PropOp53
 70
     1
102
RTVSPost2010Prop54
  1
strokes_ogs.tif
102
RTVSPost2010PropOp54
 70
     1
102
RTVSPost2010Prop55
280
     0
102
RTVSPost2010PropOp55
 70
     1
102
RTVSPost2010Prop56
140
1.0
102
RTVSPost2010PropOp56
 70
     1
102
RTVSPost2010Prop57
140
1.0
102
RTVSPost2010PropOp57
 70
     1
  0
XRECORD
  5
2D4
102
{ACAD_REACTORS
330
2D3
102
}
330
2D3
100
AcDbXrecord
280
     1
102
RTVSPropertyOp0
 70
     1
102
RTVSPropertyOp1
 70
     1
102
RTVSPropertyOp2
 70
     1
102
RTVSPropertyOp3
 70
     1
102
RTVSPropertyOp4
 70
     1
102
RTVSPropertyOp5
 70
     1
102
RTVSPropertyOp6
 70
     1
102
RTVSPropertyOp7
 70
     1
102
RTVSPropertyOp8
 70
     1
102
RTVSPropertyOp9
 70
     1
102
RTVSPropertyOp10
 70
     1
102
RTVSPropertyOp11
 70
     1
102
RTVSPropertyOp12
 70
     1
102
RTVSPropertyOp13
 70
     1
102
RTVSPropertyOp14
 70
     1
102
RTVSPropertyOp15
 70
     1
102
RTVSPropertyOp16
 70
     1
102
RTVSPropertyOp17
 70
     1
102
RTVSPropertyOp18
 70
     1
102
RTVSPropertyOp19
 70
     1
102
RTVSPropertyOp20
 70
     1
102
RTVSPropertyOp21
 70
     1
102
RTVSPropertyOp22
 70
     1
102
RTVSPropertyOp23
 70
     1
102
RTVSPropertyOp24
 70
     1
102
RTVSPropertyOp25
 70
     1
102
RTVSPropertyOp26
 70
     1
102
RTVSPropertyOp27
 70
     1
102
RTVSPropertyOp28
 70
     1
102
RTVSPropertyOp29
 70
     1
102
RTVSPropertyOp30
 70
     1
102
RTVSPropertyOp31
 70
     1
102
RTVSPropertyOp32
 70
     1
102
RTVSPropertyOp33
 70
     1
102
RTVSPropertyOp34
 70
     1
102
RTVSPropertyOp35
 70
     1
102
RTVSPropertyOp36
 70
     1
102
RTVSPropertyOp37
 70
     1
102
RTVSPropertyOp38
 70
     1
102
RTVSPropertyOp39
 70
     1
102
RTVSPropertyOp40
 70
     1
102
RTVSPropertyOp41
 70
     1
102
RTVSPropertyOp42
 70
     1
102
RTVSPropertyOp43
 70
     1
102
RTVSPropertyOp44
 70
     1
102
RTVSPropertyOp45
 70
     1
102
RTVSPropertyOp46
 70
     1
102
RTVSPropertyOp47
 70
     1
102
RTVSPropertyOp48
 70
     1
102
RTVSPropertyOp49
 70
     1
102
RTVSPropertyOp50
 70
     1
102
RTVSPropertyOp51
 70
     0
102
RTVSPropertyOp52
 70
     0
102
RTVSPropertyOp53
 70
     1
102
RTVSPropertyOp54
 70
     1
102
RTVSPropertyOp55
 70
     1
102
RTVSPropertyOp56
 70
     1
102
RTVSPropertyOp57
 70
     1
102
RTVSPost2010Prop28
280
     0
102
RTVSPost2010PropOp28
 70
     1
102
RTVSPost2010Prop29
280
     1
102
RTVSPost2010PropOp29
 70
     1
102
RTVSPost2010Prop30
280
     1
102
RTVSPost2010PropOp30
 70
     1
102
RTVSPost2010Prop31
280
     0
102
RTVSPost2010PropOp31
 70
     1
102
RTVSPost2010Prop32
280
     0
102
RTVSPost2010PropOp32
 70
     1
102
RTVSPost2010Prop33
280
     0
102
RTVSPost2010PropOp33
 70
     1
102
RTVSPost2010Prop34
280
     0
102
RTVSPost2010PropOp34
 70
     1
102
RTVSPost2010Prop35
280
     0
102
RTVSPost2010PropOp35
 70
     1
102
RTVSPost2010Prop36
280
     0
102
RTVSPost2010PropOp36
 70
     1
102
RTVSPost2010Prop37
 90
       50
102
RTVSPost2010PropOp37
 70
     1
102
RTVSPost2010Prop38
140
0.0
102
RTVSPost2010PropOp38
 70
     1
102
RTVSPost2010Prop39
140
1.0
102
RTVSPost2010PropOp39
 70
     1
102
RTVSPost2010Prop40
 90
        0
102
RTVSPost2010PropOp40
 70
     1
102
RTVSPost2010Prop41ColorIndex
 90
       18
102
RTVSPost2010Prop41ColorRGB
 90
        0
102
RTVSPost2010PropOp41
 70
     1
102
RTVSPost2010Prop42
 90
       50
102
RTVSPost2010PropOp42
 70
     1
102
RTVSPost2010Prop43
 90
        3
102
RTVSPost2010PropOp43
 70
     1
102
RTVSPost2010Prop44ColorIndex
 90
        5
102
RTVSPost2010Prop44ColorRGB
 90
      255
102
RTVSPost2010PropOp44
 70
     1
102
RTVSPost2010Prop45
280
     0
102
RTVSPost2010PropOp45
 70
     1
102
RTVSPost2010Prop46
 90
       50
102
RTVSPost2010PropOp46
 70
     1
102
RTVSPost2010Prop47
 90
       50
102
RTVSPost2010PropOp47
 70
     1
102
RTVSPost2010Prop48
 90
       50
102
RTVSPost2010PropOp48
 70
     1
102
RTVSPost2010Prop49
280
     0
102
RTVSPost2010PropOp49
 70
     1
102
RTVSPost2010Prop50
 90
       50
102
RTVSPost2010PropOp50
 70
     1
102
RTVSPost2010Prop51ColorIndex
 90
      256
102
RTVSPost2010Prop51ColorRGB
 90
-16777216
102
RTVSPost2010PropOp51
 70
     0
102
RTVSPost2010Prop52
140
1.0
102
RTVSPost2010PropOp52
 70
     0
102
RTVSPost2010Prop53
 90
        2
102
RTVSPost2010PropOp53
 70
     1
102
RTVSPost2010Prop54
  1
strokes_ogs.tif
102
RTVSPost2010PropOp54
 70
     1
102
RTVSPost2010Prop55
280
     0
102
RTVSPost2010PropOp55
 70
     1
102
RTVSPost2010Prop56
140
1.0
102
RTVSPost2010PropOp56
 70
     1
102
RTVSPost2010Prop57
140
1.0
102
RTVSPost2010PropOp57
 70
     1
  0
XRECORD
  5
2DC
102
{ACAD_REACTORS
330
2DB
102
}
330
2DB
100
AcDbXrecord
280
     1
102
RTVSPropertyOp0
 70
     1
102
RTVSPropertyOp1
 70
     1
102
RTVSPropertyOp2
 70
     1
102
RTVSPropertyOp3
 70
     1
102
RTVSPropertyOp4
 70
     1
102
RTVSPropertyOp5
 70
     1
102
RTVSPropertyOp6
 70
     1
102
RTVSPropertyOp7
 70
     1
102
RTVSPropertyOp8
 70
     1
102
RTVSPropertyOp9
 70
     1
102
RTVSPropertyOp10
 70
     1
102
RTVSPropertyOp11
 70
     1
102
RTVSPropertyOp12
 70
     1
102
RTVSPropertyOp13
 70
     1
102
RTVSPropertyOp14
 70
     1
102
RTVSPropertyOp15
 70
     1
102
RTVSPropertyOp16
 70
     1
102
RTVSPropertyOp17
 70
     1
102
RTVSPropertyOp18
 70
     1
102
RTVSPropertyOp19
 70
     1
102
RTVSPropertyOp20
 70
     1
102
RTVSPropertyOp21
 70
     1
102
RTVSPropertyOp22
 70
     1
102
RTVSPropertyOp23
 70
     1
102
RTVSPropertyOp24
 70
     1
102
RTVSPropertyOp25
 70
     1
102
RTVSPropertyOp26
 70
     1
102
RTVSPropertyOp27
 70
     1
102
RTVSPropertyOp28
 70
     1
102
RTVSPropertyOp29
 70
     1
102
RTVSPropertyOp30
 70
     1
102
RTVSPropertyOp31
 70
     1
102
RTVSPropertyOp32
 70
     1
102
RTVSPropertyOp33
 70
     1
102
RTVSPropertyOp34
 70
     1
102
RTVSPropertyOp35
 70
     1
102
RTVSPropertyOp36
 70
     1
102
RTVSPropertyOp37
 70
     1
102
RTVSPropertyOp38
 70
     1
102
RTVSPropertyOp39
 70
     1
102
RTVSPropertyOp40
 70
     1
102
RTVSPropertyOp41
 70
     1
102
RTVSPropertyOp42
 70
     1
102
RTVSPropertyOp43
 70
     1
102
RTVSPropertyOp44
 70
     1
102
RTVSPropertyOp45
 70
     1
102
RTVSPropertyOp46
 70
     1
102
RTVSPropertyOp47
 70
     1
102
RTVSPropertyOp48
 70
     1
102
RTVSPropertyOp49
 70
     1
102
RTVSPropertyOp50
 70
     1
102
RTVSPropertyOp51
 70
     0
102
RTVSPropertyOp52
 70
     0
102
RTVSPropertyOp53
 70
     1
102
RTVSPropertyOp54
 70
     1
102
RTVSPropertyOp55
 70
     1
102
RTVSPropertyOp56
 70
     1
102
RTVSPropertyOp57
 70
     1
102
RTVSPost2010Prop28
280
     0
102
RTVSPost2010PropOp28
 70
     1
102
RTVSPost2010Prop29
280
     1
102
RTVSPost2010PropOp29
 70
     1
102
RTVSPost2010Prop30
280
     1
102
RTVSPost2010PropOp30
 70
     1
102
RTVSPost2010Prop31
280
     0
102
RTVSPost2010PropOp31
 70
     1
102
RTVSPost2010Prop32
280
     0
102
RTVSPost2010PropOp32
 70
     1
102
RTVSPost2010Prop33
280
     0
102
RTVSPost2010PropOp33
 70
     1
102
RTVSPost2010Prop34
280
     0
102
RTVSPost2010PropOp34
 70
     1
102
RTVSPost2010Prop35
280
     0
102
RTVSPost2010PropOp35
 70
     1
102
RTVSPost2010Prop36
280
     0
102
RTVSPost2010PropOp36
 70
     1
102
RTVSPost2010Prop37
 90
       50
102
RTVSPost2010PropOp37
 70
     1
102
RTVSPost2010Prop38
140
0.0
102
RTVSPost2010PropOp38
 70
     1
102
RTVSPost2010Prop39
140
1.0
102
RTVSPost2010PropOp39
 70
     1
102
RTVSPost2010Prop40
 90
        0
102
RTVSPost2010PropOp40
 70
     1
102
RTVSPost2010Prop41ColorIndex
 90
       18
102
RTVSPost2010Prop41ColorRGB
 90
        0
102
RTVSPost2010PropOp41
 70
     1
102
RTVSPost2010Prop42
 90
       50
102
RTVSPost2010PropOp42
 70
     1
102
RTVSPost2010Prop43
 90
        3
102
RTVSPost2010PropOp43
 70
     1
102
RTVSPost2010Prop44ColorIndex
 90
        5
102
RTVSPost2010Prop44ColorRGB
 90
      255
102
RTVSPost2010PropOp44
 70
     1
102
RTVSPost2010Prop45
280
     0
102
RTVSPost2010PropOp45
 70
     1
102
RTVSPost2010Prop46
 90
       50
102
RTVSPost2010PropOp46
 70
     1
102
RTVSPost2010Prop47
 90
       50
102
RTVSPost2010PropOp47
 70
     1
102
RTVSPost2010Prop48
 90
       50
102
RTVSPost2010PropOp48
 70
     1
102
RTVSPost2010Prop49
280
     0
102
RTVSPost2010PropOp49
 70
     1
102
RTVSPost2010Prop50
 90
       50
102
RTVSPost2010PropOp50
 70
     1
102
RTVSPost2010Prop51ColorIndex
 90
      256
102
RTVSPost2010Prop51ColorRGB
 90
-16777216
102
RTVSPost2010PropOp51
 70
     0
102
RTVSPost2010Prop52
140
1.0
102
RTVSPost2010PropOp52
 70
     0
102
RTVSPost2010Prop53
 90
        2
102
RTVSPost2010PropOp53
 70
     1
102
RTVSPost2010Prop54
  1
strokes_ogs.tif
102
RTVSPost2010PropOp54
 70
     1
102
RTVSPost2010Prop55
280
     0
102
RTVSPost2010PropOp55
 70
     1
102
RTVSPost2010Prop56
140
1.0
102
RTVSPost2010PropOp56
 70
     1
102
RTVSPost2010Prop57
140
1.0
102
RTVSPost2010PropOp57
 70
     1
  0
XRECORD
  5
2E4
102
{ACAD_REACTORS
330
2E3
102
}
330
2E3
100
AcDbXrecord
280
     1
102
RTVSPropertyOp0
 70
     1
102
RTVSPropertyOp1
 70
     1
102
RTVSPropertyOp2
 70
     1
102
RTVSPropertyOp3
 70
     1
102
RTVSPropertyOp4
 70
     1
102
RTVSPropertyOp5
 70
     1
102
RTVSPropertyOp6
 70
     1
102
RTVSPropertyOp7
 70
     1
102
RTVSPropertyOp8
 70
     1
102
RTVSPropertyOp9
 70
     1
102
RTVSPropertyOp10
 70
     1
102
RTVSPropertyOp11
 70
     1
102
RTVSPropertyOp12
 70
     1
102
RTVSPropertyOp13
 70
     1
102
RTVSPropertyOp14
 70
     1
102
RTVSPropertyOp15
 70
     1
102
RTVSPropertyOp16
 70
     1
102
RTVSPropertyOp17
 70
     1
102
RTVSPropertyOp18
 70
     1
102
RTVSPropertyOp19
 70
     1
102
RTVSPropertyOp20
 70
     1
102
RTVSPropertyOp21
 70
     1
102
RTVSPropertyOp22
 70
     1
102
RTVSPropertyOp23
 70
     1
102
RTVSPropertyOp24
 70
     1
102
RTVSPropertyOp25
 70
     1
102
RTVSPropertyOp26
 70
     1
102
RTVSPropertyOp27
 70
     1
102
RTVSPropertyOp28
 70
     1
102
RTVSPropertyOp29
 70
     1
102
RTVSPropertyOp30
 70
     1
102
RTVSPropertyOp31
 70
     1
102
RTVSPropertyOp32
 70
     1
102
RTVSPropertyOp33
 70
     1
102
RTVSPropertyOp34
 70
     1
102
RTVSPropertyOp35
 70
     1
102
RTVSPropertyOp36
 70
     1
102
RTVSPropertyOp37
 70
     1
102
RTVSPropertyOp38
 70
     1
102
RTVSPropertyOp39
 70
     1
102
RTVSPropertyOp40
 70
     1
102
RTVSPropertyOp41
 70
     1
102
RTVSPropertyOp42
 70
     1
102
RTVSPropertyOp43
 70
     1
102
RTVSPropertyOp44
 70
     1
102
RTVSPropertyOp45
 70
     1
102
RTVSPropertyOp46
 70
     1
102
RTVSPropertyOp47
 70
     1
102
RTVSPropertyOp48
 70
     1
102
RTVSPropertyOp49
 70
     1
102
RTVSPropertyOp50
 70
     1
102
RTVSPropertyOp51
 70
     0
102
RTVSPropertyOp52
 70
     0
102
RTVSPropertyOp53
 70
     1
102
RTVSPropertyOp54
 70
     1
102
RTVSPropertyOp55
 70
     1
102
RTVSPropertyOp56
 70
     1
102
RTVSPropertyOp57
 70
     1
102
RTVSPost2010Prop28
280
     0
102
RTVSPost2010PropOp28
 70
     1
102
RTVSPost2010Prop29
280
     1
102
RTVSPost2010PropOp29
 70
     1
102
RTVSPost2010Prop30
280
     1
102
RTVSPost2010PropOp30
 70
     1
102
RTVSPost2010Prop31
280
     0
102
RTVSPost2010PropOp31
 70
     1
102
RTVSPost2010Prop32
280
     0
102
RTVSPost2010PropOp32
 70
     1
102
RTVSPost2010Prop33
280
     0
102
RTVSPost2010PropOp33
 70
     1
102
RTVSPost2010Prop34
280
     0
102
RTVSPost2010PropOp34
 70
     1
102
RTVSPost2010Prop35
280
     0
102
RTVSPost2010PropOp35
 70
     1
102
RTVSPost2010Prop36
280
     0
102
RTVSPost2010PropOp36
 70
     1
102
RTVSPost2010Prop37
 90
       50
102
RTVSPost2010PropOp37
 70
     1
102
RTVSPost2010Prop38
140
0.0
102
RTVSPost2010PropOp38
 70
     1
102
RTVSPost2010Prop39
140
1.0
102
RTVSPost2010PropOp39
 70
     1
102
RTVSPost2010Prop40
 90
        0
102
RTVSPost2010PropOp40
 70
     1
102
RTVSPost2010Prop41ColorIndex
 90
       18
102
RTVSPost2010Prop41ColorRGB
 90
        0
102
RTVSPost2010PropOp41
 70
     1
102
RTVSPost2010Prop42
 90
       50
102
RTVSPost2010PropOp42
 70
     1
102
RTVSPost2010Prop43
 90
        3
102
RTVSPost2010PropOp43
 70
     1
102
RTVSPost2010Prop44ColorIndex
 90
        5
102
RTVSPost2010Prop44ColorRGB
 90
      255
102
RTVSPost2010PropOp44
 70
     1
102
RTVSPost2010Prop45
280
     0
102
RTVSPost2010PropOp45
 70
     1
102
RTVSPost2010Prop46
 90
       50
102
RTVSPost2010PropOp46
 70
     1
102
RTVSPost2010Prop47
 90
       50
102
RTVSPost2010PropOp47
 70
     1
102
RTVSPost2010Prop48
 90
       50
102
RTVSPost2010PropOp48
 70
     1
102
RTVSPost2010Prop49
280
     0
102
RTVSPost2010PropOp49
 70
     1
102
RTVSPost2010Prop50
 90
       50
102
RTVSPost2010PropOp50
 70
     1
102
RTVSPost2010Prop51ColorIndex
 90
      256
102
RTVSPost2010Prop51ColorRGB
 90
-16777216
102
RTVSPost2010PropOp51
 70
     0
102
RTVSPost2010Prop52
140
1.0
102
RTVSPost2010PropOp52
 70
     0
102
RTVSPost2010Prop53
 90
        2
102
RTVSPost2010PropOp53
 70
     1
102
RTVSPost2010Prop54
  1
strokes_ogs.tif
102
RTVSPost2010PropOp54
 70
     1
102
RTVSPost2010Prop55
280
     0
102
RTVSPost2010PropOp55
 70
     1
102
RTVSPost2010Prop56
140
1.0
102
RTVSPost2010PropOp56
 70
     1
102
RTVSPost2010Prop57
140
1.0
102
RTVSPost2010PropOp57
 70
     1
  0
XRECORD
  5
2D8
102
{ACAD_REACTORS
330
2D7
102
}
330
2D7
100
AcDbXrecord
280
     1
102
RTVSPropertyOp0
 70
     1
102
RTVSPropertyOp1
 70
     1
102
RTVSPropertyOp2
 70
     1
102
RTVSPropertyOp3
 70
     1
102
RTVSPropertyOp4
 70
     1
102
RTVSPropertyOp5
 70
     1
102
RTVSPropertyOp6
 70
     1
102
RTVSPropertyOp7
 70
     1
102
RTVSPropertyOp8
 70
     1
102
RTVSPropertyOp9
 70
     1
102
RTVSPropertyOp10
 70
     1
102
RTVSPropertyOp11
 70
     1
102
RTVSPropertyOp12
 70
     1
102
RTVSPropertyOp13
 70
     1
102
RTVSPropertyOp14
 70
     1
102
RTVSPropertyOp15
 70
     1
102
RTVSPropertyOp16
 70
     1
102
RTVSPropertyOp17
 70
     1
102
RTVSPropertyOp18
 70
     1
102
RTVSPropertyOp19
 70
     1
102
RTVSPropertyOp20
 70
     1
102
RTVSPropertyOp21
 70
     1
102
RTVSPropertyOp22
 70
     1
102
RTVSPropertyOp23
 70
     1
102
RTVSPropertyOp24
 70
     1
102
RTVSPropertyOp25
 70
     1
102
RTVSPropertyOp26
 70
     1
102
RTVSPropertyOp27
 70
     1
102
RTVSPropertyOp28
 70
     1
102
RTVSPropertyOp29
 70
     1
102
RTVSPropertyOp30
 70
     1
102
RTVSPropertyOp31
 70
     1
102
RTVSPropertyOp32
 70
     1
102
RTVSPropertyOp33
 70
     1
102
RTVSPropertyOp34
 70
     1
102
RTVSPropertyOp35
 70
     1
102
RTVSPropertyOp36
 70
     1
102
RTVSPropertyOp37
 70
     1
102
RTVSPropertyOp38
 70
     1
102
RTVSPropertyOp39
 70
     1
102
RTVSPropertyOp40
 70
     1
102
RTVSPropertyOp41
 70
     1
102
RTVSPropertyOp42
 70
     1
102
RTVSPropertyOp43
 70
     1
102
RTVSPropertyOp44
 70
     1
102
RTVSPropertyOp45
 70
     1
102
RTVSPropertyOp46
 70
     1
102
RTVSPropertyOp47
 70
     1
102
RTVSPropertyOp48
 70
     1
102
RTVSPropertyOp49
 70
     1
102
RTVSPropertyOp50
 70
     1
102
RTVSPropertyOp51
 70
     0
102
RTVSPropertyOp52
 70
     0
102
RTVSPropertyOp53
 70
     1
102
RTVSPropertyOp54
 70
     1
102
RTVSPropertyOp55
 70
     1
102
RTVSPropertyOp56
 70
     1
102
RTVSPropertyOp57
 70
     1
102
RTVSPost2010Prop28
280
     0
102
RTVSPost2010PropOp28
 70
     1
102
RTVSPost2010Prop29
280
     1
102
RTVSPost2010PropOp29
 70
     1
102
RTVSPost2010Prop30
280
     1
102
RTVSPost2010PropOp30
 70
     1
102
RTVSPost2010Prop31
280
     0
102
RTVSPost2010PropOp31
 70
     1
102
RTVSPost2010Prop32
280
     0
102
RTVSPost2010PropOp32
 70
     1
102
RTVSPost2010Prop33
280
     0
102
RTVSPost2010PropOp33
 70
     1
102
RTVSPost2010Prop34
280
     0
102
RTVSPost2010PropOp34
 70
     1
102
RTVSPost2010Prop35
280
     0
102
RTVSPost2010PropOp35
 70
     1
102
RTVSPost2010Prop36
280
     0
102
RTVSPost2010PropOp36
 70
     1
102
RTVSPost2010Prop37
 90
       50
102
RTVSPost2010PropOp37
 70
     1
102
RTVSPost2010Prop38
140
0.0
102
RTVSPost2010PropOp38
 70
     1
102
RTVSPost2010Prop39
140
1.0
102
RTVSPost2010PropOp39
 70
     1
102
RTVSPost2010Prop40
 90
        0
102
RTVSPost2010PropOp40
 70
     1
102
RTVSPost2010Prop41ColorIndex
 90
       18
102
RTVSPost2010Prop41ColorRGB
 90
        0
102
RTVSPost2010PropOp41
 70
     1
102
RTVSPost2010Prop42
 90
       50
102
RTVSPost2010PropOp42
 70
     1
102
RTVSPost2010Prop43
 90
        3
102
RTVSPost2010PropOp43
 70
     1
102
RTVSPost2010Prop44ColorIndex
 90
        5
102
RTVSPost2010Prop44ColorRGB
 90
      255
102
RTVSPost2010PropOp44
 70
     1
102
RTVSPost2010Prop45
280
     0
102
RTVSPost2010PropOp45
 70
     1
102
RTVSPost2010Prop46
 90
       50
102
RTVSPost2010PropOp46
 70
     1
102
RTVSPost2010Prop47
 90
       50
102
RTVSPost2010PropOp47
 70
     1
102
RTVSPost2010Prop48
 90
       50
102
RTVSPost2010PropOp48
 70
     1
102
RTVSPost2010Prop49
280
     0
102
RTVSPost2010PropOp49
 70
     1
102
RTVSPost2010Prop50
 90
       50
102
RTVSPost2010PropOp50
 70
     1
102
RTVSPost2010Prop51ColorIndex
 90
      256
102
RTVSPost2010Prop51ColorRGB
 90
-16777216
102
RTVSPost2010PropOp51
 70
     0
102
RTVSPost2010Prop52
140
1.0
102
RTVSPost2010PropOp52
 70
     0
102
RTVSPost2010Prop53
 90
        2
102
RTVSPost2010PropOp53
 70
     1
102
RTVSPost2010Prop54
  1
strokes_ogs.tif
102
RTVSPost2010PropOp54
 70
     1
102
RTVSPost2010Prop55
280
     0
102
RTVSPost2010PropOp55
 70
     1
102
RTVSPost2010Prop56
140
1.0
102
RTVSPost2010PropOp56
 70
     1
102
RTVSPost2010Prop57
140
1.0
102
RTVSPost2010PropOp57
 70
     1
  0
XRECORD
  5
2DA
102
{ACAD_REACTORS
330
2D9
102
}
330
2D9
100
AcDbXrecord
280
     1
102
RTVSPropertyOp0
 70
     1
102
RTVSPropertyOp1
 70
     1
102
RTVSPropertyOp2
 70
     1
102
RTVSPropertyOp3
 70
     1
102
RTVSPropertyOp4
 70
     1
102
RTVSPropertyOp5
 70
     1
102
RTVSPropertyOp6
 70
     1
102
RTVSPropertyOp7
 70
     1
102
RTVSPropertyOp8
 70
     1
102
RTVSPropertyOp9
 70
     1
102
RTVSPropertyOp10
 70
     1
102
RTVSPropertyOp11
 70
     1
102
RTVSPropertyOp12
 70
     1
102
RTVSPropertyOp13
 70
     1
102
RTVSPropertyOp14
 70
     1
102
RTVSPropertyOp15
 70
     1
102
RTVSPropertyOp16
 70
     1
102
RTVSPropertyOp17
 70
     1
102
RTVSPropertyOp18
 70
     1
102
RTVSPropertyOp19
 70
     1
102
RTVSPropertyOp20
 70
     1
102
RTVSPropertyOp21
 70
     1
102
RTVSPropertyOp22
 70
     1
102
RTVSPropertyOp23
 70
     1
102
RTVSPropertyOp24
 70
     1
102
RTVSPropertyOp25
 70
     1
102
RTVSPropertyOp26
 70
     1
102
RTVSPropertyOp27
 70
     1
102
RTVSPropertyOp28
 70
     1
102
RTVSPropertyOp29
 70
     1
102
RTVSPropertyOp30
 70
     1
102
RTVSPropertyOp31
 70
     1
102
RTVSPropertyOp32
 70
     1
102
RTVSPropertyOp33
 70
     1
102
RTVSPropertyOp34
 70
     1
102
RTVSPropertyOp35
 70
     1
102
RTVSPropertyOp36
 70
     1
102
RTVSPropertyOp37
 70
     1
102
RTVSPropertyOp38
 70
     1
102
RTVSPropertyOp39
 70
     1
102
RTVSPropertyOp40
 70
     1
102
RTVSPropertyOp41
 70
     1
102
RTVSPropertyOp42
 70
     1
102
RTVSPropertyOp43
 70
     1
102
RTVSPropertyOp44
 70
     1
102
RTVSPropertyOp45
 70
     1
102
RTVSPropertyOp46
 70
     1
102
RTVSPropertyOp47
 70
     1
102
RTVSPropertyOp48
 70
     1
102
RTVSPropertyOp49
 70
     1
102
RTVSPropertyOp50
 70
     1
102
RTVSPropertyOp51
 70
     0
102
RTVSPropertyOp52
 70
     0
102
RTVSPropertyOp53
 70
     1
102
RTVSPropertyOp54
 70
     1
102
RTVSPropertyOp55
 70
     1
102
RTVSPropertyOp56
 70
     1
102
RTVSPropertyOp57
 70
     1
102
RTVSPost2010Prop28
280
     0
102
RTVSPost2010PropOp28
 70
     1
102
RTVSPost2010Prop29
280
     1
102
RTVSPost2010PropOp29
 70
     1
102
RTVSPost2010Prop30
280
     1
102
RTVSPost2010PropOp30
 70
     1
102
RTVSPost2010Prop31
280
     0
102
RTVSPost2010PropOp31
 70
     1
102
RTVSPost2010Prop32
280
     0
102
RTVSPost2010PropOp32
 70
     1
102
RTVSPost2010Prop33
280
     0
102
RTVSPost2010PropOp33
 70
     1
102
RTVSPost2010Prop34
280
     0
102
RTVSPost2010PropOp34
 70
     1
102
RTVSPost2010Prop35
280
     0
102
RTVSPost2010PropOp35
 70
     1
102
RTVSPost2010Prop36
280
     0
102
RTVSPost2010PropOp36
 70
     1
102
RTVSPost2010Prop37
 90
       50
102
RTVSPost2010PropOp37
 70
     1
102
RTVSPost2010Prop38
140
0.0
102
RTVSPost2010PropOp38
 70
     1
102
RTVSPost2010Prop39
140
1.0
102
RTVSPost2010PropOp39
 70
     1
102
RTVSPost2010Prop40
 90
        0
102
RTVSPost2010PropOp40
 70
     1
102
RTVSPost2010Prop41ColorIndex
 90
       18
102
RTVSPost2010Prop41ColorRGB
 90
        0
102
RTVSPost2010PropOp41
 70
     1
102
RTVSPost2010Prop42
 90
       50
102
RTVSPost2010PropOp42
 70
     1
102
RTVSPost2010Prop43
 90
        3
102
RTVSPost2010PropOp43
 70
     1
102
RTVSPost2010Prop44ColorIndex
 90
        5
102
RTVSPost2010Prop44ColorRGB
 90
      255
102
RTVSPost2010PropOp44
 70
     1
102
RTVSPost2010Prop45
280
     0
102
RTVSPost2010PropOp45
 70
     1
102
RTVSPost2010Prop46
 90
       50
102
RTVSPost2010PropOp46
 70
     1
102
RTVSPost2010Prop47
 90
       50
102
RTVSPost2010PropOp47
 70
     1
102
RTVSPost2010Prop48
 90
       50
102
RTVSPost2010PropOp48
 70
     1
102
RTVSPost2010Prop49
280
     0
102
RTVSPost2010PropOp49
 70
     1
102
RTVSPost2010Prop50
 90
       50
102
RTVSPost2010PropOp50
 70
     1
102
RTVSPost2010Prop51ColorIndex
 90
      256
102
RTVSPost2010Prop51ColorRGB
 90
-16777216
102
RTVSPost2010PropOp51
 70
     0
102
RTVSPost2010Prop52
140
1.0
102
RTVSPost2010PropOp52
 70
     0
102
RTVSPost2010Prop53
 90
        2
102
RTVSPost2010PropOp53
 70
     1
102
RTVSPost2010Prop54
  1
strokes_ogs.tif
102
RTVSPost2010PropOp54
 70
     1
102
RTVSPost2010Prop55
280
     0
102
RTVSPost2010PropOp55
 70
     1
102
RTVSPost2010Prop56
140
1.0
102
RTVSPost2010PropOp56
 70
     1
102
RTVSPost2010Prop57
140
1.0
102
RTVSPost2010PropOp57
 70
     1
  0
XRECORD
  5
2EA
102
{ACAD_REACTORS
330
2E9
102
}
330
2E9
100
AcDbXrecord
280
     1
102
RTVSPropertyOp0
 70
     0
102
RTVSPropertyOp1
 70
     0
102
RTVSPropertyOp2
 70
     0
102
RTVSPropertyOp3
 70
     0
102
RTVSPropertyOp4
 70
     0
102
RTVSPropertyOp5
 70
     0
102
RTVSPropertyOp6
 70
     0
102
RTVSPropertyOp7
 70
     0
102
RTVSPropertyOp8
 70
     0
102
RTVSPropertyOp9
 70
     0
102
RTVSPropertyOp10
 70
     0
102
RTVSPropertyOp11
 70
     0
102
RTVSPropertyOp12
 70
     0
102
RTVSPropertyOp13
 70
     0
102
RTVSPropertyOp14
 70
     2
102
RTVSPropertyOp15
 70
     0
102
RTVSPropertyOp16
 70
     0
102
RTVSPropertyOp17
 70
     0
102
RTVSPropertyOp18
 70
     0
102
RTVSPropertyOp19
 70
     0
102
RTVSPropertyOp20
 70
     0
102
RTVSPropertyOp21
 70
     0
102
RTVSPropertyOp22
 70
     0
102
RTVSPropertyOp23
 70
     0
102
RTVSPropertyOp24
 70
     0
102
RTVSPropertyOp25
 70
     0
102
RTVSPropertyOp26
 70
     0
102
RTVSPropertyOp27
 70
     0
102
RTVSPropertyOp28
 70
     0
102
RTVSPropertyOp29
 70
     0
102
RTVSPropertyOp30
 70
     0
102
RTVSPropertyOp31
 70
     0
102
RTVSPropertyOp32
 70
     0
102
RTVSPropertyOp33
 70
     0
102
RTVSPropertyOp34
 70
     0
102
RTVSPropertyOp35
 70
     0
102
RTVSPropertyOp36
 70
     0
102
RTVSPropertyOp37
 70
     0
102
RTVSPropertyOp38
 70
     0
102
RTVSPropertyOp39
 70
     0
102
RTVSPropertyOp40
 70
     0
102
RTVSPropertyOp41
 70
     0
102
RTVSPropertyOp42
 70
     0
102
RTVSPropertyOp43
 70
     0
102
RTVSPropertyOp44
 70
     0
102
RTVSPropertyOp45
 70
     0
102
RTVSPropertyOp46
 70
     0
102
RTVSPropertyOp47
 70
     0
102
RTVSPropertyOp48
 70
     0
102
RTVSPropertyOp49
 70
     0
102
RTVSPropertyOp50
 70
     0
102
RTVSPropertyOp51
 70
     0
102
RTVSPropertyOp52
 70
     0
102
RTVSPropertyOp53
 70
     0
102
RTVSPropertyOp54
 70
     0
102
RTVSPropertyOp55
 70
     0
102
RTVSPropertyOp56
 70
     0
102
RTVSPropertyOp57
 70
     0
102
RTVSPost2010Prop28
280
     0
102
RTVSPost2010PropOp28
 70
     0
102
RTVSPost2010Prop29
280
     1
102
RTVSPost2010PropOp29
 70
     0
102
RTVSPost2010Prop30
280
     1
102
RTVSPost2010PropOp30
 70
     0
102
RTVSPost2010Prop31
280
     0
102
RTVSPost2010PropOp31
 70
     0
102
RTVSPost2010Prop32
280
     0
102
RTVSPost2010PropOp32
 70
     0
102
RTVSPost2010Prop33
280
     0
102
RTVSPost2010PropOp33
 70
     0
102
RTVSPost2010Prop34
280
     0
102
RTVSPost2010PropOp34
 70
     0
102
RTVSPost2010Prop35
280
     0
102
RTVSPost2010PropOp35
 70
     0
102
RTVSPost2010Prop36
280
     0
102
RTVSPost2010PropOp36
 70
     0
102
RTVSPost2010Prop37
 90
       50
102
RTVSPost2010PropOp37
 70
     0
102
RTVSPost2010Prop38
140
0.0
102
RTVSPost2010PropOp38
 70
     0
102
RTVSPost2010Prop39
140
1.0
102
RTVSPost2010PropOp39
 70
     0
102
RTVSPost2010Prop40
 90
        0
102
RTVSPost2010PropOp40
 70
     0
102
RTVSPost2010Prop41ColorIndex
 90
       18
102
RTVSPost2010Prop41ColorRGB
 90
        0
102
RTVSPost2010PropOp41
 70
     0
102
RTVSPost2010Prop42
 90
       50
102
RTVSPost2010PropOp42
 70
     0
102
RTVSPost2010Prop43
 90
        3
102
RTVSPost2010PropOp43
 70
     0
102
RTVSPost2010Prop44ColorIndex
 90
        5
102
RTVSPost2010Prop44ColorRGB
 90
      255
102
RTVSPost2010PropOp44
 70
     0
102
RTVSPost2010Prop45
280
     0
102
RTVSPost2010PropOp45
 70
     0
102
RTVSPost2010Prop46
 90
       50
102
RTVSPost2010PropOp46
 70
     0
102
RTVSPost2010Prop47
 90
       50
102
RTVSPost2010PropOp47
 70
     0
102
RTVSPost2010Prop48
 90
       50
102
RTVSPost2010PropOp48
 70
     0
102
RTVSPost2010Prop49
280
     0
102
RTVSPost2010PropOp49
 70
     0
102
RTVSPost2010Prop50
 90
       50
102
RTVSPost2010PropOp50
 70
     0
102
RTVSPost2010Prop51ColorIndex
 90
      256
102
RTVSPost2010Prop51ColorRGB
 90
-16777216
102
RTVSPost2010PropOp51
 70
     0
102
RTVSPost2010Prop52
140
1.0
102
RTVSPost2010PropOp52
 70
     0
102
RTVSPost2010Prop53
 90
        2
102
RTVSPost2010PropOp53
 70
     0
102
RTVSPost2010Prop54
  1
strokes_ogs.tif
102
RTVSPost2010PropOp54
 70
     0
102
RTVSPost2010Prop55
280
     0
102
RTVSPost2010PropOp55
 70
     0
102
RTVSPost2010Prop56
140
1.0
102
RTVSPost2010PropOp56
 70
     0
102
RTVSPost2010Prop57
140
1.0
102
RTVSPost2010PropOp57
 70
     0
  0
XRECORD
  5
2E2
102
{ACAD_REACTORS
330
2E1
102
}
330
2E1
100
AcDbXrecord
280
     1
102
RTVSPropertyOp0
 70
     1
102
RTVSPropertyOp1
 70
     1
102
RTVSPropertyOp2
 70
     1
102
RTVSPropertyOp3
 70
     1
102
RTVSPropertyOp4
 70
     1
102
RTVSPropertyOp5
 70
     1
102
RTVSPropertyOp6
 70
     1
102
RTVSPropertyOp7
 70
     1
102
RTVSPropertyOp8
 70
     1
102
RTVSPropertyOp9
 70
     1
102
RTVSPropertyOp10
 70
     1
102
RTVSPropertyOp11
 70
     1
102
RTVSPropertyOp12
 70
     1
102
RTVSPropertyOp13
 70
     1
102
RTVSPropertyOp14
 70
     1
102
RTVSPropertyOp15
 70
     1
102
RTVSPropertyOp16
 70
     1
102
RTVSPropertyOp17
 70
     1
102
RTVSPropertyOp18
 70
     1
102
RTVSPropertyOp19
 70
     1
102
RTVSPropertyOp20
 70
     1
102
RTVSPropertyOp21
 70
     1
102
RTVSPropertyOp22
 70
     1
102
RTVSPropertyOp23
 70
     1
102
RTVSPropertyOp24
 70
     1
102
RTVSPropertyOp25
 70
     1
102
RTVSPropertyOp26
 70
     1
102
RTVSPropertyOp27
 70
     1
102
RTVSPropertyOp28
 70
     1
102
RTVSPropertyOp29
 70
     1
102
RTVSPropertyOp30
 70
     1
102
RTVSPropertyOp31
 70
     1
102
RTVSPropertyOp32
 70
     1
102
RTVSPropertyOp33
 70
     1
102
RTVSPropertyOp34
 70
     1
102
RTVSPropertyOp35
 70
     1
102
RTVSPropertyOp36
 70
     1
102
RTVSPropertyOp37
 70
     1
102
RTVSPropertyOp38
 70
     1
102
RTVSPropertyOp39
 70
     1
102
RTVSPropertyOp40
 70
     1
102
RTVSPropertyOp41
 70
     1
102
RTVSPropertyOp42
 70
     1
102
RTVSPropertyOp43
 70
     1
102
RTVSPropertyOp44
 70
     1
102
RTVSPropertyOp45
 70
     1
102
RTVSPropertyOp46
 70
     1
102
RTVSPropertyOp47
 70
     1
102
RTVSPropertyOp48
 70
     1
102
RTVSPropertyOp49
 70
     1
102
RTVSPropertyOp50
 70
     1
102
RTVSPropertyOp51
 70
     0
102
RTVSPropertyOp52
 70
     0
102
RTVSPropertyOp53
 70
     1
102
RTVSPropertyOp54
 70
     1
102
RTVSPropertyOp55
 70
     1
102
RTVSPropertyOp56
 70
     1
102
RTVSPropertyOp57
 70
     1
102
RTVSPost2010Prop28
280
     0
102
RTVSPost2010PropOp28
 70
     1
102
RTVSPost2010Prop29
280
     1
102
RTVSPost2010PropOp29
 70
     1
102
RTVSPost2010Prop30
280
     1
102
RTVSPost2010PropOp30
 70
     1
102
RTVSPost2010Prop31
280
     0
102
RTVSPost2010PropOp31
 70
     1
102
RTVSPost2010Prop32
280
     0
102
RTVSPost2010PropOp32
 70
     1
102
RTVSPost2010Prop33
280
     0
102
RTVSPost2010PropOp33
 70
     1
102
RTVSPost2010Prop34
280
     0
102
RTVSPost2010PropOp34
 70
     1
102
RTVSPost2010Prop35
280
     0
102
RTVSPost2010PropOp35
 70
     1
102
RTVSPost2010Prop36
280
     0
102
RTVSPost2010PropOp36
 70
     1
102
RTVSPost2010Prop37
 90
       50
102
RTVSPost2010PropOp37
 70
     1
102
RTVSPost2010Prop38
140
0.0
102
RTVSPost2010PropOp38
 70
     1
102
RTVSPost2010Prop39
140
1.0
102
RTVSPost2010PropOp39
 70
     1
102
RTVSPost2010Prop40
 90
        0
102
RTVSPost2010PropOp40
 70
     1
102
RTVSPost2010Prop41ColorIndex
 90
       18
102
RTVSPost2010Prop41ColorRGB
 90
        0
102
RTVSPost2010PropOp41
 70
     1
102
RTVSPost2010Prop42
 90
       50
102
RTVSPost2010PropOp42
 70
     1
102
RTVSPost2010Prop43
 90
        3
102
RTVSPost2010PropOp43
 70
     1
102
RTVSPost2010Prop44ColorIndex
 90
        5
102
RTVSPost2010Prop44ColorRGB
 90
      255
102
RTVSPost2010PropOp44
 70
     1
102
RTVSPost2010Prop45
280
     0
102
RTVSPost2010PropOp45
 70
     1
102
RTVSPost2010Prop46
 90
       50
102
RTVSPost2010PropOp46
 70
     1
102
RTVSPost2010Prop47
 90
       50
102
RTVSPost2010PropOp47
 70
     1
102
RTVSPost2010Prop48
 90
       50
102
RTVSPost2010PropOp48
 70
     1
102
RTVSPost2010Prop49
280
     0
102
RTVSPost2010PropOp49
 70
     1
102
RTVSPost2010Prop50
 90
       50
102
RTVSPost2010PropOp50
 70
     1
102
RTVSPost2010Prop51ColorIndex
 90
      256
102
RTVSPost2010Prop51ColorRGB
 90
-16777216
102
RTVSPost2010PropOp51
 70
     0
102
RTVSPost2010Prop52
140
1.0
102
RTVSPost2010PropOp52
 70
     0
102
RTVSPost2010Prop53
 90
        2
102
RTVSPost2010PropOp53
 70
     1
102
RTVSPost2010Prop54
  1
strokes_ogs.tif
102
RTVSPost2010PropOp54
 70
     1
102
RTVSPost2010Prop55
280
     0
102
RTVSPost2010PropOp55
 70
     1
102
RTVSPost2010Prop56
140
1.0
102
RTVSPost2010PropOp56
 70
     1
102
RTVSPost2010Prop57
140
1.0
102
RTVSPost2010PropOp57
 70
     1
  0
XRECORD
  5
2C6
102
{ACAD_REACTORS
330
2C5
102
}
330
2C5
100
AcDbXrecord
280
     1
102
RTVSPropertyOp0
 70
     1
102
RTVSPropertyOp1
 70
     1
102
RTVSPropertyOp2
 70
     1
102
RTVSPropertyOp3
 70
     1
102
RTVSPropertyOp4
 70
     1
102
RTVSPropertyOp5
 70
     1
102
RTVSPropertyOp6
 70
     1
102
RTVSPropertyOp7
 70
     1
102
RTVSPropertyOp8
 70
     1
102
RTVSPropertyOp9
 70
     1
102
RTVSPropertyOp10
 70
     1
102
RTVSPropertyOp11
 70
     1
102
RTVSPropertyOp12
 70
     1
102
RTVSPropertyOp13
 70
     1
102
RTVSPropertyOp14
 70
     1
102
RTVSPropertyOp15
 70
     1
102
RTVSPropertyOp16
 70
     1
102
RTVSPropertyOp17
 70
     1
102
RTVSPropertyOp18
 70
     1
102
RTVSPropertyOp19
 70
     1
102
RTVSPropertyOp20
 70
     1
102
RTVSPropertyOp21
 70
     1
102
RTVSPropertyOp22
 70
     1
102
RTVSPropertyOp23
 70
     1
102
RTVSPropertyOp24
 70
     1
102
RTVSPropertyOp25
 70
     1
102
RTVSPropertyOp26
 70
     1
102
RTVSPropertyOp27
 70
     1
102
RTVSPropertyOp28
 70
     1
102
RTVSPropertyOp29
 70
     1
102
RTVSPropertyOp30
 70
     1
102
RTVSPropertyOp31
 70
     1
102
RTVSPropertyOp32
 70
     1
102
RTVSPropertyOp33
 70
     1
102
RTVSPropertyOp34
 70
     1
102
RTVSPropertyOp35
 70
     1
102
RTVSPropertyOp36
 70
     1
102
RTVSPropertyOp37
 70
     1
102
RTVSPropertyOp38
 70
     1
102
RTVSPropertyOp39
 70
     1
102
RTVSPropertyOp40
 70
     1
102
RTVSPropertyOp41
 70
     1
102
RTVSPropertyOp42
 70
     1
102
RTVSPropertyOp43
 70
     1
102
RTVSPropertyOp44
 70
     1
102
RTVSPropertyOp45
 70
     1
102
RTVSPropertyOp46
 70
     1
102
RTVSPropertyOp47
 70
     1
102
RTVSPropertyOp48
 70
     1
102
RTVSPropertyOp49
 70
     1
102
RTVSPropertyOp50
 70
     1
102
RTVSPropertyOp51
 70
     0
102
RTVSPropertyOp52
 70
     0
102
RTVSPropertyOp53
 70
     1
102
RTVSPropertyOp54
 70
     1
102
RTVSPropertyOp55
 70
     1
102
RTVSPropertyOp56
 70
     1
102
RTVSPropertyOp57
 70
     1
102
RTVSPost2010Prop28
280
     0
102
RTVSPost2010PropOp28
 70
     1
102
RTVSPost2010Prop29
280
     1
102
RTVSPost2010PropOp29
 70
     1
102
RTVSPost2010Prop30
280
     1
102
RTVSPost2010PropOp30
 70
     1
102
RTVSPost2010Prop31
280
     0
102
RTVSPost2010PropOp31
 70
     1
102
RTVSPost2010Prop32
280
     0
102
RTVSPost2010PropOp32
 70
     1
102
RTVSPost2010Prop33
280
     0
102
RTVSPost2010PropOp33
 70
     1
102
RTVSPost2010Prop34
280
     0
102
RTVSPost2010PropOp34
 70
     1
102
RTVSPost2010Prop35
280
     0
102
RTVSPost2010PropOp35
 70
     1
102
RTVSPost2010Prop36
280
     0
102
RTVSPost2010PropOp36
 70
     1
102
RTVSPost2010Prop37
 90
       50
102
RTVSPost2010PropOp37
 70
     1
102
RTVSPost2010Prop38
140
0.0
102
RTVSPost2010PropOp38
 70
     1
102
RTVSPost2010Prop39
140
1.0
102
RTVSPost2010PropOp39
 70
     1
102
RTVSPost2010Prop40
 90
        0
102
RTVSPost2010PropOp40
 70
     1
102
RTVSPost2010Prop41ColorIndex
 90
       18
102
RTVSPost2010Prop41ColorRGB
 90
        0
102
RTVSPost2010PropOp41
 70
     1
102
RTVSPost2010Prop42
 90
       50
102
RTVSPost2010PropOp42
 70
     1
102
RTVSPost2010Prop43
 90
        3
102
RTVSPost2010PropOp43
 70
     1
102
RTVSPost2010Prop44ColorIndex
 90
        5
102
RTVSPost2010Prop44ColorRGB
 90
      255
102
RTVSPost2010PropOp44
 70
     1
102
RTVSPost2010Prop45
280
     0
102
RTVSPost2010PropOp45
 70
     1
102
RTVSPost2010Prop46
 90
       50
102
RTVSPost2010PropOp46
 70
     1
102
RTVSPost2010Prop47
 90
       50
102
RTVSPost2010PropOp47
 70
     1
102
RTVSPost2010Prop48
 90
       50
102
RTVSPost2010PropOp48
 70
     1
102
RTVSPost2010Prop49
280
     0
102
RTVSPost2010PropOp49
 70
     1
102
RTVSPost2010Prop50
 90
       50
102
RTVSPost2010PropOp50
 70
     1
102
RTVSPost2010Prop51ColorIndex
 90
      256
102
RTVSPost2010Prop51ColorRGB
 90
-16777216
102
RTVSPost2010PropOp51
 70
     0
102
RTVSPost2010Prop52
140
1.0
102
RTVSPost2010PropOp52
 70
     0
102
RTVSPost2010Prop53
 90
        2
102
RTVSPost2010PropOp53
 70
     1
102
RTVSPost2010Prop54
  1
strokes_ogs.tif
102
RTVSPost2010PropOp54
 70
     1
102
RTVSPost2010Prop55
280
     0
102
RTVSPost2010PropOp55
 70
     1
102
RTVSPost2010Prop56
140
1.0
102
RTVSPost2010PropOp56
 70
     1
102
RTVSPost2010Prop57
140
1.0
102
RTVSPost2010PropOp57
 70
     1
  0
XRECORD
  5
2C8
102
{ACAD_REACTORS
330
2C7
102
}
330
2C7
100
AcDbXrecord
280
     1
102
RTVSPropertyOp0
 70
     1
102
RTVSPropertyOp1
 70
     1
102
RTVSPropertyOp2
 70
     1
102
RTVSPropertyOp3
 70
     1
102
RTVSPropertyOp4
 70
     1
102
RTVSPropertyOp5
 70
     1
102
RTVSPropertyOp6
 70
     1
102
RTVSPropertyOp7
 70
     1
102
RTVSPropertyOp8
 70
     1
102
RTVSPropertyOp9
 70
     1
102
RTVSPropertyOp10
 70
     1
102
RTVSPropertyOp11
 70
     1
102
RTVSPropertyOp12
 70
     1
102
RTVSPropertyOp13
 70
     1
102
RTVSPropertyOp14
 70
     1
102
RTVSPropertyOp15
 70
     1
102
RTVSPropertyOp16
 70
     1
102
RTVSPropertyOp17
 70
     1
102
RTVSPropertyOp18
 70
     1
102
RTVSPropertyOp19
 70
     1
102
RTVSPropertyOp20
 70
     1
102
RTVSPropertyOp21
 70
     1
102
RTVSPropertyOp22
 70
     1
102
RTVSPropertyOp23
 70
     1
102
RTVSPropertyOp24
 70
     1
102
RTVSPropertyOp25
 70
     1
102
RTVSPropertyOp26
 70
     1
102
RTVSPropertyOp27
 70
     1
102
RTVSPropertyOp28
 70
     1
102
RTVSPropertyOp29
 70
     1
102
RTVSPropertyOp30
 70
     1
102
RTVSPropertyOp31
 70
     1
102
RTVSPropertyOp32
 70
     1
102
RTVSPropertyOp33
 70
     1
102
RTVSPropertyOp34
 70
     1
102
RTVSPropertyOp35
 70
     1
102
RTVSPropertyOp36
 70
     1
102
RTVSPropertyOp37
 70
     1
102
RTVSPropertyOp38
 70
     1
102
RTVSPropertyOp39
 70
     1
102
RTVSPropertyOp40
 70
     1
102
RTVSPropertyOp41
 70
     1
102
RTVSPropertyOp42
 70
     1
102
RTVSPropertyOp43
 70
     1
102
RTVSPropertyOp44
 70
     1
102
RTVSPropertyOp45
 70
     1
102
RTVSPropertyOp46
 70
     1
102
RTVSPropertyOp47
 70
     1
102
RTVSPropertyOp48
 70
     1
102
RTVSPropertyOp49
 70
     1
102
RTVSPropertyOp50
 70
     1
102
RTVSPropertyOp51
 70
     0
102
RTVSPropertyOp52
 70
     0
102
RTVSPropertyOp53
 70
     1
102
RTVSPropertyOp54
 70
     1
102
RTVSPropertyOp55
 70
     1
102
RTVSPropertyOp56
 70
     1
102
RTVSPropertyOp57
 70
     1
102
RTVSPost2010Prop28
280
     0
102
RTVSPost2010PropOp28
 70
     1
102
RTVSPost2010Prop29
280
     1
102
RTVSPost2010PropOp29
 70
     1
102
RTVSPost2010Prop30
280
     1
102
RTVSPost2010PropOp30
 70
     1
102
RTVSPost2010Prop31
280
     0
102
RTVSPost2010PropOp31
 70
     1
102
RTVSPost2010Prop32
280
     0
102
RTVSPost2010PropOp32
 70
     1
102
RTVSPost2010Prop33
280
     0
102
RTVSPost2010PropOp33
 70
     1
102
RTVSPost2010Prop34
280
     0
102
RTVSPost2010PropOp34
 70
     1
102
RTVSPost2010Prop35
280
     0
102
RTVSPost2010PropOp35
 70
     1
102
RTVSPost2010Prop36
280
     0
102
RTVSPost2010PropOp36
 70
     1
102
RTVSPost2010Prop37
 90
       50
102
RTVSPost2010PropOp37
 70
     1
102
RTVSPost2010Prop38
140
0.0
102
RTVSPost2010PropOp38
 70
     1
102
RTVSPost2010Prop39
140
1.0
102
RTVSPost2010PropOp39
 70
     1
102
RTVSPost2010Prop40
 90
        0
102
RTVSPost2010PropOp40
 70
     1
102
RTVSPost2010Prop41ColorIndex
 90
       18
102
RTVSPost2010Prop41ColorRGB
 90
        0
102
RTVSPost2010PropOp41
 70
     1
102
RTVSPost2010Prop42
 90
       50
102
RTVSPost2010PropOp42
 70
     1
102
RTVSPost2010Prop43
 90
        3
102
RTVSPost2010PropOp43
 70
     1
102
RTVSPost2010Prop44ColorIndex
 90
        5
102
RTVSPost2010Prop44ColorRGB
 90
      255
102
RTVSPost2010PropOp44
 70
     1
102
RTVSPost2010Prop45
280
     0
102
RTVSPost2010PropOp45
 70
     1
102
RTVSPost2010Prop46
 90
       50
102
RTVSPost2010PropOp46
 70
     1
102
RTVSPost2010Prop47
 90
       50
102
RTVSPost2010PropOp47
 70
     1
102
RTVSPost2010Prop48
 90
       50
102
RTVSPost2010PropOp48
 70
     1
102
RTVSPost2010Prop49
280
     0
102
RTVSPost2010PropOp49
 70
     1
102
RTVSPost2010Prop50
 90
       50
102
RTVSPost2010PropOp50
 70
     1
102
RTVSPost2010Prop51ColorIndex
 90
      256
102
RTVSPost2010Prop51ColorRGB
 90
-16777216
102
RTVSPost2010PropOp51
 70
     0
102
RTVSPost2010Prop52
140
1.0
102
RTVSPost2010PropOp52
 70
     0
102
RTVSPost2010Prop53
 90
        2
102
RTVSPost2010PropOp53
 70
     1
102
RTVSPost2010Prop54
  1
strokes_ogs.tif
102
RTVSPost2010PropOp54
 70
     1
102
RTVSPost2010Prop55
280
     0
102
RTVSPost2010PropOp55
 70
     1
102
RTVSPost2010Prop56
140
1.0
102
RTVSPost2010PropOp56
 70
     1
102
RTVSPost2010Prop57
140
1.0
102
RTVSPost2010PropOp57
 70
     1
  0
XRECORD
  5
2CA
102
{ACAD_REACTORS
330
2C9
102
}
330
2C9
100
AcDbXrecord
280
     1
102
RTVSPropertyOp0
 70
     1
102
RTVSPropertyOp1
 70
     1
102
RTVSPropertyOp2
 70
     1
102
RTVSPropertyOp3
 70
     1
102
RTVSPropertyOp4
 70
     1
102
RTVSPropertyOp5
 70
     1
102
RTVSPropertyOp6
 70
     1
102
RTVSPropertyOp7
 70
     1
102
RTVSPropertyOp8
 70
     1
102
RTVSPropertyOp9
 70
     1
102
RTVSPropertyOp10
 70
     1
102
RTVSPropertyOp11
 70
     1
102
RTVSPropertyOp12
 70
     1
102
RTVSPropertyOp13
 70
     1
102
RTVSPropertyOp14
 70
     1
102
RTVSPropertyOp15
 70
     1
102
RTVSPropertyOp16
 70
     1
102
RTVSPropertyOp17
 70
     1
102
RTVSPropertyOp18
 70
     1
102
RTVSPropertyOp19
 70
     1
102
RTVSPropertyOp20
 70
     1
102
RTVSPropertyOp21
 70
     1
102
RTVSPropertyOp22
 70
     1
102
RTVSPropertyOp23
 70
     1
102
RTVSPropertyOp24
 70
     1
102
RTVSPropertyOp25
 70
     1
102
RTVSPropertyOp26
 70
     1
102
RTVSPropertyOp27
 70
     1
102
RTVSPropertyOp28
 70
     1
102
RTVSPropertyOp29
 70
     1
102
RTVSPropertyOp30
 70
     1
102
RTVSPropertyOp31
 70
     1
102
RTVSPropertyOp32
 70
     1
102
RTVSPropertyOp33
 70
     1
102
RTVSPropertyOp34
 70
     1
102
RTVSPropertyOp35
 70
     1
102
RTVSPropertyOp36
 70
     1
102
RTVSPropertyOp37
 70
     1
102
RTVSPropertyOp38
 70
     1
102
RTVSPropertyOp39
 70
     1
102
RTVSPropertyOp40
 70
     1
102
RTVSPropertyOp41
 70
     1
102
RTVSPropertyOp42
 70
     1
102
RTVSPropertyOp43
 70
     1
102
RTVSPropertyOp44
 70
     1
102
RTVSPropertyOp45
 70
     1
102
RTVSPropertyOp46
 70
     1
102
RTVSPropertyOp47
 70
     1
102
RTVSPropertyOp48
 70
     1
102
RTVSPropertyOp49
 70
     1
102
RTVSPropertyOp50
 70
     1
102
RTVSPropertyOp51
 70
     0
102
RTVSPropertyOp52
 70
     0
102
RTVSPropertyOp53
 70
     1
102
RTVSPropertyOp54
 70
     1
102
RTVSPropertyOp55
 70
     1
102
RTVSPropertyOp56
 70
     1
102
RTVSPropertyOp57
 70
     1
102
RTVSPost2010Prop28
280
     0
102
RTVSPost2010PropOp28
 70
     1
102
RTVSPost2010Prop29
280
     1
102
RTVSPost2010PropOp29
 70
     1
102
RTVSPost2010Prop30
280
     1
102
RTVSPost2010PropOp30
 70
     1
102
RTVSPost2010Prop31
280
     0
102
RTVSPost2010PropOp31
 70
     1
102
RTVSPost2010Prop32
280
     0
102
RTVSPost2010PropOp32
 70
     1
102
RTVSPost2010Prop33
280
     0
102
RTVSPost2010PropOp33
 70
     1
102
RTVSPost2010Prop34
280
     0
102
RTVSPost2010PropOp34
 70
     1
102
RTVSPost2010Prop35
280
     0
102
RTVSPost2010PropOp35
 70
     1
102
RTVSPost2010Prop36
280
     0
102
RTVSPost2010PropOp36
 70
     1
102
RTVSPost2010Prop37
 90
       50
102
RTVSPost2010PropOp37
 70
     1
102
RTVSPost2010Prop38
140
0.0
102
RTVSPost2010PropOp38
 70
     1
102
RTVSPost2010Prop39
140
1.0
102
RTVSPost2010PropOp39
 70
     1
102
RTVSPost2010Prop40
 90
        0
102
RTVSPost2010PropOp40
 70
     1
102
RTVSPost2010Prop41ColorIndex
 90
       18
102
RTVSPost2010Prop41ColorRGB
 90
        0
102
RTVSPost2010PropOp41
 70
     1
102
RTVSPost2010Prop42
 90
       50
102
RTVSPost2010PropOp42
 70
     1
102
RTVSPost2010Prop43
 90
        3
102
RTVSPost2010PropOp43
 70
     1
102
RTVSPost2010Prop44ColorIndex
 90
        5
102
RTVSPost2010Prop44ColorRGB
 90
      255
102
RTVSPost2010PropOp44
 70
     1
102
RTVSPost2010Prop45
280
     0
102
RTVSPost2010PropOp45
 70
     1
102
RTVSPost2010Prop46
 90
       50
102
RTVSPost2010PropOp46
 70
     1
102
RTVSPost2010Prop47
 90
       50
102
RTVSPost2010PropOp47
 70
     1
102
RTVSPost2010Prop48
 90
       50
102
RTVSPost2010PropOp48
 70
     1
102
RTVSPost2010Prop49
280
     0
102
RTVSPost2010PropOp49
 70
     1
102
RTVSPost2010Prop50
 90
       50
102
RTVSPost2010PropOp50
 70
     1
102
RTVSPost2010Prop51ColorIndex
 90
      256
102
RTVSPost2010Prop51ColorRGB
 90
-16777216
102
RTVSPost2010PropOp51
 70
     0
102
RTVSPost2010Prop52
140
1.0
102
RTVSPost2010PropOp52
 70
     0
102
RTVSPost2010Prop53
 90
        2
102
RTVSPost2010PropOp53
 70
     1
102
RTVSPost2010Prop54
  1
strokes_ogs.tif
102
RTVSPost2010PropOp54
 70
     1
102
RTVSPost2010Prop55
280
     0
102
RTVSPost2010PropOp55
 70
     1
102
RTVSPost2010Prop56
140
1.0
102
RTVSPost2010PropOp56
 70
     1
102
RTVSPost2010Prop57
140
1.0
102
RTVSPost2010PropOp57
 70
     1
  0
XRECORD
  5
2CC
102
{ACAD_REACTORS
330
2CB
102
}
330
2CB
100
AcDbXrecord
280
     1
102
RTVSPropertyOp0
 70
     1
102
RTVSPropertyOp1
 70
     1
102
RTVSPropertyOp2
 70
     1
102
RTVSPropertyOp3
 70
     1
102
RTVSPropertyOp4
 70
     1
102
RTVSPropertyOp5
 70
     1
102
RTVSPropertyOp6
 70
     1
102
RTVSPropertyOp7
 70
     1
102
RTVSPropertyOp8
 70
     1
102
RTVSPropertyOp9
 70
     1
102
RTVSPropertyOp10
 70
     1
102
RTVSPropertyOp11
 70
     1
102
RTVSPropertyOp12
 70
     1
102
RTVSPropertyOp13
 70
     1
102
RTVSPropertyOp14
 70
     1
102
RTVSPropertyOp15
 70
     1
102
RTVSPropertyOp16
 70
     1
102
RTVSPropertyOp17
 70
     1
102
RTVSPropertyOp18
 70
     1
102
RTVSPropertyOp19
 70
     1
102
RTVSPropertyOp20
 70
     1
102
RTVSPropertyOp21
 70
     1
102
RTVSPropertyOp22
 70
     1
102
RTVSPropertyOp23
 70
     1
102
RTVSPropertyOp24
 70
     1
102
RTVSPropertyOp25
 70
     1
102
RTVSPropertyOp26
 70
     1
102
RTVSPropertyOp27
 70
     1
102
RTVSPropertyOp28
 70
     1
102
RTVSPropertyOp29
 70
     1
102
RTVSPropertyOp30
 70
     1
102
RTVSPropertyOp31
 70
     1
102
RTVSPropertyOp32
 70
     1
102
RTVSPropertyOp33
 70
     1
102
RTVSPropertyOp34
 70
     1
102
RTVSPropertyOp35
 70
     1
102
RTVSPropertyOp36
 70
     1
102
RTVSPropertyOp37
 70
     1
102
RTVSPropertyOp38
 70
     1
102
RTVSPropertyOp39
 70
     1
102
RTVSPropertyOp40
 70
     1
102
RTVSPropertyOp41
 70
     1
102
RTVSPropertyOp42
 70
     1
102
RTVSPropertyOp43
 70
     1
102
RTVSPropertyOp44
 70
     1
102
RTVSPropertyOp45
 70
     1
102
RTVSPropertyOp46
 70
     1
102
RTVSPropertyOp47
 70
     1
102
RTVSPropertyOp48
 70
     1
102
RTVSPropertyOp49
 70
     1
102
RTVSPropertyOp50
 70
     1
102
RTVSPropertyOp51
 70
     0
102
RTVSPropertyOp52
 70
     0
102
RTVSPropertyOp53
 70
     1
102
RTVSPropertyOp54
 70
     1
102
RTVSPropertyOp55
 70
     1
102
RTVSPropertyOp56
 70
     1
102
RTVSPropertyOp57
 70
     1
102
RTVSPost2010Prop28
280
     0
102
RTVSPost2010PropOp28
 70
     1
102
RTVSPost2010Prop29
280
     1
102
RTVSPost2010PropOp29
 70
     1
102
RTVSPost2010Prop30
280
     1
102
RTVSPost2010PropOp30
 70
     1
102
RTVSPost2010Prop31
280
     0
102
RTVSPost2010PropOp31
 70
     1
102
RTVSPost2010Prop32
280
     0
102
RTVSPost2010PropOp32
 70
     1
102
RTVSPost2010Prop33
280
     0
102
RTVSPost2010PropOp33
 70
     1
102
RTVSPost2010Prop34
280
     0
102
RTVSPost2010PropOp34
 70
     1
102
RTVSPost2010Prop35
280
     0
102
RTVSPost2010PropOp35
 70
     1
102
RTVSPost2010Prop36
280
     0
102
RTVSPost2010PropOp36
 70
     1
102
RTVSPost2010Prop37
 90
       50
102
RTVSPost2010PropOp37
 70
     1
102
RTVSPost2010Prop38
140
0.0
102
RTVSPost2010PropOp38
 70
     1
102
RTVSPost2010Prop39
140
1.0
102
RTVSPost2010PropOp39
 70
     1
102
RTVSPost2010Prop40
 90
        0
102
RTVSPost2010PropOp40
 70
     1
102
RTVSPost2010Prop41ColorIndex
 90
       18
102
RTVSPost2010Prop41ColorRGB
 90
        0
102
RTVSPost2010PropOp41
 70
     1
102
RTVSPost2010Prop42
 90
       50
102
RTVSPost2010PropOp42
 70
     1
102
RTVSPost2010Prop43
 90
        3
102
RTVSPost2010PropOp43
 70
     1
102
RTVSPost2010Prop44ColorIndex
 90
        5
102
RTVSPost2010Prop44ColorRGB
 90
      255
102
RTVSPost2010PropOp44
 70
     1
102
RTVSPost2010Prop45
280
     0
102
RTVSPost2010PropOp45
 70
     1
102
RTVSPost2010Prop46
 90
       50
102
RTVSPost2010PropOp46
 70
     1
102
RTVSPost2010Prop47
 90
       50
102
RTVSPost2010PropOp47
 70
     1
102
RTVSPost2010Prop48
 90
       50
102
RTVSPost2010PropOp48
 70
     1
102
RTVSPost2010Prop49
280
     0
102
RTVSPost2010PropOp49
 70
     1
102
RTVSPost2010Prop50
 90
       50
102
RTVSPost2010PropOp50
 70
     1
102
RTVSPost2010Prop51ColorIndex
 90
      256
102
RTVSPost2010Prop51ColorRGB
 90
-16777216
102
RTVSPost2010PropOp51
 70
     0
102
RTVSPost2010Prop52
140
1.0
102
RTVSPost2010PropOp52
 70
     0
102
RTVSPost2010Prop53
 90
        2
102
RTVSPost2010PropOp53
 70
     1
102
RTVSPost2010Prop54
  1
strokes_ogs.tif
102
RTVSPost2010PropOp54
 70
     1
102
RTVSPost2010Prop55
280
     0
102
RTVSPost2010PropOp55
 70
     1
102
RTVSPost2010Prop56
140
1.0
102
RTVSPost2010PropOp56
 70
     1
102
RTVSPost2010Prop57
140
1.0
102
RTVSPost2010PropOp57
 70
     1
  0
XRECORD
  5
2D2
102
{ACAD_REACTORS
330
2D1
102
}
330
2D1
100
AcDbXrecord
280
     1
102
RTVSPropertyOp0
 70
     1
102
RTVSPropertyOp1
 70
     1
102
RTVSPropertyOp2
 70
     1
102
RTVSPropertyOp3
 70
     1
102
RTVSPropertyOp4
 70
     1
102
RTVSPropertyOp5
 70
     1
102
RTVSPropertyOp6
 70
     1
102
RTVSPropertyOp7
 70
     1
102
RTVSPropertyOp8
 70
     1
102
RTVSPropertyOp9
 70
     1
102
RTVSPropertyOp10
 70
     1
102
RTVSPropertyOp11
 70
     1
102
RTVSPropertyOp12
 70
     1
102
RTVSPropertyOp13
 70
     1
102
RTVSPropertyOp14
 70
     1
102
RTVSPropertyOp15
 70
     1
102
RTVSPropertyOp16
 70
     1
102
RTVSPropertyOp17
 70
     1
102
RTVSPropertyOp18
 70
     1
102
RTVSPropertyOp19
 70
     1
102
RTVSPropertyOp20
 70
     1
102
RTVSPropertyOp21
 70
     1
102
RTVSPropertyOp22
 70
     1
102
RTVSPropertyOp23
 70
     1
102
RTVSPropertyOp24
 70
     1
102
RTVSPropertyOp25
 70
     1
102
RTVSPropertyOp26
 70
     1
102
RTVSPropertyOp27
 70
     1
102
RTVSPropertyOp28
 70
     1
102
RTVSPropertyOp29
 70
     1
102
RTVSPropertyOp30
 70
     1
102
RTVSPropertyOp31
 70
     1
102
RTVSPropertyOp32
 70
     1
102
RTVSPropertyOp33
 70
     1
102
RTVSPropertyOp34
 70
     1
102
RTVSPropertyOp35
 70
     1
102
RTVSPropertyOp36
 70
     1
102
RTVSPropertyOp37
 70
     1
102
RTVSPropertyOp38
 70
     1
102
RTVSPropertyOp39
 70
     1
102
RTVSPropertyOp40
 70
     1
102
RTVSPropertyOp41
 70
     1
102
RTVSPropertyOp42
 70
     1
102
RTVSPropertyOp43
 70
     1
102
RTVSPropertyOp44
 70
     1
102
RTVSPropertyOp45
 70
     1
102
RTVSPropertyOp46
 70
     1
102
RTVSPropertyOp47
 70
     1
102
RTVSPropertyOp48
 70
     1
102
RTVSPropertyOp49
 70
     1
102
RTVSPropertyOp50
 70
     1
102
RTVSPropertyOp51
 70
     0
102
RTVSPropertyOp52
 70
     0
102
RTVSPropertyOp53
 70
     1
102
RTVSPropertyOp54
 70
     1
102
RTVSPropertyOp55
 70
     1
102
RTVSPropertyOp56
 70
     1
102
RTVSPropertyOp57
 70
     1
102
RTVSPost2010Prop28
280
     0
102
RTVSPost2010PropOp28
 70
     1
102
RTVSPost2010Prop29
280
     1
102
RTVSPost2010PropOp29
 70
     1
102
RTVSPost2010Prop30
280
     1
102
RTVSPost2010PropOp30
 70
     1
102
RTVSPost2010Prop31
280
     0
102
RTVSPost2010PropOp31
 70
     1
102
RTVSPost2010Prop32
280
     0
102
RTVSPost2010PropOp32
 70
     1
102
RTVSPost2010Prop33
280
     0
102
RTVSPost2010PropOp33
 70
     1
102
RTVSPost2010Prop34
280
     0
102
RTVSPost2010PropOp34
 70
     1
102
RTVSPost2010Prop35
280
     0
102
RTVSPost2010PropOp35
 70
     1
102
RTVSPost2010Prop36
280
     0
102
RTVSPost2010PropOp36
 70
     1
102
RTVSPost2010Prop37
 90
       50
102
RTVSPost2010PropOp37
 70
     1
102
RTVSPost2010Prop38
140
0.0
102
RTVSPost2010PropOp38
 70
     1
102
RTVSPost2010Prop39
140
1.0
102
RTVSPost2010PropOp39
 70
     1
102
RTVSPost2010Prop40
 90
        0
102
RTVSPost2010PropOp40
 70
     1
102
RTVSPost2010Prop41ColorIndex
 90
       18
102
RTVSPost2010Prop41ColorRGB
 90
        0
102
RTVSPost2010PropOp41
 70
     1
102
RTVSPost2010Prop42
 90
       50
102
RTVSPost2010PropOp42
 70
     1
102
RTVSPost2010Prop43
 90
        3
102
RTVSPost2010PropOp43
 70
     1
102
RTVSPost2010Prop44ColorIndex
 90
        5
102
RTVSPost2010Prop44ColorRGB
 90
      255
102
RTVSPost2010PropOp44
 70
     1
102
RTVSPost2010Prop45
280
     0
102
RTVSPost2010PropOp45
 70
     1
102
RTVSPost2010Prop46
 90
       50
102
RTVSPost2010PropOp46
 70
     1
102
RTVSPost2010Prop47
 90
       50
102
RTVSPost2010PropOp47
 70
     1
102
RTVSPost2010Prop48
 90
       50
102
RTVSPost2010PropOp48
 70
     1
102
RTVSPost2010Prop49
280
     0
102
RTVSPost2010PropOp49
 70
     1
102
RTVSPost2010Prop50
 90
       50
102
RTVSPost2010PropOp50
 70
     1
102
RTVSPost2010Prop51ColorIndex
 90
      256
102
RTVSPost2010Prop51ColorRGB
 90
-16777216
102
RTVSPost2010PropOp51
 70
     0
102
RTVSPost2010Prop52
140
1.0
102
RTVSPost2010PropOp52
 70
     0
102
RTVSPost2010Prop53
 90
        2
102
RTVSPost2010PropOp53
 70
     1
102
RTVSPost2010Prop54
  1
strokes_ogs.tif
102
RTVSPost2010PropOp54
 70
     1
102
RTVSPost2010Prop55
280
     0
102
RTVSPost2010PropOp55
 70
     1
102
RTVSPost2010Prop56
140
1.0
102
RTVSPost2010PropOp56
 70
     1
102
RTVSPost2010Prop57
140
1.0
102
RTVSPost2010PropOp57
 70
     1
  0
XRECORD
  5
2E6
102
{ACAD_REACTORS
330
2E5
102
}
330
2E5
100
AcDbXrecord
280
     1
102
RTVSPropertyOp0
 70
     0
102
RTVSPropertyOp1
 70
     0
102
RTVSPropertyOp2
 70
     0
102
RTVSPropertyOp3
 70
     0
102
RTVSPropertyOp4
 70
     0
102
RTVSPropertyOp5
 70
     0
102
RTVSPropertyOp6
 70
     0
102
RTVSPropertyOp7
 70
     0
102
RTVSPropertyOp8
 70
     0
102
RTVSPropertyOp9
 70
     0
102
RTVSPropertyOp10
 70
     0
102
RTVSPropertyOp11
 70
     0
102
RTVSPropertyOp12
 70
     0
102
RTVSPropertyOp13
 70
     0
102
RTVSPropertyOp14
 70
     2
102
RTVSPropertyOp15
 70
     0
102
RTVSPropertyOp16
 70
     0
102
RTVSPropertyOp17
 70
     0
102
RTVSPropertyOp18
 70
     0
102
RTVSPropertyOp19
 70
     0
102
RTVSPropertyOp20
 70
     0
102
RTVSPropertyOp21
 70
     0
102
RTVSPropertyOp22
 70
     0
102
RTVSPropertyOp23
 70
     0
102
RTVSPropertyOp24
 70
     0
102
RTVSPropertyOp25
 70
     0
102
RTVSPropertyOp26
 70
     0
102
RTVSPropertyOp27
 70
     0
102
RTVSPropertyOp28
 70
     0
102
RTVSPropertyOp29
 70
     0
102
RTVSPropertyOp30
 70
     0
102
RTVSPropertyOp31
 70
     0
102
RTVSPropertyOp32
 70
     0
102
RTVSPropertyOp33
 70
     0
102
RTVSPropertyOp34
 70
     0
102
RTVSPropertyOp35
 70
     0
102
RTVSPropertyOp36
 70
     0
102
RTVSPropertyOp37
 70
     0
102
RTVSPropertyOp38
 70
     0
102
RTVSPropertyOp39
 70
     0
102
RTVSPropertyOp40
 70
     0
102
RTVSPropertyOp41
 70
     0
102
RTVSPropertyOp42
 70
     0
102
RTVSPropertyOp43
 70
     0
102
RTVSPropertyOp44
 70
     0
102
RTVSPropertyOp45
 70
     0
102
RTVSPropertyOp46
 70
     0
102
RTVSPropertyOp47
 70
     0
102
RTVSPropertyOp48
 70
     0
102
RTVSPropertyOp49
 70
     0
102
RTVSPropertyOp50
 70
     0
102
RTVSPropertyOp51
 70
     0
102
RTVSPropertyOp52
 70
     0
102
RTVSPropertyOp53
 70
     0
102
RTVSPropertyOp54
 70
     0
102
RTVSPropertyOp55
 70
     0
102
RTVSPropertyOp56
 70
     0
102
RTVSPropertyOp57
 70
     0
102
RTVSPost2010Prop28
280
     0
102
RTVSPost2010PropOp28
 70
     0
102
RTVSPost2010Prop29
280
     1
102
RTVSPost2010PropOp29
 70
     0
102
RTVSPost2010Prop30
280
     1
102
RTVSPost2010PropOp30
 70
     0
102
RTVSPost2010Prop31
280
     0
102
RTVSPost2010PropOp31
 70
     0
102
RTVSPost2010Prop32
280
     0
102
RTVSPost2010PropOp32
 70
     0
102
RTVSPost2010Prop33
280
     0
102
RTVSPost2010PropOp33
 70
     0
102
RTVSPost2010Prop34
280
     0
102
RTVSPost2010PropOp34
 70
     0
102
RTVSPost2010Prop35
280
     0
102
RTVSPost2010PropOp35
 70
     0
102
RTVSPost2010Prop36
280
     0
102
RTVSPost2010PropOp36
 70
     0
102
RTVSPost2010Prop37
 90
       50
102
RTVSPost2010PropOp37
 70
     0
102
RTVSPost2010Prop38
140
0.0
102
RTVSPost2010PropOp38
 70
     0
102
RTVSPost2010Prop39
140
1.0
102
RTVSPost2010PropOp39
 70
     0
102
RTVSPost2010Prop40
 90
        0
102
RTVSPost2010PropOp40
 70
     0
102
RTVSPost2010Prop41ColorIndex
 90
       18
102
RTVSPost2010Prop41ColorRGB
 90
        0
102
RTVSPost2010PropOp41
 70
     0
102
RTVSPost2010Prop42
 90
       50
102
RTVSPost2010PropOp42
 70
     0
102
RTVSPost2010Prop43
 90
        3
102
RTVSPost2010PropOp43
 70
     0
102
RTVSPost2010Prop44ColorIndex
 90
        5
102
RTVSPost2010Prop44ColorRGB
 90
      255
102
RTVSPost2010PropOp44
 70
     0
102
RTVSPost2010Prop45
280
     0
102
RTVSPost2010PropOp45
 70
     0
102
RTVSPost2010Prop46
 90
       50
102
RTVSPost2010PropOp46
 70
     0
102
RTVSPost2010Prop47
 90
       50
102
RTVSPost2010PropOp47
 70
     0
102
RTVSPost2010Prop48
 90
       50
102
RTVSPost2010PropOp48
 70
     0
102
RTVSPost2010Prop49
280
     0
102
RTVSPost2010PropOp49
 70
     0
102
RTVSPost2010Prop50
 90
       50
102
RTVSPost2010PropOp50
 70
     0
102
RTVSPost2010Prop51ColorIndex
 90
      256
102
RTVSPost2010Prop51ColorRGB
 90
-16777216
102
RTVSPost2010PropOp51
 70
     0
102
RTVSPost2010Prop52
140
1.0
102
RTVSPost2010PropOp52
 70
     0
102
RTVSPost2010Prop53
 90
        2
102
RTVSPost2010PropOp53
 70
     0
102
RTVSPost2010Prop54
  1
strokes_ogs.tif
102
RTVSPost2010PropOp54
 70
     0
102
RTVSPost2010Prop55
280
     0
102
RTVSPost2010PropOp55
 70
     0
102
RTVSPost2010Prop56
140
1.0
102
RTVSPost2010PropOp56
 70
     0
102
RTVSPost2010Prop57
140
1.0
102
RTVSPost2010PropOp57
 70
     0
  0
XRECORD
  5
2E0
102
{ACAD_REACTORS
330
2DF
102
}
330
2DF
100
AcDbXrecord
280
     1
102
RTVSPropertyOp0
 70
     1
102
RTVSPropertyOp1
 70
     1
102
RTVSPropertyOp2
 70
     1
102
RTVSPropertyOp3
 70
     1
102
RTVSPropertyOp4
 70
     1
102
RTVSPropertyOp5
 70
     1
102
RTVSPropertyOp6
 70
     1
102
RTVSPropertyOp7
 70
     1
102
RTVSPropertyOp8
 70
     1
102
RTVSPropertyOp9
 70
     1
102
RTVSPropertyOp10
 70
     1
102
RTVSPropertyOp11
 70
     1
102
RTVSPropertyOp12
 70
     1
102
RTVSPropertyOp13
 70
     1
102
RTVSPropertyOp14
 70
     1
102
RTVSPropertyOp15
 70
     1
102
RTVSPropertyOp16
 70
     1
102
RTVSPropertyOp17
 70
     1
102
RTVSPropertyOp18
 70
     1
102
RTVSPropertyOp19
 70
     1
102
RTVSPropertyOp20
 70
     1
102
RTVSPropertyOp21
 70
     1
102
RTVSPropertyOp22
 70
     1
102
RTVSPropertyOp23
 70
     1
102
RTVSPropertyOp24
 70
     1
102
RTVSPropertyOp25
 70
     1
102
RTVSPropertyOp26
 70
     1
102
RTVSPropertyOp27
 70
     1
102
RTVSPropertyOp28
 70
     1
102
RTVSPropertyOp29
 70
     1
102
RTVSPropertyOp30
 70
     1
102
RTVSPropertyOp31
 70
     1
102
RTVSPropertyOp32
 70
     1
102
RTVSPropertyOp33
 70
     1
102
RTVSPropertyOp34
 70
     1
102
RTVSPropertyOp35
 70
     1
102
RTVSPropertyOp36
 70
     1
102
RTVSPropertyOp37
 70
     1
102
RTVSPropertyOp38
 70
     1
102
RTVSPropertyOp39
 70
     1
102
RTVSPropertyOp40
 70
     1
102
RTVSPropertyOp41
 70
     1
102
RTVSPropertyOp42
 70
     1
102
RTVSPropertyOp43
 70
     1
102
RTVSPropertyOp44
 70
     1
102
RTVSPropertyOp45
 70
     1
102
RTVSPropertyOp46
 70
     1
102
RTVSPropertyOp47
 70
     1
102
RTVSPropertyOp48
 70
     1
102
RTVSPropertyOp49
 70
     1
102
RTVSPropertyOp50
 70
     1
102
RTVSPropertyOp51
 70
     0
102
RTVSPropertyOp52
 70
     0
102
RTVSPropertyOp53
 70
     1
102
RTVSPropertyOp54
 70
     1
102
RTVSPropertyOp55
 70
     1
102
RTVSPropertyOp56
 70
     1
102
RTVSPropertyOp57
 70
     1
102
RTVSPost2010Prop28
280
     0
102
RTVSPost2010PropOp28
 70
     1
102
RTVSPost2010Prop29
280
     1
102
RTVSPost2010PropOp29
 70
     1
102
RTVSPost2010Prop30
280
     1
102
RTVSPost2010PropOp30
 70
     1
102
RTVSPost2010Prop31
280
     0
102
RTVSPost2010PropOp31
 70
     1
102
RTVSPost2010Prop32
280
     0
102
RTVSPost2010PropOp32
 70
     1
102
RTVSPost2010Prop33
280
     0
102
RTVSPost2010PropOp33
 70
     1
102
RTVSPost2010Prop34
280
     0
102
RTVSPost2010PropOp34
 70
     1
102
RTVSPost2010Prop35
280
     0
102
RTVSPost2010PropOp35
 70
     1
102
RTVSPost2010Prop36
280
     0
102
RTVSPost2010PropOp36
 70
     1
102
RTVSPost2010Prop37
 90
       50
102
RTVSPost2010PropOp37
 70
     1
102
RTVSPost2010Prop38
140
0.0
102
RTVSPost2010PropOp38
 70
     1
102
RTVSPost2010Prop39
140
1.0
102
RTVSPost2010PropOp39
 70
     1
102
RTVSPost2010Prop40
 90
        0
102
RTVSPost2010PropOp40
 70
     1
102
RTVSPost2010Prop41ColorIndex
 90
       18
102
RTVSPost2010Prop41ColorRGB
 90
        0
102
RTVSPost2010PropOp41
 70
     1
102
RTVSPost2010Prop42
 90
       50
102
RTVSPost2010PropOp42
 70
     1
102
RTVSPost2010Prop43
 90
        3
102
RTVSPost2010PropOp43
 70
     1
102
RTVSPost2010Prop44ColorIndex
 90
        5
102
RTVSPost2010Prop44ColorRGB
 90
      255
102
RTVSPost2010PropOp44
 70
     1
102
RTVSPost2010Prop45
280
     0
102
RTVSPost2010PropOp45
 70
     1
102
RTVSPost2010Prop46
 90
       50
102
RTVSPost2010PropOp46
 70
     1
102
RTVSPost2010Prop47
 90
       50
102
RTVSPost2010PropOp47
 70
     1
102
RTVSPost2010Prop48
 90
       50
102
RTVSPost2010PropOp48
 70
     1
102
RTVSPost2010Prop49
280
     0
102
RTVSPost2010PropOp49
 70
     1
102
RTVSPost2010Prop50
 90
       50
102
RTVSPost2010PropOp50
 70
     1
102
RTVSPost2010Prop51ColorIndex
 90
      256
102
RTVSPost2010Prop51ColorRGB
 90
-16777216
102
RTVSPost2010PropOp51
 70
     0
102
RTVSPost2010Prop52
140
1.0
102
RTVSPost2010PropOp52
 70
     0
102
RTVSPost2010Prop53
 90
        2
102
RTVSPost2010PropOp53
 70
     1
102
RTVSPost2010Prop54
  1
strokes_ogs.tif
102
RTVSPost2010PropOp54
 70
     1
102
RTVSPost2010Prop55
280
     0
102
RTVSPost2010PropOp55
 70
     1
102
RTVSPost2010Prop56
140
1.0
102
RTVSPost2010PropOp56
 70
     1
102
RTVSPost2010Prop57
140
1.0
102
RTVSPost2010PropOp57
 70
     1
  0
XRECORD
  5
2E8
102
{ACAD_REACTORS
330
2E7
102
}
330
2E7
100
AcDbXrecord
280
     1
102
RTVSPropertyOp0
 70
     0
102
RTVSPropertyOp1
 70
     0
102
RTVSPropertyOp2
 70
     0
102
RTVSPropertyOp3
 70
     0
102
RTVSPropertyOp4
 70
     0
102
RTVSPropertyOp5
 70
     0
102
RTVSPropertyOp6
 70
     0
102
RTVSPropertyOp7
 70
     0
102
RTVSPropertyOp8
 70
     0
102
RTVSPropertyOp9
 70
     0
102
RTVSPropertyOp10
 70
     0
102
RTVSPropertyOp11
 70
     0
102
RTVSPropertyOp12
 70
     0
102
RTVSPropertyOp13
 70
     0
102
RTVSPropertyOp14
 70
     2
102
RTVSPropertyOp15
 70
     0
102
RTVSPropertyOp16
 70
     0
102
RTVSPropertyOp17
 70
     0
102
RTVSPropertyOp18
 70
     0
102
RTVSPropertyOp19
 70
     0
102
RTVSPropertyOp20
 70
     0
102
RTVSPropertyOp21
 70
     0
102
RTVSPropertyOp22
 70
     0
102
RTVSPropertyOp23
 70
     0
102
RTVSPropertyOp24
 70
     0
102
RTVSPropertyOp25
 70
     0
102
RTVSPropertyOp26
 70
     0
102
RTVSPropertyOp27
 70
     0
102
RTVSPropertyOp28
 70
     0
102
RTVSPropertyOp29
 70
     0
102
RTVSPropertyOp30
 70
     0
102
RTVSPropertyOp31
 70
     0
102
RTVSPropertyOp32
 70
     0
102
RTVSPropertyOp33
 70
     0
102
RTVSPropertyOp34
 70
     0
102
RTVSPropertyOp35
 70
     0
102
RTVSPropertyOp36
 70
     0
102
RTVSPropertyOp37
 70
     0
102
RTVSPropertyOp38
 70
     0
102
RTVSPropertyOp39
 70
     0
102
RTVSPropertyOp40
 70
     0
102
RTVSPropertyOp41
 70
     0
102
RTVSPropertyOp42
 70
     0
102
RTVSPropertyOp43
 70
     0
102
RTVSPropertyOp44
 70
     0
102
RTVSPropertyOp45
 70
     0
102
RTVSPropertyOp46
 70
     0
102
RTVSPropertyOp47
 70
     0
102
RTVSPropertyOp48
 70
     0
102
RTVSPropertyOp49
 70
     0
102
RTVSPropertyOp50
 70
     0
102
RTVSPropertyOp51
 70
     0
102
RTVSPropertyOp52
 70
     0
102
RTVSPropertyOp53
 70
     0
102
RTVSPropertyOp54
 70
     0
102
RTVSPropertyOp55
 70
     0
102
RTVSPropertyOp56
 70
     0
102
RTVSPropertyOp57
 70
     0
102
RTVSPost2010Prop28
280
     0
102
RTVSPost2010PropOp28
 70
     0
102
RTVSPost2010Prop29
280
     1
102
RTVSPost2010PropOp29
 70
     0
102
RTVSPost2010Prop30
280
     1
102
RTVSPost2010PropOp30
 70
     0
102
RTVSPost2010Prop31
280
     0
102
RTVSPost2010PropOp31
 70
     0
102
RTVSPost2010Prop32
280
     0
102
RTVSPost2010PropOp32
 70
     0
102
RTVSPost2010Prop33
280
     0
102
RTVSPost2010PropOp33
 70
     0
102
RTVSPost2010Prop34
280
     0
102
RTVSPost2010PropOp34
 70
     0
102
RTVSPost2010Prop35
280
     0
102
RTVSPost2010PropOp35
 70
     0
102
RTVSPost2010Prop36
280
     0
102
RTVSPost2010PropOp36
 70
     0
102
RTVSPost2010Prop37
 90
       50
102
RTVSPost2010PropOp37
 70
     0
102
RTVSPost2010Prop38
140
0.0
102
RTVSPost2010PropOp38
 70
     0
102
RTVSPost2010Prop39
140
1.0
102
RTVSPost2010PropOp39
 70
     0
102
RTVSPost2010Prop40
 90
        0
102
RTVSPost2010PropOp40
 70
     0
102
RTVSPost2010Prop41ColorIndex
 90
       18
102
RTVSPost2010Prop41ColorRGB
 90
        0
102
RTVSPost2010PropOp41
 70
     0
102
RTVSPost2010Prop42
 90
       50
102
RTVSPost2010PropOp42
 70
     0
102
RTVSPost2010Prop43
 90
        3
102
RTVSPost2010PropOp43
 70
     0
102
RTVSPost2010Prop44ColorIndex
 90
        5
102
RTVSPost2010Prop44ColorRGB
 90
      255
102
RTVSPost2010PropOp44
 70
     0
102
RTVSPost2010Prop45
280
     0
102
RTVSPost2010PropOp45
 70
     0
102
RTVSPost2010Prop46
 90
       50
102
RTVSPost2010PropOp46
 70
     0
102
RTVSPost2010Prop47
 90
       50
102
RTVSPost2010PropOp47
 70
     0
102
RTVSPost2010Prop48
 90
       50
102
RTVSPost2010PropOp48
 70
     0
102
RTVSPost2010Prop49
280
     0
102
RTVSPost2010PropOp49
 70
     0
102
RTVSPost2010Prop50
 90
       50
102
RTVSPost2010PropOp50
 70
     0
102
RTVSPost2010Prop51ColorIndex
 90
      256
102
RTVSPost2010Prop51ColorRGB
 90
-16777216
102
RTVSPost2010PropOp51
 70
     0
102
RTVSPost2010Prop52
140
1.0
102
RTVSPost2010PropOp52
 70
     0
102
RTVSPost2010Prop53
 90
        2
102
RTVSPost2010PropOp53
 70
     0
102
RTVSPost2010Prop54
  1
strokes_ogs.tif
102
RTVSPost2010PropOp54
 70
     0
102
RTVSPost2010Prop55
280
     0
102
RTVSPost2010PropOp55
 70
     0
102
RTVSPost2010Prop56
140
1.0
102
RTVSPost2010PropOp56
 70
     0
102
RTVSPost2010Prop57
140
1.0
102
RTVSPost2010PropOp57
 70
     0
  0
XRECORD
  5
2D6
102
{ACAD_REACTORS
330
2D5
102
}
330
2D5
100
AcDbXrecord
280
     1
102
RTVSPropertyOp0
 70
     1
102
RTVSPropertyOp1
 70
     1
102
RTVSPropertyOp2
 70
     1
102
RTVSPropertyOp3
 70
     1
102
RTVSPropertyOp4
 70
     1
102
RTVSPropertyOp5
 70
     1
102
RTVSPropertyOp6
 70
     1
102
RTVSPropertyOp7
 70
     1
102
RTVSPropertyOp8
 70
     1
102
RTVSPropertyOp9
 70
     1
102
RTVSPropertyOp10
 70
     1
102
RTVSPropertyOp11
 70
     1
102
RTVSPropertyOp12
 70
     1
102
RTVSPropertyOp13
 70
     1
102
RTVSPropertyOp14
 70
     1
102
RTVSPropertyOp15
 70
     1
102
RTVSPropertyOp16
 70
     1
102
RTVSPropertyOp17
 70
     1
102
RTVSPropertyOp18
 70
     1
102
RTVSPropertyOp19
 70
     1
102
RTVSPropertyOp20
 70
     1
102
RTVSPropertyOp21
 70
     1
102
RTVSPropertyOp22
 70
     1
102
RTVSPropertyOp23
 70
     1
102
RTVSPropertyOp24
 70
     1
102
RTVSPropertyOp25
 70
     1
102
RTVSPropertyOp26
 70
     1
102
RTVSPropertyOp27
 70
     1
102
RTVSPropertyOp28
 70
     1
102
RTVSPropertyOp29
 70
     1
102
RTVSPropertyOp30
 70
     1
102
RTVSPropertyOp31
 70
     1
102
RTVSPropertyOp32
 70
     1
102
RTVSPropertyOp33
 70
     1
102
RTVSPropertyOp34
 70
     1
102
RTVSPropertyOp35
 70
     1
102
RTVSPropertyOp36
 70
     1
102
RTVSPropertyOp37
 70
     1
102
RTVSPropertyOp38
 70
     1
102
RTVSPropertyOp39
 70
     1
102
RTVSPropertyOp40
 70
     1
102
RTVSPropertyOp41
 70
     1
102
RTVSPropertyOp42
 70
     1
102
RTVSPropertyOp43
 70
     1
102
RTVSPropertyOp44
 70
     1
102
RTVSPropertyOp45
 70
     1
102
RTVSPropertyOp46
 70
     1
102
RTVSPropertyOp47
 70
     1
102
RTVSPropertyOp48
 70
     1
102
RTVSPropertyOp49
 70
     1
102
RTVSPropertyOp50
 70
     1
102
RTVSPropertyOp51
 70
     0
102
RTVSPropertyOp52
 70
     0
102
RTVSPropertyOp53
 70
     1
102
RTVSPropertyOp54
 70
     1
102
RTVSPropertyOp55
 70
     1
102
RTVSPropertyOp56
 70
     1
102
RTVSPropertyOp57
 70
     1
102
RTVSPost2010Prop28
280
     0
102
RTVSPost2010PropOp28
 70
     1
102
RTVSPost2010Prop29
280
     1
102
RTVSPost2010PropOp29
 70
     1
102
RTVSPost2010Prop30
280
     1
102
RTVSPost2010PropOp30
 70
     1
102
RTVSPost2010Prop31
280
     0
102
RTVSPost2010PropOp31
 70
     1
102
RTVSPost2010Prop32
280
     0
102
RTVSPost2010PropOp32
 70
     1
102
RTVSPost2010Prop33
280
     0
102
RTVSPost2010PropOp33
 70
     1
102
RTVSPost2010Prop34
280
     0
102
RTVSPost2010PropOp34
 70
     1
102
RTVSPost2010Prop35
280
     0
102
RTVSPost2010PropOp35
 70
     1
102
RTVSPost2010Prop36
280
     0
102
RTVSPost2010PropOp36
 70
     1
102
RTVSPost2010Prop37
 90
       50
102
RTVSPost2010PropOp37
 70
     1
102
RTVSPost2010Prop38
140
0.0
102
RTVSPost2010PropOp38
 70
     1
102
RTVSPost2010Prop39
140
1.0
102
RTVSPost2010PropOp39
 70
     1
102
RTVSPost2010Prop40
 90
        0
102
RTVSPost2010PropOp40
 70
     1
102
RTVSPost2010Prop41ColorIndex
 90
       18
102
RTVSPost2010Prop41ColorRGB
 90
        0
102
RTVSPost2010PropOp41
 70
     1
102
RTVSPost2010Prop42
 90
       50
102
RTVSPost2010PropOp42
 70
     1
102
RTVSPost2010Prop43
 90
        3
102
RTVSPost2010PropOp43
 70
     1
102
RTVSPost2010Prop44ColorIndex
 90
        5
102
RTVSPost2010Prop44ColorRGB
 90
      255
102
RTVSPost2010PropOp44
 70
     1
102
RTVSPost2010Prop45
280
     0
102
RTVSPost2010PropOp45
 70
     1
102
RTVSPost2010Prop46
 90
       50
102
RTVSPost2010PropOp46
 70
     1
102
RTVSPost2010Prop47
 90
       50
102
RTVSPost2010PropOp47
 70
     1
102
RTVSPost2010Prop48
 90
       50
102
RTVSPost2010PropOp48
 70
     1
102
RTVSPost2010Prop49
280
     0
102
RTVSPost2010PropOp49
 70
     1
102
RTVSPost2010Prop50
 90
       50
102
RTVSPost2010PropOp50
 70
     1
102
RTVSPost2010Prop51ColorIndex
 90
      256
102
RTVSPost2010Prop51ColorRGB
 90
-16777216
102
RTVSPost2010PropOp51
 70
     0
102
RTVSPost2010Prop52
140
1.0
102
RTVSPost2010PropOp52
 70
     0
102
RTVSPost2010Prop53
 90
        2
102
RTVSPost2010PropOp53
 70
     1
102
RTVSPost2010Prop54
  1
strokes_ogs.tif
102
RTVSPost2010PropOp54
 70
     1
102
RTVSPost2010Prop55
280
     0
102
RTVSPost2010PropOp55
 70
     1
102
RTVSPost2010Prop56
140
1.0
102
RTVSPost2010PropOp56
 70
     1
102
RTVSPost2010Prop57
140
1.0
102
RTVSPost2010PropOp57
 70
     1
  0
XRECORD
  5
2F4
102
{ACAD_REACTORS
330
2F3
102
}
330
2F3
100
AcDbXrecord
280
     1
102
RTVSPropertyOp0
 70
     1
102
RTVSPropertyOp1
 70
     1
102
RTVSPropertyOp2
 70
     1
102
RTVSPropertyOp3
 70
     1
102
RTVSPropertyOp4
 70
     1
102
RTVSPropertyOp5
 70
     1
102
RTVSPropertyOp6
 70
     1
102
RTVSPropertyOp7
 70
     1
102
RTVSPropertyOp8
 70
     1
102
RTVSPropertyOp9
 70
     1
102
RTVSPropertyOp10
 70
     1
102
RTVSPropertyOp11
 70
     1
102
RTVSPropertyOp12
 70
     1
102
RTVSPropertyOp13
 70
     1
102
RTVSPropertyOp14
 70
     1
102
RTVSPropertyOp15
 70
     1
102
RTVSPropertyOp16
 70
     1
102
RTVSPropertyOp17
 70
     1
102
RTVSPropertyOp18
 70
     1
102
RTVSPropertyOp19
 70
     1
102
RTVSPropertyOp20
 70
     1
102
RTVSPropertyOp21
 70
     1
102
RTVSPropertyOp22
 70
     1
102
RTVSPropertyOp23
 70
     1
102
RTVSPropertyOp24
 70
     1
102
RTVSPropertyOp25
 70
     1
102
RTVSPropertyOp26
 70
     1
102
RTVSPropertyOp27
 70
     1
102
RTVSPropertyOp28
 70
     1
102
RTVSPropertyOp29
 70
     1
102
RTVSPropertyOp30
 70
     1
102
RTVSPropertyOp31
 70
     1
102
RTVSPropertyOp32
 70
     1
102
RTVSPropertyOp33
 70
     1
102
RTVSPropertyOp34
 70
     1
102
RTVSPropertyOp35
 70
     1
102
RTVSPropertyOp36
 70
     1
102
RTVSPropertyOp37
 70
     1
102
RTVSPropertyOp38
 70
     1
102
RTVSPropertyOp39
 70
     1
102
RTVSPropertyOp40
 70
     1
102
RTVSPropertyOp41
 70
     1
102
RTVSPropertyOp42
 70
     1
102
RTVSPropertyOp43
 70
     1
102
RTVSPropertyOp44
 70
     1
102
RTVSPropertyOp45
 70
     1
102
RTVSPropertyOp46
 70
     1
102
RTVSPropertyOp47
 70
     1
102
RTVSPropertyOp48
 70
     1
102
RTVSPropertyOp49
 70
     1
102
RTVSPropertyOp50
 70
     1
102
RTVSPropertyOp51
 70
     0
102
RTVSPropertyOp52
 70
     0
102
RTVSPropertyOp53
 70
     1
102
RTVSPropertyOp54
 70
     1
102
RTVSPropertyOp55
 70
     1
102
RTVSPropertyOp56
 70
     1
102
RTVSPropertyOp57
 70
     1
102
RTVSPost2010Prop28
280
     0
102
RTVSPost2010PropOp28
 70
     1
102
RTVSPost2010Prop29
280
     1
102
RTVSPost2010PropOp29
 70
     1
102
RTVSPost2010Prop30
280
     1
102
RTVSPost2010PropOp30
 70
     1
102
RTVSPost2010Prop31
280
     0
102
RTVSPost2010PropOp31
 70
     1
102
RTVSPost2010Prop32
280
     0
102
RTVSPost2010PropOp32
 70
     1
102
RTVSPost2010Prop33
280
     0
102
RTVSPost2010PropOp33
 70
     1
102
RTVSPost2010Prop34
280
     0
102
RTVSPost2010PropOp34
 70
     1
102
RTVSPost2010Prop35
280
     0
102
RTVSPost2010PropOp35
 70
     1
102
RTVSPost2010Prop36
280
     0
102
RTVSPost2010PropOp36
 70
     1
102
RTVSPost2010Prop37
 90
       50
102
RTVSPost2010PropOp37
 70
     1
102
RTVSPost2010Prop38
140
0.0
102
RTVSPost2010PropOp38
 70
     1
102
RTVSPost2010Prop39
140
1.0
102
RTVSPost2010PropOp39
 70
     1
102
RTVSPost2010Prop40
 90
        0
102
RTVSPost2010PropOp40
 70
     1
102
RTVSPost2010Prop41ColorIndex
 90
       18
102
RTVSPost2010Prop41ColorRGB
 90
        0
102
RTVSPost2010PropOp41
 70
     1
102
RTVSPost2010Prop42
 90
       50
102
RTVSPost2010PropOp42
 70
     1
102
RTVSPost2010Prop43
 90
        3
102
RTVSPost2010PropOp43
 70
     1
102
RTVSPost2010Prop44ColorIndex
 90
        5
102
RTVSPost2010Prop44ColorRGB
 90
      255
102
RTVSPost2010PropOp44
 70
     1
102
RTVSPost2010Prop45
280
     0
102
RTVSPost2010PropOp45
 70
     1
102
RTVSPost2010Prop46
 90
       50
102
RTVSPost2010PropOp46
 70
     1
102
RTVSPost2010Prop47
 90
       50
102
RTVSPost2010PropOp47
 70
     1
102
RTVSPost2010Prop48
 90
       50
102
RTVSPost2010PropOp48
 70
     1
102
RTVSPost2010Prop49
280
     0
102
RTVSPost2010PropOp49
 70
     1
102
RTVSPost2010Prop50
 90
       50
102
RTVSPost2010PropOp50
 70
     1
102
RTVSPost2010Prop51ColorIndex
 90
      256
102
RTVSPost2010Prop51ColorRGB
 90
-16777216
102
RTVSPost2010PropOp51
 70
     0
102
RTVSPost2010Prop52
140
1.0
102
RTVSPost2010PropOp52
 70
     0
102
RTVSPost2010Prop53
 90
        2
102
RTVSPost2010PropOp53
 70
     1
102
RTVSPost2010Prop54
  1
strokes_ogs.tif
102
RTVSPost2010PropOp54
 70
     1
102
RTVSPost2010Prop55
280
     0
102
RTVSPost2010PropOp55
 70
     1
102
RTVSPost2010Prop56
140
1.0
102
RTVSPost2010PropOp56
 70
     1
102
RTVSPost2010Prop57
140
1.0
102
RTVSPost2010PropOp57
 70
     1
  0
XRECORD
  5
2F2
102
{ACAD_REACTORS
330
2F1
102
}
330
2F1
100
AcDbXrecord
280
     1
102
RTVSPropertyOp0
 70
     1
102
RTVSPropertyOp1
 70
     1
102
RTVSPropertyOp2
 70
     1
102
RTVSPropertyOp3
 70
     1
102
RTVSPropertyOp4
 70
     1
102
RTVSPropertyOp5
 70
     1
102
RTVSPropertyOp6
 70
     1
102
RTVSPropertyOp7
 70
     1
102
RTVSPropertyOp8
 70
     1
102
RTVSPropertyOp9
 70
     1
102
RTVSPropertyOp10
 70
     1
102
RTVSPropertyOp11
 70
     1
102
RTVSPropertyOp12
 70
     1
102
RTVSPropertyOp13
 70
     1
102
RTVSPropertyOp14
 70
     1
102
RTVSPropertyOp15
 70
     1
102
RTVSPropertyOp16
 70
     1
102
RTVSPropertyOp17
 70
     1
102
RTVSPropertyOp18
 70
     1
102
RTVSPropertyOp19
 70
     1
102
RTVSPropertyOp20
 70
     1
102
RTVSPropertyOp21
 70
     1
102
RTVSPropertyOp22
 70
     1
102
RTVSPropertyOp23
 70
     1
102
RTVSPropertyOp24
 70
     1
102
RTVSPropertyOp25
 70
     1
102
RTVSPropertyOp26
 70
     1
102
RTVSPropertyOp27
 70
     1
102
RTVSPropertyOp28
 70
     1
102
RTVSPropertyOp29
 70
     1
102
RTVSPropertyOp30
 70
     1
102
RTVSPropertyOp31
 70
     1
102
RTVSPropertyOp32
 70
     1
102
RTVSPropertyOp33
 70
     1
102
RTVSPropertyOp34
 70
     1
102
RTVSPropertyOp35
 70
     1
102
RTVSPropertyOp36
 70
     1
102
RTVSPropertyOp37
 70
     1
102
RTVSPropertyOp38
 70
     1
102
RTVSPropertyOp39
 70
     1
102
RTVSPropertyOp40
 70
     1
102
RTVSPropertyOp41
 70
     1
102
RTVSPropertyOp42
 70
     1
102
RTVSPropertyOp43
 70
     1
102
RTVSPropertyOp44
 70
     1
102
RTVSPropertyOp45
 70
     1
102
RTVSPropertyOp46
 70
     1
102
RTVSPropertyOp47
 70
     1
102
RTVSPropertyOp48
 70
     1
102
RTVSPropertyOp49
 70
     1
102
RTVSPropertyOp50
 70
     1
102
RTVSPropertyOp51
 70
     0
102
RTVSPropertyOp52
 70
     0
102
RTVSPropertyOp53
 70
     1
102
RTVSPropertyOp54
 70
     1
102
RTVSPropertyOp55
 70
     1
102
RTVSPropertyOp56
 70
     1
102
RTVSPropertyOp57
 70
     1
102
RTVSPost2010Prop28
280
     0
102
RTVSPost2010PropOp28
 70
     1
102
RTVSPost2010Prop29
280
     1
102
RTVSPost2010PropOp29
 70
     1
102
RTVSPost2010Prop30
280
     1
102
RTVSPost2010PropOp30
 70
     1
102
RTVSPost2010Prop31
280
     0
102
RTVSPost2010PropOp31
 70
     1
102
RTVSPost2010Prop32
280
     0
102
RTVSPost2010PropOp32
 70
     1
102
RTVSPost2010Prop33
280
     0
102
RTVSPost2010PropOp33
 70
     1
102
RTVSPost2010Prop34
280
     0
102
RTVSPost2010PropOp34
 70
     1
102
RTVSPost2010Prop35
280
     0
102
RTVSPost2010PropOp35
 70
     1
102
RTVSPost2010Prop36
280
     0
102
RTVSPost2010PropOp36
 70
     1
102
RTVSPost2010Prop37
 90
       50
102
RTVSPost2010PropOp37
 70
     1
102
RTVSPost2010Prop38
140
0.0
102
RTVSPost2010PropOp38
 70
     1
102
RTVSPost2010Prop39
140
1.0
102
RTVSPost2010PropOp39
 70
     1
102
RTVSPost2010Prop40
 90
        0
102
RTVSPost2010PropOp40
 70
     1
102
RTVSPost2010Prop41ColorIndex
 90
       18
102
RTVSPost2010Prop41ColorRGB
 90
        0
102
RTVSPost2010PropOp41
 70
     1
102
RTVSPost2010Prop42
 90
       50
102
RTVSPost2010PropOp42
 70
     1
102
RTVSPost2010Prop43
 90
        3
102
RTVSPost2010PropOp43
 70
     1
102
RTVSPost2010Prop44ColorIndex
 90
        5
102
RTVSPost2010Prop44ColorRGB
 90
      255
102
RTVSPost2010PropOp44
 70
     1
102
RTVSPost2010Prop45
280
     0
102
RTVSPost2010PropOp45
 70
     1
102
RTVSPost2010Prop46
 90
       50
102
RTVSPost2010PropOp46
 70
     1
102
RTVSPost2010Prop47
 90
       50
102
RTVSPost2010PropOp47
 70
     1
102
RTVSPost2010Prop48
 90
       50
102
RTVSPost2010PropOp48
 70
     1
102
RTVSPost2010Prop49
280
     0
102
RTVSPost2010PropOp49
 70
     1
102
RTVSPost2010Prop50
 90
       50
102
RTVSPost2010PropOp50
 70
     1
102
RTVSPost2010Prop51ColorIndex
 90
      256
102
RTVSPost2010Prop51ColorRGB
 90
-16777216
102
RTVSPost2010PropOp51
 70
     0
102
RTVSPost2010Prop52
140
1.0
102
RTVSPost2010PropOp52
 70
     0
102
RTVSPost2010Prop53
 90
        2
102
RTVSPost2010PropOp53
 70
     1
102
RTVSPost2010Prop54
  1
strokes_ogs.tif
102
RTVSPost2010PropOp54
 70
     1
102
RTVSPost2010Prop55
280
     0
102
RTVSPost2010PropOp55
 70
     1
102
RTVSPost2010Prop56
140
1.0
102
RTVSPost2010PropOp56
 70
     1
102
RTVSPost2010Prop57
140
1.0
102
RTVSPost2010PropOp57
 70
     1
  0
XRECORD
  5
2EC
102
{ACAD_REACTORS
330
2EB
102
}
330
2EB
100
AcDbXrecord
280
     1
102
RTVSPropertyOp0
 70
     1
102
RTVSPropertyOp1
 70
     1
102
RTVSPropertyOp2
 70
     1
102
RTVSPropertyOp3
 70
     1
102
RTVSPropertyOp4
 70
     1
102
RTVSPropertyOp5
 70
     1
102
RTVSPropertyOp6
 70
     1
102
RTVSPropertyOp7
 70
     1
102
RTVSPropertyOp8
 70
     1
102
RTVSPropertyOp9
 70
     1
102
RTVSPropertyOp10
 70
     1
102
RTVSPropertyOp11
 70
     1
102
RTVSPropertyOp12
 70
     1
102
RTVSPropertyOp13
 70
     1
102
RTVSPropertyOp14
 70
     1
102
RTVSPropertyOp15
 70
     1
102
RTVSPropertyOp16
 70
     1
102
RTVSPropertyOp17
 70
     1
102
RTVSPropertyOp18
 70
     1
102
RTVSPropertyOp19
 70
     1
102
RTVSPropertyOp20
 70
     1
102
RTVSPropertyOp21
 70
     1
102
RTVSPropertyOp22
 70
     1
102
RTVSPropertyOp23
 70
     1
102
RTVSPropertyOp24
 70
     1
102
RTVSPropertyOp25
 70
     1
102
RTVSPropertyOp26
 70
     1
102
RTVSPropertyOp27
 70
     1
102
RTVSPropertyOp28
 70
     1
102
RTVSPropertyOp29
 70
     1
102
RTVSPropertyOp30
 70
     1
102
RTVSPropertyOp31
 70
     1
102
RTVSPropertyOp32
 70
     1
102
RTVSPropertyOp33
 70
     1
102
RTVSPropertyOp34
 70
     1
102
RTVSPropertyOp35
 70
     1
102
RTVSPropertyOp36
 70
     1
102
RTVSPropertyOp37
 70
     1
102
RTVSPropertyOp38
 70
     1
102
RTVSPropertyOp39
 70
     1
102
RTVSPropertyOp40
 70
     1
102
RTVSPropertyOp41
 70
     1
102
RTVSPropertyOp42
 70
     1
102
RTVSPropertyOp43
 70
     1
102
RTVSPropertyOp44
 70
     1
102
RTVSPropertyOp45
 70
     1
102
RTVSPropertyOp46
 70
     1
102
RTVSPropertyOp47
 70
     1
102
RTVSPropertyOp48
 70
     1
102
RTVSPropertyOp49
 70
     1
102
RTVSPropertyOp50
 70
     1
102
RTVSPropertyOp51
 70
     0
102
RTVSPropertyOp52
 70
     0
102
RTVSPropertyOp53
 70
     1
102
RTVSPropertyOp54
 70
     1
102
RTVSPropertyOp55
 70
     1
102
RTVSPropertyOp56
 70
     1
102
RTVSPropertyOp57
 70
     1
102
RTVSPost2010Prop28
280
     0
102
RTVSPost2010PropOp28
 70
     1
102
RTVSPost2010Prop29
280
     1
102
RTVSPost2010PropOp29
 70
     1
102
RTVSPost2010Prop30
280
     1
102
RTVSPost2010PropOp30
 70
     1
102
RTVSPost2010Prop31
280
     0
102
RTVSPost2010PropOp31
 70
     1
102
RTVSPost2010Prop32
280
     0
102
RTVSPost2010PropOp32
 70
     1
102
RTVSPost2010Prop33
280
     0
102
RTVSPost2010PropOp33
 70
     1
102
RTVSPost2010Prop34
280
     0
102
RTVSPost2010PropOp34
 70
     1
102
RTVSPost2010Prop35
280
     0
102
RTVSPost2010PropOp35
 70
     1
102
RTVSPost2010Prop36
280
     0
102
RTVSPost2010PropOp36
 70
     1
102
RTVSPost2010Prop37
 90
       50
102
RTVSPost2010PropOp37
 70
     1
102
RTVSPost2010Prop38
140
0.0
102
RTVSPost2010PropOp38
 70
     1
102
RTVSPost2010Prop39
140
1.0
102
RTVSPost2010PropOp39
 70
     1
102
RTVSPost2010Prop40
 90
        0
102
RTVSPost2010PropOp40
 70
     1
102
RTVSPost2010Prop41ColorIndex
 90
       18
102
RTVSPost2010Prop41ColorRGB
 90
        0
102
RTVSPost2010PropOp41
 70
     1
102
RTVSPost2010Prop42
 90
       50
102
RTVSPost2010PropOp42
 70
     1
102
RTVSPost2010Prop43
 90
        3
102
RTVSPost2010PropOp43
 70
     1
102
RTVSPost2010Prop44ColorIndex
 90
        5
102
RTVSPost2010Prop44ColorRGB
 90
      255
102
RTVSPost2010PropOp44
 70
     1
102
RTVSPost2010Prop45
280
     0
102
RTVSPost2010PropOp45
 70
     1
102
RTVSPost2010Prop46
 90
       50
102
RTVSPost2010PropOp46
 70
     1
102
RTVSPost2010Prop47
 90
       50
102
RTVSPost2010PropOp47
 70
     1
102
RTVSPost2010Prop48
 90
       50
102
RTVSPost2010PropOp48
 70
     1
102
RTVSPost2010Prop49
280
     0
102
RTVSPost2010PropOp49
 70
     1
102
RTVSPost2010Prop50
 90
       50
102
RTVSPost2010PropOp50
 70
     1
102
RTVSPost2010Prop51ColorIndex
 90
      256
102
RTVSPost2010Prop51ColorRGB
 90
-16777216
102
RTVSPost2010PropOp51
 70
     0
102
RTVSPost2010Prop52
140
1.0
102
RTVSPost2010PropOp52
 70
     0
102
RTVSPost2010Prop53
 90
        2
102
RTVSPost2010PropOp53
 70
     1
102
RTVSPost2010Prop54
  1
strokes_ogs.tif
102
RTVSPost2010PropOp54
 70
     1
102
RTVSPost2010Prop55
280
     0
102
RTVSPost2010PropOp55
 70
     1
102
RTVSPost2010Prop56
140
1.0
102
RTVSPost2010PropOp56
 70
     1
102
RTVSPost2010Prop57
140
1.0
102
RTVSPost2010PropOp57
 70
     1
  0
XRECORD
  5
2EE
102
{ACAD_REACTORS
330
2ED
102
}
330
2ED
100
AcDbXrecord
280
     1
102
RTVSPropertyOp0
 70
     1
102
RTVSPropertyOp1
 70
     1
102
RTVSPropertyOp2
 70
     1
102
RTVSPropertyOp3
 70
     1
102
RTVSPropertyOp4
 70
     1
102
RTVSPropertyOp5
 70
     1
102
RTVSPropertyOp6
 70
     1
102
RTVSPropertyOp7
 70
     1
102
RTVSPropertyOp8
 70
     1
102
RTVSPropertyOp9
 70
     1
102
RTVSPropertyOp10
 70
     1
102
RTVSPropertyOp11
 70
     1
102
RTVSPropertyOp12
 70
     1
102
RTVSPropertyOp13
 70
     1
102
RTVSPropertyOp14
 70
     1
102
RTVSPropertyOp15
 70
     1
102
RTVSPropertyOp16
 70
     1
102
RTVSPropertyOp17
 70
     1
102
RTVSPropertyOp18
 70
     1
102
RTVSPropertyOp19
 70
     1
102
RTVSPropertyOp20
 70
     1
102
RTVSPropertyOp21
 70
     1
102
RTVSPropertyOp22
 70
     1
102
RTVSPropertyOp23
 70
     1
102
RTVSPropertyOp24
 70
     1
102
RTVSPropertyOp25
 70
     1
102
RTVSPropertyOp26
 70
     1
102
RTVSPropertyOp27
 70
     1
102
RTVSPropertyOp28
 70
     1
102
RTVSPropertyOp29
 70
     1
102
RTVSPropertyOp30
 70
     1
102
RTVSPropertyOp31
 70
     1
102
RTVSPropertyOp32
 70
     1
102
RTVSPropertyOp33
 70
     1
102
RTVSPropertyOp34
 70
     1
102
RTVSPropertyOp35
 70
     1
102
RTVSPropertyOp36
 70
     1
102
RTVSPropertyOp37
 70
     1
102
RTVSPropertyOp38
 70
     1
102
RTVSPropertyOp39
 70
     1
102
RTVSPropertyOp40
 70
     1
102
RTVSPropertyOp41
 70
     1
102
RTVSPropertyOp42
 70
     1
102
RTVSPropertyOp43
 70
     1
102
RTVSPropertyOp44
 70
     1
102
RTVSPropertyOp45
 70
     1
102
RTVSPropertyOp46
 70
     1
102
RTVSPropertyOp47
 70
     1
102
RTVSPropertyOp48
 70
     1
102
RTVSPropertyOp49
 70
     1
102
RTVSPropertyOp50
 70
     1
102
RTVSPropertyOp51
 70
     0
102
RTVSPropertyOp52
 70
     0
102
RTVSPropertyOp53
 70
     1
102
RTVSPropertyOp54
 70
     1
102
RTVSPropertyOp55
 70
     1
102
RTVSPropertyOp56
 70
     1
102
RTVSPropertyOp57
 70
     1
102
RTVSPost2010Prop28
280
     0
102
RTVSPost2010PropOp28
 70
     1
102
RTVSPost2010Prop29
280
     1
102
RTVSPost2010PropOp29
 70
     1
102
RTVSPost2010Prop30
280
     1
102
RTVSPost2010PropOp30
 70
     1
102
RTVSPost2010Prop31
280
     0
102
RTVSPost2010PropOp31
 70
     1
102
RTVSPost2010Prop32
280
     0
102
RTVSPost2010PropOp32
 70
     1
102
RTVSPost2010Prop33
280
     0
102
RTVSPost2010PropOp33
 70
     1
102
RTVSPost2010Prop34
280
     0
102
RTVSPost2010PropOp34
 70
     1
102
RTVSPost2010Prop35
280
     0
102
RTVSPost2010PropOp35
 70
     1
102
RTVSPost2010Prop36
280
     0
102
RTVSPost2010PropOp36
 70
     1
102
RTVSPost2010Prop37
 90
       50
102
RTVSPost2010PropOp37
 70
     1
102
RTVSPost2010Prop38
140
0.0
102
RTVSPost2010PropOp38
 70
     1
102
RTVSPost2010Prop39
140
1.0
102
RTVSPost2010PropOp39
 70
     1
102
RTVSPost2010Prop40
 90
        0
102
RTVSPost2010PropOp40
 70
     1
102
RTVSPost2010Prop41ColorIndex
 90
       18
102
RTVSPost2010Prop41ColorRGB
 90
        0
102
RTVSPost2010PropOp41
 70
     1
102
RTVSPost2010Prop42
 90
       50
102
RTVSPost2010PropOp42
 70
     1
102
RTVSPost2010Prop43
 90
        3
102
RTVSPost2010PropOp43
 70
     1
102
RTVSPost2010Prop44ColorIndex
 90
        5
102
RTVSPost2010Prop44ColorRGB
 90
      255
102
RTVSPost2010PropOp44
 70
     1
102
RTVSPost2010Prop45
280
     0
102
RTVSPost2010PropOp45
 70
     1
102
RTVSPost2010Prop46
 90
       50
102
RTVSPost2010PropOp46
 70
     1
102
RTVSPost2010Prop47
 90
       50
102
RTVSPost2010PropOp47
 70
     1
102
RTVSPost2010Prop48
 90
       50
102
RTVSPost2010PropOp48
 70
     1
102
RTVSPost2010Prop49
280
     0
102
RTVSPost2010PropOp49
 70
     1
102
RTVSPost2010Prop50
 90
       50
102
RTVSPost2010PropOp50
 70
     1
102
RTVSPost2010Prop51ColorIndex
 90
      256
102
RTVSPost2010Prop51ColorRGB
 90
-16777216
102
RTVSPost2010PropOp51
 70
     0
102
RTVSPost2010Prop52
140
1.0
102
RTVSPost2010PropOp52
 70
     0
102
RTVSPost2010Prop53
 90
        2
102
RTVSPost2010PropOp53
 70
     1
102
RTVSPost2010Prop54
  1
strokes_ogs.tif
102
RTVSPost2010PropOp54
 70
     1
102
RTVSPost2010Prop55
280
     0
102
RTVSPost2010PropOp55
 70
     1
102
RTVSPost2010Prop56
140
1.0
102
RTVSPost2010PropOp56
 70
     1
102
RTVSPost2010Prop57
140
1.0
102
RTVSPost2010PropOp57
 70
     1
  0
XRECORD
  5
2DE
102
{ACAD_REACTORS
330
2DD
102
}
330
2DD
100
AcDbXrecord
280
     1
102
RTVSPropertyOp0
 70
     1
102
RTVSPropertyOp1
 70
     1
102
RTVSPropertyOp2
 70
     1
102
RTVSPropertyOp3
 70
     1
102
RTVSPropertyOp4
 70
     1
102
RTVSPropertyOp5
 70
     1
102
RTVSPropertyOp6
 70
     1
102
RTVSPropertyOp7
 70
     1
102
RTVSPropertyOp8
 70
     1
102
RTVSPropertyOp9
 70
     1
102
RTVSPropertyOp10
 70
     1
102
RTVSPropertyOp11
 70
     1
102
RTVSPropertyOp12
 70
     1
102
RTVSPropertyOp13
 70
     1
102
RTVSPropertyOp14
 70
     1
102
RTVSPropertyOp15
 70
     1
102
RTVSPropertyOp16
 70
     1
102
RTVSPropertyOp17
 70
     1
102
RTVSPropertyOp18
 70
     1
102
RTVSPropertyOp19
 70
     1
102
RTVSPropertyOp20
 70
     1
102
RTVSPropertyOp21
 70
     1
102
RTVSPropertyOp22
 70
     1
102
RTVSPropertyOp23
 70
     1
102
RTVSPropertyOp24
 70
     1
102
RTVSPropertyOp25
 70
     1
102
RTVSPropertyOp26
 70
     1
102
RTVSPropertyOp27
 70
     1
102
RTVSPropertyOp28
 70
     1
102
RTVSPropertyOp29
 70
     1
102
RTVSPropertyOp30
 70
     1
102
RTVSPropertyOp31
 70
     1
102
RTVSPropertyOp32
 70
     1
102
RTVSPropertyOp33
 70
     1
102
RTVSPropertyOp34
 70
     1
102
RTVSPropertyOp35
 70
     1
102
RTVSPropertyOp36
 70
     1
102
RTVSPropertyOp37
 70
     1
102
RTVSPropertyOp38
 70
     1
102
RTVSPropertyOp39
 70
     1
102
RTVSPropertyOp40
 70
     1
102
RTVSPropertyOp41
 70
     1
102
RTVSPropertyOp42
 70
     1
102
RTVSPropertyOp43
 70
     1
102
RTVSPropertyOp44
 70
     1
102
RTVSPropertyOp45
 70
     1
102
RTVSPropertyOp46
 70
     1
102
RTVSPropertyOp47
 70
     1
102
RTVSPropertyOp48
 70
     1
102
RTVSPropertyOp49
 70
     1
102
RTVSPropertyOp50
 70
     1
102
RTVSPropertyOp51
 70
     0
102
RTVSPropertyOp52
 70
     0
102
RTVSPropertyOp53
 70
     1
102
RTVSPropertyOp54
 70
     1
102
RTVSPropertyOp55
 70
     1
102
RTVSPropertyOp56
 70
     1
102
RTVSPropertyOp57
 70
     1
102
RTVSPost2010Prop28
280
     0
102
RTVSPost2010PropOp28
 70
     1
102
RTVSPost2010Prop29
280
     1
102
RTVSPost2010PropOp29
 70
     1
102
RTVSPost2010Prop30
280
     1
102
RTVSPost2010PropOp30
 70
     1
102
RTVSPost2010Prop31
280
     0
102
RTVSPost2010PropOp31
 70
     1
102
RTVSPost2010Prop32
280
     0
102
RTVSPost2010PropOp32
 70
     1
102
RTVSPost2010Prop33
280
     0
102
RTVSPost2010PropOp33
 70
     1
102
RTVSPost2010Prop34
280
     0
102
RTVSPost2010PropOp34
 70
     1
102
RTVSPost2010Prop35
280
     0
102
RTVSPost2010PropOp35
 70
     1
102
RTVSPost2010Prop36
280
     0
102
RTVSPost2010PropOp36
 70
     1
102
RTVSPost2010Prop37
 90
       50
102
RTVSPost2010PropOp37
 70
     1
102
RTVSPost2010Prop38
140
0.0
102
RTVSPost2010PropOp38
 70
     1
102
RTVSPost2010Prop39
140
1.0
102
RTVSPost2010PropOp39
 70
     1
102
RTVSPost2010Prop40
 90
        0
102
RTVSPost2010PropOp40
 70
     1
102
RTVSPost2010Prop41ColorIndex
 90
       18
102
RTVSPost2010Prop41ColorRGB
 90
        0
102
RTVSPost2010PropOp41
 70
     1
102
RTVSPost2010Prop42
 90
       50
102
RTVSPost2010PropOp42
 70
     1
102
RTVSPost2010Prop43
 90
        3
102
RTVSPost2010PropOp43
 70
     1
102
RTVSPost2010Prop44ColorIndex
 90
        5
102
RTVSPost2010Prop44ColorRGB
 90
      255
102
RTVSPost2010PropOp44
 70
     1
102
RTVSPost2010Prop45
280
     0
102
RTVSPost2010PropOp45
 70
     1
102
RTVSPost2010Prop46
 90
       50
102
RTVSPost2010PropOp46
 70
     1
102
RTVSPost2010Prop47
 90
       50
102
RTVSPost2010PropOp47
 70
     1
102
RTVSPost2010Prop48
 90
       50
102
RTVSPost2010PropOp48
 70
     1
102
RTVSPost2010Prop49
280
     0
102
RTVSPost2010PropOp49
 70
     1
102
RTVSPost2010Prop50
 90
       50
102
RTVSPost2010PropOp50
 70
     1
102
RTVSPost2010Prop51ColorIndex
 90
      256
102
RTVSPost2010Prop51ColorRGB
 90
-16777216
102
RTVSPost2010PropOp51
 70
     0
102
RTVSPost2010Prop52
140
1.0
102
RTVSPost2010PropOp52
 70
     0
102
RTVSPost2010Prop53
 90
        2
102
RTVSPost2010PropOp53
 70
     1
102
RTVSPost2010Prop54
  1
strokes_ogs.tif
102
RTVSPost2010PropOp54
 70
     1
102
RTVSPost2010Prop55
280
     0
102
RTVSPost2010PropOp55
 70
     1
102
RTVSPost2010Prop56
140
1.0
102
RTVSPost2010PropOp56
 70
     1
102
RTVSPost2010Prop57
140
1.0
102
RTVSPost2010PropOp57
 70
     1
  0
XRECORD
  5
2D0
102
{ACAD_REACTORS
330
2CF
102
}
330
2CF
100
AcDbXrecord
280
     1
102
RTVSPropertyOp0
 70
     1
102
RTVSPropertyOp1
 70
     1
102
RTVSPropertyOp2
 70
     1
102
RTVSPropertyOp3
 70
     1
102
RTVSPropertyOp4
 70
     1
102
RTVSPropertyOp5
 70
     1
102
RTVSPropertyOp6
 70
     1
102
RTVSPropertyOp7
 70
     1
102
RTVSPropertyOp8
 70
     1
102
RTVSPropertyOp9
 70
     1
102
RTVSPropertyOp10
 70
     1
102
RTVSPropertyOp11
 70
     1
102
RTVSPropertyOp12
 70
     1
102
RTVSPropertyOp13
 70
     1
102
RTVSPropertyOp14
 70
     1
102
RTVSPropertyOp15
 70
     1
102
RTVSPropertyOp16
 70
     1
102
RTVSPropertyOp17
 70
     1
102
RTVSPropertyOp18
 70
     1
102
RTVSPropertyOp19
 70
     1
102
RTVSPropertyOp20
 70
     1
102
RTVSPropertyOp21
 70
     1
102
RTVSPropertyOp22
 70
     1
102
RTVSPropertyOp23
 70
     1
102
RTVSPropertyOp24
 70
     1
102
RTVSPropertyOp25
 70
     1
102
RTVSPropertyOp26
 70
     1
102
RTVSPropertyOp27
 70
     1
102
RTVSPropertyOp28
 70
     1
102
RTVSPropertyOp29
 70
     1
102
RTVSPropertyOp30
 70
     1
102
RTVSPropertyOp31
 70
     1
102
RTVSPropertyOp32
 70
     1
102
RTVSPropertyOp33
 70
     1
102
RTVSPropertyOp34
 70
     1
102
RTVSPropertyOp35
 70
     1
102
RTVSPropertyOp36
 70
     1
102
RTVSPropertyOp37
 70
     1
102
RTVSPropertyOp38
 70
     1
102
RTVSPropertyOp39
 70
     1
102
RTVSPropertyOp40
 70
     1
102
RTVSPropertyOp41
 70
     1
102
RTVSPropertyOp42
 70
     1
102
RTVSPropertyOp43
 70
     1
102
RTVSPropertyOp44
 70
     1
102
RTVSPropertyOp45
 70
     1
102
RTVSPropertyOp46
 70
     1
102
RTVSPropertyOp47
 70
     1
102
RTVSPropertyOp48
 70
     1
102
RTVSPropertyOp49
 70
     1
102
RTVSPropertyOp50
 70
     1
102
RTVSPropertyOp51
 70
     0
102
RTVSPropertyOp52
 70
     0
102
RTVSPropertyOp53
 70
     1
102
RTVSPropertyOp54
 70
     1
102
RTVSPropertyOp55
 70
     1
102
RTVSPropertyOp56
 70
     1
102
RTVSPropertyOp57
 70
     1
102
RTVSPost2010Prop28
280
     0
102
RTVSPost2010PropOp28
 70
     1
102
RTVSPost2010Prop29
280
     1
102
RTVSPost2010PropOp29
 70
     1
102
RTVSPost2010Prop30
280
     1
102
RTVSPost2010PropOp30
 70
     1
102
RTVSPost2010Prop31
280
     0
102
RTVSPost2010PropOp31
 70
     1
102
RTVSPost2010Prop32
280
     0
102
RTVSPost2010PropOp32
 70
     1
102
RTVSPost2010Prop33
280
     0
102
RTVSPost2010PropOp33
 70
     1
102
RTVSPost2010Prop34
280
     0
102
RTVSPost2010PropOp34
 70
     1
102
RTVSPost2010Prop35
280
     0
102
RTVSPost2010PropOp35
 70
     1
102
RTVSPost2010Prop36
280
     0
102
RTVSPost2010PropOp36
 70
     1
102
RTVSPost2010Prop37
 90
       50
102
RTVSPost2010PropOp37
 70
     1
102
RTVSPost2010Prop38
140
0.0
102
RTVSPost2010PropOp38
 70
     1
102
RTVSPost2010Prop39
140
1.0
102
RTVSPost2010PropOp39
 70
     1
102
RTVSPost2010Prop40
 90
        0
102
RTVSPost2010PropOp40
 70
     1
102
RTVSPost2010Prop41ColorIndex
 90
       18
102
RTVSPost2010Prop41ColorRGB
 90
        0
102
RTVSPost2010PropOp41
 70
     1
102
RTVSPost2010Prop42
 90
       50
102
RTVSPost2010PropOp42
 70
     1
102
RTVSPost2010Prop43
 90
        3
102
RTVSPost2010PropOp43
 70
     1
102
RTVSPost2010Prop44ColorIndex
 90
        5
102
RTVSPost2010Prop44ColorRGB
 90
      255
102
RTVSPost2010PropOp44
 70
     1
102
RTVSPost2010Prop45
280
     0
102
RTVSPost2010PropOp45
 70
     1
102
RTVSPost2010Prop46
 90
       50
102
RTVSPost2010PropOp46
 70
     1
102
RTVSPost2010Prop47
 90
       50
102
RTVSPost2010PropOp47
 70
     1
102
RTVSPost2010Prop48
 90
       50
102
RTVSPost2010PropOp48
 70
     1
102
RTVSPost2010Prop49
280
     0
102
RTVSPost2010PropOp49
 70
     1
102
RTVSPost2010Prop50
 90
       50
102
RTVSPost2010PropOp50
 70
     1
102
RTVSPost2010Prop51ColorIndex
 90
      256
102
RTVSPost2010Prop51ColorRGB
 90
-16777216
102
RTVSPost2010PropOp51
 70
     0
102
RTVSPost2010Prop52
140
1.0
102
RTVSPost2010PropOp52
 70
     0
102
RTVSPost2010Prop53
 90
        2
102
RTVSPost2010PropOp53
 70
     1
102
RTVSPost2010Prop54
  1
strokes_ogs.tif
102
RTVSPost2010PropOp54
 70
     1
102
RTVSPost2010Prop55
280
     0
102
RTVSPost2010PropOp55
 70
     1
102
RTVSPost2010Prop56
140
1.0
102
RTVSPost2010PropOp56
 70
     1
102
RTVSPost2010Prop57
140
1.0
102
RTVSPost2010PropOp57
 70
     1
  0
XRECORD
  5
2F0
102
{ACAD_REACTORS
330
2EF
102
}
330
2EF
100
AcDbXrecord
280
     1
102
RTVSPropertyOp0
 70
     1
102
RTVSPropertyOp1
 70
     1
102
RTVSPropertyOp2
 70
     1
102
RTVSPropertyOp3
 70
     1
102
RTVSPropertyOp4
 70
     1
102
RTVSPropertyOp5
 70
     1
102
RTVSPropertyOp6
 70
     1
102
RTVSPropertyOp7
 70
     1
102
RTVSPropertyOp8
 70
     1
102
RTVSPropertyOp9
 70
     1
102
RTVSPropertyOp10
 70
     1
102
RTVSPropertyOp11
 70
     1
102
RTVSPropertyOp12
 70
     1
102
RTVSPropertyOp13
 70
     1
102
RTVSPropertyOp14
 70
     1
102
RTVSPropertyOp15
 70
     1
102
RTVSPropertyOp16
 70
     1
102
RTVSPropertyOp17
 70
     1
102
RTVSPropertyOp18
 70
     1
102
RTVSPropertyOp19
 70
     1
102
RTVSPropertyOp20
 70
     1
102
RTVSPropertyOp21
 70
     1
102
RTVSPropertyOp22
 70
     1
102
RTVSPropertyOp23
 70
     1
102
RTVSPropertyOp24
 70
     1
102
RTVSPropertyOp25
 70
     1
102
RTVSPropertyOp26
 70
     1
102
RTVSPropertyOp27
 70
     1
102
RTVSPropertyOp28
 70
     1
102
RTVSPropertyOp29
 70
     1
102
RTVSPropertyOp30
 70
     1
102
RTVSPropertyOp31
 70
     1
102
RTVSPropertyOp32
 70
     1
102
RTVSPropertyOp33
 70
     1
102
RTVSPropertyOp34
 70
     1
102
RTVSPropertyOp35
 70
     1
102
RTVSPropertyOp36
 70
     1
102
RTVSPropertyOp37
 70
     1
102
RTVSPropertyOp38
 70
     1
102
RTVSPropertyOp39
 70
     1
102
RTVSPropertyOp40
 70
     1
102
RTVSPropertyOp41
 70
     1
102
RTVSPropertyOp42
 70
     1
102
RTVSPropertyOp43
 70
     1
102
RTVSPropertyOp44
 70
     1
102
RTVSPropertyOp45
 70
     1
102
RTVSPropertyOp46
 70
     1
102
RTVSPropertyOp47
 70
     1
102
RTVSPropertyOp48
 70
     1
102
RTVSPropertyOp49
 70
     1
102
RTVSPropertyOp50
 70
     1
102
RTVSPropertyOp51
 70
     0
102
RTVSPropertyOp52
 70
     0
102
RTVSPropertyOp53
 70
     1
102
RTVSPropertyOp54
 70
     1
102
RTVSPropertyOp55
 70
     1
102
RTVSPropertyOp56
 70
     1
102
RTVSPropertyOp57
 70
     1
102
RTVSPost2010Prop28
280
     0
102
RTVSPost2010PropOp28
 70
     1
102
RTVSPost2010Prop29
280
     1
102
RTVSPost2010PropOp29
 70
     1
102
RTVSPost2010Prop30
280
     1
102
RTVSPost2010PropOp30
 70
     1
102
RTVSPost2010Prop31
280
     0
102
RTVSPost2010PropOp31
 70
     1
102
RTVSPost2010Prop32
280
     0
102
RTVSPost2010PropOp32
 70
     1
102
RTVSPost2010Prop33
280
     0
102
RTVSPost2010PropOp33
 70
     1
102
RTVSPost2010Prop34
280
     0
102
RTVSPost2010PropOp34
 70
     1
102
RTVSPost2010Prop35
280
     0
102
RTVSPost2010PropOp35
 70
     1
102
RTVSPost2010Prop36
280
     0
102
RTVSPost2010PropOp36
 70
     1
102
RTVSPost2010Prop37
 90
       50
102
RTVSPost2010PropOp37
 70
     1
102
RTVSPost2010Prop38
140
0.0
102
RTVSPost2010PropOp38
 70
     1
102
RTVSPost2010Prop39
140
1.0
102
RTVSPost2010PropOp39
 70
     1
102
RTVSPost2010Prop40
 90
        0
102
RTVSPost2010PropOp40
 70
     1
102
RTVSPost2010Prop41ColorIndex
 90
       18
102
RTVSPost2010Prop41ColorRGB
 90
        0
102
RTVSPost2010PropOp41
 70
     1
102
RTVSPost2010Prop42
 90
       50
102
RTVSPost2010PropOp42
 70
     1
102
RTVSPost2010Prop43
 90
        3
102
RTVSPost2010PropOp43
 70
     1
102
RTVSPost2010Prop44ColorIndex
 90
        5
102
RTVSPost2010Prop44ColorRGB
 90
      255
102
RTVSPost2010PropOp44
 70
     1
102
RTVSPost2010Prop45
280
     0
102
RTVSPost2010PropOp45
 70
     1
102
RTVSPost2010Prop46
 90
       50
102
RTVSPost2010PropOp46
 70
     1
102
RTVSPost2010Prop47
 90
       50
102
RTVSPost2010PropOp47
 70
     1
102
RTVSPost2010Prop48
 90
       50
102
RTVSPost2010PropOp48
 70
     1
102
RTVSPost2010Prop49
280
     0
102
RTVSPost2010PropOp49
 70
     1
102
RTVSPost2010Prop50
 90
       50
102
RTVSPost2010PropOp50
 70
     1
102
RTVSPost2010Prop51ColorIndex
 90
      256
102
RTVSPost2010Prop51ColorRGB
 90
-16777216
102
RTVSPost2010PropOp51
 70
     0
102
RTVSPost2010Prop52
140
1.0
102
RTVSPost2010PropOp52
 70
     0
102
RTVSPost2010Prop53
 90
        2
102
RTVSPost2010PropOp53
 70
     1
102
RTVSPost2010Prop54
  1
strokes_ogs.tif
102
RTVSPost2010PropOp54
 70
     1
102
RTVSPost2010Prop55
280
     0
102
RTVSPost2010PropOp55
 70
     1
102
RTVSPost2010Prop56
140
1.0
102
RTVSPost2010PropOp56
 70
     1
102
RTVSPost2010Prop57
140
1.0
102
RTVSPost2010PropOp57
 70
     1
  0
ENDSEC
  0
EOF
