  0
SECTION
  2
HEADER
  9
$ACADVER
  1
AC1015
  9
$ACADMAINTVER
 70
     6
  9
$DWGCODEPAGE
  3
ANSI_932
  9
$INSBASE
 10
0.0
 20
0.0
 30
0.0
  9
$EXTMIN
 10
0.0
 20
0.0
 30
0.0
  9
$EXTMAX
 10
209.0
 20
296.0
 30
0.0
  9
$LIMMIN
 10
0.0
 20
0.0
  9
$LIMMAX
 10
209.0
 20
296.0
  9
$ORTHOMODE
 70
     0
  9
$REGENMODE
 70
     1
  9
$FILLMODE
 70
     1
  9
$QTEXTMODE
 70
     0
  9
$MIRRTEXT
 70
     1
  9
$LTSCALE
 40
1.0
  9
$ATTMODE
 70
     1
  9
$TEXTSIZE
 40
2.5
  9
$TRACEWID
 40
1.0
  9
$TEXTSTYLE
  7
Standard
  9
$CLAYER
  8
0
  9
$CELTYPE
  6
ByLayer
  9
$CECOLOR
 62
   256
  9
$CELTSCALE
 40
1.0
  9
$DISPSILH
 70
     0
  9
$DIMSCALE
 40
1.0
  9
$DIMASZ
 40
2.5
  9
$DIMEXO
 40
0.625
  9
$DIMDLI
 40
3.75
  9
$DIMRND
 40
0.0
  9
$DIMDLE
 40
0.0
  9
$DIMEXE
 40
1.25
  9
$DIMTP
 40
0.0
  9
$DIMTM
 40
0.0
  9
$DIMTXT
 40
2.5
  9
$DIMCEN
 40
2.5
  9
$DIMTSZ
 40
0.0
  9
$DIMTOL
 70
     0
  9
$DIMLIM
 70
     0
  9
$DIMTIH
 70
     0
  9
$DIMTOH
 70
     0
  9
$DIMSE1
 70
     0
  9
$DIMSE2
 70
     0
  9
$DIMTAD
 70
     1
  9
$DIMZIN
 70
     8
  9
$DIMBLK
  1

  9
$DIMASO
 70
     1
  9
$DIMSHO
 70
     1
  9
$DIMPOST
  1

  9
$DIMAPOST
  1

  9
$DIMALT
 70
     0
  9
$DIMALTD
 70
     3
  9
$DIMALTF
 40
0.0393700787
  9
$DIMLFAC
 40
1.0
  9
$DIMTOFL
 70
     1
  9
$DIMTVP
 40
0.0
  9
$DIMTIX
 70
     0
  9
$DIMSOXD
 70
     0
  9
$DIMSAH
 70
     0
  9
$DIMBLK1
  1

  9
$DIMBLK2
  1

  9
$DIMSTYLE
  2
ISO-25
  9
$DIMCLRD
 70
     0
  9
$DIMCLRE
 70
     0
  9
$DIMCLRT
 70
     0
  9
$DIMTFAC
 40
1.0
  9
$DIMGAP
 40
0.625
  9
$DIMJUST
 70
     0
  9
$DIMSD1
 70
     0
  9
$DIMSD2
 70
     0
  9
$DIMTOLJ
 70
     0
  9
$DIMTZIN
 70
     8
  9
$DIMALTZ
 70
     0
  9
$DIMALTTZ
 70
     0
  9
$DIMUPT
 70
     0
  9
$DIMDEC
 70
     2
  9
$DIMTDEC
 70
     2
  9
$DIMALTU
 70
     2
  9
$DIMALTTD
 70
     3
  9
$DIMTXSTY
  7
Standard
  9
$DIMAUNIT
 70
     0
  9
$DIMADEC
 70
     0
  9
$DIMALTRND
 40
0.0
  9
$DIMAZIN
 70
     0
  9
$DIMDSEP
 70
    44
  9
$DIMATFIT
 70
     3
  9
$DIMFRAC
 70
     0
  9
$DIMLDRBLK
  1

  9
$DIMLUNIT
 70
     2
  9
$DIMLWD
 70
    -2
  9
$DIMLWE
 70
    -2
  9
$DIMTMOVE
 70
     0
  9
$LUNITS
 70
     2
  9
$LUPREC
 70
     4
  9
$SKETCHINC
 40
1.0
  9
$FILLETRAD
 40
10.0
  9
$AUNITS
 70
     0
  9
$AUPREC
 70
     0
  9
$MENU
  1
.
  9
$ELEVATION
 40
0.0
  9
$PELEVATION
 40
0.0
  9
$THICKNESS
 40
0.0
  9
$LIMCHECK
 70
     0
  9
$CHAMFERA
 40
0.0
  9
$CHAMFERB
 40
0.0
  9
$CHAMFERC
 40
0.0
  9
$CHAMFERD
 40
0.0
  9
$SKPOLY
 70
     0
  9
$TDCREATE
 40
2458163.609994803
  9
$TDUCREATE
 40
2458163.234994803
  9
$TDUPDATE
 40
2458163.609996065
  9
$TDUUPDATE
 40
2458163.234996065
  9
$TDINDWG
 40
0.0000000116
  9
$TDUSRTIMER
 40
0.0000000116
  9
$USRTIMER
 70
     1
  9
$ANGBASE
 50
0.0
  9
$ANGDIR
 70
     0
  9
$PDMODE
 70
     0
  9
$PDSIZE
 40
0.0
  9
$PLINEWID
 40
0.0
  9
$SPLFRAME
 70
     0
  9
$SPLINETYPE
 70
     6
  9
$SPLINESEGS
 70
     8
  9
$HANDSEED
  5
315
  9
$SURFTAB1
 70
     6
  9
$SURFTAB2
 70
     6
  9
$SURFTYPE
 70
     6
  9
$SURFU
 70
     6
  9
$SURFV
 70
     6
  9
$UCSBASE
  2

  9
$UCSNAME
  2

  9
$UCSORG
 10
0.0
 20
0.0
 30
0.0
  9
$UCSXDIR
 10
1.0
 20
0.0
 30
0.0
  9
$UCSYDIR
 10
0.0
 20
1.0
 30
0.0
  9
$UCSORTHOREF
  2

  9
$UCSORTHOVIEW
 70
     0
  9
$UCSORGTOP
 10
0.0
 20
0.0
 30
0.0
  9
$UCSORGBOTTOM
 10
0.0
 20
0.0
 30
0.0
  9
$UCSORGLEFT
 10
0.0
 20
0.0
 30
0.0
  9
$UCSORGRIGHT
 10
0.0
 20
0.0
 30
0.0
  9
$UCSORGFRONT
 10
0.0
 20
0.0
 30
0.0
  9
$UCSORGBACK
 10
0.0
 20
0.0
 30
0.0
  9
$PUCSBASE
  2

  9
$PUCSNAME
  2

  9
$PUCSORG
 10
0.0
 20
0.0
 30
0.0
  9
$PUCSXDIR
 10
1.0
 20
0.0
 30
0.0
  9
$PUCSYDIR
 10
0.0
 20
1.0
 30
0.0
  9
$PUCSORTHOREF
  2

  9
$PUCSORTHOVIEW
 70
     0
  9
$PUCSORGTOP
 10
0.0
 20
0.0
 30
0.0
  9
$PUCSORGBOTTOM
 10
0.0
 20
0.0
 30
0.0
  9
$PUCSORGLEFT
 10
0.0
 20
0.0
 30
0.0
  9
$PUCSORGRIGHT
 10
0.0
 20
0.0
 30
0.0
  9
$PUCSORGFRONT
 10
0.0
 20
0.0
 30
0.0
  9
$PUCSORGBACK
 10
0.0
 20
0.0
 30
0.0
  9
$USERI1
 70
     0
  9
$USERI2
 70
     0
  9
$USERI3
 70
     0
  9
$USERI4
 70
     0
  9
$USERI5
 70
     0
  9
$USERR1
 40
0.0
  9
$USERR2
 40
0.0
  9
$USERR3
 40
0.0
  9
$USERR4
 40
0.0
  9
$USERR5
 40
0.0
  9
$WORLDVIEW
 70
     1
  9
$SHADEDGE
 70
     3
  9
$SHADEDIF
 70
    70
  9
$TILEMODE
 70
     1
  9
$MAXACTVP
 70
    64
  9
$PINSBASE
 10
0.0
 20
0.0
 30
0.0
  9
$PLIMCHECK
 70
     0
  9
$PEXTMIN
 10
0.0
 20
0.0
 30
0.0
  9
$PEXTMAX
 10
209.0
 20
296.0
 30
0.0
  9
$PLIMMIN
 10
0.0
 20
0.0
  9
$PLIMMAX
 10
209.0
 20
296.0
  9
$UNITMODE
 70
     0
  9
$VISRETAIN
 70
     1
  9
$PLINEGEN
 70
     0
  9
$PSLTSCALE
 70
     1
  9
$TREEDEPTH
 70
  3020
  9
$CMLSTYLE
  2
Standard
  9
$CMLJUST
 70
     0
  9
$CMLSCALE
 40
20.0
  9
$PROXYGRAPHICS
 70
     1
  9
$MEASUREMENT
 70
     1
  9
$CELWEIGHT
370
    -1
  9
$ENDCAPS
280
     0
  9
$JOINSTYLE
280
     0
  9
$LWDISPLAY
290
     0
  9
$INSUNITS
 70
     4
  9
$HYPERLINKBASE
  1

  9
$STYLESHEET
  1

  9
$XEDIT
290
     1
  9
$CEPSNTYPE
380
     0
  9
$PSTYLEMODE
290
     1
  9
$FINGERPRINTGUID
  2
{F2FDC9F1-9FCE-46C6-9DC6-0A22419F4778}
  9
$VERSIONGUID
  2
{FAEB1C32-E019-11D5-929B-00C0DF256EC4}
  9
$EXTNAMES
290
     1
  9
$PSVPSCALE
 40
0.0
  9
$OLESTARTUP
290
     0
  0
ENDSEC
  0
SECTION
  2
CLASSES
  0
CLASS
  1
ACDBDICTIONARYWDFLT
  2
AcDbDictionaryWithDefault
  3
ObjectDBX Classes
 90
        0
280
     0
281
     0
  0
CLASS
  1
VISUALSTYLE
  2
AcDbVisualStyle
  3
ObjectDBX Classes
 90
     4095
280
     0
281
     0
  0
CLASS
  1
MATERIAL
  2
AcDbMaterial
  3
ObjectDBX Classes
 90
     1153
280
     0
281
     0
  0
CLASS
  1
SCALE
  2
AcDbScale
  3
ObjectDBX Classes
 90
     1153
280
     0
281
     0
  0
CLASS
  1
SUN
  2
AcDbSun
  3
SCENEOE
 90
     1153
280
     0
281
     0
  0
CLASS
  1
DICTIONARYVAR
  2
AcDbDictionaryVar
  3
ObjectDBX Classes
 90
        0
280
     0
281
     0
  0
CLASS
  1
ACDBPLACEHOLDER
  2
AcDbPlaceHolder
  3
ObjectDBX Classes
 90
        0
280
     0
281
     0
  0
CLASS
  1
LAYOUT
  2
AcDbLayout
  3
ObjectDBX Classes
 90
        0
280
     0
281
     0
  0
ENDSEC
  0
SECTION
  2
TABLES
  0
TABLE
  2
VPORT
  5
8
330
0
100
AcDbSymbolTable
 70
     1
  0
VPORT
  5
29
330
8
100
AcDbSymbolTableRecord
100
AcDbViewportTableRecord
  2
*Active
 70
     0
 10
0.0
 20
0.0
 11
1.0
 21
1.0
 12
344.1869158879
 22
148.5
 13
0.0
 23
0.0
 14
10.0
 24
10.0
 15
10.0
 25
10.0
 16
0.0
 26
0.0
 36
1.0
 17
0.0
 27
0.0
 37
0.0
 40
297.0
 41
1.9729729729
 42
50.0
 43
0.0
 44
0.0
 50
0.0
 51
0.0
 71
     0
 72
   100
 73
     1
 74
     3
 75
     0
 76
     0
 77
     0
 78
     0
281
     0
 65
     1
110
0.0
120
0.0
130
0.0
111
1.0
121
0.0
131
0.0
112
0.0
122
1.0
132
0.0
 79
     0
146
0.0
  0
ENDTAB
  0
TABLE
  2
LTYPE
  5
5
330
0
100
AcDbSymbolTable
 70
     2
  0
LTYPE
  5
14
330
5
100
AcDbSymbolTableRecord
100
AcDbLinetypeTableRecord
  2
ByBlock
 70
     0
  3

 72
    65
 73
     0
 40
0.0
  0
LTYPE
  5
15
330
5
100
AcDbSymbolTableRecord
100
AcDbLinetypeTableRecord
  2
ByLayer
 70
     0
  3

 72
    65
 73
     0
 40
0.0
  0
LTYPE
  5
16
330
5
100
AcDbSymbolTableRecord
100
AcDbLinetypeTableRecord
  2
Continuous
 70
     0
  3
Solid line
 72
    65
 73
     0
 40
0.0
  0
LTYPE
  5
7D
330
5
100
AcDbSymbolTableRecord
100
AcDbLinetypeTableRecord
  2
HIDDEN2
 70
     0
  3
Hidden (.5x) _ _ _ _ _ _ _ _ _ _ _ _ _ _ _ _ _ 
 72
    65
 73
     2
 40
4.7625
 49
3.175
 74
     4
 75
     0
340
0
 46
0.0
 50
0.0
 44
0.0
 45
0.0
 49
-1.5875
 74
     4
 75
     0
340
0
 46
0.0
 50
0.0
 44
0.0
 45
0.0
  0
ENDTAB
  0
TABLE
  2
LAYER
  5
2
330
0
100
AcDbSymbolTable
 70
     6
  0
LAYER
  5
10
330
2
100
AcDbSymbolTableRecord
100
AcDbLayerTableRecord
  2
0
 70
     0
 62
     7
  6
Continuous
370
    -3
390
F
  0
LAYER
  5
6A
330
2
100
AcDbSymbolTableRecord
100
AcDbLayerTableRecord
  2
Default
 70
     0
 62
     7
  6
Continuous
370
    -3
390
F
  0
LAYER
  5
77
330
2
100
AcDbSymbolTableRecord
100
AcDbLayerTableRecord
  2
400885031_SCHLUE
 70
     0
 62
     7
  6
Continuous
370
    -3
390
F
  0
LAYER
  5
211
330
2
100
AcDbSymbolTableRecord
100
AcDbLayerTableRecord
  2
Layer3
 70
     0
 62
     7
  6
Continuous
370
    -3
390
F
  0
LAYER
  5
274
330
2
100
AcDbSymbolTableRecord
100
AcDbLayerTableRecord
  2
Standard
 70
     0
 62
     7
  6
Continuous
370
    -3
390
F
  0
LAYER
  5
292
330
2
100
AcDbSymbolTableRecord
100
AcDbLayerTableRecord
  2
Layer1
 70
     0
 62
     7
  6
Continuous
370
    -3
390
F
  0
ENDTAB
  0
TABLE
  2
STYLE
  5
3
330
0
100
AcDbSymbolTable
 70
     2
  0
STYLE
  5
11
330
3
100
AcDbSymbolTableRecord
100
AcDbTextStyleTableRecord
  2
Standard
 70
     0
 40
0.0
 41
1.0
 50
0.0
 71
     0
 42
2.5
  3
txt
  4

  0
STYLE
  5
224
330
3
100
AcDbSymbolTableRecord
100
AcDbTextStyleTableRecord
  2
SEACAD_Arial
 70
     0
 40
0.0
 41
1.0
 50
0.0
 71
     0
 42
2.5
  3
arial.ttf
  4

1001
ACAD
1000
Arial
1071
        0
  0
ENDTAB
  0
TABLE
  2
VIEW
  5
6
330
0
100
AcDbSymbolTable
 70
     0
  0
ENDTAB
  0
TABLE
  2
UCS
  5
7
330
0
100
AcDbSymbolTable
 70
     0
  0
ENDTAB
  0
TABLE
  2
APPID
  5
9
330
0
100
AcDbSymbolTable
 70
     1
  0
APPID
  5
12
330
9
100
AcDbSymbolTableRecord
100
AcDbRegAppTableRecord
  2
ACAD
 70
     0
  0
ENDTAB
  0
TABLE
  2
DIMSTYLE
  5
A
330
0
100
AcDbSymbolTable
 70
     2
100
AcDbDimStyleTable
  0
DIMSTYLE
105
27
330
A
100
AcDbSymbolTableRecord
100
AcDbDimStyleTableRecord
  2
ISO-25
 70
     0
 41
2.5
 42
0.625
 43
3.75
 44
1.25
 73
     0
 74
     0
 77
     1
 78
     8
140
2.5
141
2.5
143
0.0393700787
147
0.625
171
     3
172
     1
178
     0
271
     2
272
     2
274
     3
278
    44
283
     0
284
     8
340
11
  0
DIMSTYLE
105
212
102
{ACAD_REACTORS
330
225
330
230
330
23B
330
246
330
251
330
25C
330
268
102
}
330
A
100
AcDbSymbolTableRecord
100
AcDbDimStyleTableRecord
  2
Standard
 70
     0
178
     0
340
11
  0
ENDTAB
  0
TABLE
  2
BLOCK_RECORD
  5
1
330
0
100
AcDbSymbolTable
 70
    13
  0
BLOCK_RECORD
  5
1F
330
1
100
AcDbSymbolTableRecord
100
AcDbBlockTableRecord
  2
*Model_Space
340
22
  0
BLOCK_RECORD
  5
1B
330
1
100
AcDbSymbolTableRecord
100
AcDbBlockTableRecord
  2
*Paper_Space
340
1E
  0
BLOCK_RECORD
  5
75
330
1
100
AcDbSymbolTableRecord
100
AcDbBlockTableRecord
  2
SE
340
0
102
{BLKREFS
331
76
102
}
  0
BLOCK_RECORD
  5
213
330
1
100
AcDbSymbolTableRecord
100
AcDbBlockTableRecord
  2
_OBLIQUE
340
0
  0
BLOCK_RECORD
  5
217
330
1
100
AcDbSymbolTableRecord
100
AcDbBlockTableRecord
  2
_DOT
340
0
  0
BLOCK_RECORD
  5
21F
330
1
100
AcDbSymbolTableRecord
100
AcDbBlockTableRecord
  2
_SE_FILLED
340
0
  0
BLOCK_RECORD
  5
226
330
1
100
AcDbSymbolTableRecord
100
AcDbBlockTableRecord
  2
DMBLK185
340
0
  0
BLOCK_RECORD
  5
231
330
1
100
AcDbSymbolTableRecord
100
AcDbBlockTableRecord
  2
DMBLK186
340
0
  0
BLOCK_RECORD
  5
23C
330
1
100
AcDbSymbolTableRecord
100
AcDbBlockTableRecord
  2
DMBLK187
340
0
  0
BLOCK_RECORD
  5
247
330
1
100
AcDbSymbolTableRecord
100
AcDbBlockTableRecord
  2
DMBLK188
340
0
  0
BLOCK_RECORD
  5
252
330
1
100
AcDbSymbolTableRecord
100
AcDbBlockTableRecord
  2
DMBLK189
340
0
  0
BLOCK_RECORD
  5
25D
330
1
100
AcDbSymbolTableRecord
100
AcDbBlockTableRecord
  2
DMBLK190
340
0
  0
BLOCK_RECORD
  5
269
330
1
100
AcDbSymbolTableRecord
100
AcDbBlockTableRecord
  2
DMBLK191
340
0
  0
BLOCK_RECORD
  5
293
330
1
100
AcDbSymbolTableRecord
100
AcDbBlockTableRecord
  2
symb_tb_GroheLogo2013_ori
340
0
102
{BLKREFS
331
2D3
102
}
  0
ENDTAB
  0
ENDSEC
  0
SECTION
  2
BLOCKS
  0
BLOCK
  5
20
330
1F
100
AcDbEntity
  8
0
100
AcDbBlockBegin
  2
*Model_Space
 70
     0
 10
0.0
 20
0.0
 30
0.0
  3
*Model_Space
  1
*Model_Space
  0
ENDBLK
  5
21
330
1F
100
AcDbEntity
  8
0
100
AcDbBlockEnd
  0
BLOCK
  5
1C
330
1B
100
AcDbEntity
 67
     1
  8
0
100
AcDbBlockBegin
  2
*Paper_Space
 70
     0
 10
0.0
 20
0.0
 30
0.0
  3
*Paper_Space
  1
*Paper_Space
  0
ENDBLK
  5
1D
330
1B
100
AcDbEntity
 67
     1
  8
0
100
AcDbBlockEnd
  0
BLOCK
  5
20F
330
75
100
AcDbEntity
  8
0
100
AcDbBlockBegin
  2
SE
 70
     0
 10
0.0
 20
0.0
 30
0.0
  3
SE
  1
SE
  0
ARC
  5
78
330
75
100
AcDbEntity
  8
400885031_SCHLUE
  6
Continuous
 62
     7
100
AcDbCircle
 10
105.3660226495
 20
172.3843288309
 30
0.0
 40
17.5
100
AcDbArc
 50
132.1916676164
 51
119.8083323836
  0
ARC
  5
79
330
75
100
AcDbEntity
  8
400885031_SCHLUE
  6
Continuous
 62
     7
100
AcDbCircle
 10
105.3660226495
 20
172.3843288309
 30
0.0
 40
17.49999999999996
100
AcDbArc
 50
293.6632583492
 51
297.9416047675
  0
ARC
  5
7A
330
75
100
AcDbEntity
  8
400885031_SCHLUE
  6
Continuous
 62
     7
100
AcDbCircle
 10
105.3660226495
 20
172.3843288309
 30
0.0
 40
17.49999999999996
100
AcDbArc
 50
265.9105275894
 51
272.1969280069
  0
ARC
  5
7B
330
75
100
AcDbEntity
  8
400885031_SCHLUE
  6
Continuous
 62
     7
100
AcDbCircle
 10
105.3660226495
 20
172.3843288309
 30
0.0
 40
17.49999999999996
100
AcDbArc
 50
242.0583952325
 51
244.9663948029
  0
CIRCLE
  5
7C
330
75
100
AcDbEntity
  8
400885031_SCHLUE
  6
Continuous
 62
     7
100
AcDbCircle
 10
105.3660226495
 20
172.3843288309
 30
0.0
 40
10.0
  0
ARC
  5
7E
330
75
100
AcDbEntity
  8
400885031_SCHLUE
  6
HIDDEN2
 62
     7
100
AcDbCircle
 10
105.3660226495
 20
172.3843288309
 30
0.0
 40
12.05
100
AcDbArc
 50
41.6554135772
 51
174.3445864228
  0
LINE
  5
7F
330
75
100
AcDbEntity
  8
400885031_SCHLUE
  6
Continuous
 62
     7
100
AcDbLine
 10
112.4566384712
 20
133.5843288309
 30
0.0
 11
112.4566384712
 21
132.3843288309
 31
0.0
  0
LINE
  5
80
330
75
100
AcDbEntity
  8
400885031_SCHLUE
  6
Continuous
 62
     7
100
AcDbLine
 10
109.4957729912
 20
133.5843288309
 30
0.0
 11
109.4957729912
 21
132.3843288309
 31
0.0
  0
LINE
  5
81
330
75
100
AcDbEntity
  8
400885031_SCHLUE
  6
Continuous
 62
     7
100
AcDbLine
 10
101.2362723077
 20
132.3843288309
 30
0.0
 11
101.2362723077
 21
133.5843288309
 31
0.0
  0
LINE
  5
82
330
75
100
AcDbEntity
  8
400885031_SCHLUE
  6
Continuous
 62
     7
100
AcDbLine
 10
98.2754068278
 20
132.3843288309
 30
0.0
 11
98.2754068278
 21
133.5843288309
 31
0.0
  0
LINE
  5
83
330
75
100
AcDbEntity
  8
400885031_SCHLUE
  6
Continuous
 62
     7
100
AcDbLine
 10
122.3442778325
 20
209.4916234892
 30
0.0
 11
121.6389355297
 21
208.5208030959
 31
0.0
  0
LINE
  5
84
330
75
100
AcDbEntity
  8
400885031_SCHLUE
  6
Continuous
 62
     7
100
AcDbLine
 10
125.0723614476
 20
207.5095547228
 30
0.0
 11
124.3670191449
 21
206.5387343296
 31
0.0
  0
LINE
  5
85
330
75
100
AcDbEntity
  8
400885031_SCHLUE
  6
Continuous
 62
     7
100
AcDbLine
 10
131.977161732
 20
201.0096420958
 30
0.0
 11
132.6825040347
 21
201.9804624891
 31
0.0
  0
LINE
  5
86
330
75
100
AcDbEntity
  8
400885031_SCHLUE
  6
Continuous
 62
     7
100
AcDbLine
 10
134.7052453471
 20
199.0275733295
 30
0.0
 11
135.4105876499
 21
199.9983937227
 31
0.0
  0
LINE
  5
87
330
75
100
AcDbEntity
  8
400885031_SCHLUE
  6
Continuous
 62
     7
100
AcDbLine
 10
143.8179080628
 20
165.1676260138
 30
0.0
 11
144.9591758823
 21
164.7968056206
 31
0.0
  0
LINE
  5
88
330
75
100
AcDbEntity
  8
400885031_SCHLUE
  6
Continuous
 62
     7
100
AcDbLine
 10
141.8573907202
 20
155.2504924913
 30
0.0
 11
140.7161229007
 21
155.6213128846
 31
0.0
  0
LINE
  5
89
330
75
100
AcDbEntity
  8
400885031_SCHLUE
  6
Continuous
 62
     7
100
AcDbLine
 10
74.9316139774
 20
197.6138401542
 30
0.0
 11
73.9323790485
 21
198.9891690447
 31
0.0
  0
LINE
  5
8A
330
75
100
AcDbEntity
  8
400885031_SCHLUE
  6
Continuous
 62
     7
100
AcDbLine
 10
80.4766840248
 20
201.6425693645
 30
0.0
 11
79.4774490959
 21
203.0178982549
 31
0.0
  0
LINE
  5
8B
330
75
100
AcDbEntity
  8
400885031_SCHLUE
  6
Continuous
 62
     7
100
AcDbLine
 10
84.2317760196
 20
206.472118957
 30
0.0
 11
85.2310109485
 21
205.0967900665
 31
0.0
  0
LINE
  5
8C
330
75
100
AcDbEntity
  8
400885031_SCHLUE
  6
Continuous
 62
     7
100
AcDbLine
 10
89.7768460671
 20
210.5008481672
 30
0.0
 11
90.7760809959
 21
209.1255192768
 31
0.0
  0
LINE
  5
8D
330
75
100
AcDbEntity
  8
400885031_SCHLUE
  6
Continuous
 62
     7
100
AcDbLine
 10
72.644050054
 20
149.1508016538
 30
0.0
 11
71.0272539763
 21
148.6254727634
 31
0.0
  0
LINE
  5
8E
330
75
100
AcDbEntity
  8
400885031_SCHLUE
  6
Continuous
 62
     7
100
AcDbLine
 10
70.0518363282
 20
157.1288151624
 30
0.0
 11
68.4350402505
 21
156.603486272
 31
0.0
  0
LINE
  5
8F
330
75
100
AcDbEntity
  8
400885031_SCHLUE
  6
Continuous
 62
     7
100
AcDbLine
 10
67.8292798225
 20
163.9691407303
 30
0.0
 11
66.2124837448
 21
163.4438118399
 31
0.0
  0
LINE
  5
90
330
75
100
AcDbEntity
  8
400885031_SCHLUE
  6
Continuous
 62
     7
100
AcDbLine
 10
65.2370660968
 20
171.947154239
 30
0.0
 11
63.6202700191
 21
171.4218253485
 31
0.0
  0
LINE
  5
91
330
75
100
AcDbEntity
  8
400885031_SCHLUE
  6
Continuous
 62
     7
100
AcDbLine
 10
84.985623152
 20
175.2254956353
 30
0.0
 11
90.5479290508
 21
158.106478342
 31
0.0
  0
LINE
  5
92
330
75
100
AcDbEntity
  8
400885031_SCHLUE
  6
Continuous
 62
     7
100
AcDbLine
 10
77.1243141734
 20
178.401670632
 30
0.0
 11
86.0549053108
 21
150.9161373111
 31
0.0
  0
ARC
  5
93
330
75
100
AcDbEntity
  8
400885031_SCHLUE
  6
Continuous
 62
     7
100
AcDbCircle
 10
105.3660226495
 20
172.3843288309
 30
0.0
 40
12.9375
100
AcDbArc
 50
307.2497923765
 51
268.7502076235
  0
ARC
  5
94
330
75
100
AcDbEntity
  8
400885031_SCHLUE
  6
Continuous
 62
     7
100
AcDbCircle
 10
105.3660226495
 20
172.3843288309
 30
0.0
 40
14.06249999999999
100
AcDbArc
 50
219.8748327164
 51
356.1251672836
  0
SPLINE
  5
95
330
75
100
AcDbEntity
  8
400885031_SCHLUE
  6
Continuous
 62
     7
100
AcDbSpline
210
0.0
220
0.0
230
1.0
 70
     8
 71
     3
 72
    10
 73
     6
 74
     0
 42
0.000000001
 43
0.0000000001
 40
0.0
 40
0.0
 40
0.0
 40
0.0
 40
0.2499999999999999
 40
0.2499999999999999
 40
0.2779637137657213
 40
0.2779637137657213
 40
0.2779637137657213
 40
0.2779637137657213
 10
88.24052095288441
 20
175.9853275313108
 30
0.0
 10
88.01376878366825
 20
176.0868790674081
 30
0.0
 10
87.88229628525454
 20
176.1447643992456
 30
0.0
 10
87.85509829148658
 20
176.156785253859
 30
0.0
 10
87.85373394445328
 20
176.1573883034207
 30
0.0
 10
87.85373644160143
 20
176.1573872237695
 30
0.0
  0
LINE
  5
96
330
75
100
AcDbEntity
  8
400885031_SCHLUE
  6
Continuous
 62
     7
100
AcDbLine
 10
91.2745817554
 20
211.5890168405
 30
0.0
 11
91.5223656406
 21
211.7690423708
 31
0.0
  0
ARC
  5
97
330
75
100
AcDbEntity
  8
400885031_SCHLUE
  6
Continuous
 62
     7
100
AcDbCircle
 10
186.4028807193
 20
197.6197809395
 30
0.0
 40
79.70769857657761
100
AcDbArc
 50
185.1685374169
 51
185.5411932698
  0
LINE
  5
98
330
75
100
AcDbEntity
  8
400885031_SCHLUE
  6
Continuous
 62
     7
100
AcDbLine
 10
72.4346433602
 20
197.9010003714
 30
0.0
 11
72.186859475
 21
197.720974841
 31
0.0
  0
LINE
  5
99
330
75
100
AcDbEntity
  8
400885031_SCHLUE
  6
Continuous
 62
     7
100
AcDbLine
 10
97.2905990748
 20
132.3843288309
 30
0.0
 11
97.1660226495
 21
132.3843288309
 31
0.0
  0
LINE
  5
9A
330
75
100
AcDbEntity
  8
400885031_SCHLUE
  6
Continuous
 62
     7
100
AcDbLine
 10
113.4414462242
 20
132.3843288309
 30
0.0
 11
113.5660226495
 21
132.3843288309
 31
0.0
  0
LINE
  5
9B
330
75
100
AcDbEntity
  8
400885031_SCHLUE
  6
Continuous
 62
     7
100
AcDbLine
 10
136.2670683239
 20
199.3761240886
 30
0.0
 11
136.381065364
 21
199.2933003909
 31
0.0
  0
LINE
  5
9C
330
75
100
AcDbEntity
  8
400885031_SCHLUE
  6
Continuous
 62
     7
100
AcDbLine
 10
121.4877971585
 20
210.1138931232
 30
0.0
 11
121.3738001183
 21
210.1967168209
 31
0.0
  0
LINE
  5
9D
330
75
100
AcDbEntity
  8
400885031_SCHLUE
  6
Continuous
 62
     7
100
AcDbLine
 10
140.1520343502
 20
150.0019452664
 30
0.0
 11
140.1018014615
 21
149.8473443316
 31
0.0
  0
LINE
  5
9E
330
75
100
AcDbEntity
  8
400885031_SCHLUE
  6
Continuous
 62
     7
100
AcDbLine
 10
146.6645322523
 20
170.0453528455
 30
0.0
 11
146.7147651411
 21
170.1999537803
 31
0.0
  0
LINE
  5
9F
330
75
100
AcDbEntity
  8
400885031_SCHLUE
  6
Continuous
 62
     7
100
AcDbLine
 10
62.9729116651
 20
173.4141894972
 30
0.0
 11
62.858466429
 21
173.7664157164
 31
0.0
  0
LINE
  5
A0
330
75
100
AcDbEntity
  8
400885031_SCHLUE
  6
Continuous
 62
     7
100
AcDbLine
 10
71.6746123302
 20
146.6331086147
 30
0.0
 11
71.7890575664
 21
146.2808823955
 31
0.0
  0
LINE
  5
A1
330
75
100
AcDbEntity
  8
400885031_SCHLUE
  6
Continuous
 62
     7
100
AcDbLine
 10
64.5897077428
 20
173.9395183877
 30
0.0
 11
62.9729116651
 21
173.4141894972
 31
0.0
  0
LINE
  5
A2
330
75
100
AcDbEntity
  8
400885031_SCHLUE
  6
Continuous
 62
     7
100
AcDbLine
 10
65.8952338203
 20
169.9215222715
 30
0.0
 11
64.5897077428
 21
173.9395183877
 31
0.0
  0
LINE
  5
A3
330
75
100
AcDbEntity
  8
400885031_SCHLUE
  6
Continuous
 62
     7
100
AcDbLine
 10
65.8952338203
 20
169.9215222715
 30
0.0
 11
64.2784377426
 21
169.3961933811
 31
0.0
  0
LINE
  5
A4
330
75
100
AcDbEntity
  8
400885031_SCHLUE
  6
Continuous
 62
     7
100
AcDbLine
 10
64.2784377426
 20
169.3961933811
 30
0.0
 11
66.0182359202
 21
164.0416451721
 31
0.0
  0
LINE
  5
A5
330
75
100
AcDbEntity
  8
400885031_SCHLUE
  6
Continuous
 62
     7
100
AcDbLine
 10
67.6350319979
 20
164.5669740625
 30
0.0
 11
66.0182359202
 21
164.0416451721
 31
0.0
  0
LINE
  5
A6
330
75
100
AcDbEntity
  8
400885031_SCHLUE
  6
Continuous
 62
     7
100
AcDbLine
 10
70.2460841529
 20
156.5309818303
 30
0.0
 11
67.6350319979
 21
164.5669740625
 31
0.0
  0
LINE
  5
A7
330
75
100
AcDbEntity
  8
400885031_SCHLUE
  6
Continuous
 62
     7
100
AcDbLine
 10
70.2460841529
 20
156.5309818303
 30
0.0
 11
68.6292880752
 21
156.0056529398
 31
0.0
  0
LINE
  5
A8
330
75
100
AcDbEntity
  8
400885031_SCHLUE
  6
Continuous
 62
     7
100
AcDbLine
 10
68.6292880752
 20
156.0056529398
 30
0.0
 11
70.3690862527
 21
150.6511047308
 31
0.0
  0
LINE
  5
A9
330
75
100
AcDbEntity
  8
400885031_SCHLUE
  6
Continuous
 62
     7
100
AcDbLine
 10
71.9858823304
 20
151.1764336212
 30
0.0
 11
70.3690862527
 21
150.6511047308
 31
0.0
  0
LINE
  5
AA
330
75
100
AcDbEntity
  8
400885031_SCHLUE
  6
Continuous
 62
     7
100
AcDbLine
 10
73.2914084079
 20
147.1584375051
 30
0.0
 11
71.9858823304
 21
151.1764336212
 31
0.0
  0
LINE
  5
AB
330
75
100
AcDbEntity
  8
400885031_SCHLUE
  6
Continuous
 62
     7
100
AcDbLine
 10
73.2914084079
 20
147.1584375051
 30
0.0
 11
71.6746123302
 21
146.6331086147
 31
0.0
  0
LINE
  5
AC
330
75
100
AcDbEntity
  8
400885031_SCHLUE
  6
Continuous
 62
     7
100
AcDbLine
 10
72.6742933334
 20
163.8277594644
 30
0.0
 11
73.2767486432
 21
164.0235090607
 31
0.0
  0
LINE
  5
AD
330
75
100
AcDbEntity
  8
400885031_SCHLUE
  6
Continuous
 62
     7
100
AcDbLine
 10
73.0212182685
 20
164.8099506882
 30
0.0
 11
73.2767486432
 21
164.0235090607
 31
0.0
  0
LINE
  5
AE
330
75
100
AcDbEntity
  8
400885031_SCHLUE
  6
Continuous
 62
     7
100
AcDbLine
 10
73.0212182685
 20
164.8099506882
 30
0.0
 11
72.4187629587
 21
164.614201092
 31
0.0
  0
LINE
  5
AF
330
75
100
AcDbEntity
  8
400885031_SCHLUE
  6
Continuous
 62
     7
100
AcDbLine
 10
72.2846035146
 20
165.0271014044
 30
0.0
 11
72.4187629587
 21
164.614201092
 31
0.0
  0
LINE
  5
B0
330
75
100
AcDbEntity
  8
400885031_SCHLUE
  6
Continuous
 62
     7
100
AcDbLine
 10
72.2846035146
 20
165.0271014044
 30
0.0
 11
73.9263781407
 21
165.5605463171
 31
0.0
  0
LINE
  5
B1
330
75
100
AcDbEntity
  8
400885031_SCHLUE
  6
Continuous
 62
     7
100
AcDbLine
 10
73.9263781407
 20
165.5605463171
 30
0.0
 11
74.0605375847
 21
165.1476460048
 31
0.0
  0
LINE
  5
B2
330
75
100
AcDbEntity
  8
400885031_SCHLUE
  6
Continuous
 62
     7
100
AcDbLine
 10
74.0605375847
 20
165.1476460048
 30
0.0
 11
73.3569193444
 21
164.9190265799
 31
0.0
  0
LINE
  5
B3
330
75
100
AcDbEntity
  8
400885031_SCHLUE
  6
Continuous
 62
     7
100
AcDbLine
 10
73.3569193444
 20
164.9190265799
 30
0.0
 11
73.6124497191
 21
164.1325849523
 31
0.0
  0
LINE
  5
B4
330
75
100
AcDbEntity
  8
400885031_SCHLUE
  6
Continuous
 62
     7
100
AcDbLine
 10
73.6124497191
 20
164.1325849523
 30
0.0
 11
74.3160679595
 21
164.3612043772
 31
0.0
  0
LINE
  5
B5
330
75
100
AcDbEntity
  8
400885031_SCHLUE
  6
Continuous
 62
     7
100
AcDbLine
 10
74.3160679595
 20
164.3612043772
 30
0.0
 11
74.4522308182
 21
163.9421381884
 31
0.0
  0
LINE
  5
B6
330
75
100
AcDbEntity
  8
400885031_SCHLUE
  6
Continuous
 62
     7
100
AcDbLine
 10
74.4522308182
 20
163.9421381884
 30
0.0
 11
72.8104561922
 21
163.4086932756
 31
0.0
  0
LINE
  5
B7
330
75
100
AcDbEntity
  8
400885031_SCHLUE
  6
Continuous
 62
     7
100
AcDbLine
 10
72.6742933334
 20
163.8277594644
 30
0.0
 11
72.8104561922
 21
163.4086932756
 31
0.0
  0
LINE
  5
B8
330
75
100
AcDbEntity
  8
400885031_SCHLUE
  6
Continuous
 62
     7
100
AcDbLine
 10
71.7592538605
 20
166.6439613863
 30
0.0
 11
72.0172469616
 21
166.7277884263
 31
0.0
  0
LINE
  5
B9
330
75
100
AcDbEntity
  8
400885031_SCHLUE
  6
Continuous
 62
     7
100
AcDbLine
 10
72.0172469616
 20
166.7277884263
 30
0.0
 11
72.2472445033
 21
166.0199287788
 31
0.0
  0
LINE
  5
BA
330
75
100
AcDbEntity
  8
400885031_SCHLUE
  6
Continuous
 62
     7
100
AcDbLine
 10
72.2472445033
 20
166.0199287788
 30
0.0
 11
72.6694146867
 21
166.1571001865
 31
0.0
  0
LINE
  5
BB
330
75
100
AcDbEntity
  8
400885031_SCHLUE
  6
Continuous
 62
     7
100
AcDbLine
 10
72.4877968133
 20
166.7160625254
 30
0.0
 11
72.6694146867
 21
166.1571001865
 31
0.0
  0
LINE
  5
BC
330
75
100
AcDbEntity
  8
400885031_SCHLUE
  6
Continuous
 62
     7
100
AcDbLine
 10
72.4877968133
 20
166.7160625254
 30
0.0
 11
72.7457899145
 21
166.7998895655
 31
0.0
  0
LINE
  5
BD
330
75
100
AcDbEntity
  8
400885031_SCHLUE
  6
Continuous
 62
     7
100
AcDbLine
 10
72.7457899145
 20
166.7998895655
 30
0.0
 11
72.9274077878
 21
166.2409272266
 31
0.0
  0
LINE
  5
BE
330
75
100
AcDbEntity
  8
400885031_SCHLUE
  6
Continuous
 62
     7
100
AcDbLine
 10
72.9274077878
 20
166.2409272266
 30
0.0
 11
73.3730319759
 21
166.3857193024
 31
0.0
  0
LINE
  5
BF
330
75
100
AcDbEntity
  8
400885031_SCHLUE
  6
Continuous
 62
     7
100
AcDbLine
 10
73.1209316341
 20
167.1616043743
 30
0.0
 11
73.3730319759
 21
166.3857193024
 31
0.0
  0
LINE
  5
C0
330
75
100
AcDbEntity
  8
400885031_SCHLUE
  6
Continuous
 62
     7
100
AcDbLine
 10
73.1209316341
 20
167.1616043743
 30
0.0
 11
73.3789256863
 21
167.2454317233
 31
0.0
  0
LINE
  5
C1
330
75
100
AcDbEntity
  8
400885031_SCHLUE
  6
Continuous
 62
     7
100
AcDbLine
 10
73.3789256863
 20
167.2454317233
 30
0.0
 11
73.7625559923
 21
166.0647390463
 31
0.0
  0
LINE
  5
C2
330
75
100
AcDbEntity
  8
400885031_SCHLUE
  6
Continuous
 62
     7
100
AcDbLine
 10
73.7625559923
 20
166.0647390463
 30
0.0
 11
72.1207813662
 21
165.5312941335
 31
0.0
  0
LINE
  5
C3
330
75
100
AcDbEntity
  8
400885031_SCHLUE
  6
Continuous
 62
     7
100
AcDbLine
 10
71.7592538605
 20
166.6439613863
 30
0.0
 11
72.1207813662
 21
165.5312941335
 31
0.0
  0
LINE
  5
C4
330
75
100
AcDbEntity
  8
400885031_SCHLUE
  6
Continuous
 62
     7
100
AcDbLine
 10
75.647981079
 20
158.9687041624
 30
0.0
 11
75.2071853931
 21
158.8254804443
 31
0.0
  0
LINE
  5
C5
330
75
100
AcDbEntity
  8
400885031_SCHLUE
  6
Continuous
 62
     7
100
AcDbLine
 10
75.0737787067
 20
159.2360640069
 30
0.0
 11
75.2071853931
 21
158.8254804443
 31
0.0
  0
LINE
  5
C6
330
75
100
AcDbEntity
  8
400885031_SCHLUE
  6
Continuous
 62
     7
100
AcDbLine
 10
75.0737787067
 20
159.2360640069
 30
0.0
 11
75.7057913899
 21
159.441417376
 31
0.0
  0
LINE
  5
C7
330
75
100
AcDbEntity
  8
400885031_SCHLUE
  6
Continuous
 62
     7
100
AcDbLine
 10
75.7057801367
 20
159.4414011537
 30
0.0
 11
75.8429854018
 21
159.3283798322
 31
0.0
  0
ARC
  5
C8
330
75
100
AcDbEntity
  8
400885031_SCHLUE
  6
Continuous
 62
     7
100
AcDbCircle
 10
74.7920826056
 20
158.3736979823
 30
0.0
 40
1.419310516678641
100
AcDbArc
 50
353.7801758712
 51
42.2530207188
  0
ARC
  5
C9
330
75
100
AcDbEntity
  8
400885031_SCHLUE
  6
Continuous
 62
     7
100
AcDbCircle
 10
75.3620444513
 20
158.3741291919
 30
0.0
 40
0.8550144497595613
100
AcDbArc
 50
226.3903337914
 51
349.609705214
  0
ARC
  5
CA
330
75
100
AcDbEntity
  8
400885031_SCHLUE
  6
Continuous
 62
     7
100
AcDbCircle
 10
75.8220548629
 20
158.7090166758
 30
0.0
 40
1.418458348357302
100
AcDbArc
 50
173.7505829229
 51
222.2631576409
  0
LINE
  5
CB
330
75
100
AcDbEntity
  8
400885031_SCHLUE
  6
Continuous
 62
     7
100
AcDbLine
 10
74.4121962999
 20
158.8634041574
 30
0.0
 11
74.4564739611
 21
159.0354879071
 31
0.0
  0
LINE
  5
CC
330
75
100
AcDbEntity
  8
400885031_SCHLUE
  6
Continuous
 62
     7
100
AcDbLine
 10
74.4564740542
 20
159.0354877444
 30
0.0
 11
74.7202608348
 21
159.1211977523
 31
0.0
  0
ARC
  5
CD
330
75
100
AcDbEntity
  8
400885031_SCHLUE
  6
Continuous
 62
     7
100
AcDbCircle
 10
76.4650609251
 20
158.9137588711
 30
0.0
 40
1.757083407521522
100
AcDbArc
 50
173.2202677929
 51
197.9872194193
  0
ARC
  5
CE
330
75
100
AcDbEntity
  8
400885031_SCHLUE
  6
Continuous
 62
     7
100
AcDbCircle
 10
75.4453133469
 20
158.581626947
 30
0.0
 40
0.6846123395236384
100
AcDbArc
 50
197.9038526032
 51
228.8118265798
  0
ARC
  5
CF
330
75
100
AcDbEntity
  8
400885031_SCHLUE
  6
Continuous
 62
     7
100
AcDbCircle
 10
75.323275153
 20
158.4681860583
 30
0.0
 40
0.519158843273048
100
AcDbArc
 50
230.7032627271
 51
345.2965737298
  0
ARC
  5
D0
330
75
100
AcDbEntity
  8
400885031_SCHLUE
  6
Continuous
 62
     7
100
AcDbCircle
 10
75.1506271847
 20
158.4880765098
 30
0.0
 40
0.6916385159620868
100
AcDbArc
 50
347.3333656536
 51
44.0201761619
  0
LINE
  5
D1
330
75
100
AcDbEntity
  8
400885031_SCHLUE
  6
Continuous
 62
     7
100
AcDbLine
 10
74.2910085413
 20
159.9605691312
 30
0.0
 11
75.6069892471
 21
160.3881571824
 31
0.0
  0
LINE
  5
D2
330
75
100
AcDbEntity
  8
400885031_SCHLUE
  6
Continuous
 62
     7
100
AcDbLine
 10
75.6069892471
 20
160.3881571824
 30
0.0
 11
75.7421988179
 21
159.9720249126
 31
0.0
  0
LINE
  5
D3
330
75
100
AcDbEntity
  8
400885031_SCHLUE
  6
Continuous
 62
     7
100
AcDbLine
 10
75.7421988179
 20
159.9720249126
 30
0.0
 11
74.1004241918
 21
159.4385799998
 31
0.0
  0
LINE
  5
D4
330
75
100
AcDbEntity
  8
400885031_SCHLUE
  6
Continuous
 62
     7
100
AcDbLine
 10
73.7864136163
 20
160.4050051784
 30
0.0
 11
74.1004241918
 21
159.4385799998
 31
0.0
  0
ARC
  5
D5
330
75
100
AcDbEntity
  8
400885031_SCHLUE
  6
Continuous
 62
     7
100
AcDbCircle
 10
74.2544647993
 20
160.5560141746
 30
0.0
 40
0.4915482120754854
100
AcDbArc
 50
107.8355151825
 51
197.8813523273
  0
ARC
  5
D6
330
75
100
AcDbEntity
  8
400885031_SCHLUE
  6
Continuous
 62
     7
100
AcDbCircle
 10
74.2571358699
 20
160.5558912707
 30
0.0
 40
0.4924896902701398
100
AcDbArc
 50
34.179430231
 51
108.1269520963
  0
LINE
  5
D7
330
75
100
AcDbEntity
  8
400885031_SCHLUE
  6
Continuous
 62
     7
100
AcDbLine
 10
74.6645601548
 20
160.8325680541
 30
0.0
 11
75.2213814444
 21
161.5749359686
 31
0.0
  0
LINE
  5
D8
330
75
100
AcDbEntity
  8
400885031_SCHLUE
  6
Continuous
 62
     7
100
AcDbLine
 10
75.2213814444
 20
161.5749359686
 30
0.0
 11
75.3955407366
 21
161.0389287821
 31
0.0
  0
LINE
  5
D9
330
75
100
AcDbEntity
  8
400885031_SCHLUE
  6
Continuous
 62
     7
100
AcDbLine
 10
75.3955435258
 20
161.038930803
 30
0.0
 11
74.7261008309
 21
160.21757973
 31
0.0
  0
LINE
  5
DA
330
75
100
AcDbEntity
  8
400885031_SCHLUE
  6
Continuous
 62
     7
100
AcDbLine
 10
74.6418106984
 20
160.4769980832
 30
0.0
 11
74.7261008309
 21
160.21757973
 31
0.0
  0
ARC
  5
DB
330
75
100
AcDbEntity
  8
400885031_SCHLUE
  6
Continuous
 62
     7
100
AcDbCircle
 10
74.4077123027
 20
160.399481488
 30
0.0
 40
0.246464879930148
100
AcDbArc
 50
18.321369819
 51
197.6786596303
  0
LINE
  5
DC
330
75
100
AcDbEntity
  8
400885031_SCHLUE
  6
Continuous
 62
     7
100
AcDbLine
 10
74.1727324817
 20
160.3245854128
 30
0.0
 11
74.2910085413
 21
159.9605691312
 31
0.0
  0
ARC
  5
DD
330
75
100
AcDbEntity
  8
400885031_SCHLUE
  6
Continuous
 62
     7
100
AcDbCircle
 10
74.1490241217
 20
162.1074226966
 30
0.0
 40
0.834378983656146
100
AcDbArc
 50
223.6458939142
 51
352.35407094
  0
ARC
  5
DE
330
75
100
AcDbEntity
  8
400885031_SCHLUE
  6
Continuous
 62
     7
100
AcDbCircle
 10
74.689665396
 20
162.5394012557
 30
0.0
 40
1.524951815683234
100
AcDbArc
 50
174.6301275069
 51
221.3698379868
  0
ARC
  5
DF
330
75
100
AcDbEntity
  8
400885031_SCHLUE
  6
Continuous
 62
     7
100
AcDbCircle
 10
73.9986054247
 20
162.5703643408
 30
0.0
 40
0.83471347420991
100
AcDbArc
 50
43.6937083609
 51
172.3062916392
  0
ARC
  5
E0
330
75
100
AcDbEntity
  8
400885031_SCHLUE
  6
Continuous
 62
     7
100
AcDbCircle
 10
73.4578655297
 20
162.1391656177
 30
0.0
 40
1.524816692736814
100
AcDbArc
 50
354.6279335419
 51
41.3720509041
  0
ARC
  5
E1
330
75
100
AcDbEntity
  8
400885031_SCHLUE
  6
Continuous
 62
     7
100
AcDbCircle
 10
74.9373735374
 20
162.6205792863
 30
0.0
 40
2.213335016492872
100
AcDbArc
 50
1.2051323111
 51
34.7615541498
  0
LINE
  5
E2
330
75
100
AcDbEntity
  8
400885031_SCHLUE
  6
Continuous
 62
     7
100
AcDbLine
 10
77.1506141289
 20
162.667132156
 30
0.0
 11
77.1559353848
 21
161.6076136109
 31
0.0
  0
ARC
  5
E3
330
75
100
AcDbEntity
  8
400885031_SCHLUE
  6
Continuous
 62
     7
100
AcDbCircle
 10
79.0818618465
 20
161.6431656738
 30
0.0
 40
1.92600050145748
100
AcDbArc
 50
181.0576218955
 51
214.9827247816
  0
ELLIPSE
  5
E4
330
75
100
AcDbEntity
  8
400885031_SCHLUE
  6
Continuous
 62
     7
100
AcDbEllipse
 10
76.7382396408
 20
163.0825982067
 30
0.0
 11
8.799044623464411
 21
-12.33217236434718
 31
0.0
210
0.0
220
0.0
230
1.0
 40
0.0572107086
 41
-1.403990948251082
 42
-1.378779709505517
  0
SPLINE
  5
E5
330
75
100
AcDbEntity
  8
400885031_SCHLUE
  6
Continuous
 62
     7
100
AcDbSpline
210
0.0
220
0.0
230
1.0
 70
    12
 71
     2
 72
     6
 73
     3
 74
     0
 42
0.000000001
 43
0.0000000001
 40
0.0
 40
0.0
 40
0.0
 40
1.0
 40
1.0
 40
1.0
 10
77.72487346650072
 20
160.2349929937166
 30
0.0
 41
1.0
 10
77.71120268537052
 20
160.1493739414838
 30
0.0
 41
1.0
 10
77.69747490295218
 20
160.0639303075948
 30
0.0
 41
1.0
  0
ELLIPSE
  5
E6
330
75
100
AcDbEntity
  8
400885031_SCHLUE
  6
Continuous
 62
     7
100
AcDbEllipse
 10
76.6445757873
 20
163.0521650386
 30
0.0
 11
8.793382453135964
 21
-12.33385034895848
 31
0.0
210
0.0
220
0.0
230
1.0
 40
0.0591300265
 41
-1.40211502882106
 42
-1.368435255923823
  0
ARC
  5
E7
330
75
100
AcDbEntity
  8
400885031_SCHLUE
  6
Continuous
 62
     7
100
AcDbCircle
 10
79.0789789628
 20
161.6410586646
 30
0.0
 40
2.04590297845104
100
AcDbArc
 50
181.0177403775
 51
214.9492064793
  0
LINE
  5
E8
330
75
100
AcDbEntity
  8
400885031_SCHLUE
  6
Continuous
 62
     7
100
AcDbLine
 10
77.0329681534
 20
161.6047149946
 30
0.0
 11
77.0275932694
 21
162.6644021994
 31
0.0
  0
ARC
  5
E9
330
75
100
AcDbEntity
  8
400885031_SCHLUE
  6
Continuous
 62
     7
100
AcDbCircle
 10
74.9381813349
 20
162.6193831754
 30
0.0
 40
2.089642327455541
100
AcDbArc
 50
1.2344327238
 51
34.8039440465
  0
LINE
  5
EA
330
75
100
AcDbEntity
  8
400885031_SCHLUE
  6
Continuous
 62
     7
100
AcDbLine
 10
76.6543546039
 20
163.8123389165
 30
0.0
 11
76.0405235539
 21
164.6628417142
 31
0.0
  0
ARC
  5
EB
330
75
100
AcDbEntity
  8
400885031_SCHLUE
  6
Continuous
 62
     7
100
AcDbCircle
 10
77.710564658
 20
165.8312016425
 30
0.0
 40
2.037907850121732
100
AcDbArc
 50
180.9904718303
 51
214.9765406297
  0
ELLIPSE
  5
EC
330
75
100
AcDbEntity
  8
400885031_SCHLUE
  6
Continuous
 62
     7
100
AcDbEllipse
 10
76.6575523423
 20
163.0563813822
 30
0.0
 11
-0.1495583100709665
 21
15.14193498941351
 31
0.0
210
0.0
220
0.0
230
1.0
 40
0.0643328838
 41
1.349248901314316
 42
1.388231678239658
  0
SPLINE
  5
ED
330
75
100
AcDbEntity
  8
400885031_SCHLUE
  6
Continuous
 62
     7
100
AcDbSpline
210
0.0
220
0.0
230
1.0
 70
    12
 71
     2
 72
     6
 73
     3
 74
     0
 42
0.000000001
 43
0.0000000001
 40
0.0
 40
0.0
 40
0.0
 40
1.0
 40
1.0
 40
1.0
 10
75.6743731072929
 20
166.3742760971652
 30
0.0
 41
1.0
 10
75.73558231272398
 20
166.3126591143106
 30
0.0
 41
1.0
 10
75.79685531424826
 20
166.2508457711582
 30
0.0
 41
1.0
  0
ELLIPSE
  5
EE
330
75
100
AcDbEntity
  8
400885031_SCHLUE
  6
Continuous
 62
     7
100
AcDbEllipse
 10
76.7509431559
 20
163.086725874
 30
0.0
 11
-0.1435966048241484
 21
15.14404754796631
 31
0.0
210
0.0
220
0.0
230
1.0
 40
0.0623991323
 41
1.359719008582092
 42
1.390110099823653
  0
ARC
  5
EF
330
75
100
AcDbEntity
  8
400885031_SCHLUE
  6
Continuous
 62
     7
100
AcDbCircle
 10
77.7111165066
 20
165.8329558641
 30
0.0
 40
1.915683171976871
100
AcDbArc
 50
181.0045879554
 51
215.033105832
  0
LINE
  5
F0
330
75
100
AcDbEntity
  8
400885031_SCHLUE
  6
Continuous
 62
     7
100
AcDbLine
 10
76.1421391947
 20
164.7329899971
 30
0.0
 11
76.7559051458
 21
163.8826883644
 31
0.0
  0
ARC
  5
F1
330
75
100
AcDbEntity
  8
400885031_SCHLUE
  6
Continuous
 62
     7
100
AcDbCircle
 10
278.773087183
 20
166.9084259381
 30
0.0
 40
203.5679489325532
100
AcDbArc
 50
180.0319770359
 51
180.3657779002
  0
ARC
  5
F2
330
75
100
AcDbEntity
  8
400885031_SCHLUE
  6
Continuous
 62
     7
100
AcDbCircle
 10
77.1257358151
 20
165.6429219472
 30
0.0
 40
1.9167521221657
100
AcDbArc
 50
181.0185022244
 51
215.0283320708
  0
LINE
  5
F3
330
75
100
AcDbEntity
  8
400885031_SCHLUE
  6
Continuous
 62
     7
100
AcDbLine
 10
75.5557914945
 20
164.5424731985
 30
0.0
 11
76.169558551
 21
163.6921695529
 31
0.0
  0
ARC
  5
F4
330
75
100
AcDbEntity
  8
400885031_SCHLUE
  6
Continuous
 62
     7
100
AcDbCircle
 10
74.351030244
 20
162.430064531
 30
0.0
 40
2.21332948724167
100
AcDbArc
 50
1.2051664947
 51
34.7615180852
  0
LINE
  5
F5
330
75
100
AcDbEntity
  8
400885031_SCHLUE
  6
Continuous
 62
     7
100
AcDbLine
 10
76.5642653454
 20
162.4766186817
 30
0.0
 11
76.5695866168
 21
161.417097522
 31
0.0
  0
ARC
  5
F6
330
75
100
AcDbEntity
  8
400885031_SCHLUE
  6
Continuous
 62
     7
100
AcDbCircle
 10
78.4950406593
 20
161.4525691744
 30
0.0
 40
1.925526679816433
100
AcDbArc
 50
181.0554890841
 51
214.9889093224
  0
LINE
  5
F7
330
75
100
AcDbEntity
  8
400885031_SCHLUE
  6
Continuous
 62
     7
100
AcDbLine
 10
76.9171500909
 20
160.348167994
 30
0.0
 11
77.5646817397
 21
159.4584800731
 31
0.0
  0
SPLINE
  5
F8
330
75
100
AcDbEntity
  8
400885031_SCHLUE
  6
Continuous
 62
     7
100
AcDbSpline
210
0.0
220
0.0
230
1.0
 70
    12
 71
     2
 72
     6
 73
     3
 74
     0
 42
0.000000001
 43
0.0000000001
 40
0.0
 40
0.0
 40
0.0
 40
1.0
 40
1.0
 40
1.0
 10
77.5646817396792
 20
159.4584800731394
 30
0.0
 41
1.0
 10
77.5420228858151
 20
159.377867543986
 30
0.0
 41
1.0
 10
77.51930604022006
 20
159.2974334784765
 30
0.0
 41
1.0
  0
LINE
  5
F9
330
75
100
AcDbEntity
  8
400885031_SCHLUE
  6
Continuous
 62
     7
100
AcDbLine
 10
77.5193060402
 20
159.2974334785
 30
0.0
 11
76.8153846036
 21
160.278336911
 31
0.0
  0
ARC
  5
FA
330
75
100
AcDbEntity
  8
400885031_SCHLUE
  6
Continuous
 62
     7
100
AcDbCircle
 10
78.4936633581
 20
161.4507162895
 30
0.0
 40
2.046938518633233
100
AcDbArc
 50
181.0220885127
 51
214.9366182253
  0
LINE
  5
FB
330
75
100
AcDbEntity
  8
400885031_SCHLUE
  6
Continuous
 62
     7
100
AcDbLine
 10
76.4466199368
 20
161.4141989102
 30
0.0
 11
76.4412450412
 21
162.4738883202
 31
0.0
  0
ARC
  5
FC
330
75
100
AcDbEntity
  8
400885031_SCHLUE
  6
Continuous
 62
     7
100
AcDbCircle
 10
74.3518307493
 20
162.4288658701
 30
0.0
 40
2.089644958638787
100
AcDbArc
 50
1.2345244023
 51
34.8038450099
  0
LINE
  5
FD
330
75
100
AcDbEntity
  8
400885031_SCHLUE
  6
Continuous
 62
     7
100
AcDbLine
 10
76.0680083569
 20
163.6218200979
 30
0.0
 11
75.4541753373
 21
164.4723256298
 31
0.0
  0
ARC
  5
FE
330
75
100
AcDbEntity
  8
400885031_SCHLUE
  6
Continuous
 62
     7
100
AcDbCircle
 10
77.1235770998
 20
165.6403671483
 30
0.0
 40
2.037201459228603
100
AcDbArc
 50
180.9818339801
 51
214.9795104911
  0
LINE
  5
FF
330
75
100
AcDbEntity
  8
400885031_SCHLUE
  6
Continuous
 62
     7
100
AcDbLine
 10
75.0862394102
 20
165.6054561718
 30
0.0
 11
75.0924422076
 21
166.8841116942
 31
0.0
  0
SPLINE
  5
100
330
75
100
AcDbEntity
  8
400885031_SCHLUE
  6
Continuous
 62
     7
100
AcDbSpline
210
0.0
220
0.0
230
1.0
 70
    12
 71
     2
 72
     6
 73
     3
 74
     0
 42
0.000000001
 43
0.0000000001
 40
0.0
 40
0.0
 40
0.0
 40
1.0
 40
1.0
 40
1.0
 10
75.09244220756251
 20
166.8841116942079
 30
0.0
 41
1.0
 10
75.14878266263463
 20
166.8395348001003
 30
0.0
 41
1.0
 10
75.20516995415387
 20
166.7948137432345
 30
0.0
 41
1.0
  0
LINE
  5
101
330
75
100
AcDbEntity
  8
400885031_SCHLUE
  6
Continuous
 62
     7
100
AcDbLine
 10
74.977368387
 20
164.3555360242
 30
0.0
 11
75.5910859706
 21
163.5052992297
 31
0.0
  0
ARC
  5
102
330
75
100
AcDbEntity
  8
400885031_SCHLUE
  6
Continuous
 62
     7
100
AcDbCircle
 10
73.7732013702
 20
162.2423661661
 30
0.0
 40
2.213274890759163
100
AcDbArc
 50
1.2036805786
 51
34.7886321754
  0
LINE
  5
103
330
75
100
AcDbEntity
  8
400885031_SCHLUE
  6
Continuous
 62
     7
100
AcDbLine
 10
75.9864115692
 20
162.2888619282
 30
0.0
 11
75.9917338988
 21
161.2293382706
 31
0.0
  0
ARC
  5
104
330
75
100
AcDbEntity
  8
400885031_SCHLUE
  6
Continuous
 62
     7
100
AcDbCircle
 10
77.9171683498
 20
161.2648090701
 30
0.0
 40
1.925506427166374
100
AcDbArc
 50
181.0554784997
 51
214.9891777128
  0
LINE
  5
105
330
75
100
AcDbEntity
  8
400885031_SCHLUE
  6
Continuous
 62
     7
100
AcDbLine
 10
76.339300959
 20
160.1604118797
 30
0.0
 11
76.9468064738
 21
159.3293795907
 31
0.0
  0
ARC
  5
106
330
75
100
AcDbEntity
  8
400885031_SCHLUE
  6
Continuous
 62
     7
100
AcDbCircle
 10
75.2861708466
 20
158.1458152779
 30
0.0
 40
2.039030476776164
100
AcDbArc
 50
12.9787154209
 51
35.4781691405
  0
SPLINE
  5
107
330
75
100
AcDbEntity
  8
400885031_SCHLUE
  6
Continuous
 62
     7
100
AcDbSpline
210
0.0
220
0.0
230
1.0
 70
    12
 71
     2
 72
     6
 73
     3
 74
     0
 42
0.000000001
 43
0.0000000001
 40
0.0
 40
0.0
 40
0.0
 40
1.0
 40
1.0
 40
1.0
 10
77.27319978295141
 20
158.6037255830847
 30
0.0
 41
1.0
 10
77.22899550664768
 20
158.5026525596781
 30
0.0
 41
1.0
 10
77.1846911137274
 20
158.4018876646508
 30
0.0
 41
1.0
  0
ARC
  5
108
330
75
100
AcDbEntity
  8
400885031_SCHLUE
  6
Continuous
 62
     7
100
AcDbCircle
 10
75.2660946152
 20
158.1386831156
 30
0.0
 40
1.936565021715595
100
AcDbArc
 50
7.8114388154
 51
35.3849415643
  0
LINE
  5
109
330
75
100
AcDbEntity
  8
400885031_SCHLUE
  6
Continuous
 62
     7
100
AcDbLine
 10
76.8449222305
 20
159.2600731785
 30
0.0
 11
76.2375724078
 21
160.090605702
 31
0.0
  0
ARC
  5
10A
330
75
100
AcDbEntity
  8
400885031_SCHLUE
  6
Continuous
 62
     7
100
AcDbCircle
 10
77.9155256025
 20
161.2629118692
 30
0.0
 40
2.046653135692035
100
AcDbArc
 50
181.0209653258
 51
214.9400957888
  0
LINE
  5
10B
330
75
100
AcDbEntity
  8
400885031_SCHLUE
  6
Continuous
 62
     7
100
AcDbLine
 10
75.8687665705
 20
161.2264399149
 30
0.0
 11
75.8633907035
 21
162.2861332209
 31
0.0
  0
ARC
  5
10C
330
75
100
AcDbEntity
  8
400885031_SCHLUE
  6
Continuous
 62
     7
100
AcDbCircle
 10
73.7739851879
 20
162.2411136877
 30
0.0
 40
2.089635360645707
100
AcDbArc
 50
1.2344495723
 51
34.8038905648
  0
LINE
  5
10D
330
75
100
AcDbEntity
  8
400885031_SCHLUE
  6
Continuous
 62
     7
100
AcDbLine
 10
75.4901540249
 20
163.4340638459
 30
0.0
 11
74.8763198008
 21
164.2845726661
 31
0.0
  0
ARC
  5
10E
330
75
100
AcDbEntity
  8
400885031_SCHLUE
  6
Continuous
 62
     7
100
AcDbCircle
 10
76.5456716531
 20
165.452588609
 30
0.0
 40
2.037145458882482
100
AcDbArc
 50
180.9812320335
 51
214.9797215693
  0
LINE
  5
10F
330
75
100
AcDbEntity
  8
400885031_SCHLUE
  6
Continuous
 62
     7
100
AcDbLine
 10
74.5083939792
 20
165.4176999857
 30
0.0
 11
74.512663222
 21
166.4432401628
 31
0.0
  0
ARC
  5
110
330
75
100
AcDbEntity
  8
400885031_SCHLUE
  6
Continuous
 62
     7
100
AcDbCircle
 10
72.6138571893
 20
166.4295276939
 30
0.0
 40
1.898611600867667
100
AcDbArc
 50
0.4137035631
 51
33.2312907586
  0
SPLINE
  5
111
330
75
100
AcDbEntity
  8
400885031_SCHLUE
  6
Continuous
 62
     7
100
AcDbSpline
210
0.0
220
0.0
230
1.0
 70
    12
 71
     2
 72
     6
 73
     3
 74
     0
 42
0.000000001
 43
0.0000000001
 40
0.0
 40
0.0
 40
0.0
 40
1.0
 40
1.0
 40
1.0
 10
74.20211641652185
 20
167.4702139097051
 30
0.0
 41
1.0
 10
74.30872110381807
 20
167.40945117173
 30
0.0
 41
1.0
 10
74.41546016691602
 20
167.3482748948746
 30
0.0
 41
1.0
  0
ARC
  5
112
330
75
100
AcDbEntity
  8
400885031_SCHLUE
  6
Continuous
 62
     7
100
AcDbCircle
 10
72.6176046611
 20
166.4323528144
 30
0.0
 40
2.017585168176931
100
AcDbArc
 50
0.4211240832
 51
26.9944589723
  0
LINE
  5
113
330
75
100
AcDbEntity
  8
400885031_SCHLUE
  6
Continuous
 62
     7
100
AcDbLine
 10
74.6352928732
 20
166.4471848093
 30
0.0
 11
74.6312179276
 21
165.4200878241
 31
0.0
  0
ARC
  5
114
330
75
100
AcDbEntity
  8
400885031_SCHLUE
  6
Continuous
 62
     7
100
AcDbCircle
 10
76.5468283709
 20
165.454864887
 30
0.0
 40
1.915671011849607
100
AcDbArc
 50
181.0401376254
 51
215.0091909251
  0
LINE
  5
115
330
75
100
AcDbEntity
  8
400885031_SCHLUE
  6
Continuous
 62
     7
100
AcDbLine
 10
139.0107665307
 20
150.3727656596
 30
0.0
 11
140.1520343502
 21
150.0019452664
 31
0.0
  0
LINE
  5
116
330
75
100
AcDbEntity
  8
400885031_SCHLUE
  6
Continuous
 62
     7
100
AcDbLine
 10
139.5585041232
 20
152.0585286309
 30
0.0
 11
139.0107665307
 21
150.3727656596
 31
0.0
  0
LINE
  5
117
330
75
100
AcDbEntity
  8
400885031_SCHLUE
  6
Continuous
 62
     7
100
AcDbLine
 10
139.5585041232
 20
152.0585286309
 30
0.0
 11
140.6997719428
 21
151.6877082377
 31
0.0
  0
LINE
  5
118
330
75
100
AcDbEntity
  8
400885031_SCHLUE
  6
Continuous
 62
     7
100
AcDbLine
 10
140.6997719428
 20
151.6877082377
 30
0.0
 11
141.5117632307
 21
154.1867604569
 31
0.0
  0
LINE
  5
119
330
75
100
AcDbEntity
  8
400885031_SCHLUE
  6
Continuous
 62
     7
100
AcDbLine
 10
140.3704954112
 20
154.5575808502
 30
0.0
 11
141.5117632307
 21
154.1867604569
 31
0.0
  0
LINE
  5
11A
330
75
100
AcDbEntity
  8
400885031_SCHLUE
  6
Continuous
 62
     7
100
AcDbLine
 10
141.6928509358
 20
158.6273726784
 30
0.0
 11
140.3704954112
 21
154.5575808502
 31
0.0
  0
LINE
  5
11B
330
75
100
AcDbEntity
  8
400885031_SCHLUE
  6
Continuous
 62
     7
100
AcDbLine
 10
141.6928509358
 20
158.6273726784
 30
0.0
 11
142.8341187553
 21
158.2565522852
 31
0.0
  0
LINE
  5
11C
330
75
100
AcDbEntity
  8
400885031_SCHLUE
  6
Continuous
 62
     7
100
AcDbLine
 10
142.8341187553
 20
158.2565522852
 30
0.0
 11
143.9824478473
 21
161.7907458267
 31
0.0
  0
LINE
  5
11D
330
75
100
AcDbEntity
  8
400885031_SCHLUE
  6
Continuous
 62
     7
100
AcDbLine
 10
142.8411800277
 20
162.16156622
 30
0.0
 11
143.9824478473
 21
161.7907458267
 31
0.0
  0
LINE
  5
11E
330
75
100
AcDbEntity
  8
400885031_SCHLUE
  6
Continuous
 62
     7
100
AcDbLine
 10
144.1635355523
 20
166.2313580482
 30
0.0
 11
142.8411800277
 21
162.16156622
 31
0.0
  0
LINE
  5
11F
330
75
100
AcDbEntity
  8
400885031_SCHLUE
  6
Continuous
 62
     7
100
AcDbLine
 10
144.1635355523
 20
166.2313580482
 30
0.0
 11
145.3048033718
 21
165.860537655
 31
0.0
  0
LINE
  5
120
330
75
100
AcDbEntity
  8
400885031_SCHLUE
  6
Continuous
 62
     7
100
AcDbLine
 10
145.3048033718
 20
165.860537655
 30
0.0
 11
146.1167946598
 21
168.3595898742
 31
0.0
  0
LINE
  5
121
330
75
100
AcDbEntity
  8
400885031_SCHLUE
  6
Continuous
 62
     7
100
AcDbLine
 10
144.9755268402
 20
168.7304102675
 30
0.0
 11
146.1167946598
 21
168.3595898742
 31
0.0
  0
LINE
  5
122
330
75
100
AcDbEntity
  8
400885031_SCHLUE
  6
Continuous
 62
     7
100
AcDbLine
 10
145.5232644328
 20
170.4161732388
 30
0.0
 11
144.9755268402
 21
168.7304102675
 31
0.0
  0
LINE
  5
123
330
75
100
AcDbEntity
  8
400885031_SCHLUE
  6
Continuous
 62
     7
100
AcDbLine
 10
145.5232644328
 20
170.4161732388
 30
0.0
 11
146.6645322523
 21
170.0453528455
 31
0.0
  0
SPLINE
  5
124
330
75
100
AcDbEntity
  8
400885031_SCHLUE
  6
Continuous
 62
     7
100
AcDbSpline
210
0.0
220
0.0
230
1.0
 70
     8
 71
     3
 72
    10
 73
     6
 74
     0
 42
0.000000001
 43
0.0000000001
 40
0.0
 40
0.0
 40
0.0
 40
0.0
 40
0.5
 40
0.5
 40
1.0
 40
1.0
 40
1.0
 40
1.0
 10
131.7010414806936
 20
175.028966803145
 30
0.0
 10
131.6971636882174
 20
175.0172028385528
 30
0.0
 10
131.6412147419384
 20
175.0197100650082
 30
0.0
 10
131.4587804199042
 20
175.0542484506571
 30
0.0
 10
131.3329905766213
 20
175.0866958139798
 30
0.0
 10
131.2069227984346
 20
175.127657718173
 30
0.0
  0
LINE
  5
125
330
75
100
AcDbEntity
  8
400885031_SCHLUE
  6
Continuous
 62
     7
100
AcDbLine
 10
129.3046907852
 20
175.7457303661
 30
0.0
 11
131.2069227984
 21
175.1276577182
 31
0.0
  0
SPLINE
  5
126
330
75
100
AcDbEntity
  8
400885031_SCHLUE
  6
Continuous
 62
     7
100
AcDbSpline
210
0.0
220
0.0
230
1.0
 70
     8
 71
     3
 72
    10
 73
     6
 74
     0
 42
0.000000001
 43
0.0000000001
 40
0.0
 40
0.0
 40
0.0
 40
0.0
 40
0.5
 40
0.5
 40
1.0
 40
1.0
 40
1.0
 40
1.0
 10
129.3046907852313
 20
175.7457303660676
 30
0.0
 10
129.1787283846959
 20
175.7866580309862
 30
0.0
 10
129.0581884952677
 20
175.834226737083
 30
0.0
 10
128.8906100883921
 20
175.9134024283848
 30
0.0
 10
128.8439431703379
 20
175.9442817267933
 30
0.0
 10
128.8478363769744
 20
175.9560293387355
 30
0.0
  0
LINE
  5
127
330
75
100
AcDbEntity
  8
400885031_SCHLUE
  6
Continuous
 62
     7
100
AcDbLine
 10
135.5617260211
 20
198.4053036954
 30
0.0
 11
136.2670683239
 21
199.3761240886
 31
0.0
  0
LINE
  5
128
330
75
100
AcDbEntity
  8
400885031_SCHLUE
  6
Continuous
 62
     7
100
AcDbLine
 10
134.318706441
 20
199.3084102835
 30
0.0
 11
135.5617260211
 21
198.4053036954
 31
0.0
  0
LINE
  5
129
330
75
100
AcDbEntity
  8
400885031_SCHLUE
  6
Continuous
 62
     7
100
AcDbLine
 10
134.318706441
 20
199.3084102835
 30
0.0
 11
135.0240487438
 21
200.2792306767
 31
0.0
  0
LINE
  5
12A
330
75
100
AcDbEntity
  8
400885031_SCHLUE
  6
Continuous
 62
     7
100
AcDbLine
 10
135.0240487438
 20
200.2792306767
 30
0.0
 11
133.1813396007
 21
201.6180372359
 31
0.0
  0
LINE
  5
12B
330
75
100
AcDbEntity
  8
400885031_SCHLUE
  6
Continuous
 62
     7
100
AcDbLine
 10
132.4759972979
 20
200.6472168427
 30
0.0
 11
133.1813396007
 21
201.6180372359
 31
0.0
  0
LINE
  5
12C
330
75
100
AcDbEntity
  8
400885031_SCHLUE
  6
Continuous
 62
     7
100
AcDbLine
 10
129.4750825693
 20
202.827509016
 30
0.0
 11
132.4759972979
 21
200.6472168427
 31
0.0
  0
LINE
  5
12D
330
75
100
AcDbEntity
  8
400885031_SCHLUE
  6
Continuous
 62
     7
100
AcDbLine
 10
129.4750825693
 20
202.827509016
 30
0.0
 11
130.180424872
 21
203.7983294092
 31
0.0
  0
LINE
  5
12E
330
75
100
AcDbEntity
  8
400885031_SCHLUE
  6
Continuous
 62
     7
100
AcDbLine
 10
130.180424872
 20
203.7983294092
 30
0.0
 11
127.5744406103
 21
205.6916878026
 31
0.0
  0
LINE
  5
12F
330
75
100
AcDbEntity
  8
400885031_SCHLUE
  6
Continuous
 62
     7
100
AcDbLine
 10
126.8690983076
 20
204.7208674094
 30
0.0
 11
127.5744406103
 21
205.6916878026
 31
0.0
  0
LINE
  5
130
330
75
100
AcDbEntity
  8
400885031_SCHLUE
  6
Continuous
 62
     7
100
AcDbLine
 10
123.8681835789
 20
206.9011595827
 30
0.0
 11
126.8690983076
 21
204.7208674094
 31
0.0
  0
LINE
  5
131
330
75
100
AcDbEntity
  8
400885031_SCHLUE
  6
Continuous
 62
     7
100
AcDbLine
 10
123.8681835789
 20
206.9011595827
 30
0.0
 11
124.5735258817
 21
207.8719799759
 31
0.0
  0
LINE
  5
132
330
75
100
AcDbEntity
  8
400885031_SCHLUE
  6
Continuous
 62
     7
100
AcDbLine
 10
124.5735258817
 20
207.8719799759
 30
0.0
 11
122.7308167386
 21
209.2107865351
 31
0.0
  0
LINE
  5
133
330
75
100
AcDbEntity
  8
400885031_SCHLUE
  6
Continuous
 62
     7
100
AcDbLine
 10
122.0254744358
 20
208.2399661419
 30
0.0
 11
122.7308167386
 21
209.2107865351
 31
0.0
  0
LINE
  5
134
330
75
100
AcDbEntity
  8
400885031_SCHLUE
  6
Continuous
 62
     7
100
AcDbLine
 10
120.7824548557
 20
209.14307273
 30
0.0
 11
122.0254744358
 21
208.2399661419
 31
0.0
  0
LINE
  5
135
330
75
100
AcDbEntity
  8
400885031_SCHLUE
  6
Continuous
 62
     7
100
AcDbLine
 10
120.7824548557
 20
209.14307273
 30
0.0
 11
121.4877971585
 21
210.1138931232
 31
0.0
  0
SPLINE
  5
136
330
75
100
AcDbEntity
  8
400885031_SCHLUE
  6
Continuous
 62
     7
100
AcDbSpline
210
0.0
220
0.0
230
1.0
 70
     8
 71
     3
 72
    10
 73
     6
 74
     0
 42
0.000000001
 43
0.0000000001
 40
0.0
 40
0.0
 40
0.0
 40
0.0
 40
0.5
 40
0.5
 40
1.0
 40
1.0
 40
1.0
 40
1.0
 10
125.912420698988
 20
184.9764296076542
 30
0.0
 10
125.9008005722433
 20
184.9847527218172
 30
0.0
 10
125.9183528250582
 20
185.0381868138296
 30
0.0
 10
126.0042542309278
 20
185.2027579384964
 30
0.0
 10
126.0729265192661
 20
185.3130890487501
 30
0.0
 10
126.150866585227
 20
185.4203643464191
 30
0.0
  0
LINE
  5
137
330
75
100
AcDbEntity
  8
400885031_SCHLUE
  6
Continuous
 62
     7
100
AcDbLine
 10
127.3265352824
 20
187.0385334857
 30
0.0
 11
126.1508665852
 21
185.4203643464
 31
0.0
  0
SPLINE
  5
138
330
75
100
AcDbEntity
  8
400885031_SCHLUE
  6
Continuous
 62
     7
100
AcDbSpline
210
0.0
220
0.0
230
1.0
 70
     8
 71
     3
 72
    10
 73
     6
 74
     0
 42
0.000000001
 43
0.0000000001
 40
0.0
 40
0.0
 40
0.0
 40
0.0
 40
0.5
 40
0.5
 40
1.0
 40
1.0
 40
1.0
 40
1.0
 10
127.3265352824452
 20
187.0385334857341
 30
0.0
 10
127.4045379357248
 20
187.145894927457
 30
0.0
 10
127.4881619019334
 20
187.2452128996753
 30
0.0
 10
127.6183860861348
 20
187.3781989419172
 30
0.0
 10
127.6641917749028
 20
187.411872037332
 30
0.0
 10
127.6758057436097
 20
187.4035209019007
 30
0.0
  0
LINE
  5
139
330
75
100
AcDbEntity
  8
400885031_SCHLUE
  6
Continuous
 62
     7
100
AcDbLine
 10
97.2905990748
 20
133.5843288309
 30
0.0
 11
97.2905990748
 21
132.3843288309
 31
0.0
  0
LINE
  5
13A
330
75
100
AcDbEntity
  8
400885031_SCHLUE
  6
Continuous
 62
     7
100
AcDbLine
 10
98.6489758863
 20
133.5843288309
 30
0.0
 11
97.2905990748
 21
133.5843288309
 31
0.0
  0
LINE
  5
13B
330
75
100
AcDbEntity
  8
400885031_SCHLUE
  6
Continuous
 62
     7
100
AcDbLine
 10
98.6489758863
 20
133.5843288309
 30
0.0
 11
98.6489758863
 21
132.3843288309
 31
0.0
  0
LINE
  5
13C
330
75
100
AcDbEntity
  8
400885031_SCHLUE
  6
Continuous
 62
     7
100
AcDbLine
 10
98.6489758863
 20
132.3843288309
 30
0.0
 11
100.6626958714
 21
132.3843288309
 31
0.0
  0
LINE
  5
13D
330
75
100
AcDbEntity
  8
400885031_SCHLUE
  6
Continuous
 62
     7
100
AcDbLine
 10
100.6626958714
 20
133.5843288309
 30
0.0
 11
100.6626958714
 21
132.3843288309
 31
0.0
  0
LINE
  5
13E
330
75
100
AcDbEntity
  8
400885031_SCHLUE
  6
Continuous
 62
     7
100
AcDbLine
 10
103.9421075926
 20
133.5843288309
 30
0.0
 11
100.6626958714
 21
133.5843288309
 31
0.0
  0
LINE
  5
13F
330
75
100
AcDbEntity
  8
400885031_SCHLUE
  6
Continuous
 62
     7
100
AcDbLine
 10
103.9421075926
 20
133.5843288309
 30
0.0
 11
103.9421075926
 21
132.3843288309
 31
0.0
  0
LINE
  5
140
330
75
100
AcDbEntity
  8
400885031_SCHLUE
  6
Continuous
 62
     7
100
AcDbLine
 10
103.9421075926
 20
132.3843288309
 30
0.0
 11
106.7899377063
 21
132.3843288309
 31
0.0
  0
LINE
  5
141
330
75
100
AcDbEntity
  8
400885031_SCHLUE
  6
Continuous
 62
     7
100
AcDbLine
 10
106.7899377063
 20
133.5843288309
 30
0.0
 11
106.7899377063
 21
132.3843288309
 31
0.0
  0
LINE
  5
142
330
75
100
AcDbEntity
  8
400885031_SCHLUE
  6
Continuous
 62
     7
100
AcDbLine
 10
110.0693494276
 20
133.5843288309
 30
0.0
 11
106.7899377063
 21
133.5843288309
 31
0.0
  0
LINE
  5
143
330
75
100
AcDbEntity
  8
400885031_SCHLUE
  6
Continuous
 62
     7
100
AcDbLine
 10
110.0693494276
 20
133.5843288309
 30
0.0
 11
110.0693494276
 21
132.3843288309
 31
0.0
  0
LINE
  5
144
330
75
100
AcDbEntity
  8
400885031_SCHLUE
  6
Continuous
 62
     7
100
AcDbLine
 10
110.0693494276
 20
132.3843288309
 30
0.0
 11
112.0830694126
 21
132.3843288309
 31
0.0
  0
LINE
  5
145
330
75
100
AcDbEntity
  8
400885031_SCHLUE
  6
Continuous
 62
     7
100
AcDbLine
 10
112.0830694126
 20
133.5843288309
 30
0.0
 11
112.0830694126
 21
132.3843288309
 31
0.0
  0
LINE
  5
146
330
75
100
AcDbEntity
  8
400885031_SCHLUE
  6
Continuous
 62
     7
100
AcDbLine
 10
113.4414462242
 20
133.5843288309
 30
0.0
 11
112.0830694126
 21
133.5843288309
 31
0.0
  0
LINE
  5
147
330
75
100
AcDbEntity
  8
400885031_SCHLUE
  6
Continuous
 62
     7
100
AcDbLine
 10
113.4414462242
 20
133.5843288309
 30
0.0
 11
113.4414462242
 21
132.3843288309
 31
0.0
  0
LINE
  5
148
330
75
100
AcDbEntity
  8
400885031_SCHLUE
  6
Continuous
 62
     7
100
AcDbLine
 10
92.2738166843
 20
210.2136879501
 30
0.0
 11
91.2745817554
 21
211.5890168405
 31
0.0
  0
LINE
  5
149
330
75
100
AcDbEntity
  8
400885031_SCHLUE
  6
Continuous
 62
     7
100
AcDbLine
 10
89.4472392346
 20
208.1600592242
 30
0.0
 11
92.2738166843
 21
210.2136879501
 31
0.0
  0
LINE
  5
14A
330
75
100
AcDbEntity
  8
400885031_SCHLUE
  6
Continuous
 62
     7
100
AcDbLine
 10
89.4472392346
 20
208.1600592242
 30
0.0
 11
88.4480043057
 21
209.5353881146
 31
0.0
  0
LINE
  5
14B
330
75
100
AcDbEntity
  8
400885031_SCHLUE
  6
Continuous
 62
     7
100
AcDbLine
 10
88.4480043057
 20
209.5353881146
 30
0.0
 11
84.6811900074
 21
206.7986373318
 31
0.0
  0
LINE
  5
14C
330
75
100
AcDbEntity
  8
400885031_SCHLUE
  6
Continuous
 62
     7
100
AcDbLine
 10
85.6804249363
 20
205.4233084414
 30
0.0
 11
84.6811900074
 21
206.7986373318
 31
0.0
  0
LINE
  5
14D
330
75
100
AcDbEntity
  8
400885031_SCHLUE
  6
Continuous
 62
     7
100
AcDbLine
 10
80.027270037
 20
201.3160509896
 30
0.0
 11
85.6804249363
 21
205.4233084414
 31
0.0
  0
LINE
  5
14E
330
75
100
AcDbEntity
  8
400885031_SCHLUE
  6
Continuous
 62
     7
100
AcDbLine
 10
80.027270037
 20
201.3160509896
 30
0.0
 11
79.0280351081
 21
202.6913798801
 31
0.0
  0
LINE
  5
14F
330
75
100
AcDbEntity
  8
400885031_SCHLUE
  6
Continuous
 62
     7
100
AcDbLine
 10
79.0280351081
 20
202.6913798801
 30
0.0
 11
75.2612208098
 21
199.9546290973
 31
0.0
  0
LINE
  5
150
330
75
100
AcDbEntity
  8
400885031_SCHLUE
  6
Continuous
 62
     7
100
AcDbLine
 10
76.2604557387
 20
198.5793002068
 30
0.0
 11
75.2612208098
 21
199.9546290973
 31
0.0
  0
LINE
  5
151
330
75
100
AcDbEntity
  8
400885031_SCHLUE
  6
Continuous
 62
     7
100
AcDbLine
 10
73.4338782891
 20
196.5256714809
 30
0.0
 11
76.2604557387
 21
198.5793002068
 31
0.0
  0
LINE
  5
152
330
75
100
AcDbEntity
  8
400885031_SCHLUE
  6
Continuous
 62
     7
100
AcDbLine
 10
73.4338782891
 20
196.5256714809
 30
0.0
 11
72.4346433602
 21
197.9010003714
 31
0.0
  0
ARC
  5
153
330
75
100
AcDbEntity
  8
400885031_SCHLUE
  6
Continuous
 62
     7
100
AcDbCircle
 10
105.3677461988
 20
172.3819565688
 30
0.0
 40
17.50291517514376
100
AcDbArc
 50
119.8093676609
 51
132.1906323392
  0
ARC
  5
154
330
75
100
AcDbEntity
  8
400885031_SCHLUE
  6
Continuous
 62
     7
100
AcDbCircle
 10
105.3660226495
 20
172.3843288309
 30
0.0
 40
12.9375
100
AcDbArc
 50
277.2497923765
 51
298.7502076235
  0
LINE
  5
155
330
75
100
AcDbEntity
  8
400885031_SCHLUE
  6
Continuous
 62
     7
100
AcDbLine
 10
62.9729116651
 20
173.4141894972
 30
0.0
 11
63.6202700191
 21
171.4218253485
 31
0.0
  0
LINE
  5
156
330
75
100
AcDbEntity
  8
400885031_SCHLUE
  6
Continuous
 62
     7
100
AcDbLine
 10
66.0182359202
 20
164.0416451721
 30
0.0
 11
66.2124837448
 21
163.4438118399
 31
0.0
  0
LINE
  5
157
330
75
100
AcDbEntity
  8
400885031_SCHLUE
  6
Continuous
 62
     7
100
AcDbLine
 10
68.4350402505
 20
156.603486272
 30
0.0
 11
68.6292880752
 21
156.0056529398
 31
0.0
  0
LINE
  5
158
330
75
100
AcDbEntity
  8
400885031_SCHLUE
  6
Continuous
 62
     7
100
AcDbLine
 10
71.0272539763
 20
148.6254727634
 30
0.0
 11
71.6746123302
 21
146.6331086147
 31
0.0
  0
LINE
  5
159
330
75
100
AcDbEntity
  8
400885031_SCHLUE
  6
Continuous
 62
     7
100
AcDbLine
 10
91.2745817554
 20
211.5890168405
 30
0.0
 11
89.7768460671
 21
210.5008481672
 31
0.0
  0
LINE
  5
15A
330
75
100
AcDbEntity
  8
400885031_SCHLUE
  6
Continuous
 62
     7
100
AcDbLine
 10
84.6811900074
 20
206.7986373318
 30
0.0
 11
84.2317760196
 21
206.472118957
 31
0.0
  0
LINE
  5
15B
330
75
100
AcDbEntity
  8
400885031_SCHLUE
  6
Continuous
 62
     7
100
AcDbLine
 10
79.4774490959
 20
203.0178982549
 30
0.0
 11
79.0280351081
 21
202.6913798801
 31
0.0
  0
LINE
  5
15C
330
75
100
AcDbEntity
  8
400885031_SCHLUE
  6
Continuous
 62
     7
100
AcDbLine
 10
73.9323790485
 20
198.9891690447
 30
0.0
 11
72.4346433602
 21
197.9010003714
 31
0.0
  0
LINE
  5
15D
330
75
100
AcDbEntity
  8
400885031_SCHLUE
  6
Continuous
 62
     7
100
AcDbLine
 10
136.2670683239
 20
199.3761240886
 30
0.0
 11
135.4105876499
 21
199.9983937227
 31
0.0
  0
LINE
  5
15E
330
75
100
AcDbEntity
  8
400885031_SCHLUE
  6
Continuous
 62
     7
100
AcDbLine
 10
133.1813396007
 20
201.6180372359
 30
0.0
 11
132.6825040347
 21
201.9804624891
 31
0.0
  0
LINE
  5
15F
330
75
100
AcDbEntity
  8
400885031_SCHLUE
  6
Continuous
 62
     7
100
AcDbLine
 10
125.0723614476
 20
207.5095547228
 30
0.0
 11
124.5735258817
 21
207.8719799759
 31
0.0
  0
LINE
  5
160
330
75
100
AcDbEntity
  8
400885031_SCHLUE
  6
Continuous
 62
     7
100
AcDbLine
 10
122.3442778325
 20
209.4916234892
 30
0.0
 11
121.4877971585
 21
210.1138931232
 31
0.0
  0
LINE
  5
161
330
75
100
AcDbEntity
  8
400885031_SCHLUE
  6
Continuous
 62
     7
100
AcDbLine
 10
140.1520343502
 20
150.0019452664
 30
0.0
 11
140.6997719428
 21
151.6877082377
 31
0.0
  0
LINE
  5
162
330
75
100
AcDbEntity
  8
400885031_SCHLUE
  6
Continuous
 62
     7
100
AcDbLine
 10
141.5117632307
 20
154.1867604569
 30
0.0
 11
141.8573907202
 21
155.2504924913
 31
0.0
  0
LINE
  5
163
330
75
100
AcDbEntity
  8
400885031_SCHLUE
  6
Continuous
 62
     7
100
AcDbLine
 10
144.9591758823
 20
164.7968056206
 30
0.0
 11
145.3048033718
 21
165.860537655
 31
0.0
  0
LINE
  5
164
330
75
100
AcDbEntity
  8
400885031_SCHLUE
  6
Continuous
 62
     7
100
AcDbLine
 10
146.1167946598
 20
168.3595898742
 30
0.0
 11
146.6645322523
 21
170.0453528455
 31
0.0
  0
LINE
  5
165
330
75
100
AcDbEntity
  8
400885031_SCHLUE
  6
Continuous
 62
     7
100
AcDbLine
 10
97.2905990748
 20
132.3843288309
 30
0.0
 11
98.2754068278
 21
132.3843288309
 31
0.0
  0
LINE
  5
166
330
75
100
AcDbEntity
  8
400885031_SCHLUE
  6
Continuous
 62
     7
100
AcDbLine
 10
100.6626958714
 20
132.3843288309
 30
0.0
 11
101.2362723077
 21
132.3843288309
 31
0.0
  0
LINE
  5
167
330
75
100
AcDbEntity
  8
400885031_SCHLUE
  6
Continuous
 62
     7
100
AcDbLine
 10
109.4957729912
 20
132.3843288309
 30
0.0
 11
110.0693494276
 21
132.3843288309
 31
0.0
  0
LINE
  5
168
330
75
100
AcDbEntity
  8
400885031_SCHLUE
  6
Continuous
 62
     7
100
AcDbLine
 10
112.4566384712
 20
132.3843288309
 30
0.0
 11
113.4414462242
 21
132.3843288309
 31
0.0
  0
ARC
  5
169
330
75
100
AcDbEntity
  8
400885031_SCHLUE
  6
Continuous
 62
     7
100
AcDbCircle
 10
105.3660226495
 20
172.3843288309
 30
0.0
 40
14.06249999999999
100
AcDbArc
 50
39.8748327164
 51
176.1251672836
  0
LINE
  5
16A
330
75
100
AcDbEntity
  8
400885031_SCHLUE
  6
Continuous
 62
     7
100
AcDbLine
 10
116.158243778
 20
181.3999746405
 30
0.0
 11
119.3963765962
 21
171.4340265746
 31
0.0
  0
LINE
  5
16B
330
75
100
AcDbEntity
  8
400885031_SCHLUE
  6
Continuous
 62
     7
100
AcDbLine
 10
94.5738015209
 20
163.3686830214
 30
0.0
 11
91.3356687027
 21
173.3346310873
 31
0.0
  0
LINE
  5
16C
330
75
100
AcDbEntity
  8
400885031_SCHLUE
  6
HIDDEN2
 62
     7
100
AcDbLine
 10
96.3627973677
 20
164.3753067604
 30
0.0
 11
93.374675334
 21
173.5718007506
 31
0.0
  0
ARC
  5
16D
330
75
100
AcDbEntity
  8
400885031_SCHLUE
  6
HIDDEN2
 62
     7
100
AcDbCircle
 10
105.3660226495
 20
172.3843288309
 30
0.0
 40
12.05
100
AcDbArc
 50
221.6554135772
 51
354.3445864228
  0
LINE
  5
16E
330
75
100
AcDbEntity
  8
400885031_SCHLUE
  6
HIDDEN2
 62
     7
100
AcDbLine
 10
114.3692479312
 20
180.3933509015
 30
0.0
 11
117.3573699649
 21
171.1968569113
 31
0.0
  0
LINE
  5
16F
330
75
100
AcDbEntity
  8
400885031_SCHLUE
  6
Continuous
 62
     7
100
AcDbLine
 10
113.1969763017
 20
162.0860245459
 30
0.0
 11
113.2520043292
 21
161.0360272313
 31
0.0
  0
LINE
  5
170
330
75
100
AcDbEntity
  8
400885031_SCHLUE
  6
Continuous
 62
     7
100
AcDbLine
 10
112.525694312
 20
160.5643559911
 30
0.0
 11
111.5888559498
 21
161.0416989787
 31
0.0
  0
ARC
  5
171
330
75
100
AcDbEntity
  8
400885031_SCHLUE
  6
Continuous
 62
     7
100
AcDbCircle
 10
112.7526895619
 20
161.0098592532
 30
0.0
 40
0.4999999999998704
100
AcDbArc
 50
243.0
 51
303.0
  0
ARC
  5
172
330
75
100
AcDbEntity
  8
400885031_SCHLUE
  6
Continuous
 62
     7
100
AcDbCircle
 10
112.7526895619
 20
161.0098592532
 30
0.0
 40
0.4999999999999605
100
AcDbArc
 50
303.0
 51
3.0
  0
LINE
  5
173
330
75
100
AcDbEntity
  8
400885031_SCHLUE
  6
Continuous
 62
     7
100
AcDbLine
 10
106.9986753057
 20
159.5502588781
 30
0.0
 11
106.5213323181
 21
158.613420516
 31
0.0
  0
LINE
  5
174
330
75
100
AcDbEntity
  8
400885031_SCHLUE
  6
Continuous
 62
     7
100
AcDbLine
 10
105.656493772
 20
158.5680962483
 30
0.0
 11
105.083839445
 21
159.449906583
 31
0.0
  0
ARC
  5
175
330
75
100
AcDbEntity
  8
400885031_SCHLUE
  6
Continuous
 62
     7
100
AcDbCircle
 10
106.075829056
 20
158.8404157658
 30
0.0
 40
0.4999999999999941
100
AcDbArc
 50
213.0
 51
273.0
  0
ARC
  5
176
330
75
100
AcDbEntity
  8
400885031_SCHLUE
  6
Continuous
 62
     7
100
AcDbCircle
 10
106.075829056
 20
158.8404157658
 30
0.0
 40
0.4999999999998225
100
AcDbArc
 50
273.0
 51
333.0
  0
ARC
  5
177
330
75
100
AcDbEntity
  8
400885031_SCHLUE
  6
Continuous
 62
     7
100
AcDbCircle
 10
121.2539863291
 20
178.4726622977
 30
0.0
 40
8.00000000000001
100
AcDbArc
 50
341.6645924781
 51
54.3872216961
  0
ARC
  5
178
330
75
100
AcDbEntity
  8
400885031_SCHLUE
  6
Continuous
 62
     7
100
AcDbCircle
 10
121.2539863291
 20
178.4726622977
 30
0.0
 40
11.0
100
AcDbArc
 50
341.7560679131
 51
54.2816147691
  0
LINE
  5
179
330
75
100
AcDbEntity
  8
400885031_SCHLUE
  6
Continuous
 62
     7
100
AcDbLine
 10
75.5908742142
 20
163.5051434134
 30
0.0
 11
75.5910605196
 21
163.5035338783
 31
0.0
  0
LINE
  5
17A
330
75
100
AcDbEntity
  8
400885031_SCHLUE
  6
Continuous
 62
     7
100
AcDbLine
 10
75.5906751356
 20
163.5050047542
 30
0.0
 11
75.5922825386
 21
163.5017627036
 31
0.0
  0
ARC
  5
17B
330
75
100
AcDbEntity
  8
400885031_SCHLUE
  6
Continuous
 62
     7
100
AcDbCircle
 10
73.7833522971
 20
162.2445888736
 30
0.0
 40
2.202964006029661
100
AcDbArc
 50
18.8962731983
 51
34.8265950124
  0
LINE
  5
17C
330
75
100
AcDbEntity
  8
400885031_SCHLUE
  6
Continuous
 62
     7
100
AcDbLine
 10
75.9855517314
 20
162.290596456
 30
0.0
 11
75.9902029187
 21
161.2343786722
 31
0.0
  0
LINE
  5
17D
330
75
100
AcDbEntity
  8
400885031_SCHLUE
  6
Continuous
 62
     7
100
AcDbLine
 10
75.9922416217
 20
161.229347567
 30
0.0
 11
75.9903939034
 21
161.2343826344
 31
0.0
  0
ARC
  5
17E
330
75
100
AcDbEntity
  8
400885031_SCHLUE
  6
Continuous
 62
     7
100
AcDbCircle
 10
77.9064520703
 20
161.2684316018
 30
0.0
 40
1.916456175929941
100
AcDbArc
 50
181.0181079474
 51
198.3157266326
  0
ARC
  5
17F
330
75
100
AcDbEntity
  8
400885031_SCHLUE
  6
Continuous
 62
     7
100
AcDbCircle
 10
75.2919033284
 20
158.1627575217
 30
0.0
 40
2.028299278786155
100
AcDbArc
 50
12.9795736579
 51
16.9927865187
  0
LINE
  5
180
330
75
100
AcDbEntity
  8
400885031_SCHLUE
  6
Continuous
 62
     7
100
AcDbLine
 10
77.2731602436
 20
158.6036364706
 30
0.0
 11
77.268662195
 21
158.6191933644
 31
0.0
  0
SPLINE
  5
181
330
75
100
AcDbEntity
  8
400885031_SCHLUE
  6
Continuous
 62
     7
100
AcDbSpline
210
0.0
220
0.0
230
1.0
 70
    12
 71
     2
 72
     6
 73
     3
 74
     0
 42
0.000000001
 43
0.0000000001
 40
0.0
 40
0.0
 40
0.0
 40
1.0
 40
1.0
 40
1.0
 10
77.26829092929944
 20
158.6183548796862
 30
0.0
 41
1.0
 10
77.22417884267983
 20
158.5174922602323
 30
0.0
 41
1.0
 10
77.17996670988208
 20
158.4169375512543
 30
0.0
 41
1.0
  0
ARC
  5
182
330
75
100
AcDbEntity
  8
400885031_SCHLUE
  6
Continuous
 62
     7
100
AcDbCircle
 10
75.2692720213
 20
158.1549098519
 30
0.0
 40
1.928548519260777
100
AcDbArc
 50
18.057266119
 51
35.406250929
  0
LINE
  5
183
330
75
100
AcDbEntity
  8
400885031_SCHLUE
  6
Continuous
 62
     7
100
AcDbLine
 10
76.8449225429
 20
159.2600727516
 30
0.0
 11
76.8407657551
 21
159.2719582486
 31
0.0
  0
LINE
  5
184
330
75
100
AcDbEntity
  8
400885031_SCHLUE
  6
Continuous
 62
     7
100
AcDbLine
 10
76.8407598178
 20
159.271968665
 30
0.0
 11
76.2347831862
 21
160.0995258482
 31
0.0
  0
LINE
  5
185
330
75
100
AcDbEntity
  8
400885031_SCHLUE
  6
Continuous
 62
     7
100
AcDbLine
 10
76.2379880864
 20
160.0908957984
 30
0.0
 11
76.2349269396
 21
160.0996251171
 31
0.0
  0
ARC
  5
186
330
75
100
AcDbEntity
  8
400885031_SCHLUE
  6
Continuous
 62
     7
100
AcDbCircle
 10
77.9040334311
 20
161.2673508987
 30
0.0
 40
2.037119506444247
100
AcDbArc
 50
198.1592406718
 51
214.9770165564
  0
ARC
  5
187
330
75
100
AcDbEntity
  8
400885031_SCHLUE
  6
Continuous
 62
     7
100
AcDbCircle
 10
73.7831858955
 20
162.2442413417
 30
0.0
 40
2.079942353874674
100
AcDbArc
 50
16.6654032538
 51
34.8118865877
  0
LINE
  5
188
330
75
100
AcDbEntity
  8
400885031_SCHLUE
  6
Continuous
 62
     7
100
AcDbLine
 10
75.4901543001
 20
163.4340629721
 30
0.0
 11
75.4906908797
 21
163.4315070939
 31
0.0
  0
ARC
  5
189
330
75
100
AcDbEntity
  8
400885031_SCHLUE
  6
Continuous
 62
     7
100
AcDbCircle
 10
76.5389722815
 20
165.4425494
 30
0.0
 40
2.027695106163063
100
AcDbArc
 50
180.9731730481
 51
197.6845092409
  0
LINE
  5
18A
330
75
100
AcDbEntity
  8
400885031_SCHLUE
  6
Continuous
 62
     7
100
AcDbLine
 10
74.5083951253
 20
165.4176964849
 30
0.0
 11
74.5118030352
 21
165.4081124753
 31
0.0
  0
LINE
  5
18B
330
75
100
AcDbEntity
  8
400885031_SCHLUE
  6
Continuous
 62
     7
100
AcDbLine
 10
74.5118037
 20
165.4081125613
 30
0.0
 11
74.5167069513
 21
166.4304583457
 31
0.0
  0
LINE
  5
18C
330
75
100
AcDbEntity
  8
400885031_SCHLUE
  6
Continuous
 62
     7
100
AcDbLine
 10
74.51217567
 20
166.4432260855
 30
0.0
 11
74.5165206379
 21
166.4304528602
 31
0.0
  0
ARC
  5
18D
330
75
100
AcDbEntity
  8
400885031_SCHLUE
  6
Continuous
 62
     7
100
AcDbCircle
 10
72.6246632746
 20
166.417810993
 30
0.0
 40
1.891992748147172
100
AcDbArc
 50
0.3829689161
 51
18.344288084
  0
SPLINE
  5
18E
330
75
100
AcDbEntity
  8
400885031_SCHLUE
  6
Continuous
 62
     7
100
AcDbSpline
210
0.0
220
0.0
230
1.0
 70
    12
 71
     2
 72
     6
 73
     3
 74
     0
 42
0.000000001
 43
0.0000000001
 40
0.0
 40
0.0
 40
0.0
 40
1.0
 40
1.0
 40
1.0
 10
74.20778057105807
 20
167.4539384843686
 30
0.0
 41
1.0
 10
74.31408544052503
 20
167.3933464914618
 30
0.0
 41
1.0
 10
74.4205243803895
 20
167.3323418634045
 30
0.0
 41
1.0
  0
LINE
  5
18F
330
75
100
AcDbEntity
  8
400885031_SCHLUE
  6
Continuous
 62
     7
100
AcDbLine
 10
74.4151837711
 20
167.3480602465
 30
0.0
 11
74.4204647001
 21
167.3323142856
 31
0.0
  0
ARC
  5
190
330
75
100
AcDbEntity
  8
400885031_SCHLUE
  6
Continuous
 62
     7
100
AcDbCircle
 10
72.6328176999
 20
166.4209338541
 30
0.0
 40
2.006641789954617
100
AcDbArc
 50
17.9522943406
 51
27.0135930672
  0
ARC
  5
191
330
75
100
AcDbEntity
  8
400885031_SCHLUE
  6
Continuous
 62
     7
100
AcDbCircle
 10
76.5409715563
 20
165.4440047839
 30
0.0
 40
1.906767772908575
100
AcDbArc
 50
197.8569885039
 51
215.0172072369
  0
LINE
  5
192
330
75
100
AcDbEntity
  8
400885031_SCHLUE
  6
Continuous
 62
     7
100
AcDbLine
 10
74.9773640413
 20
164.3555417086
 30
0.0
 11
74.9794854436
 21
164.349943883
 31
0.0
  0
LINE
  5
193
330
75
100
AcDbEntity
  8
400885031_SCHLUE
  6
Continuous
 62
     7
100
AcDbLine
 10
74.9794857444
 20
164.3499433204
 30
0.0
 11
75.5918087873
 21
163.5027455036
 31
0.0
  0
ARC
  5
194
330
75
100
AcDbEntity
  8
400885031_SCHLUE
  6
Continuous
 62
     7
100
AcDbCircle
 10
77.1199672767
 20
165.6321535295
 30
0.0
 40
1.907961141149992
100
AcDbArc
 50
197.8607698022
 51
215.0368502922
  0
LINE
  5
195
330
75
100
AcDbEntity
  8
400885031_SCHLUE
  6
Continuous
 62
     7
100
AcDbLine
 10
75.5557921905
 20
164.5424710817
 30
0.0
 11
75.5579005651
 21
164.5368883142
 31
0.0
  0
LINE
  5
196
330
75
100
AcDbEntity
  8
400885031_SCHLUE
  6
Continuous
 62
     7
100
AcDbLine
 10
75.5579012263
 20
164.5368871793
 30
0.0
 11
76.1702786042
 21
163.6896177805
 31
0.0
  0
LINE
  5
197
330
75
100
AcDbEntity
  8
400885031_SCHLUE
  6
Continuous
 62
     7
100
AcDbLine
 10
76.16914283
 20
163.6918773071
 30
0.0
 11
76.1701450805
 21
163.6895248687
 31
0.0
  0
ARC
  5
198
330
75
100
AcDbEntity
  8
400885031_SCHLUE
  6
Continuous
 62
     7
100
AcDbCircle
 10
74.3610228229
 20
162.4322824615
 30
0.0
 40
2.203165949664696
100
AcDbArc
 50
18.7736364282
 51
34.7971821269
  0
LINE
  5
199
330
75
100
AcDbEntity
  8
400885031_SCHLUE
  6
Continuous
 62
     7
100
AcDbLine
 10
76.5634055079
 20
162.4783530301
 30
0.0
 11
76.5680556445
 21
161.4221365464
 31
0.0
  0
LINE
  5
19A
330
75
100
AcDbEntity
  8
400885031_SCHLUE
  6
Continuous
 62
     7
100
AcDbLine
 10
76.570094114
 20
161.4171113008
 30
0.0
 11
76.5682465689
 21
161.4221416599
 31
0.0
  0
ARC
  5
19B
330
75
100
AcDbEntity
  8
400885031_SCHLUE
  6
Continuous
 62
     7
100
AcDbCircle
 10
78.4841774978
 20
161.4561642917
 30
0.0
 40
1.916328266677028
100
AcDbArc
 50
181.0174222612
 51
198.3162965398
  0
SPLINE
  5
19C
330
75
100
AcDbEntity
  8
400885031_SCHLUE
  6
Continuous
 62
     7
100
AcDbSpline
210
0.0
220
0.0
230
1.0
 70
    12
 71
     2
 72
     6
 73
     3
 74
     0
 42
0.000000001
 43
0.0000000001
 40
0.0
 40
0.0
 40
0.0
 40
1.0
 40
1.0
 40
1.0
 10
77.56059088570129
 20
159.4706878811608
 30
0.0
 41
1.0
 10
77.53797830486491
 20
159.3902397978449
 30
0.0
 41
1.0
 10
77.51530776879713
 20
159.3099700695679
 30
0.0
 41
1.0
  0
SPLINE
  5
19D
330
75
100
AcDbEntity
  8
400885031_SCHLUE
  6
Continuous
 62
     7
100
AcDbSpline
210
0.0
220
0.0
230
1.0
 70
    12
 71
     2
 72
     6
 73
     3
 74
     0
 42
0.000000001
 43
0.0000000001
 40
0.0
 40
0.0
 40
0.0
 40
1.0
 40
1.0
 40
1.0
 10
77.51930604022017
 20
159.2974334784767
 30
0.0
 41
1.0
 10
77.51729327971549
 20
159.3036504735513
 30
0.0
 41
1.0
 10
77.5151756317587
 20
159.3094968894694
 30
0.0
 41
1.0
  0
LINE
  5
19E
330
75
100
AcDbEntity
  8
400885031_SCHLUE
  6
Continuous
 62
     7
100
AcDbLine
 10
77.5149628645
 20
159.3097926984
 30
0.0
 11
76.8125531292
 21
160.2872244236
 31
0.0
  0
LINE
  5
19F
330
75
100
AcDbEntity
  8
400885031_SCHLUE
  6
Continuous
 62
     7
100
AcDbLine
 10
76.8158400318
 20
160.2786539674
 30
0.0
 11
76.8127799047
 21
160.2873816473
 31
0.0
  0
ARC
  5
1A0
330
75
100
AcDbEntity
  8
400885031_SCHLUE
  6
Continuous
 62
     7
100
AcDbCircle
 10
78.4824673058
 20
161.4552038789
 30
0.0
 40
2.037701441681102
100
AcDbArc
 50
198.1567465226
 51
214.9698943942
  0
ARC
  5
1A1
330
75
100
AcDbEntity
  8
400885031_SCHLUE
  6
Continuous
 62
     7
100
AcDbCircle
 10
74.3610395616
 20
162.4319974763
 30
0.0
 40
2.07994302270607
100
AcDbArc
 50
16.6654013041
 51
34.8118427013
  0
LINE
  5
1A2
330
75
100
AcDbEntity
  8
400885031_SCHLUE
  6
Continuous
 62
     7
100
AcDbLine
 10
76.0680084821
 20
163.6218190979
 30
0.0
 11
76.0685450227
 21
163.6192635052
 31
0.0
  0
ARC
  5
1A3
330
75
100
AcDbEntity
  8
400885031_SCHLUE
  6
Continuous
 62
     7
100
AcDbCircle
 10
77.116363844
 20
165.6300739272
 30
0.0
 40
2.027183903078277
100
AcDbArc
 50
180.9668741616
 51
197.6822877789
  0
LINE
  5
1A4
330
75
100
AcDbEntity
  8
400885031_SCHLUE
  6
Continuous
 62
     7
100
AcDbLine
 10
75.0862406048
 20
165.6054525638
 30
0.0
 11
75.089746737
 21
165.5958702352
 31
0.0
  0
LINE
  5
1A5
330
75
100
AcDbEntity
  8
400885031_SCHLUE
  6
Continuous
 62
     7
100
AcDbLine
 10
75.0897476477
 20
165.5958684175
 30
0.0
 11
75.0968258877
 21
166.8707064348
 31
0.0
  0
SPLINE
  5
1A6
330
75
100
AcDbEntity
  8
400885031_SCHLUE
  6
Continuous
 62
     7
100
AcDbSpline
210
0.0
220
0.0
230
1.0
 70
    12
 71
     2
 72
     6
 73
     3
 74
     0
 42
0.000000001
 43
0.0000000001
 40
0.0
 40
0.0
 40
0.0
 40
1.0
 40
1.0
 40
1.0
 10
75.09244220756483
 20
166.8841116942059
 30
0.0
 41
1.0
 10
75.0944705624186
 20
166.8775410647752
 30
0.0
 41
1.0
 10
75.0968257824861
 20
166.8707067379592
 30
0.0
 41
1.0
  0
SPLINE
  5
1A7
330
75
100
AcDbEntity
  8
400885031_SCHLUE
  6
Continuous
 62
     7
100
AcDbSpline
210
0.0
220
0.0
230
1.0
 70
    12
 71
     2
 72
     6
 73
     3
 74
     0
 42
0.000000001
 43
0.0000000001
 40
0.0
 40
0.0
 40
0.0
 40
1.0
 40
1.0
 40
1.0
 10
75.09682588394033
 20
166.8707064356715
 30
0.0
 41
1.0
 10
75.1529399720238
 20
166.8263087932001
 30
0.0
 41
1.0
 10
75.20910068938844
 20
166.7817676416402
 30
0.0
 41
1.0
  0
LINE
  5
1A8
330
75
100
AcDbEntity
  8
400885031_SCHLUE
  6
Continuous
 62
     7
100
AcDbLine
 10
76.7554889079
 20
163.8823969188
 30
0.0
 11
76.7564933646
 21
163.8800413444
 31
0.0
  0
ARC
  5
1A9
330
75
100
AcDbEntity
  8
400885031_SCHLUE
  6
Continuous
 62
     7
100
AcDbCircle
 10
74.9473719382
 20
162.622798391
 30
0.0
 40
2.203165578940393
100
AcDbArc
 50
18.7736352165
 51
34.797220803
  0
LINE
  5
1AA
330
75
100
AcDbEntity
  8
400885031_SCHLUE
  6
Continuous
 62
     7
100
AcDbLine
 10
77.149754261
 20
162.6688718591
 30
0.0
 11
77.1544044122
 21
161.6126526357
 31
0.0
  0
LINE
  5
1AB
330
75
100
AcDbEntity
  8
400885031_SCHLUE
  6
Continuous
 62
     7
100
AcDbLine
 10
77.1564428819
 20
161.60762739
 30
0.0
 11
77.1545953369
 21
161.6126577499
 31
0.0
  0
ARC
  5
1AC
330
75
100
AcDbEntity
  8
400885031_SCHLUE
  6
Continuous
 62
     7
100
AcDbCircle
 10
79.0717384485
 20
161.6468845571
 30
0.0
 40
1.91754389281097
100
AcDbArc
 50
181.0228788877
 51
198.3106773059
  0
SPLINE
  5
1AD
330
75
100
AcDbEntity
  8
400885031_SCHLUE
  6
Continuous
 62
     7
100
AcDbSpline
210
0.0
220
0.0
230
1.0
 70
    12
 71
     2
 72
     6
 73
     3
 74
     0
 42
0.000000001
 43
0.0000000001
 40
0.0
 40
0.0
 40
0.0
 40
1.0
 40
1.0
 40
1.0
 10
77.72150819574091
 20
160.2447827491186
 30
0.0
 41
1.0
 10
77.70786801561792
 20
160.1593556092488
 30
0.0
 41
1.0
 10
77.69417089411077
 20
160.0741037201599
 30
0.0
 41
1.0
  0
LINE
  5
1AE
330
75
100
AcDbEntity
  8
400885031_SCHLUE
  6
Continuous
 62
     7
100
AcDbLine
 10
77.697474903
 20
160.0639303076
 30
0.0
 11
77.6941319043
 21
160.073859426
 31
0.0
  0
ELLIPSE
  5
1AF
330
75
100
AcDbEntity
  8
400885031_SCHLUE
  6
Continuous
 62
     7
100
AcDbEllipse
 10
76.6445757949
 20
163.0521650151
 30
0.0
 11
8.762955486865984
 21
-12.29117261131529
 31
0.0
210
0.0
220
0.0
230
1.0
 40
0.0591300263
 41
-1.402120707728434
 42
-1.368415629704302
  0
LINE
  5
1B0
330
75
100
AcDbEntity
  8
400885031_SCHLUE
  6
Continuous
 62
     7
100
AcDbLine
 10
77.4021882768
 20
160.4691697792
 30
0.0
 11
77.3991256945
 21
160.4779010602
 31
0.0
  0
ARC
  5
1B1
330
75
100
AcDbEntity
  8
400885031_SCHLUE
  6
Continuous
 62
     7
100
AcDbCircle
 10
79.0666330046
 20
161.6453527059
 30
0.0
 40
2.035512786674237
100
AcDbArc
 50
198.1660668895
 51
214.9965629839
  0
ARC
  5
1B2
330
75
100
AcDbEntity
  8
400885031_SCHLUE
  6
Continuous
 62
     7
100
AcDbCircle
 10
74.9473900417
 20
162.6225146434
 30
0.0
 40
2.079940535395295
100
AcDbArc
 50
16.6653907597
 51
34.8117895999
  0
LINE
  5
1B3
330
75
100
AcDbEntity
  8
400885031_SCHLUE
  6
Continuous
 62
     7
100
AcDbLine
 10
76.6543488495
 20
163.8123460169
 30
0.0
 11
76.6548981199
 21
163.8097729298
 31
0.0
  0
ARC
  5
1B4
330
75
100
AcDbEntity
  8
400885031_SCHLUE
  6
Continuous
 62
     7
100
AcDbCircle
 10
77.7038655198
 20
165.8211651055
 30
0.0
 40
2.028458568653436
100
AcDbArc
 50
180.9825697666
 51
197.6878684515
  0
LINE
  5
1B5
330
75
100
AcDbEntity
  8
400885031_SCHLUE
  6
Continuous
 62
     7
100
AcDbLine
 10
75.6724656353
 20
165.7959667811
 30
0.0
 11
75.6758720308
 21
165.7863827982
 31
0.0
  0
ELLIPSE
  5
1B6
330
75
100
AcDbEntity
  8
400885031_SCHLUE
  6
Continuous
 62
     7
100
AcDbEllipse
 10
76.6575523408
 20
163.0563813868
 30
0.0
 11
-0.1490408068612788
 21
15.08954073883712
 31
0.0
210
0.0
220
0.0
230
1.0
 40
0.0643328837
 41
1.349227015857896
 42
1.388239093446361
  0
LINE
  5
1B7
330
75
100
AcDbEntity
  8
400885031_SCHLUE
  6
Continuous
 62
     7
100
AcDbLine
 10
75.6743731073
 20
166.3742760972
 30
0.0
 11
75.6777774875
 21
166.3633602746
 31
0.0
  0
SPLINE
  5
1B8
330
75
100
AcDbEntity
  8
400885031_SCHLUE
  6
Continuous
 62
     7
100
AcDbSpline
210
0.0
220
0.0
230
1.0
 70
    12
 71
     2
 72
     6
 73
     3
 74
     0
 42
0.000000001
 43
0.0000000001
 40
0.0
 40
0.0
 40
0.0
 40
1.0
 40
1.0
 40
1.0
 10
75.6779745094685
 20
166.3631614424712
 30
0.0
 41
1.0
 10
75.73903398980585
 20
166.3016954265675
 30
0.0
 41
1.0
 10
75.80015718523958
 20
166.2400333204473
 30
0.0
 41
1.0
  0
ARC
  5
1B9
330
75
100
AcDbEntity
  8
400885031_SCHLUE
  6
Continuous
 62
     7
100
AcDbCircle
 10
77.7046836301
 20
165.8218570911
 30
0.0
 40
1.906158498555314
100
AcDbArc
 50
197.8525688585
 51
215.0449939538
  0
LINE
  5
1BA
330
75
100
AcDbEntity
  8
400885031_SCHLUE
  6
Continuous
 62
     7
100
AcDbLine
 10
76.1421404623
 20
164.7329871689
 30
0.0
 11
76.1442486074
 21
164.7274049456
 31
0.0
  0
LINE
  5
1BB
330
75
100
AcDbEntity
  8
400885031_SCHLUE
  6
Continuous
 62
     7
100
AcDbLine
 10
76.1442491216
 20
164.7274037083
 30
0.0
 11
76.7566265548
 21
163.8801347104
 31
0.0
  0
LINE
  5
1BC
330
75
100
AcDbEntity
  8
400885031_SCHLUE
  6
Continuous
 62
     7
100
AcDbLine
 10
74.9763083633
 20
161.9963771928
 30
0.0
 11
74.9758936386
 21
161.9979749154
 31
0.0
  0
ARC
  5
1BD
330
75
100
AcDbEntity
  8
400885031_SCHLUE
  6
Continuous
 62
     7
100
AcDbCircle
 10
74.1476606075
 20
162.1116191633
 30
0.0
 40
0.8355607987343004
100
AcDbArc
 50
223.8141737075
 51
352.1857912683
  0
LINE
  5
1BE
330
75
100
AcDbEntity
  8
400885031_SCHLUE
  6
Continuous
 62
     7
100
AcDbLine
 10
73.545891178
 20
161.532100982
 30
0.0
 11
73.5452851849
 21
161.5336333559
 31
0.0
  0
LINE
  5
1BF
330
75
100
AcDbEntity
  8
400885031_SCHLUE
  6
Continuous
 62
     7
100
AcDbLine
 10
73.1710825473
 20
162.6821442056
 30
0.0
 11
73.1717463378
 21
162.6797799373
 31
0.0
  0
ARC
  5
1C0
330
75
100
AcDbEntity
  8
400885031_SCHLUE
  6
Continuous
 62
     7
100
AcDbCircle
 10
74.000200843
 20
162.5654541481
 30
0.0
 40
0.8358732059411752
100
AcDbArc
 50
43.8584412067
 51
172.1415587933
  0
LINE
  5
1C1
330
75
100
AcDbEntity
  8
400885031_SCHLUE
  6
Continuous
 62
     7
100
AcDbLine
 10
74.6014994429
 20
163.1464207681
 30
0.0
 11
74.60235431
 21
163.1441224403
 31
0.0
  0
ARC
  5
1C2
330
75
100
AcDbEntity
  8
400885031_SCHLUE
  6
Continuous
 62
     7
100
AcDbCircle
 10
74.1001490446
 20
162.2325838777
 30
0.0
 40
0.5067592254154722
100
AcDbArc
 50
228.450601656
 51
347.5493000542
  0
ARC
  5
1C3
330
75
100
AcDbEntity
  8
400885031_SCHLUE
  6
Continuous
 62
     7
100
AcDbCircle
 10
74.2654717441
 20
162.4016408761
 30
0.0
 40
0.7430221312211387
100
AcDbArc
 50
168.4434951785
 51
227.5564377498
  0
ARC
  5
1C4
330
75
100
AcDbEntity
  8
400885031_SCHLUE
  6
Continuous
 62
     7
100
AcDbCircle
 10
74.0324333167
 20
162.4409905893
 30
0.0
 40
0.5068901144821654
100
AcDbArc
 50
48.475799915
 51
167.5240858771
  0
ARC
  5
1C5
330
75
100
AcDbEntity
  8
400885031_SCHLUE
  6
Continuous
 62
     7
100
AcDbCircle
 10
73.8670289376
 20
162.272178494
 30
0.0
 40
0.7430238746530378
100
AcDbArc
 50
348.4436113787
 51
47.5563907172
  0
LINE
  5
1C6
330
75
100
AcDbEntity
  8
400885031_SCHLUE
  6
Continuous
 62
     7
100
AcDbLine
 10
75.7393646963
 20
159.9807474419
 30
0.0
 11
74.0975900702
 21
159.4473025291
 31
0.0
  0
LINE
  5
1C7
330
75
100
AcDbEntity
  8
400885031_SCHLUE
  6
Continuous
 62
     7
100
AcDbLine
 10
75.3935687009
 20
161.044235565
 30
0.0
 11
74.7239748044
 21
160.2241229669
 31
0.0
  0
LINE
  5
1C8
330
75
100
AcDbEntity
  8
400885031_SCHLUE
  6
Continuous
 62
     7
100
AcDbLine
 10
74.6415561606
 20
160.4769158371
 30
0.0
 11
74.6398581007
 21
160.4830223468
 31
0.0
  0
ARC
  5
1C9
330
75
100
AcDbEntity
  8
400885031_SCHLUE
  6
Continuous
 62
     7
100
AcDbCircle
 10
74.4061449016
 20
160.4047449827
 30
0.0
 40
0.2464707964198231
100
AcDbArc
 50
18.5172022531
 51
197.4829376912
  0
LINE
  5
1CA
330
75
100
AcDbEntity
  8
400885031_SCHLUE
  6
Continuous
 62
     7
100
AcDbLine
 10
74.1727325731
 20
160.3245851313
 30
0.0
 11
74.1707755961
 21
160.3306080874
 31
0.0
  0
LINE
  5
1CB
330
75
100
AcDbEntity
  8
400885031_SCHLUE
  6
Continuous
 62
     7
100
AcDbLine
 10
75.647981079
 20
158.9687041624
 30
0.0
 11
75.6441577824
 21
158.9804710594
 31
0.0
  0
LINE
  5
1CC
330
75
100
AcDbEntity
  8
400885031_SCHLUE
  6
Continuous
 62
     7
100
AcDbLine
 10
75.6441577824
 20
158.9804710594
 30
0.0
 11
75.203362096
 21
158.8372473429
 31
0.0
  0
ARC
  5
1CD
330
75
100
AcDbEntity
  8
400885031_SCHLUE
  6
Continuous
 62
     7
100
AcDbCircle
 10
74.7931540899
 20
158.3882415029
 30
0.0
 40
1.413491111250049
100
AcDbArc
 50
353.7598228871
 51
23.2809617807
  0
LINE
  5
1CE
330
75
100
AcDbEntity
  8
400885031_SCHLUE
  6
Continuous
 62
     7
100
AcDbLine
 10
76.2033605821
 20
158.2198988853
 30
0.0
 11
76.1986983167
 21
158.2345691922
 31
0.0
  0
ARC
  5
1CF
330
75
100
AcDbEntity
  8
400885031_SCHLUE
  6
Continuous
 62
     7
100
AcDbCircle
 10
75.3572811372
 20
158.3887891668
 30
0.0
 40
0.8550070026418473
100
AcDbArc
 50
226.3894103696
 51
349.6106285009
  0
LINE
  5
1D0
330
75
100
AcDbEntity
  8
400885031_SCHLUE
  6
Continuous
 62
     7
100
AcDbLine
 10
74.7729487744
 20
157.7556059608
 30
0.0
 11
74.7680985046
 21
157.7702008738
 31
0.0
  0
ARC
  5
1D1
330
75
100
AcDbEntity
  8
400885031_SCHLUE
  6
Continuous
 62
     7
100
AcDbCircle
 10
75.8124413882
 20
158.7200705875
 30
0.0
 40
1.412437392948915
100
AcDbArc
 50
192.5830813321
 51
222.2866414211
  0
ARC
  5
1D2
330
75
100
AcDbEntity
  8
400885031_SCHLUE
  6
Continuous
 62
     7
100
AcDbCircle
 10
76.4572934816
 20
158.9232632988
 30
0.0
 40
1.752893336593268
100
AcDbArc
 50
173.1770757311
 51
197.9222745219
  0
LINE
  5
1D3
330
75
100
AcDbEntity
  8
400885031_SCHLUE
  6
Continuous
 62
     7
100
AcDbLine
 10
74.7939887776
 20
158.3712064437
 30
0.0
 11
74.7897798543
 21
158.3839546797
 31
0.0
  0
ARC
  5
1D4
330
75
100
AcDbEntity
  8
400885031_SCHLUE
  6
Continuous
 62
     7
100
AcDbCircle
 10
75.1507436571
 20
158.502215513
 30
0.0
 40
0.687157817969824
100
AcDbArc
 50
347.2311990803
 51
44.10622697
  0
LINE
  5
1D5
330
75
100
AcDbEntity
  8
400885031_SCHLUE
  6
Continuous
 62
     7
100
AcDbLine
 10
71.7645206743
 20
166.6277518001
 30
0.0
 11
72.0225137755
 21
166.7115788402
 31
0.0
  0
LINE
  5
1D6
330
75
100
AcDbEntity
  8
400885031_SCHLUE
  6
Continuous
 62
     7
100
AcDbLine
 10
72.2472445033
 20
166.0199287788
 30
0.0
 11
72.2517154779
 21
166.0061685339
 31
0.0
  0
LINE
  5
1D7
330
75
100
AcDbEntity
  8
400885031_SCHLUE
  6
Continuous
 62
     7
100
AcDbLine
 10
72.2517154779
 20
166.0061685339
 30
0.0
 11
72.6738856612
 21
166.1433399417
 31
0.0
  0
LINE
  5
1D8
330
75
100
AcDbEntity
  8
400885031_SCHLUE
  6
Continuous
 62
     7
100
AcDbLine
 10
72.6694146867
 20
166.1571001865
 30
0.0
 11
72.6738856612
 21
166.1433399417
 31
0.0
  0
LINE
  5
1D9
330
75
100
AcDbEntity
  8
400885031_SCHLUE
  6
Continuous
 62
     7
100
AcDbLine
 10
72.4928962234
 20
166.7003681549
 30
0.0
 11
72.7508893246
 21
166.7841951949
 31
0.0
  0
LINE
  5
1DA
330
75
100
AcDbEntity
  8
400885031_SCHLUE
  6
Continuous
 62
     7
100
AcDbLine
 10
72.9274077878
 20
166.2409272266
 30
0.0
 11
72.9318787624
 21
166.2271669817
 31
0.0
  0
LINE
  5
1DB
330
75
100
AcDbEntity
  8
400885031_SCHLUE
  6
Continuous
 62
     7
100
AcDbLine
 10
72.9318787624
 20
166.2271669817
 30
0.0
 11
73.3775029505
 21
166.3719590576
 31
0.0
  0
LINE
  5
1DC
330
75
100
AcDbEntity
  8
400885031_SCHLUE
  6
Continuous
 62
     7
100
AcDbLine
 10
73.3730319759
 20
166.3857193024
 30
0.0
 11
73.3775029505
 21
166.3719590576
 31
0.0
  0
LINE
  5
1DD
330
75
100
AcDbEntity
  8
400885031_SCHLUE
  6
Continuous
 62
     7
100
AcDbLine
 10
73.1262749282
 20
167.145159406
 30
0.0
 11
73.3842689804
 21
167.2289867551
 31
0.0
  0
LINE
  5
1DE
330
75
100
AcDbEntity
  8
400885031_SCHLUE
  6
Continuous
 62
     7
100
AcDbLine
 10
72.6763939207
 20
163.8212945216
 30
0.0
 11
73.2788492305
 21
164.0170441178
 31
0.0
  0
LINE
  5
1DF
330
75
100
AcDbEntity
  8
400885031_SCHLUE
  6
Continuous
 62
     7
100
AcDbLine
 10
73.2767486432
 20
164.0235090607
 30
0.0
 11
73.2788492305
 21
164.0170441178
 31
0.0
  0
LINE
  5
1E0
330
75
100
AcDbEntity
  8
400885031_SCHLUE
  6
Continuous
 62
     7
100
AcDbLine
 10
72.2880525096
 20
165.0164864894
 30
0.0
 11
73.9298271356
 21
165.5499314022
 31
0.0
  0
LINE
  5
1E1
330
75
100
AcDbEntity
  8
400885031_SCHLUE
  6
Continuous
 62
     7
100
AcDbLine
 10
73.6124497191
 20
164.1325849523
 30
0.0
 11
73.6145503064
 21
164.1261200095
 31
0.0
  0
LINE
  5
1E2
330
75
100
AcDbEntity
  8
400885031_SCHLUE
  6
Continuous
 62
     7
100
AcDbLine
 10
73.6145503064
 20
164.1261200095
 30
0.0
 11
74.3181685467
 21
164.3547394344
 31
0.0
  0
CIRCLE
  5
1E3
330
75
100
AcDbEntity
  8
400885031_SCHLUE
  6
Continuous
 62
     7
100
AcDbCircle
 10
105.3660226495
 20
172.3843288309
 30
0.0
 40
10.34550807568877
  0
ARC
  5
1E4
330
75
100
AcDbEntity
  8
400885031_SCHLUE
  6
Continuous
 62
     7
100
AcDbCircle
 10
105.3660226495
 20
172.3843288309
 30
0.0
 40
13.1
100
AcDbArc
 50
299.2327449769
 51
299.7899544199
  0
ARC
  5
1E5
330
75
100
AcDbEntity
  8
400885031_SCHLUE
  6
Continuous
 62
     7
100
AcDbCircle
 10
105.3660226495
 20
172.3843288309
 30
0.0
 40
13.10000000000004
100
AcDbArc
 50
276.2100455801
 51
276.7672550231
  0
ARC
  5
1E6
330
75
100
AcDbEntity
  8
400885031_SCHLUE
  6
Continuous
 62
     7
100
AcDbCircle
 10
105.3660226495
 20
172.3843288309
 30
0.0
 40
12.975
100
AcDbArc
 50
298.8628808305
 51
299.4278575532
  0
LINE
  5
1E7
330
75
100
AcDbEntity
  8
400885031_SCHLUE
  6
Continuous
 62
     7
100
AcDbLine
 10
111.7409941721
 20
161.0834278453
 30
0.0
 11
112.4099585171
 21
160.7425734868
 31
0.0
  0
ARC
  5
1E8
330
75
100
AcDbEntity
  8
400885031_SCHLUE
  6
Continuous
 62
     7
100
AcDbCircle
 10
112.6369537669
 20
161.1880767489
 30
0.0
 40
0.4999999999999926
100
AcDbArc
 50
243.0
 51
3.0
  0
LINE
  5
1E9
330
75
100
AcDbEntity
  8
400885031_SCHLUE
  6
Continuous
 62
     7
100
AcDbLine
 10
113.1362685343
 20
161.214244727
 30
0.0
 11
113.0969748953
 21
161.9640120233
 31
0.0
  0
ARC
  5
1EA
330
75
100
AcDbEntity
  8
400885031_SCHLUE
  6
Continuous
 62
     7
100
AcDbCircle
 10
105.3660226495
 20
172.3843288309
 30
0.0
 40
12.97500000000003
100
AcDbArc
 50
306.5721424468
 51
307.1371191695
  0
ARC
  5
1EB
330
75
100
AcDbEntity
  8
400885031_SCHLUE
  6
Continuous
 62
     7
100
AcDbCircle
 10
105.3660226495
 20
172.3843288309
 30
0.0
 40
12.975
100
AcDbArc
 50
268.8628808305
 51
269.4278575532
  0
LINE
  5
1EC
330
75
100
AcDbEntity
  8
400885031_SCHLUE
  6
Continuous
 62
     7
100
AcDbLine
 10
105.2364594436
 20
159.4099757305
 30
0.0
 11
105.6453723813
 21
158.7803050245
 31
0.0
  0
ARC
  5
1ED
330
75
100
AcDbEntity
  8
400885031_SCHLUE
  6
Continuous
 62
     7
100
AcDbCircle
 10
106.0647076653
 20
159.052624542
 30
0.0
 40
0.5000000000000007
100
AcDbArc
 50
213.0
 51
333.0
  0
LINE
  5
1EE
330
75
100
AcDbEntity
  8
400885031_SCHLUE
  6
Continuous
 62
     7
100
AcDbLine
 10
106.5102109274
 20
158.8256292921
 30
0.0
 11
106.851065286
 21
159.4945936371
 31
0.0
  0
ARC
  5
1EF
330
75
100
AcDbEntity
  8
400885031_SCHLUE
  6
Continuous
 62
     7
100
AcDbCircle
 10
105.3660226495
 20
172.3843288309
 30
0.0
 40
12.97500000000003
100
AcDbArc
 50
276.5721424468
 51
277.1371191695
  0
ARC
  5
1F0
330
75
100
AcDbEntity
  8
400885031_SCHLUE
  6
Continuous
 62
     7
100
AcDbCircle
 10
105.3660226495
 20
172.3843288309
 30
0.0
 40
13.10000000000005
100
AcDbArc
 50
306.2100455801
 51
306.7672550231
  0
ARC
  5
1F1
330
75
100
AcDbEntity
  8
400885031_SCHLUE
  6
Continuous
 62
     7
100
AcDbCircle
 10
105.3660226495
 20
172.3843288309
 30
0.0
 40
13.1
100
AcDbArc
 50
269.2327449769
 51
269.7899544199
  0
CIRCLE
  5
1F2
330
75
100
AcDbEntity
  8
400885031_SCHLUE
  6
Continuous
 62
     7
100
AcDbCircle
 10
105.3660226495
 20
172.3843288309
 30
0.0
 40
11.525
  0
LINE
  5
1F3
330
75
100
AcDbEntity
  8
400885031_SCHLUE
  6
Continuous
 62
     7
100
AcDbLine
 10
86.0549053108
 20
150.9161373111
 30
0.0
 11
90.5479290508
 21
158.106478342
 31
0.0
  0
LINE
  5
1F4
330
75
100
AcDbEntity
  8
400885031_SCHLUE
  6
Continuous
 62
     7
100
AcDbLine
 10
84.985623152
 20
175.2254956353
 30
0.0
 11
77.1243141734
 21
178.401670632
 31
0.0
  0
LINE
  5
1F5
330
75
100
AcDbEntity
  8
400885031_SCHLUE
  6
Continuous
 62
     7
100
AcDbLine
 10
87.8537167507
 20
176.1573957361
 30
0.0
 11
84.985623152
 21
175.2254956353
 31
0.0
  0
LINE
  5
1F6
330
75
100
AcDbEntity
  8
400885031_SCHLUE
  6
Continuous
 62
     7
100
AcDbLine
 10
90.5479290508
 20
158.106478342
 30
0.0
 11
93.8734045838
 21
159.186990842
 31
0.0
  0
LINE
  5
1F7
330
75
100
AcDbEntity
  8
400885031_SCHLUE
  6
Continuous
 62
     7
100
AcDbLine
 10
107.0192635694
 20
190.4393922382
 30
0.0
 11
91.5223656406
 21
211.7690423708
 31
0.0
  0
LINE
  5
1F8
330
75
100
AcDbEntity
  8
400885031_SCHLUE
  6
Continuous
 62
     7
100
AcDbLine
 10
72.186859475
 20
197.720974841
 30
0.0
 11
87.8537167507
 21
176.1573957361
 31
0.0
  0
LINE
  5
1F9
330
75
100
AcDbEntity
  8
400885031_SCHLUE
  6
Continuous
 62
     7
100
AcDbLine
 10
97.1660226495
 20
156.9243805775
 30
0.0
 11
97.1660226495
 21
132.3843288309
 31
0.0
  0
LINE
  5
1FA
330
75
100
AcDbEntity
  8
400885031_SCHLUE
  6
Continuous
 62
     7
100
AcDbLine
 10
113.5660226495
 20
132.3843288309
 30
0.0
 11
113.5660226495
 21
156.9243805775
 31
0.0
  0
LINE
  5
1FB
330
75
100
AcDbEntity
  8
400885031_SCHLUE
  6
Continuous
 62
     7
100
AcDbLine
 10
127.7196241043
 20
187.3718492359
 30
0.0
 11
136.381065364
 21
199.2933003909
 31
0.0
  0
LINE
  5
1FC
330
75
100
AcDbEntity
  8
400885031_SCHLUE
  6
Continuous
 62
     7
100
AcDbLine
 10
121.5923641563
 20
178.9383994214
 30
0.0
 11
125.9562683474
 21
184.9447982527
 31
0.0
  0
LINE
  5
1FD
330
75
100
AcDbEntity
  8
400885031_SCHLUE
  6
Continuous
 62
     7
100
AcDbLine
 10
121.3738001183
 20
210.1967168209
 30
0.0
 11
107.0192635694
 21
190.4393922382
 31
0.0
  0
LINE
  5
1FE
330
75
100
AcDbEntity
  8
400885031_SCHLUE
  6
Continuous
 62
     7
100
AcDbLine
 10
115.2295274999
 20
157.9288360318
 30
0.0
 11
140.1018014615
 21
149.8473443316
 31
0.0
  0
LINE
  5
1FF
330
75
100
AcDbEntity
  8
400885031_SCHLUE
  6
Continuous
 62
     7
100
AcDbLine
 10
128.8624384595
 20
176.0005263427
 30
0.0
 11
121.8424911795
 21
178.2814454805
 31
0.0
  0
LINE
  5
200
330
75
100
AcDbEntity
  8
400885031_SCHLUE
  6
Continuous
 62
     7
100
AcDbLine
 10
146.7147651411
 20
170.1999537803
 30
0.0
 11
131.7156080083
 21
175.0734753596
 31
0.0
  0
LINE
  5
201
330
75
100
AcDbEntity
  8
400885031_SCHLUE
  6
Continuous
 62
     7
100
AcDbLine
 10
77.1243141734
 20
178.401670632
 30
0.0
 11
62.858466429
 21
173.7664157164
 31
0.0
  0
LINE
  5
202
330
75
100
AcDbEntity
  8
400885031_SCHLUE
  6
Continuous
 62
     7
100
AcDbLine
 10
71.7890575664
 20
146.2808823955
 30
0.0
 11
86.0549053108
 21
150.9161373111
 31
0.0
  0
LINE
  5
203
330
75
100
AcDbEntity
  8
400885031_SCHLUE
  6
Continuous
 62
     7
100
AcDbLine
 10
76.0865690818
 20
160.6677147411
 30
0.0
 11
76.0884296474
 21
160.6620622056
 31
0.0
  0
LINE
  5
204
330
75
100
AcDbEntity
  8
400885031_SCHLUE
  6
Continuous
 62
     7
100
AcDbLine
 10
77.1072293026
 20
158.7395654707
 30
0.0
 11
77.1025884025
 21
158.7537666527
 31
0.0
  0
LINE
  5
205
330
75
100
AcDbEntity
  8
400885031_SCHLUE
  6
Continuous
 62
     7
100
AcDbLine
 10
75.7765823372
 20
162.8379602506
 30
0.0
 11
75.7762976685
 21
162.8389149025
 31
0.0
  0
LINE
  5
206
330
75
100
AcDbEntity
  8
400885031_SCHLUE
  6
Continuous
 62
     7
100
AcDbLine
 10
74.4211987637
 20
167.0114489725
 30
0.0
 11
74.4168457648
 21
167.0246852905
 31
0.0
  0
LINE
  5
207
330
75
100
AcDbEntity
  8
400885031_SCHLUE
  6
Continuous
 62
     7
100
AcDbLine
 10
74.7228179984
 20
164.8693709762
 30
0.0
 11
74.7256745618
 21
164.8605061547
 31
0.0
  0
LINE
  5
208
330
75
100
AcDbEntity
  8
400885031_SCHLUE
  6
Continuous
 62
     7
100
AcDbLine
 10
75.300717196
 20
165.0570329477
 30
0.0
 11
75.3035744516
 21
165.0481655213
 31
0.0
  0
LINE
  5
209
330
75
100
AcDbEntity
  8
400885031_SCHLUE
  6
Continuous
 62
     7
100
AcDbLine
 10
76.6644218347
 20
160.8554694941
 30
0.0
 11
76.6662824002
 21
160.8498169591
 31
0.0
  0
LINE
  5
20A
330
75
100
AcDbEntity
  8
400885031_SCHLUE
  6
Continuous
 62
     7
100
AcDbLine
 10
76.3544366681
 20
163.0257165043
 30
0.0
 11
76.3541519994
 21
163.0266711561
 31
0.0
  0
LINE
  5
20B
330
75
100
AcDbEntity
  8
400885031_SCHLUE
  6
Continuous
 62
     7
100
AcDbLine
 10
77.2507705844
 20
161.0459865919
 30
0.0
 11
77.2526311499
 21
161.0403340569
 31
0.0
  0
LINE
  5
20C
330
75
100
AcDbEntity
  8
400885031_SCHLUE
  6
Continuous
 62
     7
100
AcDbLine
 10
76.9407848846
 20
163.2162325889
 30
0.0
 11
76.940500216
 21
163.2171872405
 31
0.0
  0
LINE
  5
20D
330
75
100
AcDbEntity
  8
400885031_SCHLUE
  6
Continuous
 62
     7
100
AcDbLine
 10
75.887065413
 20
165.2475490308
 30
0.0
 11
75.8899226709
 21
165.2386815972
 31
0.0
  0
LINE
  5
20E
330
75
100
AcDbEntity
  8
400885031_SCHLUE
  6
Continuous
 62
     7
100
AcDbLine
 10
75.8085279892
 20
158.7014042789
 30
0.0
 11
75.8043786503
 21
158.7141746375
 31
0.0
  0
ENDBLK
  5
210
330
75
100
AcDbEntity
  8
0
100
AcDbBlockEnd
  0
BLOCK
  5
214
330
213
100
AcDbEntity
  8
0
100
AcDbBlockBegin
  2
_OBLIQUE
 70
     0
 10
0.0
 20
0.0
 30
0.0
  3
_OBLIQUE
  1
_OBLIQUE
  0
LINE
  5
216
330
213
100
AcDbEntity
  8
0
  6
ByBlock
 62
     0
370
    -2
100
AcDbLine
 10
-0.5
 20
-0.5
 30
0.0
 11
0.5
 21
0.5
 31
0.0
  0
ENDBLK
  5
215
330
213
100
AcDbEntity
  8
0
100
AcDbBlockEnd
  0
BLOCK
  5
218
330
217
100
AcDbEntity
  8
0
100
AcDbBlockBegin
  2
_DOT
 70
     0
 10
0.0
 20
0.0
 30
0.0
  3
_DOT
  1
_DOT
  0
POLYLINE
  5
21A
330
217
100
AcDbEntity
  8
0
  6
ByBlock
 62
     0
100
AcDb2dPolyline
 66
     1
 10
0.0
 20
0.0
 30
0.0
 70
     1
 40
0.5
 41
0.5
  0
VERTEX
  5
21C
330
21A
100
AcDbEntity
  8
0
  6
ByBlock
 62
     0
100
AcDbVertex
100
AcDb2dVertex
 10
-0.25
 20
0.0
 30
0.0
 42
1.0
  0
VERTEX
  5
21D
330
21A
100
AcDbEntity
  8
0
  6
ByBlock
 62
     0
100
AcDbVertex
100
AcDb2dVertex
 10
0.25
 20
0.0
 30
0.0
 42
1.0
  0
SEQEND
  5
21E
330
21A
100
AcDbEntity
  8
0
  6
ByBlock
 62
     0
  0
LINE
  5
21B
330
217
100
AcDbEntity
  8
0
  6
ByBlock
 62
     0
370
    -2
100
AcDbLine
 10
-0.5
 20
0.0
 30
0.0
 11
-1.0
 21
0.0
 31
0.0
  0
ENDBLK
  5
219
330
217
100
AcDbEntity
  8
0
100
AcDbBlockEnd
  0
BLOCK
  5
222
330
21F
100
AcDbEntity
  8
0
100
AcDbBlockBegin
  2
_SE_FILLED
 70
     0
 10
0.0
 20
0.0
 30
0.0
  3
_SE_FILLED
  1
_SE_FILLED
  0
SOLID
  5
220
330
21F
100
AcDbEntity
  8
0
 62
     0
100
AcDbTrace
 10
0.0
 20
0.0
 30
0.0
 11
-1.0
 21
-0.1665
 31
0.0
 12
-1.0
 22
0.1665
 32
0.0
 13
0.0
 23
0.0
 33
0.0
  0
LINE
  5
221
330
21F
100
AcDbEntity
  8
0
 62
     0
100
AcDbLine
 10
0.0
 20
0.0
 30
0.0
 11
-1.0
 21
0.0
 31
0.0
  0
ENDBLK
  5
223
330
21F
100
AcDbEntity
  8
0
100
AcDbBlockEnd
  0
BLOCK
  5
22E
330
226
100
AcDbEntity
  8
0
100
AcDbBlockBegin
  2
DMBLK185
 70
     0
 10
0.0
 20
0.0
 30
0.0
  3
DMBLK185
  1
DMBLK185
  0
HATCH
  5
227
330
226
100
AcDbEntity
  8
Layer3
  6
Continuous
 62
     7
100
AcDbHatch
 10
0.0
 20
0.0
 30
0.0
210
0.0
220
0.0
230
1.0
  2
SOLID
 70
     1
 71
     0
 91
        1
 92
        1
 93
        3
 72
     1
 10
89.44718803163504
 20
224.8330891024717
 11
85.18087128059356
 21
220.4973605566542
 72
     1
 10
85.18087128059356
 20
220.4973605566542
 11
90.62275854643845
 21
223.2150550996573
 72
     1
 10
90.62275854643845
 20
223.2150550996573
 11
89.44718803163504
 21
224.8330891024717
 97
        0
 75
     0
 76
     1
 98
        0
  0
HATCH
  5
228
330
226
100
AcDbEntity
  8
Layer3
  6
Continuous
 62
     7
100
AcDbHatch
 10
0.0
 20
0.0
 30
0.0
210
0.0
220
0.0
230
1.0
  2
SOLID
 70
     1
 71
     0
 91
        1
 92
        1
 93
        3
 72
     1
 10
60.40347784918756
 20
203.7315984838608
 11
61.57904836399099
 21
202.1135644810464
 72
     1
 10
61.57904836399098
 20
202.1135644810464
 11
65.84536511503245
 21
206.4492930268639
 72
     1
 10
65.84536511503245
 20
206.4492930268639
 11
60.40347784918757
 21
203.7315984838608
 97
        0
 75
     0
 76
     1
 98
        0
  0
LINE
  5
229
330
226
100
AcDbEntity
  8
Layer3
  6
Continuous
 62
     7
100
AcDbLine
 10
91.5223656406
 20
211.7690423708
 30
0.0
 11
83.4175155084
 21
222.9244115609
 31
0.0
  0
LINE
  5
22A
330
226
100
AcDbEntity
  8
Layer3
  6
Continuous
 62
     7
100
AcDbLine
 10
72.186859475
 20
197.720974841
 30
0.0
 11
64.0820093428
 21
208.8763440311
 31
0.0
  0
LINE
  5
22B
330
226
100
AcDbEntity
  8
Layer3
  6
Continuous
 62
     7
100
AcDbLine
 10
94.8890752975
 20
227.5507836455
 30
0.0
 11
85.1808712806
 21
220.4973605567
 31
0.0
  0
LINE
  5
22C
330
226
100
AcDbEntity
  8
Layer3
  6
Continuous
 62
     7
100
AcDbLine
 10
65.845365115
 20
206.4492930269
 30
0.0
 11
56.1371610981
 21
199.395869938
 31
0.0
  0
TEXT
  5
22D
330
226
100
AcDbEntity
  8
Layer3
  6
Continuous
 62
     7
100
AcDbText
 10
70.8174658708
 20
210.4733266805
 30
0.0
 40
6.0
  1
24
  7
SEACAD_Arial
 11
70.8174658708
 21
216.4733266805
 31
0.0
100
AcDbText
 73
     3
  0
ENDBLK
  5
22F
330
226
100
AcDbEntity
  8
0
100
AcDbBlockEnd
  0
BLOCK
  5
239
330
231
100
AcDbEntity
  8
0
100
AcDbBlockBegin
  2
DMBLK186
 70
     0
 10
0.0
 20
0.0
 30
0.0
  3
DMBLK186
  1
DMBLK186
  0
HATCH
  5
232
330
231
100
AcDbEntity
  8
Layer3
  6
Continuous
 62
     7
100
AcDbHatch
 10
0.0
 20
0.0
 30
0.0
210
0.0
220
0.0
230
1.0
  2
SOLID
 70
     1
 71
     0
 91
        1
 92
        1
 93
        3
 72
     1
 10
148.5229639628537
 20
205.7973803136251
 11
143.0810766970088
 21
208.5150748566281
 72
     1
 10
143.0810766970088
 20
208.5150748566281
 11
147.3473934480503
 21
204.1793463108107
 72
     1
 10
147.3473934480503
 20
204.1793463108107
 11
148.5229639628537
 21
205.7973803136251
 97
        0
 75
     0
 76
     1
 98
        0
  0
HATCH
  5
233
330
231
100
AcDbEntity
  8
Layer3
  6
Continuous
 62
     7
100
AcDbHatch
 10
0.0
 20
0.0
 30
0.0
210
0.0
220
0.0
230
1.0
  2
SOLID
 70
     1
 71
     0
 91
        1
 92
        1
 93
        3
 72
     1
 10
123.8074947003119
 20
223.7542198324708
 11
122.6319241855085
 21
222.1361858296564
 72
     1
 10
122.6319241855085
 20
222.1361858296564
 11
128.0738114513534
 21
219.4184912866534
 72
     1
 10
128.0738114513534
 20
219.4184912866534
 11
123.8074947003119
 21
223.7542198324708
 97
        0
 75
     0
 76
     1
 98
        0
  0
LINE
  5
234
330
231
100
AcDbEntity
  8
Layer3
  6
Continuous
 62
     7
100
AcDbLine
 10
136.381065364
 20
199.2933003909
 30
0.0
 11
144.8444324692
 21
210.9421258608
 31
0.0
  0
LINE
  5
235
330
231
100
AcDbEntity
  8
Layer3
  6
Continuous
 62
     7
100
AcDbLine
 10
121.3738001183
 20
210.1967168209
 30
0.0
 11
129.8371672236
 21
221.8455422909
 31
0.0
  0
LINE
  5
236
330
231
100
AcDbEntity
  8
Layer3
  6
Continuous
 62
     7
100
AcDbLine
 10
152.7892807139
 20
201.4616517678
 30
0.0
 11
143.081076697
 21
208.5150748566
 31
0.0
  0
LINE
  5
237
330
231
100
AcDbEntity
  8
Layer3
  6
Continuous
 62
     7
100
AcDbLine
 10
128.0738114514
 20
219.4184912867
 30
0.0
 11
118.3656074345
 21
226.4719143755
 31
0.0
  0
TEXT
  5
238
330
231
100
AcDbEntity
  8
Layer3
  6
Continuous
 62
     7
100
AcDbText
 10
127.3600530845
 20
210.966782843
 30
0.0
 40
6.0
  1
18,6
  7
SEACAD_Arial
 11
127.3600530845
 21
216.966782843
 31
0.0
100
AcDbText
 73
     3
  0
ENDBLK
  5
23A
330
231
100
AcDbEntity
  8
0
100
AcDbBlockEnd
  0
BLOCK
  5
244
330
23C
100
AcDbEntity
  8
0
100
AcDbBlockBegin
  2
DMBLK187
 70
     0
 10
0.0
 20
0.0
 30
0.0
  3
DMBLK187
  1
DMBLK187
  0
HATCH
  5
23D
330
23C
100
AcDbEntity
  8
Layer3
  6
Continuous
 62
     7
100
AcDbHatch
 10
0.0
 20
0.0
 30
0.0
210
0.0
220
0.0
230
1.0
  2
SOLID
 70
     1
 71
     0
 91
        1
 92
        1
 93
        3
 72
     1
 10
162.0797163674949
 20
171.5163518954511
 11
160.1776033183708
 21
172.1343858895732
 72
     1
 10
160.1776033183708
 20
172.1343858895732
 11
159.2745578605667
 21
166.1190297451398
 72
     1
 10
159.2745578605667
 20
166.1190297451398
 11
162.0797163674949
 21
171.5163518954511
 97
        0
 75
     0
 76
     1
 98
        0
  0
HATCH
  5
23E
330
23C
100
AcDbEntity
  8
Layer3
  6
Continuous
 62
     7
100
AcDbHatch
 10
0.0
 20
0.0
 30
0.0
210
0.0
220
0.0
230
1.0
  2
SOLID
 70
     1
 71
     0
 91
        1
 92
        1
 93
        3
 72
     1
 10
151.7585487231388
 20
139.75106415199
 11
152.6615941809429
 21
145.7664202964235
 72
     1
 10
152.6615941809428
 20
145.7664202964235
 11
149.8564356740146
 21
140.3690981461121
 72
     1
 10
149.8564356740146
 20
140.3690981461121
 11
151.7585487231387
 21
139.75106415199
 97
        0
 75
     0
 76
     1
 98
        0
  0
LINE
  5
23F
330
23C
100
AcDbEntity
  8
Layer3
  6
Continuous
 62
     7
100
AcDbLine
 10
146.7147651411
 20
170.1999537803
 30
0.0
 11
162.1277274343
 21
165.191978754
 31
0.0
  0
LINE
  5
240
330
23C
100
AcDbEntity
  8
Layer3
  6
Continuous
 62
     7
100
AcDbLine
 10
140.1018014615
 20
149.8473443316
 30
0.0
 11
155.5147637546
 21
144.8393693052
 31
0.0
  0
LINE
  5
241
330
23C
100
AcDbEntity
  8
Layer3
  6
Continuous
 62
     7
100
AcDbLine
 10
162.9827618253
 20
177.5317080399
 30
0.0
 11
159.2745578606
 21
166.1190297451
 31
0.0
  0
LINE
  5
242
330
23C
100
AcDbEntity
  8
Layer3
  6
Continuous
 62
     7
100
AcDbLine
 10
152.6615941809
 20
145.7664202964
 30
0.0
 11
148.9533902162
 21
134.3537420017
 31
0.0
  0
TEXT
  5
243
330
23C
100
AcDbEntity
  8
Layer3
  6
Continuous
 62
     7
100
AcDbText
 10
147.7506845773
 20
152.9427245928
 30
0.0
 40
6.0
  1
21,4
  7
SEACAD_Arial
 11
147.7506845773
 21
158.9427245928
 31
0.0
100
AcDbText
 73
     3
  0
ENDBLK
  5
245
330
23C
100
AcDbEntity
  8
0
100
AcDbBlockEnd
  0
BLOCK
  5
24F
330
247
100
AcDbEntity
  8
0
100
AcDbBlockBegin
  2
DMBLK188
 70
     0
 10
0.0
 20
0.0
 30
0.0
  3
DMBLK188
  1
DMBLK188
  0
HATCH
  5
248
330
247
100
AcDbEntity
  8
Layer3
  6
Continuous
 62
     7
100
AcDbHatch
 10
0.0
 20
0.0
 30
0.0
210
0.0
220
0.0
230
1.0
  2
SOLID
 70
     1
 71
     0
 91
        1
 92
        1
 93
        3
 72
     1
 10
49.0997526727383
 20
162.9871652219138
 11
51.00186572186242
 21
163.6051992160359
 72
     1
 10
51.00186572186242
 20
163.6051992160359
 11
48.19670721493412
 21
169.0025213663472
 72
     1
 10
48.19670721493412
 20
169.0025213663472
 11
49.0997526727383
 21
162.9871652219138
 97
        0
 75
     0
 76
     1
 98
        0
  0
HATCH
  5
249
330
247
100
AcDbEntity
  8
Layer3
  6
Continuous
 62
     7
100
AcDbHatch
 10
0.0
 20
0.0
 30
0.0
210
0.0
220
0.0
230
1.0
  2
SOLID
 70
     1
 71
     0
 91
        1
 92
        1
 93
        3
 72
     1
 10
54.32213984544212
 20
146.9143101957287
 11
57.12729835237042
 21
141.5169880454173
 72
     1
 10
57.12729835237042
 20
141.5169880454173
 11
56.22425289456623
 21
147.5323441898508
 72
     1
 10
56.22425289456623
 20
147.5323441898508
 11
54.32213984544212
 21
146.9143101957287
 97
        0
 75
     0
 76
     1
 98
        0
  0
LINE
  5
24A
330
247
100
AcDbEntity
  8
Layer3
  6
Continuous
 62
     7
100
AcDbLine
 10
62.858466429
 20
173.7664157164
 30
0.0
 11
45.3435376412
 21
168.0754703752
 31
0.0
  0
LINE
  5
24B
330
247
100
AcDbEntity
  8
Layer3
  6
Continuous
 62
     7
100
AcDbLine
 10
71.7890575664
 20
146.2808823955
 30
0.0
 11
54.2741287787
 21
140.5899370542
 31
0.0
  0
LINE
  5
24C
330
247
100
AcDbEntity
  8
Layer3
  6
Continuous
 62
     7
100
AcDbLine
 10
48.1967072149
 20
169.0025213663
 30
0.0
 11
51.0049121523
 21
160.3597552617
 31
0.0
  0
LINE
  5
24D
330
247
100
AcDbEntity
  8
Layer3
  6
Continuous
 62
     7
100
AcDbLine
 10
54.3190931272
 20
150.1597550358
 30
0.0
 11
57.1272983524
 21
141.5169880454
 31
0.0
  0
TEXT
  5
24E
330
247
100
AcDbEntity
  8
Layer3
  6
Continuous
 62
     7
100
AcDbText
 10
47.9663505071
 20
152.2597550219
 30
0.0
 40
6.0
  1
29
  7
SEACAD_Arial
 11
47.9663505071
 21
158.2597550219
 31
0.0
100
AcDbText
 73
     3
  0
ENDBLK
  5
250
330
247
100
AcDbEntity
  8
0
100
AcDbBlockEnd
  0
BLOCK
  5
25A
330
252
100
AcDbEntity
  8
0
100
AcDbBlockBegin
  2
DMBLK189
 70
     0
 10
0.0
 20
0.0
 30
0.0
  3
DMBLK189
  1
DMBLK189
  0
HATCH
  5
253
330
252
100
AcDbEntity
  8
Layer3
  6
Continuous
 62
     7
100
AcDbHatch
 10
0.0
 20
0.0
 30
0.0
210
0.0
220
0.0
230
1.0
  2
SOLID
 70
     1
 71
     0
 91
        1
 92
        1
 93
        3
 72
     1
 10
91.16602259732075
 20
120.9417700748773
 11
97.16602264947481
 21
121.9417700835697
 72
     1
 10
97.16602264947481
 20
121.9417700835697
 11
91.16602259732075
 21
122.941770092262
 72
     1
 10
91.16602259732075
 20
122.941770092262
 11
91.16602259732075
 21
120.9417700748773
 97
        0
 75
     0
 76
     1
 98
        0
  0
HATCH
  5
254
330
252
100
AcDbEntity
  8
Layer3
  6
Continuous
 62
     7
100
AcDbHatch
 10
0.0
 20
0.0
 30
0.0
210
0.0
220
0.0
230
1.0
  2
SOLID
 70
     1
 71
     0
 91
        1
 92
        1
 93
        3
 72
     1
 10
119.5660227016289
 20
120.9417700748773
 11
119.5660227016289
 21
122.941770092262
 72
     1
 10
119.5660227016289
 20
122.941770092262
 11
113.5660226494748
 21
121.9417700835697
 72
     1
 10
113.5660226494748
 20
121.9417700835697
 11
119.5660227016289
 21
120.9417700748773
 97
        0
 75
     0
 76
     1
 98
        0
  0
LINE
  5
255
330
252
100
AcDbEntity
  8
Layer3
  6
Continuous
 62
     7
100
AcDbLine
 10
97.1660226495
 20
132.3843287596
 30
0.0
 11
97.1660226495
 21
118.9417700575
 31
0.0
  0
LINE
  5
256
330
252
100
AcDbEntity
  8
Layer3
  6
Continuous
 62
     7
100
AcDbLine
 10
113.5660226495
 20
132.3843287596
 30
0.0
 11
113.5660226495
 21
118.9417700575
 31
0.0
  0
LINE
  5
257
330
252
100
AcDbEntity
  8
Layer3
  6
Continuous
 62
     7
100
AcDbLine
 10
85.1660225452
 20
121.9417700836
 30
0.0
 11
97.1660226495
 21
121.9417700836
 31
0.0
  0
LINE
  5
258
330
252
100
AcDbEntity
  8
Layer3
  6
Continuous
 62
     7
100
AcDbLine
 10
113.5660226495
 20
121.9417700836
 30
0.0
 11
125.5660227538
 21
121.9417700836
 31
0.0
  0
TEXT
  5
259
330
252
100
AcDbEntity
  8
Layer3
  6
Continuous
 62
     7
100
AcDbText
 10
97.1486313854
 20
118.9417700836
 30
0.0
 40
6.0
  1
16,4
  7
SEACAD_Arial
 11
97.1486313854
 21
124.9417700836
 31
0.0
100
AcDbText
 73
     3
  0
ENDBLK
  5
25B
330
252
100
AcDbEntity
  8
0
100
AcDbBlockEnd
  0
BLOCK
  5
266
330
25D
100
AcDbEntity
  8
0
100
AcDbBlockBegin
  2
DMBLK190
 70
     0
 10
0.0
 20
0.0
 30
0.0
  3
DMBLK190
  1
DMBLK190
  0
HATCH
  5
25E
330
25D
100
AcDbEntity
  8
Layer3
  6
Continuous
 62
     7
100
AcDbHatch
 10
0.0
 20
0.0
 30
0.0
210
0.0
220
0.0
230
1.0
  2
SOLID
 70
     1
 71
     0
 91
        1
 92
        1
 93
        3
 72
     1
 10
117.6054871074837
 20
196.362225704828
 11
112.2081649571724
 21
193.5570671978997
 72
     1
 10
112.2081649571724
 20
193.5570671978997
 11
118.2235211016058
 21
194.4601126557039
 72
     1
 10
118.2235211016058
 20
194.4601126557039
 11
117.6054871074837
 21
196.362225704828
 97
        0
 75
     0
 76
     1
 98
        0
  0
HATCH
  5
25F
330
25D
100
AcDbEntity
  8
Layer3
  6
Continuous
 62
     7
100
AcDbHatch
 10
0.0
 20
0.0
 30
0.0
210
0.0
220
0.0
230
1.0
  2
SOLID
 70
     1
 71
     0
 91
        1
 92
        1
 93
        3
 72
     1
 10
81.37023373743554
 20
184.5886781869092
 11
81.98826773155763
 21
182.6865651377851
 72
     1
 10
81.98826773155763
 20
182.6865651377851
 11
87.38558988186895
 21
185.4917236447134
 72
     1
 10
87.38558988186895
 20
185.4917236447134
 11
81.37023373743554
 21
184.5886781869092
 97
        0
 75
     0
 76
     1
 98
        0
  0
LINE
  5
260
330
25D
100
AcDbEntity
  8
Layer3
  6
Continuous
 62
     7
100
AcDbLine
 10
116.1582437972
 20
181.3999745813
 30
0.0
 11
111.281113966
 21
196.4102367716
 31
0.0
  0
LINE
  5
261
330
25D
100
AcDbEntity
  8
Layer3
  6
Continuous
 62
     7
100
AcDbLine
 10
91.3356687219
 20
173.3346310281
 30
0.0
 11
86.4585388907
 21
188.3448932184
 31
0.0
  0
LINE
  5
262
330
25D
100
AcDbEntity
  8
Layer3
  6
Continuous
 62
     7
100
AcDbLine
 10
75.4230365102
 20
181.604854437
 30
0.0
 11
61.2317321767
 21
181.604854437
 31
0.0
  0
LINE
  5
263
330
25D
100
AcDbEntity
  8
Layer3
  6
Continuous
 62
     7
100
AcDbLine
 10
123.6208432519
 20
197.2652711626
 30
0.0
 11
112.2081649572
 21
193.5570671979
 31
0.0
  0
LINE
  5
264
330
25D
100
AcDbEntity
  8
Layer3
  6
Continuous
 62
     7
100
AcDbLine
 10
87.3855898819
 20
185.4917236447
 30
0.0
 11
75.4230350873
 21
181.6048539747
 31
0.0
  0
TEXT
  5
265
330
25D
100
AcDbEntity
  8
Layer3
  6
Continuous
 62
     7
100
AcDbText
 10
63.3317321338
 20
183.104854437
 30
0.0
 40
6.0
  1
26
  7
SEACAD_Arial
 11
63.3317321338
 21
189.104854437
 31
0.0
100
AcDbText
 73
     3
  0
ENDBLK
  5
267
330
25D
100
AcDbEntity
  8
0
100
AcDbBlockEnd
  0
BLOCK
  5
272
330
269
100
AcDbEntity
  8
0
100
AcDbBlockBegin
  2
DMBLK191
 70
     0
 10
0.0
 20
0.0
 30
0.0
  3
DMBLK191
  1
DMBLK191
  0
HATCH
  5
26A
330
269
100
AcDbEntity
  8
Layer3
  6
Continuous
 62
     7
100
AcDbHatch
 10
0.0
 20
0.0
 30
0.0
210
0.0
220
0.0
230
1.0
  2
SOLID
 70
     1
 71
     0
 91
        1
 92
        1
 93
        3
 72
     1
 10
131.2135399268073
 20
147.9683587650677
 11
130.5955059326853
 21
149.8704718141918
 72
     1
 10
130.5955059326852
 20
149.8704718141918
 11
125.1981837823739
 21
147.0653133072635
 72
     1
 10
125.1981837823739
 20
147.0653133072635
 11
131.2135399268073
 21
147.9683587650677
 97
        0
 75
     0
 76
     1
 98
        0
  0
HATCH
  5
26B
330
269
100
AcDbEntity
  8
Layer3
  6
Continuous
 62
     7
100
AcDbHatch
 10
0.0
 20
0.0
 30
0.0
210
0.0
220
0.0
230
1.0
  2
SOLID
 70
     1
 71
     0
 91
        1
 92
        1
 93
        3
 72
     1
 10
98.80628903484714
 20
137.438604649508
 11
104.2036111851585
 21
140.2437631564363
 72
     1
 10
104.2036111851585
 20
140.2437631564363
 11
98.18825504072507
 21
139.3407176986321
 72
     1
 10
98.18825504072507
 20
139.3407176986321
 11
98.80628903484715
 21
137.438604649508
 97
        0
 75
     0
 76
     1
 98
        0
  0
LINE
  5
26C
330
269
100
AcDbEntity
  8
Layer3
  6
Continuous
 62
     7
100
AcDbLine
 10
117.3573699043
 20
171.1968570977
 30
0.0
 11
126.1252347736
 21
144.2121437336
 31
0.0
  0
LINE
  5
26D
330
269
100
AcDbEntity
  8
Layer3
  6
Continuous
 62
     7
100
AcDbLine
 10
96.3627973677
 20
164.3753067604
 30
0.0
 11
105.1306621763
 21
137.3905935828
 31
0.0
  0
LINE
  5
26E
330
269
100
AcDbEntity
  8
Layer3
  6
Continuous
 62
     7
100
AcDbLine
 10
91.4121794271
 20
136.0875750352
 30
0.0
 11
77.2208750936
 21
136.0875750352
 31
0.0
  0
LINE
  5
26F
330
269
100
AcDbEntity
  8
Layer3
  6
Continuous
 62
     7
100
AcDbLine
 10
136.6108620771
 20
150.773517272
 30
0.0
 11
125.1981837824
 21
147.0653133073
 31
0.0
  0
LINE
  5
270
330
269
100
AcDbEntity
  8
Layer3
  6
Continuous
 62
     7
100
AcDbLine
 10
104.2036111852
 20
140.2437631564
 30
0.0
 11
91.4121805211
 21
136.0875753907
 31
0.0
  0
TEXT
  5
271
330
269
100
AcDbEntity
  8
Layer3
  6
Continuous
 62
     7
100
AcDbText
 10
79.3208750507
 20
137.5875750352
 30
0.0
 40
6.0
  1
22
  7
SEACAD_Arial
 11
79.3208750507
 21
143.5875750352
 31
0.0
100
AcDbText
 73
     3
  0
ENDBLK
  5
273
330
269
100
AcDbEntity
  8
0
100
AcDbBlockEnd
  0
BLOCK
  5
2D1
330
293
100
AcDbEntity
  8
0
100
AcDbBlockBegin
  2
symb_tb_GroheLogo2013_ori
 70
     0
 10
0.0
 20
0.0
 30
0.0
  3
symb_tb_GroheLogo2013_ori
  1
symb_tb_GroheLogo2013_ori
  0
HATCH
  5
294
330
293
100
AcDbEntity
  8
Standard
  6
Continuous
 62
     7
100
AcDbHatch
 10
0.0
 20
0.0
 30
0.0
210
0.0
220
0.0
230
1.0
  2
SOLID
 70
     1
 71
     0
 91
        9
 92
        1
 93
        4
 72
     1
 10
20.1320023102195
 20
15.45781230744146
 11
0.0
 21
15.45781230744146
 72
     1
 10
0.0
 20
15.45781230744146
 11
0.0
 21
0.0000000000000373
 72
     1
 10
0.0
 20
0.0000000000000284
 11
20.1320023102195
 21
0.0000000000000007
 72
     1
 10
20.1320023102195
 20
0.0
 11
20.1320023102195
 21
15.45781230744145
 97
        0
 92
        1
 93
        1
 72
     4
 94
        3
 73
     1
 74
     0
 95
       19
 96
       15
 40
0.0
 40
0.0
 40
0.0
 40
0.0
 40
0.576972079187426
 40
0.576972079187426
 40
0.8087884250258078
 40
0.8087884250258078
 40
0.8087884250258078
 40
0.8585481612372913
 40
0.8585481612372913
 40
0.8585481612372913
 40
0.9292740806186457
 40
0.9292740806186457
 40
0.9292740806186457
 40
1.0
 40
1.0
 40
1.0
 40
1.0
 10
11.46799090897963
 20
10.53350423551331
 42
1.08047789209601
 10
11.15134096082077
 20
10.87514302682462
 42
0.986882803952448
 10
10.69711027311541
 20
11.07146344343644
 42
0.960056839920445
 10
9.990877002577506
 20
11.07146344343644
 42
1.01604804301204
 10
9.801985283517666
 20
11.04147310806695
 42
1.04287400704405
 10
9.623784716721097
 20
10.9846336521683
 42
1.08047789209601
 10
8.940730305162269
 20
10.76673253851368
 42
0.949278918900485
 10
8.523147123926407
 20
10.23914070703063
 42
0.949278918900485
 10
8.523147123926407
 20
9.594067440522593
 42
1.08047789209601
 10
8.523147123926407
 20
8.470493468490844
 42
0.77464325294993
 10
9.556926438753003
 20
7.823976345336916
 42
0.77464325294993
 10
10.74664227133307
 20
8.203501228876803
 42
1.08047789209601
 10
11.93634708210673
 20
8.583037134223133
 42
0.77464325294993
 10
12.27172963078638
 20
9.666337425461052
 42
0.77464325294993
 10
11.46799090897963
 20
10.53350423551331
 42
1.08047789209601
 97
        0
 92
        1
 93
       12
 72
     1
 10
12.35280603908395
 20
10.94643207098838
 11
12.35280603908395
 21
8.241702810056726
 72
     1
 10
12.35280603908395
 20
8.241702810056722
 11
13.05198535348936
 21
8.24170281005675
 72
     1
 10
13.05198535348936
 20
8.24170281005675
 11
13.05198535348936
 21
9.390781242229906
 72
     1
 10
13.05198535348936
 20
9.390781242229906
 11
14.29894844880703
 21
9.390781242229878
 72
     1
 10
14.29894844880703
 20
9.390781242229878
 11
14.29894844880708
 21
8.241702810056722
 72
     1
 10
14.29894844880708
 20
8.241702810056722
 11
15.00253648579529
 21
8.24170281005675
 72
     1
 10
15.00253648579529
 20
8.24170281005675
 11
15.00253648579528
 21
10.9464320709884
 72
     1
 10
15.00253648579528
 20
10.94643207098841
 11
14.29894844880707
 21
10.94643207098838
 72
     1
 10
14.29894844880707
 20
10.94643207098838
 11
14.29894844880708
 21
9.948903477598794
 72
     1
 10
14.29894844880708
 20
9.948903477598805
 11
13.05198535348941
 21
9.948903477598805
 72
     1
 10
13.05198535348941
 20
9.948903477598805
 11
13.05198535348937
 21
10.94643207098839
 72
     1
 10
13.05198535348936
 20
10.94643207098838
 11
12.35280603908394
 21
10.94643207098838
 97
        0
 92
        1
 93
       11
 72
     1
 10
7.093740066326241
 20
10.94643207098838
 11
5.782067945299608
 21
10.94643207098838
 72
     1
 10
5.782067945299609
 20
10.94643207098838
 11
5.782067945299623
 21
8.241702810056726
 72
     1
 10
5.782067945299623
 20
8.241702810056722
 11
6.500248854036888
 21
8.24170281005675
 72
     1
 10
6.500248854036883
 20
8.24170281005675
 11
6.500248854036855
 21
10.42939913009116
 72
     1
 10
6.500248854036855
 20
10.42939913009116
 11
6.965490326392723
 21
10.42939913009116
 72
     4
 94
        3
 73
     0
 74
     0
 95
       15
 96
       11
 40
0.0
 40
0.0
 40
0.0
 40
0.0
 40
0.1729865553416529
 40
0.3342463836783639
 40
0.4999999999999963
 40
0.4999999999999963
 40
0.4999999999999963
 40
0.6728584706586043
 40
0.8410305318392429
 40
1.0
 40
1.0
 40
1.0
 40
1.0
 10
6.965490326392711
 20
10.42939913009116
 10
7.074507014058817
 20
10.43245217047976
 10
7.229649961747356
 20
10.37276908851513
 10
7.314264369917616
 20
10.26467823259148
 10
7.378510479755413
 20
10.12433757097466
 10
7.378675806852257
 20
9.99925108949435
 10
7.378510479755413
 20
9.874164608013984
 10
7.314264369917616
 20
9.733812924590694
 10
7.233121830781286
 20
9.630174878475657
 10
7.093211019616326
 20
9.57343461883508
 10
7.00312979544335
 20
9.56938961586539
 72
     1
 10
7.00312979544335
 20
9.56938961586539
 11
6.590528470726049
 21
9.56938961586539
 72
     1
 10
6.590528470726049
 20
9.56938961586539
 11
7.583670385145745
 21
8.241702810056754
 72
     1
 10
7.583670385145744
 20
8.24170281005675
 11
8.474221325063843
 21
8.24170281005675
 72
     1
 10
8.474221325063844
 20
8.24170281005675
 11
7.568394161396378
 21
9.326887830198766
 72
     4
 94
        3
 73
     0
 74
     0
 95
       18
 96
       14
 40
0.0
 40
0.0
 40
0.0
 40
0.0
 40
0.010760420324004
 40
0.010760420324004
 40
0.010760420324004
 40
0.057351634176115
 40
0.2756344009928203
 40
0.4999999999999988
 40
0.4999999999999988
 40
0.4999999999999988
 40
0.6657536163216358
 40
0.8270134446583466
 40
1.0
 40
1.0
 40
1.0
 40
1.0
 10
7.568394161396377
 20
9.326887830198757
 10
7.575734684496737
 20
9.32967634723235
 10
7.582942945919577
 20
9.332508951491775
 10
7.590018945664994
 20
9.335374621170615
 10
7.620659567615405
 20
9.347807218854086
 10
7.780365543177155
 20
9.422623241084125
 10
7.926404478732223
 20
9.57649868103016
 10
8.079783937387653
 20
9.852914565164895
 10
8.080180722420089
 20
10.09926296128498
 10
8.079783937387653
 20
10.34562237921159
 10
7.926404478732223
 20
10.62202724153994
 10
7.724385788182104
 20
10.8348913896437
 10
7.354020025807955
 20
10.95244997731388
 10
7.093740066326241
 20
10.94643207098838
 97
        0
 92
        1
 93
        6
 72
     4
 94
        3
 73
     1
 74
     0
 95
       24
 96
       20
 40
0.0
 40
0.0
 40
0.0
 40
0.0
 40
0.2499999999999994
 40
0.2499999999999994
 40
0.2499999999999994
 40
0.3364932776708256
 40
0.4171231918391822
 40
0.4999999999999989
 40
0.4999999999999989
 40
0.4999999999999989
 40
0.5000191898804309
 40
0.5000191898804309
 40
0.5000191898804309
 40
0.582889636457092
 40
0.6635133615118
 40
0.7500000000000008
 40
0.7500000000000008
 40
0.7500000000000008
 40
1.0
 40
1.0
 40
1.0
 40
1.0
 10
5.104326044453018
 20
10.75563357941147
 42
1.0
 10
4.734346045304903
 20
10.93423093124051
 42
0.983215874790017
 10
4.333846664077356
 20
11.02583316470455
 42
0.983215874790017
 10
3.923019850199637
 20
11.02583316470455
 42
1.0
 10
3.511542749740947
 20
11.03599527025787
 42
1.0
 10
2.926020303519991
 20
10.83734925248359
 42
1.0
 10
2.606652439622302
 20
10.47763055514693
 42
1.0
 10
2.364161675762148
 20
10.01052639749983
 42
1.0
 10
2.363544454600579
 20
9.59421072400653
 42
1.0
 10
2.363544618007474
 20
9.594100506063086
 42
1.0
 10
2.363544781414291
 20
9.593990288119642
 42
1.0
 10
2.363544944821193
 20
9.593880070176226
 42
1.0
 10
2.364161675762148
 20
9.177608483545328
 42
1.0
 10
2.606652439622302
 20
8.7105043258982
 42
1.0
 10
2.926020303519991
 20
8.35078562856151
 42
1.0
 10
3.511542749740947
 20
8.152128588980815
 42
1.0
 10
3.923019850199637
 20
8.162290694534107
 42
1.0
 10
4.369799796740047
 20
8.162290694534107
 42
0.979410758195494
 10
4.802780441596298
 20
8.272475693684612
 42
0.979410758195494
 10
5.195211860497345
 20
8.486023193788782
 42
1.0
 72
     1
 10
5.195211860497345
 20
8.486023193788782
 11
5.195211860497345
 21
9.594067440522585
 72
     1
 10
5.195211860497345
 20
9.594067440522565
 11
4.472941861564536
 21
9.594067440522593
 72
     1
 10
4.472941861564536
 20
9.594067440522593
 11
4.472941861564522
 21
8.799825045425665
 72
     4
 94
        3
 73
     1
 74
     0
 95
       21
 96
       17
 40
0.0
 40
0.0
 40
0.0
 40
0.0
 40
0.2499999999999987
 40
0.2499999999999987
 40
0.2499999999999987
 40
0.3364932776708245
 40
0.4171231918391831
 40
0.5000000000000027
 40
0.5000000000000027
 40
0.5000000000000027
 40
0.5828768081608185
 40
0.6635067223291754
 40
0.7500000000000012
 40
0.7500000000000012
 40
0.7500000000000012
 40
1.0
 40
1.0
 40
1.0
 40
1.0
 10
4.472941861564522
 20
8.799825045425592
 42
1.0
 10
4.284314665859632
 20
8.707517416348338
 42
0.982778304235208
 10
4.07972789440506
 20
8.660189779422069
 42
0.982778304235208
 10
3.869729415980075
 20
8.660288975680203
 42
1.0
 10
3.669386040011439
 20
8.653664869999517
 42
1.0
 10
3.384318037807951
 20
8.783237226707854
 42
1.0
 10
3.228811370506321
 20
9.017858420757733
 42
1.0
 10
3.11075680154552
 20
9.322523194841807
 42
1.0
 10
3.110459212771204
 20
9.594067440522593
 42
1.0
 10
3.11083395419071
 20
9.865611686203351
 42
1.0
 10
3.262725468974466
 20
10.17027646028737
 42
1.0
 10
3.462771256168786
 20
10.40489765433728
 42
1.0
 10
3.829521866024976
 20
10.53447001104561
 42
1.0
 10
4.087255788215202
 20
10.52784590536498
 42
1.0
 10
4.45128401187656
 20
10.52782386175204
 42
0.972058195946033
 10
4.800047033594993
 20
10.4235245072496
 42
0.972058195946033
 10
5.104326044453018
 20
10.22367711257149
 42
1.0
 72
     1
 10
5.104326044453018
 20
10.22367711257149
 11
5.104326044453018
 21
10.7556335794115
 97
        0
 92
        1
 93
       12
 72
     1
 10
15.76676650190979
 20
8.24170281005675
 11
17.79408451618858
 21
8.24170281005675
 72
     1
 10
17.79408451618858
 20
8.24170281005675
 11
17.79408451618858
 21
8.758779838179787
 72
     1
 10
17.79408451618858
 20
8.758779838179805
 11
16.46595683812166
 21
8.758779838179805
 72
     1
 10
16.46595683812166
 20
8.758779838179805
 11
16.46595683812166
 21
9.423615203665284
 72
     1
 10
16.46595683812166
 20
9.423615203665264
 11
17.42883287201053
 21
9.423615203665264
 72
     1
 10
17.42883287201052
 20
9.423615203665264
 11
17.42883287201052
 21
9.924280761973897
 72
     1
 10
17.42883287201052
 20
9.924280761973904
 11
16.46595683812166
 21
9.924280761973904
 72
     1
 10
16.46595683812166
 20
9.924280761973904
 11
16.46595683812166
 21
10.42934402105888
 72
     1
 10
16.46595683812166
 20
10.42934402105888
 11
17.6135142610038
 21
10.42934402105888
 72
     1
 10
17.6135142610038
 20
10.42934402105888
 11
17.6135142610038
 21
10.94643207098838
 72
     1
 10
17.6135142610038
 20
10.94643207098838
 11
15.76676650190981
 21
10.94643207098838
 72
     1
 10
15.76676650190981
 20
10.94643207098838
 11
15.76676650190981
 21
8.241702810056752
 97
        0
 92
        1
 93
        4
 72
     4
 94
        3
 73
     1
 74
     0
 95
        8
 96
        4
 40
0.0
 40
0.0
 40
0.0
 40
0.0
 40
1.0
 40
1.0
 40
1.0
 40
1.0
 10
2.998995684071666
 20
6.959293585173413
 42
1.0
 10
3.065479220620205
 20
6.841404343309449
 42
0.996524898131218
 10
3.143634850206745
 20
6.730921755384628
 42
0.996524898131218
 10
3.232657980959814
 20
6.628970045657496
 42
1.0
 72
     4
 94
        3
 73
     0
 74
     0
 95
       15
 96
       11
 40
0.0
 40
0.0
 40
0.0
 40
0.0
 40
0.0208137023656323
 40
0.2611989665798511
 40
0.5000000000000027
 40
0.5000000000000027
 40
0.5000000000000027
 40
0.7388010334201498
 40
0.9791862976343679
 40
1.0
 40
1.0
 40
1.0
 40
1.0
 10
3.232657980959814
 20
6.628970045657496
 10
3.329231049135934
 20
6.61881896191062
 10
4.541122756307416
 20
6.550109020457768
 10
6.85950463550239
 20
8.124254440451125
 10
9.082029863940804
 20
6.623481186041943
 10
10.18962221660991
 20
6.61361666926291
 10
11.29721456927896
 20
6.623481186041943
 10
13.51973979771746
 20
8.124254440451125
 10
15.83811065510588
 20
6.550109020457768
 10
17.05001338408385
 20
6.61881896191062
 10
17.14658645225997
 20
6.628970045657496
 72
     4
 94
        3
 73
     1
 74
     0
 95
        8
 96
        4
 40
0.0
 40
0.0
 40
0.0
 40
0.0
 40
1.0
 40
1.0
 40
1.0
 40
1.0
 10
17.14658645225997
 20
6.628970045657496
 42
1.0
 10
17.2355985612066
 20
6.730921755384628
 42
0.996524898131218
 10
17.31376521259956
 20
6.841404343309449
 42
0.996524898131218
 10
17.38024874914812
 20
6.959293585173413
 42
1.0
 72
     4
 94
        3
 73
     0
 74
     0
 95
       13
 96
        9
 40
0.0
 40
0.0
 40
0.0
 40
0.0
 40
0.0348463403164052
 40
0.2674231701582032
 40
0.4999999999999981
 40
0.7325768298417971
 40
0.965153659683592
 40
1.0
 40
1.0
 40
1.0
 40
1.0
 10
17.38024874914812
 20
6.959293585173413
 10
17.21312509784082
 20
6.93076915006273
 10
15.93064974211877
 20
6.803202762129558
 10
13.53443186572459
 20
8.430010373374358
 10
10.18961670570665
 20
6.156696660782046
 10
6.844801545688732
 20
8.430010373374358
 10
4.448594691101043
 20
6.803202762129558
 10
3.166108313572508
 20
6.93076915006273
 10
2.998995684071666
 20
6.959293585173413
 97
        0
 92
        1
 93
        4
 72
     4
 94
        3
 73
     1
 74
     0
 95
        8
 96
        4
 40
0.0
 40
0.0
 40
0.0
 40
0.0
 40
1.0
 40
1.0
 40
1.0
 40
1.0
 10
4.105585052353177
 20
5.935896812029256
 42
1.0
 10
4.186705547876564
 20
5.850356572116567
 42
0.997360588447966
 10
4.275111457468064
 20
5.772377291433401
 42
0.997360588447966
 10
4.370108407320828
 20
5.702554147528417
 42
1.0
 72
     4
 94
        3
 73
     0
 74
     0
 95
       19
 96
       15
 40
0.0
 40
0.0
 40
0.0
 40
0.0
 40
0.2499999999999999
 40
0.2499999999999999
 40
0.2499999999999999
 40
0.3122787705541569
 40
0.5
 40
0.5
 40
0.5
 40
0.6877212294458419
 40
0.75
 40
0.75
 40
0.75
 40
1.0
 40
1.0
 40
1.0
 40
1.0
 10
4.370108407320828
 20
5.702554147528417
 10
4.835019225483016
 20
5.842035108241561
 10
5.299919021838711
 20
5.981505047148289
 10
5.764829840000878
 20
6.120986007861433
 10
6.132230736438039
 20
6.231204072431296
 10
7.606981505802302
 20
6.560723020075841
 10
9.082029863940804
 20
5.564682370557932
 10
10.18962221660991
 20
5.5548288755854
 10
11.29721456927896
 20
5.564682370557932
 10
12.77225190561104
 20
6.560723020075841
 10
14.24701369678172
 20
6.231204072431296
 10
14.61440357141247
 20
6.120986007861433
 10
15.07931438957463
 20
5.981505047148289
 10
15.54422520773677
 20
5.842035108241561
 10
16.00913602589896
 20
5.702554147528417
 72
     4
 94
        3
 73
     1
 74
     0
 95
        8
 96
        4
 40
0.0
 40
0.0
 40
0.0
 40
0.0
 40
1.0
 40
1.0
 40
1.0
 40
1.0
 10
16.00913602589896
 20
5.702554147528417
 42
1.0
 10
16.10412195394523
 20
5.772377291433401
 42
0.997360588447966
 10
16.19252786353676
 20
5.850356572116567
 42
0.997360588447966
 10
16.27365938086661
 20
5.935896812029256
 42
1.0
 72
     4
 94
        3
 73
     0
 74
     0
 95
       18
 96
       14
 40
0.0
 40
0.0
 40
0.0
 40
0.0
 40
0.25
 40
0.25
 40
0.25
 40
0.311033251196408
 40
0.5000000000000001
 40
0.5000000000000001
 40
0.6889667488035931
 40
0.7500000000000001
 40
0.7500000000000001
 40
0.7500000000000001
 40
1.0
 40
1.0
 40
1.0
 40
1.0
 10
16.27365938086661
 20
5.935896812029256
 10
15.72057411104858
 20
6.100077641012518
 10
15.16748884123051
 20
6.264258469995809
 10
14.61440357141247
 20
6.4284392989791
 10
14.25435421988208
 20
6.535317756192484
 10
12.77960345051785
 20
6.858190554543455
 10
11.3045550923793
 20
5.855669082828825
 10
9.074678319034028
 20
5.855669082828825
 10
7.599629960895477
 20
6.858190554543455
 10
6.124879191531264
 20
6.535317756192484
 10
5.764829840000878
 20
6.4284392989791
 10
5.21174457018278
 20
6.264258469995809
 10
4.658670322171183
 20
6.100077641012518
 10
4.105585052353177
 20
5.935896812029256
 97
        0
 92
        1
 93
        4
 72
     1
 10
5.306961956164734
 20
5.222477323681375
 11
5.681703375702289
 21
5.036792950300529
 72
     4
 94
        3
 73
     0
 74
     0
 95
       13
 96
        9
 40
0.0
 40
0.0
 40
0.0
 40
0.0
 40
0.131481813034251
 40
0.5
 40
0.5
 40
0.5
 40
0.8685181869657492
 40
1.0
 40
1.0
 40
1.0
 40
1.0
 10
5.681703375702263
 20
5.036792950300537
 10
6.076813093572333
 20
5.159553830618449
 10
7.579272684369421
 20
5.520639231955812
 10
9.082029863940804
 20
4.505883555073979
 10
10.18962221660991
 20
4.496030060101418
 10
11.29721456927896
 20
4.505883555073979
 10
12.79997174885037
 20
5.520639231955812
 10
14.30243133964746
 20
5.159553830618449
 10
14.69754105751753
 20
5.036792950300537
 72
     1
 10
14.69754105751753
 20
5.036792950300537
 11
15.07228247705508
 21
5.222477323681383
 72
     4
 94
        3
 73
     0
 74
     0
 95
       12
 96
        8
 40
0.0
 40
0.0
 40
0.0
 40
0.0
 40
0.157509693652257
 40
0.5
 40
0.5
 40
0.842490306347743
 40
1.0
 40
1.0
 40
1.0
 40
1.0
 10
15.07228247705505
 20
5.222477323681375
 10
14.55959212790187
 20
5.3954976414432
 10
12.93225546994714
 20
5.903140003239059
 10
11.3045550923793
 20
4.796870267344843
 10
9.074678319034028
 20
4.796870267344843
 10
7.446988963272702
 20
5.903140003239059
 10
5.819652305317923
 20
5.3954976414432
 10
5.306961956164734
 20
5.222477323681375
 97
        0
 75
     0
 76
     1
 98
        0
  0
HATCH
  5
295
330
293
100
AcDbEntity
  8
Standard
  6
Continuous
 62
     7
100
AcDbHatch
 10
0.0
 20
0.0
 30
0.0
210
0.0
220
0.0
230
1.0
  2
SOLID
 70
     1
 71
     0
 91
        1
 92
        1
 93
        1
 72
     4
 94
        3
 73
     0
 74
     0
 95
       25
 96
       21
 40
0.0
 40
0.0
 40
0.0
 40
0.0
 40
0.086493277670826
 40
0.167123191839183
 40
0.2499999999999999
 40
0.2499999999999999
 40
0.2499999999999999
 40
0.3328768081608169
 40
0.4135067223291728
 40
0.4999999999999999
 40
0.4999999999999999
 40
0.4999999999999999
 40
0.586493277670826
 40
0.6671231918391831
 40
0.75
 40
0.75
 40
0.75
 40
0.832876808160817
 40
0.913506722329174
 40
1.0
 40
1.0
 40
1.0
 40
1.0
 10
10.1852134940271
 20
10.53350009207739
 10
9.941576462295409
 20
10.54016828498388
 10
9.594885540190894
 20
10.40981338001708
 10
9.405784406808365
 20
10.17375935112779
 10
9.262203334093194
 20
9.867253935365426
 10
9.261839614480131
 20
9.594067440522593
 10
9.262203334093194
 20
9.320880945679676
 10
9.405784406808365
 20
9.014364508110873
 10
9.594885540190894
 20
8.778321501028046
 10
9.941576462295409
 20
8.647966596061252
 10
10.1852134940271
 20
8.65463478896774
 10
10.42885052575882
 20
8.647966596061252
 10
10.77553042605687
 20
8.778321501028046
 10
10.96464258124583
 20
9.014364508110873
 10
11.10821263215459
 20
9.320880945679676
 10
11.1085763517676
 20
9.594067440522593
 10
11.10821263215459
 20
9.867253935365426
 10
10.96464258124583
 20
10.17375935112779
 10
10.71903264615831
 20
10.39242096942795
 10
10.42885052575882
 20
10.54016828498388
 10
10.1852134940271
 20
10.53350009207739
 97
        0
 75
     0
 76
     1
 98
        0
  0
LINE
  5
296
330
293
100
AcDbEntity
  8
Layer1
  6
Continuous
 62
     7
100
AcDbLine
 10
13.0519853535
 20
9.3907812422
 30
0.0
 11
14.2989484488
 21
9.3907812422
 31
0.0
  0
LINE
  5
297
330
293
100
AcDbEntity
  8
Layer1
  6
Continuous
 62
     7
100
AcDbLine
 10
7.5836703851
 20
8.2417028101
 30
0.0
 11
8.4742213251
 21
8.2417028101
 31
0.0
  0
LINE
  5
298
330
293
100
AcDbEntity
  8
Layer1
  6
Continuous
 62
     7
100
AcDbLine
 10
17.428832872
 20
9.4236152037
 30
0.0
 11
16.4659568381
 21
9.4236152037
 31
0.0
  0
LINE
  5
299
330
293
100
AcDbEntity
  8
Layer1
  6
Continuous
 62
     7
100
AcDbLine
 10
5.1952118605
 20
8.4860231938
 30
0.0
 11
5.1952118605
 21
9.5940674405
 31
0.0
  0
LINE
  5
29A
330
293
100
AcDbEntity
  8
Layer1
  6
Continuous
 62
     7
100
AcDbLine
 10
16.4659568381
 20
9.4236152037
 30
0.0
 11
16.4659568381
 21
8.7587798382
 31
0.0
  0
SPLINE
  5
29B
330
293
100
AcDbEntity
  8
Layer1
  6
Continuous
 62
     7
100
AcDbSpline
210
0.0
220
0.0
230
1.0
 70
     8
 71
     3
 72
    18
 73
    14
 74
     0
 42
0.000000001
 43
0.0000000001
 40
0.0
 40
0.0
 40
0.0
 40
0.0
 40
0.25
 40
0.25
 40
0.25
 40
0.311033251196408
 40
0.5000000000000001
 40
0.5000000000000001
 40
0.6889667488035931
 40
0.7500000000000001
 40
0.7500000000000001
 40
0.7500000000000001
 40
1.0
 40
1.0
 40
1.0
 40
1.0
 10
16.27365938086661
 20
5.935896812029256
 30
0.0
 10
15.72057411104858
 20
6.100077641012518
 30
0.0
 10
15.16748884123051
 20
6.264258469995809
 30
0.0
 10
14.61440357141247
 20
6.4284392989791
 30
0.0
 10
14.25435421988208
 20
6.535317756192484
 30
0.0
 10
12.77960345051785
 20
6.858190554543455
 30
0.0
 10
11.3045550923793
 20
5.855669082828825
 30
0.0
 10
9.074678319034028
 20
5.855669082828825
 30
0.0
 10
7.599629960895477
 20
6.858190554543455
 30
0.0
 10
6.124879191531264
 20
6.535317756192484
 30
0.0
 10
5.764829840000878
 20
6.4284392989791
 30
0.0
 10
5.21174457018278
 20
6.264258469995809
 30
0.0
 10
4.658670322171183
 20
6.100077641012518
 30
0.0
 10
4.105585052353177
 20
5.935896812029256
 30
0.0
  0
LINE
  5
29C
330
293
100
AcDbEntity
  8
Layer1
  6
Continuous
 62
     7
100
AcDbLine
 10
15.7667665019
 20
10.946432071
 30
0.0
 11
17.613514261
 21
10.946432071
 31
0.0
  0
SPLINE
  5
29D
330
293
100
AcDbEntity
  8
Layer1
  6
Continuous
 62
     7
100
AcDbSpline
210
0.0
220
0.0
230
1.0
 70
    12
 71
     3
 72
     8
 73
     4
 74
     0
 42
0.000000001
 43
0.0000000001
 40
0.0
 40
0.0
 40
0.0
 40
0.0
 40
1.0
 40
1.0
 40
1.0
 40
1.0
 10
3.232657980959814
 20
6.628970045657496
 30
0.0
 41
1.0
 10
3.143634850206745
 20
6.730921755384628
 30
0.0
 41
0.996524898131218
 10
3.065479220620205
 20
6.841404343309449
 30
0.0
 41
0.996524898131218
 10
2.998995684071666
 20
6.959293585173413
 30
0.0
 41
1.0
  0
LINE
  5
29E
330
293
100
AcDbEntity
  8
Layer1
  6
Continuous
 62
     7
100
AcDbLine
 10
7.0031297954
 20
9.5693896159
 30
0.0
 11
6.5905284707
 21
9.5693896159
 31
0.0
  0
SPLINE
  5
29F
330
293
100
AcDbEntity
  8
Layer1
  6
Continuous
 62
     7
100
AcDbSpline
210
0.0
220
0.0
230
1.0
 70
    12
 71
     3
 72
     8
 73
     4
 74
     0
 42
0.000000001
 43
0.0000000001
 40
0.0
 40
0.0
 40
0.0
 40
0.0
 40
1.0
 40
1.0
 40
1.0
 40
1.0
 10
16.00913602589896
 20
5.702554147528417
 30
0.0
 41
1.0
 10
16.10412195394523
 20
5.772377291433401
 30
0.0
 41
0.997360588447966
 10
16.19252786353676
 20
5.850356572116567
 30
0.0
 41
0.997360588447966
 10
16.27365938086661
 20
5.935896812029256
 30
0.0
 41
1.0
  0
LINE
  5
2A0
330
293
100
AcDbEntity
  8
Layer1
  6
Continuous
 62
     7
100
AcDbLine
 10
12.3528060391
 20
8.2417028101
 30
0.0
 11
13.0519853535
 21
8.2417028101
 31
0.0
  0
LINE
  5
2A1
330
293
100
AcDbEntity
  8
Layer1
  6
Continuous
 62
     7
100
AcDbLine
 10
12.3528060391
 20
10.946432071
 30
0.0
 11
12.3528060391
 21
8.2417028101
 31
0.0
  0
LINE
  5
2A2
330
293
100
AcDbEntity
  8
Layer1
  6
Continuous
 62
     7
100
AcDbLine
 10
16.4659568381
 20
9.924280762
 30
0.0
 11
17.428832872
 21
9.924280762
 31
0.0
  0
SPLINE
  5
2A3
330
293
100
AcDbEntity
  8
Layer1
  6
Continuous
 62
     7
100
AcDbSpline
210
0.0
220
0.0
230
1.0
 70
     8
 71
     3
 72
    18
 73
    14
 74
     0
 42
0.000000001
 43
0.0000000001
 40
0.0
 40
0.0
 40
0.0
 40
0.0
 40
0.010760420324004
 40
0.010760420324004
 40
0.010760420324004
 40
0.057351634176115
 40
0.2756344009928203
 40
0.4999999999999988
 40
0.4999999999999988
 40
0.4999999999999988
 40
0.6657536163216358
 40
0.8270134446583466
 40
1.0
 40
1.0
 40
1.0
 40
1.0
 10
7.568394161396377
 20
9.326887830198757
 30
0.0
 10
7.575734684496737
 20
9.32967634723235
 30
0.0
 10
7.582942945919577
 20
9.332508951491775
 30
0.0
 10
7.590018945664994
 20
9.335374621170615
 30
0.0
 10
7.620659567615405
 20
9.347807218854086
 30
0.0
 10
7.780365543177155
 20
9.422623241084125
 30
0.0
 10
7.926404478732223
 20
9.57649868103016
 30
0.0
 10
8.079783937387653
 20
9.852914565164895
 30
0.0
 10
8.080180722420089
 20
10.09926296128498
 30
0.0
 10
8.079783937387653
 20
10.34562237921159
 30
0.0
 10
7.926404478732223
 20
10.62202724153994
 30
0.0
 10
7.724385788182104
 20
10.8348913896437
 30
0.0
 10
7.354020025807955
 20
10.95244997731388
 30
0.0
 10
7.093740066326241
 20
10.94643207098838
 30
0.0
  0
LINE
  5
2A4
330
293
100
AcDbEntity
  8
Layer1
  6
Continuous
 62
     7
100
AcDbLine
 10
14.2989484488
 20
8.2417028101
 30
0.0
 11
15.0025364858
 21
8.2417028101
 31
0.0
  0
LINE
  5
2A5
330
293
100
AcDbEntity
  8
Layer1
  6
Continuous
 62
     7
100
AcDbLine
 10
17.7940845162
 20
8.2417028101
 30
0.0
 11
15.7667665019
 21
8.2417028101
 31
0.0
  0
LINE
  5
2A6
330
293
100
AcDbEntity
  8
Layer1
  6
Continuous
 62
     7
100
AcDbLine
 10
16.4659568381
 20
8.7587798382
 30
0.0
 11
17.7940845162
 21
8.7587798382
 31
0.0
  0
SPLINE
  5
2A7
330
293
100
AcDbEntity
  8
Layer1
  6
Continuous
 62
     7
100
AcDbSpline
210
0.0
220
0.0
230
1.0
 70
     8
 71
     3
 72
    12
 73
     8
 74
     0
 42
0.000000001
 43
0.0000000001
 40
0.0
 40
0.0
 40
0.0
 40
0.0
 40
0.157509693652257
 40
0.5
 40
0.5
 40
0.842490306347743
 40
1.0
 40
1.0
 40
1.0
 40
1.0
 10
15.07228247705505
 20
5.222477323681375
 30
0.0
 10
14.55959212790187
 20
5.3954976414432
 30
0.0
 10
12.93225546994714
 20
5.903140003239059
 30
0.0
 10
11.3045550923793
 20
4.796870267344843
 30
0.0
 10
9.074678319034028
 20
4.796870267344843
 30
0.0
 10
7.446988963272702
 20
5.903140003239059
 30
0.0
 10
5.819652305317923
 20
5.3954976414432
 30
0.0
 10
5.306961956164734
 20
5.222477323681375
 30
0.0
  0
LINE
  5
2A8
330
293
100
AcDbEntity
  8
Layer1
  6
Continuous
 62
     7
100
AcDbLine
 10
14.2989484488
 20
9.9489034776
 30
0.0
 11
13.0519853535
 21
9.9489034776
 31
0.0
  0
LINE
  5
2A9
330
293
100
AcDbEntity
  8
Layer1
  6
Continuous
 62
     7
100
AcDbLine
 10
17.613514261
 20
10.946432071
 30
0.0
 11
17.613514261
 21
10.4293440211
 31
0.0
  0
SPLINE
  5
2AA
330
293
100
AcDbEntity
  8
Layer1
  6
Continuous
 62
     7
100
AcDbSpline
210
0.0
220
0.0
230
1.0
 70
     8
 71
     3
 72
    13
 73
     9
 74
     0
 42
0.000000001
 43
0.0000000001
 40
0.0
 40
0.0
 40
0.0
 40
0.0
 40
0.0348463403164079
 40
0.2674231701582029
 40
0.5000000000000019
 40
0.7325768298417968
 40
0.9651536596835948
 40
1.0
 40
1.0
 40
1.0
 40
1.0
 10
2.998995684071666
 20
6.959293585173413
 30
0.0
 10
3.166108313572508
 20
6.93076915006273
 30
0.0
 10
4.448594691101043
 20
6.803202762129558
 30
0.0
 10
6.844801545688732
 20
8.430010373374358
 30
0.0
 10
10.18961670570665
 20
6.156696660782046
 30
0.0
 10
13.53443186572459
 20
8.430010373374358
 30
0.0
 10
15.93064974211877
 20
6.803202762129558
 30
0.0
 10
17.21312509784082
 20
6.93076915006273
 30
0.0
 10
17.38024874914812
 20
6.959293585173413
 30
0.0
  0
SPLINE
  5
2AB
330
293
100
AcDbEntity
  8
Layer1
  6
Continuous
 62
     7
100
AcDbSpline
210
0.0
220
0.0
230
1.0
 70
    12
 71
     3
 72
    24
 73
    20
 74
     0
 42
0.000000001
 43
0.0000000001
 40
0.0
 40
0.0
 40
0.0
 40
0.0
 40
0.2499999999999994
 40
0.2499999999999994
 40
0.2499999999999994
 40
0.3364932776708256
 40
0.4171231918391822
 40
0.4999999999999988
 40
0.4999999999999988
 40
0.4999999999999988
 40
0.5000191898804309
 40
0.5000191898804309
 40
0.5000191898804309
 40
0.582889636457092
 40
0.6635133615118
 40
0.7500000000000008
 40
0.7500000000000008
 40
0.7500000000000008
 40
1.0
 40
1.0
 40
1.0
 40
1.0
 10
5.104326044453018
 20
10.75563357941147
 30
0.0
 41
1.0
 10
4.734346045304903
 20
10.93423093124051
 30
0.0
 41
0.983215874790017
 10
4.333846664077356
 20
11.02583316470455
 30
0.0
 41
0.983215874790017
 10
3.923019850199637
 20
11.02583316470455
 30
0.0
 41
1.0
 10
3.511542749740947
 20
11.03599527025787
 30
0.0
 41
1.0
 10
2.926020303519991
 20
10.83734925248359
 30
0.0
 41
1.0
 10
2.606652439622302
 20
10.47763055514693
 30
0.0
 41
1.0
 10
2.364161675762148
 20
10.01052639749983
 30
0.0
 41
1.0
 10
2.363544454600579
 20
9.59421072400653
 30
0.0
 41
1.0
 10
2.363544618007474
 20
9.594100506063086
 30
0.0
 41
1.0
 10
2.363544781414291
 20
9.593990288119642
 30
0.0
 41
1.0
 10
2.363544944821193
 20
9.593880070176226
 30
0.0
 41
1.0
 10
2.364161675762148
 20
9.177608483545328
 30
0.0
 41
1.0
 10
2.606652439622302
 20
8.7105043258982
 30
0.0
 41
1.0
 10
2.926020303519991
 20
8.35078562856151
 30
0.0
 41
1.0
 10
3.511542749740947
 20
8.152128588980815
 30
0.0
 41
1.0
 10
3.923019850199637
 20
8.162290694534107
 30
0.0
 41
1.0
 10
4.369799796740047
 20
8.162290694534107
 30
0.0
 41
0.979410758195494
 10
4.802780441596298
 20
8.272475693684612
 30
0.0
 41
0.979410758195494
 10
5.195211860497345
 20
8.486023193788782
 30
0.0
 41
1.0
  0
LINE
  5
2AC
330
293
100
AcDbEntity
  8
Layer1
  6
Continuous
 62
     7
100
AcDbLine
 10
15.7667665019
 20
8.2417028101
 30
0.0
 11
15.7667665019
 21
10.946432071
 31
0.0
  0
LINE
  5
2AD
330
293
100
AcDbEntity
  8
Layer1
  6
Continuous
 62
     7
100
AcDbLine
 10
5.7820679453
 20
8.2417028101
 30
0.0
 11
6.500248854
 21
8.2417028101
 31
0.0
  0
LINE
  5
2AE
330
293
100
AcDbEntity
  8
Layer1
  6
Continuous
 62
     7
100
AcDbLine
 10
5.3069619562
 20
5.2224773237
 30
0.0
 11
5.6817033757
 21
5.0367929503
 31
0.0
  0
LINE
  5
2AF
330
293
100
AcDbEntity
  8
Layer1
  6
Continuous
 62
     7
100
AcDbLine
 10
13.0519853535
 20
10.946432071
 30
0.0
 11
12.3528060391
 21
10.946432071
 31
0.0
  0
LINE
  5
2B0
330
293
100
AcDbEntity
  8
Layer1
  6
Continuous
 62
     7
100
AcDbLine
 10
16.4659568381
 20
10.4293440211
 30
0.0
 11
16.4659568381
 21
9.924280762
 31
0.0
  0
SPLINE
  5
2B1
330
293
100
AcDbEntity
  8
Layer1
  6
Continuous
 62
     7
100
AcDbSpline
210
0.0
220
0.0
230
1.0
 70
     8
 71
     3
 72
    19
 73
    15
 74
     0
 42
0.000000001
 43
0.0000000001
 40
0.0
 40
0.0
 40
0.0
 40
0.0
 40
0.2499999999999999
 40
0.2499999999999999
 40
0.2499999999999999
 40
0.3122787705541569
 40
0.5
 40
0.5
 40
0.5
 40
0.6877212294458419
 40
0.75
 40
0.75
 40
0.75
 40
1.0
 40
1.0
 40
1.0
 40
1.0
 10
4.370108407320828
 20
5.702554147528417
 30
0.0
 10
4.835019225483016
 20
5.842035108241561
 30
0.0
 10
5.299919021838711
 20
5.981505047148289
 30
0.0
 10
5.764829840000878
 20
6.120986007861433
 30
0.0
 10
6.132230736438039
 20
6.231204072431296
 30
0.0
 10
7.606981505802302
 20
6.560723020075841
 30
0.0
 10
9.082029863940804
 20
5.564682370557932
 30
0.0
 10
10.18962221660991
 20
5.5548288755854
 30
0.0
 10
11.29721456927896
 20
5.564682370557932
 30
0.0
 10
12.77225190561104
 20
6.560723020075841
 30
0.0
 10
14.24701369678172
 20
6.231204072431296
 30
0.0
 10
14.61440357141247
 20
6.120986007861433
 30
0.0
 10
15.07931438957463
 20
5.981505047148289
 30
0.0
 10
15.54422520773677
 20
5.842035108241561
 30
0.0
 10
16.00913602589896
 20
5.702554147528417
 30
0.0
  0
SPLINE
  5
2B2
330
293
100
AcDbEntity
  8
Layer1
  6
Continuous
 62
     7
100
AcDbSpline
210
0.0
220
0.0
230
1.0
 70
    11
 71
     3
 72
    25
 73
    21
 74
     0
 42
0.000000001
 43
0.0000000001
 40
0.0
 40
0.0
 40
0.0
 40
0.0
 40
0.086493277670826
 40
0.167123191839183
 40
0.2499999999999999
 40
0.2499999999999999
 40
0.2499999999999999
 40
0.3328768081608169
 40
0.413506722329174
 40
0.5000000000000001
 40
0.5000000000000001
 40
0.5000000000000001
 40
0.5864932776708272
 40
0.6671231918391831
 40
0.7500000000000001
 40
0.7500000000000001
 40
0.7500000000000001
 40
0.832876808160817
 40
0.913506722329174
 40
1.0
 40
1.0
 40
1.0
 40
1.0
 10
10.1852134940271
 20
10.53350009207739
 30
0.0
 10
10.42885052575882
 20
10.54016828498388
 30
0.0
 10
10.71903264615831
 20
10.39242096942795
 30
0.0
 10
10.96464258124583
 20
10.17375935112779
 30
0.0
 10
11.10821263215459
 20
9.867253935365426
 30
0.0
 10
11.1085763517676
 20
9.594067440522593
 30
0.0
 10
11.10821263215459
 20
9.320880945679676
 30
0.0
 10
10.96464258124583
 20
9.014364508110873
 30
0.0
 10
10.77553042605687
 20
8.778321501028046
 30
0.0
 10
10.42885052575882
 20
8.647966596061252
 30
0.0
 10
10.1852134940271
 20
8.65463478896774
 30
0.0
 10
9.941576462295409
 20
8.647966596061252
 30
0.0
 10
9.594885540190894
 20
8.778321501028046
 30
0.0
 10
9.405784406808365
 20
9.014364508110873
 30
0.0
 10
9.262203334093194
 20
9.320880945679676
 30
0.0
 10
9.261839614480131
 20
9.594067440522593
 30
0.0
 10
9.262203334093194
 20
9.867253935365426
 30
0.0
 10
9.405784406808365
 20
10.17375935112779
 30
0.0
 10
9.594885540190894
 20
10.40981338001708
 30
0.0
 10
9.941576462295409
 20
10.54016828498388
 30
0.0
 10
10.1852134940271
 20
10.53350009207739
 30
0.0
  0
LINE
  5
2B3
330
293
100
AcDbEntity
  8
Layer1
  6
Continuous
 62
     7
100
AcDbLine
 10
13.0519853535
 20
8.2417028101
 30
0.0
 11
13.0519853535
 21
9.3907812422
 31
0.0
  0
LINE
  5
2B4
330
293
100
AcDbEntity
  8
Layer1
  6
Continuous
 62
     7
100
AcDbLine
 10
5.7820679453
 20
10.946432071
 30
0.0
 11
5.7820679453
 21
8.2417028101
 31
0.0
  0
LINE
  5
2B5
330
293
100
AcDbEntity
  8
Layer1
  6
Continuous
 62
     7
100
AcDbLine
 10
15.0025364858
 20
8.2417028101
 30
0.0
 11
15.0025364858
 21
10.946432071
 31
0.0
  0
SPLINE
  5
2B6
330
293
100
AcDbEntity
  8
Layer1
  6
Continuous
 62
     7
100
AcDbSpline
210
0.0
220
0.0
230
1.0
 70
    12
 71
     3
 72
    21
 73
    17
 74
     0
 42
0.000000001
 43
0.0000000001
 40
0.0
 40
0.0
 40
0.0
 40
0.0
 40
0.2499999999999987
 40
0.2499999999999987
 40
0.2499999999999987
 40
0.3364932776708245
 40
0.4171231918391832
 40
0.5000000000000027
 40
0.5000000000000027
 40
0.5000000000000027
 40
0.5828768081608185
 40
0.6635067223291754
 40
0.7500000000000012
 40
0.7500000000000012
 40
0.7500000000000012
 40
1.0
 40
1.0
 40
1.0
 40
1.0
 10
4.472941861564522
 20
8.799825045425592
 30
0.0
 41
1.0
 10
4.284314665859632
 20
8.707517416348338
 30
0.0
 41
0.982778304235208
 10
4.07972789440506
 20
8.660189779422069
 30
0.0
 41
0.982778304235208
 10
3.869729415980075
 20
8.660288975680203
 30
0.0
 41
1.0
 10
3.669386040011439
 20
8.653664869999517
 30
0.0
 41
1.0
 10
3.384318037807951
 20
8.783237226707854
 30
0.0
 41
1.0
 10
3.228811370506321
 20
9.017858420757733
 30
0.0
 41
1.0
 10
3.11075680154552
 20
9.322523194841807
 30
0.0
 41
1.0
 10
3.110459212771204
 20
9.594067440522593
 30
0.0
 41
1.0
 10
3.11083395419071
 20
9.865611686203351
 30
0.0
 41
1.0
 10
3.262725468974466
 20
10.17027646028737
 30
0.0
 41
1.0
 10
3.462771256168786
 20
10.40489765433728
 30
0.0
 41
1.0
 10
3.829521866024976
 20
10.53447001104561
 30
0.0
 41
1.0
 10
4.087255788215202
 20
10.52784590536498
 30
0.0
 41
1.0
 10
4.45128401187656
 20
10.52782386175204
 30
0.0
 41
0.972058195946033
 10
4.800047033594993
 20
10.4235245072496
 30
0.0
 41
0.972058195946033
 10
5.104326044453018
 20
10.22367711257149
 30
0.0
 41
1.0
  0
LINE
  5
2B7
330
293
100
AcDbEntity
  8
Layer1
  6
Continuous
 62
     7
100
AcDbLine
 10
6.500248854
 20
8.2417028101
 30
0.0
 11
6.500248854
 21
10.4293991301
 31
0.0
  0
SPLINE
  5
2B8
330
293
100
AcDbEntity
  8
Layer1
  6
Continuous
 62
     7
100
AcDbSpline
210
0.0
220
0.0
230
1.0
 70
     8
 71
     3
 72
    13
 73
     9
 74
     0
 42
0.000000001
 43
0.0000000001
 40
0.0
 40
0.0
 40
0.0
 40
0.0
 40
0.131481813034251
 40
0.5
 40
0.5
 40
0.5
 40
0.8685181869657492
 40
1.0
 40
1.0
 40
1.0
 40
1.0
 10
5.681703375702263
 20
5.036792950300537
 30
0.0
 10
6.076813093572333
 20
5.159553830618449
 30
0.0
 10
7.579272684369421
 20
5.520639231955812
 30
0.0
 10
9.082029863940804
 20
4.505883555073979
 30
0.0
 10
10.18962221660991
 20
4.496030060101418
 30
0.0
 10
11.29721456927896
 20
4.505883555073979
 30
0.0
 10
12.79997174885037
 20
5.520639231955812
 30
0.0
 10
14.30243133964746
 20
5.159553830618449
 30
0.0
 10
14.69754105751753
 20
5.036792950300537
 30
0.0
  0
LINE
  5
2B9
330
293
100
AcDbEntity
  8
Layer1
  6
Continuous
 62
     7
100
AcDbLine
 10
8.4742213251
 20
8.2417028101
 30
0.0
 11
7.5683941614
 21
9.3268878302
 31
0.0
  0
SPLINE
  5
2BA
330
293
100
AcDbEntity
  8
Layer1
  6
Continuous
 62
     7
100
AcDbSpline
210
0.0
220
0.0
230
1.0
 70
    12
 71
     3
 72
     8
 73
     4
 74
     0
 42
0.000000001
 43
0.0000000001
 40
0.0
 40
0.0
 40
0.0
 40
0.0
 40
1.0
 40
1.0
 40
1.0
 40
1.0
 10
4.105585052353177
 20
5.935896812029256
 30
0.0
 41
1.0
 10
4.186705547876564
 20
5.850356572116567
 30
0.0
 41
0.997360588447966
 10
4.275111457468064
 20
5.772377291433401
 30
0.0
 41
0.997360588447966
 10
4.370108407320828
 20
5.702554147528417
 30
0.0
 41
1.0
  0
LINE
  5
2BB
330
293
100
AcDbEntity
  8
Layer1
  6
Continuous
 62
     7
100
AcDbLine
 10
14.2989484488
 20
10.946432071
 30
0.0
 11
14.2989484488
 21
9.9489034776
 31
0.0
  0
LINE
  5
2BC
330
293
100
AcDbEntity
  8
Layer1
  6
Continuous
 62
     7
100
AcDbLine
 10
14.6975410575
 20
5.0367929503
 30
0.0
 11
15.0722824771
 21
5.2224773237
 31
0.0
  0
LINE
  5
2BD
330
293
100
AcDbEntity
  8
Layer1
  6
Continuous
 62
     7
100
AcDbLine
 10
14.2989484488
 20
9.3907812422
 30
0.0
 11
14.2989484488
 21
8.2417028101
 31
0.0
  0
SPLINE
  5
2BE
330
293
100
AcDbEntity
  8
Layer1
  6
Continuous
 62
     7
100
AcDbSpline
210
0.0
220
0.0
230
1.0
 70
     8
 71
     3
 72
    15
 73
    11
 74
     0
 42
0.000000001
 43
0.0000000001
 40
0.0
 40
0.0
 40
0.0
 40
0.0
 40
0.1729865553416529
 40
0.3342463836783639
 40
0.4999999999999963
 40
0.4999999999999963
 40
0.4999999999999963
 40
0.6728584706586043
 40
0.8410305318392429
 40
1.0
 40
1.0
 40
1.0
 40
1.0
 10
6.965490326392711
 20
10.42939913009116
 30
0.0
 10
7.074507014058817
 20
10.43245217047976
 30
0.0
 10
7.229649961747356
 20
10.37276908851513
 30
0.0
 10
7.314264369917616
 20
10.26467823259148
 30
0.0
 10
7.378510479755413
 20
10.12433757097466
 30
0.0
 10
7.378675806852257
 20
9.99925108949435
 30
0.0
 10
7.378510479755413
 20
9.874164608013984
 30
0.0
 10
7.314264369917616
 20
9.733812924590694
 30
0.0
 10
7.233121830781286
 20
9.630174878475657
 30
0.0
 10
7.093211019616326
 20
9.57343461883508
 30
0.0
 10
7.00312979544335
 20
9.56938961586539
 30
0.0
  0
LINE
  5
2BF
330
293
100
AcDbEntity
  8
Layer1
  6
Continuous
 62
     7
100
AcDbLine
 10
17.7940845162
 20
8.7587798382
 30
0.0
 11
17.7940845162
 21
8.2417028101
 31
0.0
  0
LINE
  5
2C0
330
293
100
AcDbEntity
  8
Layer1
  6
Continuous
 62
     7
100
AcDbLine
 10
5.1952118605
 20
9.5940674405
 30
0.0
 11
4.4729418616
 21
9.5940674405
 31
0.0
  0
LINE
  5
2C1
330
293
100
AcDbEntity
  8
Layer1
  6
Continuous
 62
     7
100
AcDbLine
 10
17.428832872
 20
9.924280762
 30
0.0
 11
17.428832872
 21
9.4236152037
 31
0.0
  0
LINE
  5
2C2
330
293
100
AcDbEntity
  8
Layer1
  6
Continuous
 62
     7
100
AcDbLine
 10
13.0519853535
 20
9.9489034776
 30
0.0
 11
13.0519853535
 21
10.946432071
 31
0.0
  0
LINE
  5
2C3
330
293
100
AcDbEntity
  8
Layer1
  6
Continuous
 62
     7
100
AcDbLine
 10
17.613514261
 20
10.4293440211
 30
0.0
 11
16.4659568381
 21
10.4293440211
 31
0.0
  0
LINE
  5
2C4
330
293
100
AcDbEntity
  8
Layer1
  6
Continuous
 62
     7
100
AcDbLine
 10
15.0025364858
 20
10.946432071
 30
0.0
 11
14.2989484488
 21
10.946432071
 31
0.0
  0
SPLINE
  5
2C5
330
293
100
AcDbEntity
  8
Layer1
  6
Continuous
 62
     7
100
AcDbSpline
210
0.0
220
0.0
230
1.0
 70
    12
 71
     3
 72
     8
 73
     4
 74
     0
 42
0.000000001
 43
0.0000000001
 40
0.0
 40
0.0
 40
0.0
 40
0.0
 40
1.0
 40
1.0
 40
1.0
 40
1.0
 10
17.38024874914812
 20
6.959293585173413
 30
0.0
 41
1.0
 10
17.31376521259956
 20
6.841404343309449
 30
0.0
 41
0.996524898131218
 10
17.2355985612066
 20
6.730921755384628
 30
0.0
 41
0.996524898131218
 10
17.14658645225997
 20
6.628970045657496
 30
0.0
 41
1.0
  0
LINE
  5
2C6
330
293
100
AcDbEntity
  8
Layer1
  6
Continuous
 62
     7
100
AcDbLine
 10
6.5905284707
 20
9.5693896159
 30
0.0
 11
7.5836703851
 21
8.2417028101
 31
0.0
  0
LINE
  5
2C7
330
293
100
AcDbEntity
  8
Layer1
  6
Continuous
 62
     7
100
AcDbLine
 10
7.0937400663
 20
10.946432071
 30
0.0
 11
5.7820679453
 21
10.946432071
 31
0.0
  0
LINE
  5
2C8
330
293
100
AcDbEntity
  8
Layer1
  6
Continuous
 62
     7
100
AcDbLine
 10
5.1043260445
 20
10.2236771126
 30
0.0
 11
5.1043260445
 21
10.7556335794
 31
0.0
  0
SPLINE
  5
2C9
330
293
100
AcDbEntity
  8
Layer1
  6
Continuous
 62
     7
100
AcDbSpline
210
0.0
220
0.0
230
1.0
 70
     8
 71
     3
 72
    15
 73
    11
 74
     0
 42
0.000000001
 43
0.0000000001
 40
0.0
 40
0.0
 40
0.0
 40
0.0
 40
0.020813702365632
 40
0.2611989665798501
 40
0.4999999999999973
 40
0.4999999999999973
 40
0.4999999999999973
 40
0.7388010334201489
 40
0.9791862976343677
 40
1.0
 40
1.0
 40
1.0
 40
1.0
 10
17.14658645225997
 20
6.628970045657496
 30
0.0
 10
17.05001338408385
 20
6.61881896191062
 30
0.0
 10
15.83811065510588
 20
6.550109020457768
 30
0.0
 10
13.51973979771746
 20
8.124254440451125
 30
0.0
 10
11.29721456927896
 20
6.623481186041943
 30
0.0
 10
10.18962221660991
 20
6.61361666926291
 30
0.0
 10
9.082029863940804
 20
6.623481186041943
 30
0.0
 10
6.85950463550239
 20
8.124254440451125
 30
0.0
 10
4.541122756307416
 20
6.550109020457768
 30
0.0
 10
3.329231049135934
 20
6.61881896191062
 30
0.0
 10
3.232657980959814
 20
6.628970045657496
 30
0.0
  0
LINE
  5
2CA
330
293
100
AcDbEntity
  8
Layer1
  6
Continuous
 62
     7
100
AcDbLine
 10
6.500248854
 20
10.4293991301
 30
0.0
 11
6.9654903264
 21
10.4293991301
 31
0.0
  0
LINE
  5
2CB
330
293
100
AcDbEntity
  8
Layer1
  6
Continuous
 62
     7
100
AcDbLine
 10
4.4729418616
 20
9.5940674405
 30
0.0
 11
4.4729418616
 21
8.7998250454
 31
0.0
  0
SPLINE
  5
2CC
330
293
100
AcDbEntity
  8
Layer1
  6
Continuous
 62
     7
100
AcDbSpline
210
0.0
220
0.0
230
1.0
 70
    15
 71
     3
 72
    19
 73
    15
 74
     0
 42
0.000000001
 43
0.0000000001
 40
0.0
 40
0.0
 40
0.0
 40
0.0
 40
0.0707259193813543
 40
0.0707259193813543
 40
0.0707259193813543
 40
0.1414518387627087
 40
0.1414518387627087
 40
0.1414518387627087
 40
0.1912115749741922
 40
0.1912115749741922
 40
0.1912115749741922
 40
0.423027920812574
 40
0.423027920812574
 40
1.0
 40
1.0
 40
1.0
 40
1.0
 10
11.46799090897963
 20
10.53350423551331
 30
0.0
 41
1.08047789209601
 10
12.27172963078638
 20
9.666337425461052
 30
0.0
 41
0.77464325294993
 10
11.93634708210673
 20
8.583037134223133
 30
0.0
 41
0.77464325294993
 10
10.74664227133307
 20
8.203501228876803
 30
0.0
 41
1.08047789209601
 10
9.556926438753003
 20
7.823976345336916
 30
0.0
 41
0.77464325294993
 10
8.523147123926407
 20
8.470493468490844
 30
0.0
 41
0.77464325294993
 10
8.523147123926407
 20
9.594067440522593
 30
0.0
 41
1.08047789209601
 10
8.523147123926407
 20
10.23914070703063
 30
0.0
 41
0.949278918900485
 10
8.940730305162269
 20
10.76673253851368
 30
0.0
 41
0.949278918900485
 10
9.623784716721097
 20
10.9846336521683
 30
0.0
 41
1.08047789209601
 10
9.801985283517666
 20
11.04147310806695
 30
0.0
 41
1.04287400704405
 10
9.990877002577506
 20
11.07146344343644
 30
0.0
 41
1.01604804301204
 10
10.69711027311541
 20
11.07146344343644
 30
0.0
 41
0.960056839920445
 10
11.15134096082077
 20
10.87514302682462
 30
0.0
 41
0.986882803952448
 10
11.46799090897963
 20
10.53350423551331
 30
0.0
 41
1.08047789209601
  0
LINE
  5
2CD
330
293
100
AcDbEntity
  8
Standard
  6
Continuous
 62
     7
100
AcDbLine
 10
0.0
 20
0.0
 30
0.0
 11
0.0
 21
15.4578123074
 31
0.0
  0
LINE
  5
2CE
330
293
100
AcDbEntity
  8
Standard
  6
Continuous
 62
     7
100
AcDbLine
 10
0.0
 20
15.4578123074
 30
0.0
 11
20.1320023102
 21
15.4578123074
 31
0.0
  0
LINE
  5
2CF
330
293
100
AcDbEntity
  8
Standard
  6
Continuous
 62
     7
100
AcDbLine
 10
20.1320023102
 20
15.4578123074
 30
0.0
 11
20.1320023102
 21
0.0
 31
0.0
  0
LINE
  5
2D0
330
293
100
AcDbEntity
  8
Standard
  6
Continuous
 62
     7
100
AcDbLine
 10
20.1320023102
 20
0.0
 30
0.0
 11
0.0
 21
0.0
 31
0.0
  0
ENDBLK
  5
2D2
330
293
100
AcDbEntity
  8
0
100
AcDbBlockEnd
  0
ENDSEC
  0
SECTION
  2
ENTITIES
  0
MTEXT
  5
6B
330
1F
100
AcDbEntity
  8
Default
100
AcDbMText
 10
182.75
 20
17.1
 30
0.0
 40
2.5
 41
39.5
 71
     5
 72
     1
  1
{\fSolid Edge ISO|b0||i0||c0|p34;\C7;\H5.;\W1.;48021000}
 73
     1
 44
1.0
1001
ACAD
1000
ACAD_MTEXT_DEFINED_HEIGHT_BEGIN
1070
    46
1040
8.2
1000
ACAD_MTEXT_DEFINED_HEIGHT_END
  0
MTEXT
  5
6C
330
1F
100
AcDbEntity
  8
Default
100
AcDbMText
 10
104.0
 20
8.5
 30
0.0
 40
2.5
 41
112.0
 71
     5
 72
     1
  1
{\fSolid Edge ISO|b0||i0||c0|p34;\C7;\H3.;\W1.;48021000 400885031}
 73
     1
 44
1.0
1001
ACAD
1000
ACAD_MTEXT_DEFINED_HEIGHT_BEGIN
1070
    46
1040
5.0
1000
ACAD_MTEXT_DEFINED_HEIGHT_END
  0
MTEXT
  5
6D
330
1F
100
AcDbEntity
  8
Default
100
AcDbMText
 10
15.8
 20
32.9
 30
0.0
 40
2.5
 41
16.8
 71
     5
 72
     1
  1
{\fSolid Edge ISO|b0||i0||c0|p34;\C7;\H5.;\W1.;1:1}
 73
     1
 44
1.0
1001
ACAD
1000
ACAD_MTEXT_DEFINED_HEIGHT_BEGIN
1070
    46
1040
8.2
1000
ACAD_MTEXT_DEFINED_HEIGHT_END
  0
MTEXT
  5
6E
330
1F
100
AcDbEntity
  8
Default
100
AcDbMText
 10
183.25
 20
6.9
 30
0.0
 40
2.5
 41
37.5
 71
     5
 72
     1
  1
{\fArial|b0||i0||c0|p34;\C7;\H2.5;\W1.;m48021}
 73
     1
 44
1.0
1001
ACAD
1000
ACAD_MTEXT_DEFINED_HEIGHT_BEGIN
1070
    46
1040
5.0
1000
ACAD_MTEXT_DEFINED_HEIGHT_END
  0
MTEXT
  5
6F
330
1F
100
AcDbEntity
  8
Default
100
AcDbMText
 10
54.85
 20
42.6
 30
0.0
 40
2.5
 41
18.9
 71
     5
 72
     1
  1
{\fSolid Edge ISO|b0||i0||c0|p34;\C7;\H2.2;\W1.;LTS}
 73
     1
 44
1.0
1001
ACAD
1000
ACAD_MTEXT_DEFINED_HEIGHT_BEGIN
1070
    46
1040
4.0
1000
ACAD_MTEXT_DEFINED_HEIGHT_END
  0
MTEXT
  5
70
330
1F
100
AcDbEntity
  8
Default
100
AcDbMText
 10
54.85
 20
37.6
 30
0.0
 40
2.5
 41
18.9
 71
     5
 72
     1
  1
{\fSolid Edge ISO|b0||i0||c0|p34;\C7;\H2.2;\W1.;13. 2.2018}
 73
     1
 44
1.0
1001
ACAD
1000
ACAD_MTEXT_DEFINED_HEIGHT_BEGIN
1070
    46
1040
4.0
1000
ACAD_MTEXT_DEFINED_HEIGHT_END
  0
MTEXT
  5
71
330
1F
100
AcDbEntity
  8
Default
100
AcDbMText
 10
54.85
 20
32.4
 30
0.0
 40
2.5
 41
18.9
 71
     5
 72
     1
  1
{\fSolid Edge ISO|b0||i0||c0|p34;\C7;\H2.2;\W1.;Matsumoto}
 73
     1
 44
1.0
1001
ACAD
1000
ACAD_MTEXT_DEFINED_HEIGHT_BEGIN
1070
    46
1040
4.0
1000
ACAD_MTEXT_DEFINED_HEIGHT_END
  0
MTEXT
  5
72
330
1F
100
AcDbEntity
  8
Default
100
AcDbMText
 10
54.85
 20
27.6
 30
0.0
 40
2.5
 41
18.9
 71
     5
 72
     1
  1
{\fSolid Edge ISO|b0||i0||c0|p34;\C7;\H2.2;\W1.;Rikukawa}
 73
     1
 44
1.0
1001
ACAD
1000
ACAD_MTEXT_DEFINED_HEIGHT_BEGIN
1070
    46
1040
4.0
1000
ACAD_MTEXT_DEFINED_HEIGHT_END
  0
MTEXT
  5
73
330
1F
100
AcDbEntity
  8
Default
100
AcDbMText
 10
104.0
 20
21.95
 30
0.0
 40
2.5
 41
78.0
 71
     5
 72
     1
  1
{\fSolid Edge ISO|b0||i0||c0|p34;\C7;\H3.8;\W1.;Schlussel, -}
 73
     1
 44
1.0
1001
ACAD
1000
ACAD_MTEXT_DEFINED_HEIGHT_BEGIN
1070
    46
1040
6.3
1000
ACAD_MTEXT_DEFINED_HEIGHT_END
  0
MTEXT
  5
74
330
1F
100
AcDbEntity
  8
Default
100
AcDbMText
 10
104.0
 20
15.95
 30
0.0
 40
2.5
 41
78.0
 71
     5
 72
     1
  1
{\fSolid Edge ISO|b0||i0||c0|p34;\C7;\H3.8;\W1.;Key}
 73
     1
 44
1.0
1001
ACAD
1000
ACAD_MTEXT_DEFINED_HEIGHT_BEGIN
1070
    46
1040
6.3
1000
ACAD_MTEXT_DEFINED_HEIGHT_END
  0
INSERT
  5
76
330
1F
100
AcDbEntity
  8
Default
100
AcDbBlockReference
  2
SE
 10
0.0
 20
0.0
 30
0.0
  0
DIMENSION
  5
225
330
1F
100
AcDbEntity
  8
Layer3
  6
Continuous
 62
     7
100
AcDbDimension
  2
DMBLK185
 10
85.1808712806
 20
220.4973605567
 30
0.0
 11
75.5131180447
 21
213.4733266805
 31
0.0
 70
   161
  1
\A1;<>
 71
     5
 42
-1.0
  3
Standard
100
AcDbAlignedDimension
 13
91.5223656406
 23
211.7690423708
 33
0.0
 14
72.186859475
 24
197.720974841
 34
0.0
  0
DIMENSION
  5
230
330
1F
100
AcDbEntity
  8
Layer3
  6
Continuous
 62
     7
100
AcDbDimension
  2
DMBLK186
 10
143.081076697
 20
208.5150748566
 30
0.0
 11
135.5774443888
 21
213.966782843
 31
0.0
 70
   161
  1
\A1;<>
 71
     5
 42
-1.0
  3
Standard
100
AcDbAlignedDimension
 13
136.381065364
 23
199.2933003909
 33
0.0
 14
121.3738001183
 24
210.1967168209
 34
0.0
  0
DIMENSION
  5
23B
330
1F
100
AcDbEntity
  8
Layer3
  6
Continuous
 62
     7
100
AcDbDimension
  2
DMBLK187
 10
159.2745578606
 20
166.1190297451
 30
0.0
 11
155.9680758817
 21
155.9427245928
 31
0.0
 70
   161
  1
\A1;<>
 71
     5
 42
-1.0
  3
Standard
100
AcDbAlignedDimension
 13
146.7147651411
 23
170.1999537803
 33
0.0
 14
140.1018014615
 24
149.8473443316
 34
0.0
  0
DIMENSION
  5
246
330
1F
100
AcDbEntity
  8
Layer3
  6
Continuous
 62
     7
100
AcDbDimension
  2
DMBLK188
 10
48.1967072149
 20
169.0025213663
 30
0.0
 11
52.662002681
 21
155.2597550219
 31
0.0
 70
   161
  1
\A1;<>
 71
     5
 42
-1.0
  3
Standard
100
AcDbAlignedDimension
 13
62.858466429
 23
173.7664157164
 33
0.0
 14
71.7890575664
 24
146.2808823955
 34
0.0
  0
DIMENSION
  5
251
330
1F
100
AcDbEntity
  8
Layer3
  6
Continuous
 62
     7
100
AcDbDimension
  2
DMBLK189
 10
97.1660226495
 20
121.9417700836
 30
0.0
 11
105.3660226897
 21
121.9417700836
 31
0.0
 70
   161
  1
\A1;<>
 71
     5
 42
-1.0
  3
Standard
100
AcDbAlignedDimension
 13
97.1660226495
 23
156.9243805775
 33
0.0
 14
113.5660226495
 24
156.9243805775
 34
0.0
  0
DIMENSION
  5
25C
330
1F
100
AcDbEntity
  8
Layer3
  6
Continuous
 62
     7
100
AcDbDimension
  2
DMBLK190
 10
112.2081649572
 20
193.5570671979
 30
0.0
 11
61.2317321767
 21
181.604854437
 31
0.0
 70
   161
  1
\A1;<>
 71
     5
 42
-1.0
  3
Standard
100
AcDbAlignedDimension
 13
119.3963765962
 23
171.4340265746
 33
0.0
 14
94.5738015209
 24
163.3686830214
 34
0.0
  0
DIMENSION
  5
268
330
1F
100
AcDbEntity
  8
Layer3
  6
Continuous
 62
     7
100
AcDbDimension
  2
DMBLK191
 10
104.2036111852
 20
140.2437631564
 30
0.0
 11
77.2208750936
 21
136.0875750352
 31
0.0
 70
   160
  1
\A1;<>
 71
     5
 42
-1.0
  3
Standard
100
AcDbAlignedDimension
 13
114.3692479312
 23
180.3933509015
 33
0.0
 14
96.3627973677
 24
164.3753067604
 34
0.0
 50
198.0
100
AcDbRotatedDimension
  0
LINE
  5
275
330
1F
100
AcDbEntity
  8
Standard
  6
Continuous
 62
     7
100
AcDbLine
 10
6.6
 20
291.0
 30
0.0
 11
6.6
 21
5.0
 31
0.0
  0
LINE
  5
276
330
1F
100
AcDbEntity
  8
Standard
  6
Continuous
 62
     7
100
AcDbLine
 10
6.6
 20
5.0
 30
0.0
 11
203.0048694642
 21
5.0
 31
0.0
  0
LINE
  5
277
330
1F
100
AcDbEntity
  8
Standard
  6
Continuous
 62
     7
100
AcDbLine
 10
203.0048694642
 20
291.0
 30
0.0
 11
6.6
 21
291.0
 31
0.0
  0
LINE
  5
278
330
1F
100
AcDbEntity
  8
Default
  6
Continuous
 62
     7
100
AcDbLine
 10
6.6
 20
45.0
 30
0.0
 11
203.0048694642
 21
45.0
 31
0.0
  0
LINE
  5
279
330
1F
100
AcDbEntity
  8
Default
  6
Continuous
 62
     7
100
AcDbLine
 10
6.6
 20
25.0
 30
0.0
 11
203.0048694642
 21
25.0
 31
0.0
  0
LINE
  5
27A
330
1F
100
AcDbEntity
  8
Default
  6
Continuous
 62
     7
100
AcDbLine
 10
6.6
 20
40.0
 30
0.0
 11
105.0
 21
40.0
 31
0.0
  0
LINE
  5
27B
330
1F
100
AcDbEntity
  8
Default
  6
Continuous
 62
     7
100
AcDbLine
 10
25.0
 20
35.0
 30
0.0
 11
105.0
 21
35.0
 31
0.0
  0
LINE
  5
27C
330
1F
100
AcDbEntity
  8
Default
  6
Continuous
 62
     7
100
AcDbLine
 10
25.0
 20
30.0
 30
0.0
 11
85.0
 21
30.0
 31
0.0
  0
LINE
  5
27D
330
1F
100
AcDbEntity
  8
Default
  6
Continuous
 62
     7
100
AcDbLine
 10
25.0
 20
45.0
 30
0.0
 11
25.0
 21
5.0
 31
0.0
  0
LINE
  5
27E
330
1F
100
AcDbEntity
  8
Default
  6
Continuous
 62
     7
100
AcDbLine
 10
45.0
 20
45.0
 30
0.0
 11
45.0
 21
5.0
 31
0.0
  0
LINE
  5
27F
330
1F
100
AcDbEntity
  8
Default
  6
Continuous
 62
     7
100
AcDbLine
 10
65.0
 20
45.0
 30
0.0
 11
65.0
 21
25.0
 31
0.0
  0
LINE
  5
280
330
1F
100
AcDbEntity
  8
Default
  6
Continuous
 62
     7
100
AcDbLine
 10
85.0
 20
45.0
 30
0.0
 11
85.0
 21
25.0
 31
0.0
  0
LINE
  5
281
330
1F
100
AcDbEntity
  8
Default
  6
Continuous
 62
     7
100
AcDbLine
 10
105.0
 20
45.0
 30
0.0
 11
105.0
 21
25.0
 31
0.0
  0
LINE
  5
282
330
1F
100
AcDbEntity
  8
Default
  6
Continuous
 62
     7
100
AcDbLine
 10
25.0
 20
12.0
 30
0.0
 11
203.0048694642
 21
12.0
 31
0.0
  0
LINE
  5
283
330
1F
100
AcDbEntity
  8
Default
  6
Continuous
 62
     7
100
AcDbLine
 10
6.6
 20
20.0
 30
0.0
 11
25.0
 21
20.0
 31
0.0
  0
LINE
  5
284
330
1F
100
AcDbEntity
  8
Default
  6
Continuous
 62
     7
100
AcDbLine
 10
163.0
 20
25.0
 30
0.0
 11
163.0
 21
5.0
 31
0.0
  0
MTEXT
  5
285
330
1F
100
AcDbEntity
  8
Default
100
AcDbMText
 10
6.9540142599
 20
43.7920376842
 30
0.0
 40
2.5
 41
18.4529619592
 71
     1
 72
     1
  1
{\fArial|b0||i0||c0|p34;\C7;\H2.;\W0.9;Ma\U+00DFstab / Scale}
  7
SEACAD_Arial
 73
     1
 44
1.0
1001
ACAD
1000
ACAD_MTEXT_DEFINED_HEIGHT_BEGIN
1070
    46
1040
3.1304447826
1000
ACAD_MTEXT_DEFINED_HEIGHT_END
  0
MTEXT
  5
286
330
1F
100
AcDbEntity
  8
Default
100
AcDbMText
 10
26.9540142599
 20
43.7920376842
 30
0.0
 40
2.5
 41
18.4529619592
 71
     1
 72
     1
  1
{\fArial|b0||i0||c0|p34;\C7;\H2.;\W0.9;\U+00C4M-Nr. / ECN}
  7
SEACAD_Arial
 73
     1
 44
1.0
1001
ACAD
1000
ACAD_MTEXT_DEFINED_HEIGHT_BEGIN
1070
    46
1040
3.1304447826
1000
ACAD_MTEXT_DEFINED_HEIGHT_END
  0
MTEXT
  5
287
330
1F
100
AcDbEntity
  8
Default
100
AcDbMText
 10
26.9540142599
 20
38.7920376842
 30
0.0
 40
2.5
 41
18.4529619592
 71
     1
 72
     1
  1
{\fArial|b0||i0||c0|p34;\C7;\H2.;\W0.9;Datum / Date}
  7
SEACAD_Arial
 73
     1
 44
1.0
1001
ACAD
1000
ACAD_MTEXT_DEFINED_HEIGHT_BEGIN
1070
    46
1040
3.1304447826
1000
ACAD_MTEXT_DEFINED_HEIGHT_END
  0
MTEXT
  5
288
330
1F
100
AcDbEntity
  8
Default
100
AcDbMText
 10
25.5253978501
 20
33.6729863168
 30
0.0
 40
2.5
 41
20.0012594728
 71
     1
 72
     1
  1
{\fArial|b0||i0||c0|p34;\C7;\H2.;\W0.8;Verantw. / Respons.}
  7
SEACAD_Arial
 73
     1
 44
1.0
1001
ACAD
1000
ACAD_MTEXT_DEFINED_HEIGHT_BEGIN
1070
    46
1040
3.4528045251
1000
ACAD_MTEXT_DEFINED_HEIGHT_END
  0
MTEXT
  5
289
330
1F
100
AcDbEntity
  8
Default
100
AcDbMText
 10
25.6444492176
 20
28.7920376842
 30
0.0
 40
2.5
 41
18.3913143478
 71
     1
 72
     1
  1
{\fArial|b0||i0||c0|p34;\C7;\H2.;\W0.8;Gepr\U+00FCft / Approved}
  7
SEACAD_Arial
 73
     1
 44
1.0
1001
ACAD
1000
ACAD_MTEXT_DEFINED_HEIGHT_BEGIN
1070
    46
1040
3.1304447826
1000
ACAD_MTEXT_DEFINED_HEIGHT_END
  0
MTEXT
  5
28A
330
1F
100
AcDbEntity
  8
Default
100
AcDbMText
 10
15.5292897758
 20
22.8214279273
 30
0.0
 40
2.5
 41
18.4529619592
 71
     5
 72
     1
  1
{\fArial|b0||i0||c0|p34;\C7;\H2.;\W1.;Status}
 73
     1
 44
1.0
1001
ACAD
1000
ACAD_MTEXT_DEFINED_HEIGHT_BEGIN
1070
    46
1040
4.7620546991
1000
ACAD_MTEXT_DEFINED_HEIGHT_END
  0
MTEXT
  5
28B
330
1F
100
AcDbEntity
  8
Default
100
AcDbMText
 10
25.8842381149
 20
17.7084237573
 30
0.0
 40
2.5
 41
20.1196811039
 71
     4
 72
     1
  1
{\fArial|b0||i0||c0|p34;\C7;\H2.;\W1.;Benennung /\P}{\fArial|b0||i0||c0|p34;\C7;\H2.;\W1.;Title}
 73
     1
 44
1.0
1001
ACAD
1000
ACAD_MTEXT_DEFINED_HEIGHT_BEGIN
1070
    46
1040
15.0004723023
1000
ACAD_MTEXT_DEFINED_HEIGHT_END
  0
MTEXT
  5
28C
330
1F
100
AcDbEntity
  8
Default
100
AcDbMText
 10
25.8272330627
 20
8.2971610949
 30
0.0
 40
2.5
 41
20.0006297364
 71
     4
 72
     1
  1
{\fArial|b0||i0||c0|p34;\C7;\H2.;\W1.;Prod.-No. +\P}{\fArial|b0||i0||c0|p34;\C7;\H2.;\W1.;variants:}
 73
     1
 44
1.0
1001
ACAD
1000
ACAD_MTEXT_DEFINED_HEIGHT_BEGIN
1070
    46
1040
6.2608695652
1000
ACAD_MTEXT_DEFINED_HEIGHT_END
  0
MTEXT
  5
28D
330
1F
100
AcDbEntity
  8
Default
100
AcDbMText
 10
94.7996622009
 20
30.2349931318
 30
0.0
 40
2.5
 41
19.9738722629
 71
     5
 72
     1
  1
{\fArial|b0||i0||c0|p34;\C7;\H2.;\W1.;Copyright\P}{\fArial|b0||i0||c0|p34;\C7;\H2.;\W1.;reserved}
 73
     1
 44
1.0
1001
ACAD
1000
ACAD_MTEXT_DEFINED_HEIGHT_BEGIN
1070
    46
1040
9.8176660275
1000
ACAD_MTEXT_DEFINED_HEIGHT_END
  0
MTEXT
  5
28E
330
1F
100
AcDbEntity
  8
Default
100
AcDbMText
 10
163.7763570233
 20
23.3589041336
 30
0.0
 40
2.5
 41
36.0869665217
 71
     4
 72
     1
  1
{\fArial|b0||i0||c0|p34;\C7;\H2.;\W1.;Zeichnung Nr. / Drawing No.:}
 73
     1
 44
1.0
1001
ACAD
1000
ACAD_MTEXT_DEFINED_HEIGHT_BEGIN
1070
    46
1040
3.1304347826
1000
ACAD_MTEXT_DEFINED_HEIGHT_END
  0
MTEXT
  5
28F
330
1F
100
AcDbEntity
  8
Default
100
AcDbMText
 10
177.9167122798
 20
10.4191450781
 30
0.0
 40
2.5
 41
28.4674013043
 71
     5
 72
     1
  1
{\fArial|b0||i0||c0|p34;\C7;\H1.5;\W1.;TPI-Referenz / TPI-Reference:}
 73
     1
 44
1.0
1001
ACAD
1000
ACAD_MTEXT_DEFINED_HEIGHT_BEGIN
1070
    46
1040
2.347826087
1000
ACAD_MTEXT_DEFINED_HEIGHT_END
  0
LINE
  5
290
330
1F
100
AcDbEntity
  8
Default
  6
Continuous
 62
     7
100
AcDbLine
 10
203.005
 20
5.0
 30
0.0
 11
203.0048694642
 21
291.0
 31
0.0
  0
MTEXT
  5
291
330
1F
100
AcDbEntity
  8
Default
100
AcDbMText
 10
125.9819791287
 20
35.0860625795
 30
0.0
 40
2.5
 41
35.2174885633
 71
     5
 72
     1
  1
{\fArial|b0||i0||c0|p34;\C7;\H2.;\W1.;Grohe AG\P}{\fArial|b0||i0||c0|p34;\C7;\H2.;\W1.;Industriepark Edelburg\P}{\fArial|b0||i0||c0|p34;\C7;\H2.;\W1.;D-58675 Hemer\P}{\fArial|b0||i0||c0|p34;\C7;\H2.;\W1.;Tel. 02372 / 93-0}
 73
     1
 44
1.0
1001
ACAD
1000
ACAD_MTEXT_DEFINED_HEIGHT_BEGIN
1070
    46
1040
20.0099366837
1000
ACAD_MTEXT_DEFINED_HEIGHT_END
  0
INSERT
  5
2D3
330
1F
100
AcDbEntity
  8
Default
 62
     7
100
AcDbBlockReference
  2
symb_tb_GroheLogo2013_ori
 10
180.6
 20
27.27
 30
0.0
  0
ENDSEC
  0
SECTION
  2
OBJECTS
  0
DICTIONARY
  5
C
330
0
100
AcDbDictionary
281
     1
  3
ACAD_GROUP
350
D
  3
ACAD_LAYOUT
350
1A
  3
ACAD_MATERIAL
350
43
  3
ACAD_MLEADERSTYLE
350
2D6
  3
ACAD_MLINESTYLE
350
17
  3
ACAD_PLOTSETTINGS
350
19
  3
ACAD_PLOTSTYLENAME
350
E
  3
ACAD_SCALELIST
350
47
  3
ACAD_VISUALSTYLE
350
2A
  3
AcDbVariableDictionary
350
2D4
  0
DICTIONARY
  5
D
102
{ACAD_REACTORS
330
C
102
}
330
C
100
AcDbDictionary
281
     1
  0
DICTIONARY
  5
1A
102
{ACAD_REACTORS
330
C
102
}
330
C
100
AcDbDictionary
281
     1
  3
Layout1
350
1E
  3
Model
350
22
  0
DICTIONARY
  5
43
102
{ACAD_REACTORS
330
C
102
}
330
C
100
AcDbDictionary
281
     1
  3
ByBlock
350
45
  3
ByLayer
350
44
  3
Global
350
46
  0
DICTIONARY
  5
2D6
102
{ACAD_REACTORS
330
C
102
}
330
C
100
AcDbDictionary
281
     1
  0
DICTIONARY
  5
17
102
{ACAD_REACTORS
330
C
102
}
330
C
100
AcDbDictionary
281
     1
  3
Standard
350
18
  0
DICTIONARY
  5
19
102
{ACAD_REACTORS
330
C
102
}
330
C
100
AcDbDictionary
281
     1
  0
ACDBDICTIONARYWDFLT
  5
E
102
{ACAD_REACTORS
330
C
102
}
330
C
100
AcDbDictionary
281
     1
  3
Normal
350
F
100
AcDbDictionaryWithDefault
340
F
  0
DICTIONARY
  5
47
102
{ACAD_REACTORS
330
C
102
}
330
C
100
AcDbDictionary
281
     1
  3
A0
350
48
  3
A1
350
49
  3
A2
350
4A
  3
A3
350
4B
  3
A4
350
4C
  3
A5
350
4D
  3
A6
350
4E
  3
A7
350
4F
  3
A8
350
50
  3
A9
350
51
  3
B0
350
52
  3
B1
350
53
  3
B2
350
54
  3
B3
350
55
  3
B4
350
56
  3
B5
350
57
  3
B6
350
58
  3
B7
350
59
  3
B8
350
5A
  3
B9
350
5B
  3
C0
350
5C
  3
C1
350
5D
  3
C2
350
5E
  3
C3
350
5F
  3
C4
350
60
  3
C5
350
61
  3
C6
350
62
  3
C7
350
63
  3
C8
350
64
  3
C9
350
65
  3
D0
350
66
  3
D1
350
67
  3
D2
350
68
  0
DICTIONARY
  5
2A
102
{ACAD_REACTORS
330
C
102
}
330
C
100
AcDbDictionary
281
     1
  3
2dWireframe
350
2F
  3
Basic
350
32
  3
Brighten
350
36
  3
ColorChange
350
3A
  3
Conceptual
350
34
  3
Dim
350
35
  3
EdgeColorOff
350
3D
  3
Facepattern
350
39
  3
Flat
350
2B
  3
FlatWithEdges
350
2C
  3
Gouraud
350
2D
  3
GouraudWithEdges
350
2E
  3
Hidden
350
31
  3
JitterOff
350
3B
  3
Linepattern
350
38
  3
OverhangOff
350
3C
  3
Realistic
350
33
  3
Shaded
350
42
  3
Shaded with edges
350
41
  3
Shades of Gray
350
3E
  3
Sketchy
350
3F
  3
Thicken
350
37
  3
Wireframe
350
30
  3
X-Ray
350
40
  0
DICTIONARY
  5
2D4
102
{ACAD_REACTORS
330
C
102
}
330
C
100
AcDbDictionary
281
     1
  3
CANNOSCALE
350
2DD
  3
DIMASSOC
350
2DB
  3
HIDETEXT
350
2DC
  3
MSLTSCALE
350
2DE
  3
PSOLHEIGHT
350
2D8
  3
PSOLWIDTH
350
2D7
  0
LAYOUT
  5
1E
102
{ACAD_REACTORS
330
1A
102
}
330
1A
100
AcDbPlotSettings
  1

  2
none_device
  4

  6

 40
0.0
 41
0.0
 42
0.0
 43
0.0
 44
0.0
 45
0.0
 46
0.0
 47
0.0
 48
0.0
 49
0.0
140
0.0
141
0.0
142
1.0
143
1.0
 70
   688
 72
     1
 73
     0
 74
     5
  7

 75
    16
147
1.0
148
0.0
149
0.0
100
AcDbLayout
  1
Layout1
 70
     1
 71
     1
 10
0.0
 20
0.0
 11
209.0
 21
296.0
 12
0.0
 22
0.0
 32
0.0
 14
0.0
 24
0.0
 34
0.0
 15
209.0
 25
296.0
 35
0.0
146
0.0
 13
0.0
 23
0.0
 33
0.0
 16
1.0
 26
0.0
 36
0.0
 17
0.0
 27
1.0
 37
0.0
 76
     0
330
1B
  0
LAYOUT
  5
22
102
{ACAD_REACTORS
330
1A
102
}
330
1A
100
AcDbPlotSettings
  1

  2
none_device
  4
Letter_(8.50_x_11.00_Inches)
  6

 40
6.35
 41
6.35
 42
6.35000508
 43
6.35000508
 44
215.9
 45
279.4
 46
0.0
 47
0.0
 48
0.0
 49
0.0
140
0.0
141
0.0
142
1.0
143
1.0
 70
  1712
 72
     1
 73
     0
 74
     0
  7

 75
     0
147
1.0
148
0.0
149
0.0
100
AcDbLayout
  1
Model
 70
     1
 71
     0
 10
0.0
 20
0.0
 11
209.0
 21
296.0
 12
0.0
 22
0.0
 32
0.0
 14
0.0
 24
0.0
 34
0.0
 15
209.0
 25
296.0
 35
0.0
146
0.0
 13
0.0
 23
0.0
 33
0.0
 16
1.0
 26
0.0
 36
0.0
 17
0.0
 27
1.0
 37
0.0
 76
     0
330
1F
331
29
  0
MATERIAL
  5
45
102
{ACAD_REACTORS
330
43
102
}
102
{ACAD_XDICTIONARY
360
311
102
}
330
43
100
AcDbMaterial
  1
ByBlock
  0
MATERIAL
  5
44
102
{ACAD_REACTORS
330
43
102
}
102
{ACAD_XDICTIONARY
360
30F
102
}
330
43
100
AcDbMaterial
  1
ByLayer
  0
MATERIAL
  5
46
102
{ACAD_REACTORS
330
43
102
}
102
{ACAD_XDICTIONARY
360
313
102
}
330
43
100
AcDbMaterial
  1
Global
  0
MLINESTYLE
  5
18
102
{ACAD_REACTORS
330
17
102
}
330
17
100
AcDbMlineStyle
  2
Standard
 70
     0
  3

 62
   256
 51
90.0
 52
90.0
 71
     2
 49
0.5
 62
   256
  6
BYLAYER
 49
-0.5
 62
   256
  6
BYLAYER
  0
ACDBPLACEHOLDER
  5
F
102
{ACAD_REACTORS
330
E
102
}
330
E
  0
SCALE
  5
48
102
{ACAD_REACTORS
330
47
102
}
330
47
100
AcDbScale
 70
     0
300
1:1
140
1.0
141
1.0
290
     1
  0
SCALE
  5
49
102
{ACAD_REACTORS
330
47
102
}
330
47
100
AcDbScale
 70
     0
300
1:2
140
1.0
141
2.0
290
     0
  0
SCALE
  5
4A
102
{ACAD_REACTORS
330
47
102
}
330
47
100
AcDbScale
 70
     0
300
1:4
140
1.0
141
4.0
290
     0
  0
SCALE
  5
4B
102
{ACAD_REACTORS
330
47
102
}
330
47
100
AcDbScale
 70
     0
300
1:5
140
1.0
141
5.0
290
     0
  0
SCALE
  5
4C
102
{ACAD_REACTORS
330
47
102
}
330
47
100
AcDbScale
 70
     0
300
1:8
140
1.0
141
8.0
290
     0
  0
SCALE
  5
4D
102
{ACAD_REACTORS
330
47
102
}
330
47
100
AcDbScale
 70
     0
300
1:10
140
1.0
141
10.0
290
     0
  0
SCALE
  5
4E
102
{ACAD_REACTORS
330
47
102
}
330
47
100
AcDbScale
 70
     0
300
1:16
140
1.0
141
16.0
290
     0
  0
SCALE
  5
4F
102
{ACAD_REACTORS
330
47
102
}
330
47
100
AcDbScale
 70
     0
300
1:20
140
1.0
141
20.0
290
     0
  0
SCALE
  5
50
102
{ACAD_REACTORS
330
47
102
}
330
47
100
AcDbScale
 70
     0
300
1:30
140
1.0
141
30.0
290
     0
  0
SCALE
  5
51
102
{ACAD_REACTORS
330
47
102
}
330
47
100
AcDbScale
 70
     0
300
1:40
140
1.0
141
40.0
290
     0
  0
SCALE
  5
52
102
{ACAD_REACTORS
330
47
102
}
330
47
100
AcDbScale
 70
     0
300
1:50
140
1.0
141
50.0
290
     0
  0
SCALE
  5
53
102
{ACAD_REACTORS
330
47
102
}
330
47
100
AcDbScale
 70
     0
300
1:100
140
1.0
141
100.0
290
     0
  0
SCALE
  5
54
102
{ACAD_REACTORS
330
47
102
}
330
47
100
AcDbScale
 70
     0
300
2:1
140
2.0
141
1.0
290
     0
  0
SCALE
  5
55
102
{ACAD_REACTORS
330
47
102
}
330
47
100
AcDbScale
 70
     0
300
4:1
140
4.0
141
1.0
290
     0
  0
SCALE
  5
56
102
{ACAD_REACTORS
330
47
102
}
330
47
100
AcDbScale
 70
     0
300
8:1
140
8.0
141
1.0
290
     0
  0
SCALE
  5
57
102
{ACAD_REACTORS
330
47
102
}
330
47
100
AcDbScale
 70
     0
300
10:1
140
10.0
141
1.0
290
     0
  0
SCALE
  5
58
102
{ACAD_REACTORS
330
47
102
}
330
47
100
AcDbScale
 70
     0
300
100:1
140
100.0
141
1.0
290
     0
  0
SCALE
  5
59
102
{ACAD_REACTORS
330
47
102
}
330
47
100
AcDbScale
 70
     0
300
1/128" = 1'-0"
140
0.0078125
141
12.0
290
     0
  0
SCALE
  5
5A
102
{ACAD_REACTORS
330
47
102
}
330
47
100
AcDbScale
 70
     0
300
1/64" = 1'-0"
140
0.015625
141
12.0
290
     0
  0
SCALE
  5
5B
102
{ACAD_REACTORS
330
47
102
}
330
47
100
AcDbScale
 70
     0
300
1/32" = 1'-0"
140
0.03125
141
12.0
290
     0
  0
SCALE
  5
5C
102
{ACAD_REACTORS
330
47
102
}
330
47
100
AcDbScale
 70
     0
300
1/16" = 1'-0"
140
0.0625
141
12.0
290
     0
  0
SCALE
  5
5D
102
{ACAD_REACTORS
330
47
102
}
330
47
100
AcDbScale
 70
     0
300
3/32" = 1'-0"
140
0.09375
141
12.0
290
     0
  0
SCALE
  5
5E
102
{ACAD_REACTORS
330
47
102
}
330
47
100
AcDbScale
 70
     0
300
1/8" = 1'-0"
140
0.125
141
12.0
290
     0
  0
SCALE
  5
5F
102
{ACAD_REACTORS
330
47
102
}
330
47
100
AcDbScale
 70
     0
300
3/16" = 1'-0"
140
0.1875
141
12.0
290
     0
  0
SCALE
  5
60
102
{ACAD_REACTORS
330
47
102
}
330
47
100
AcDbScale
 70
     0
300
1/4" = 1'-0"
140
0.25
141
12.0
290
     0
  0
SCALE
  5
61
102
{ACAD_REACTORS
330
47
102
}
330
47
100
AcDbScale
 70
     0
300
3/8" = 1'-0"
140
0.375
141
12.0
290
     0
  0
SCALE
  5
62
102
{ACAD_REACTORS
330
47
102
}
330
47
100
AcDbScale
 70
     0
300
1/2" = 1'-0"
140
0.5
141
12.0
290
     0
  0
SCALE
  5
63
102
{ACAD_REACTORS
330
47
102
}
330
47
100
AcDbScale
 70
     0
300
3/4" = 1'-0"
140
0.75
141
12.0
290
     0
  0
SCALE
  5
64
102
{ACAD_REACTORS
330
47
102
}
330
47
100
AcDbScale
 70
     0
300
1" = 1'-0"
140
1.0
141
12.0
290
     0
  0
SCALE
  5
65
102
{ACAD_REACTORS
330
47
102
}
330
47
100
AcDbScale
 70
     0
300
1-1/2" = 1'-0"
140
1.5
141
12.0
290
     0
  0
SCALE
  5
66
102
{ACAD_REACTORS
330
47
102
}
330
47
100
AcDbScale
 70
     0
300
3" = 1'-0"
140
3.0
141
12.0
290
     0
  0
SCALE
  5
67
102
{ACAD_REACTORS
330
47
102
}
330
47
100
AcDbScale
 70
     0
300
6" = 1'-0"
140
6.0
141
12.0
290
     0
  0
SCALE
  5
68
102
{ACAD_REACTORS
330
47
102
}
330
47
100
AcDbScale
 70
     0
300
1'-0" = 1'-0"
140
12.0
141
12.0
290
     0
  0
VISUALSTYLE
  5
2F
102
{ACAD_REACTORS
330
2A
102
}
102
{ACAD_XDICTIONARY
360
2E7
102
}
330
2A
100
AcDbVisualStyle
  2
2dWireframe
 70
     4
 71
     0
 72
     2
 73
     0
 90
        0
 40
0.6
 41
30.0
 62
     5
 63
     7
 74
     1
 91
        4
 64
     7
 65
   257
 75
     1
175
     1
 42
1.0
 92
        0
 66
   257
 43
1.0
 76
     1
 77
     6
 78
     2
 67
     7
 79
     5
170
     0
171
     0
290
     0
174
     0
 93
        1
 44
0.0
173
     0
291
     0
 45
0.0
1001
ACAD
1000
AcDbSavedByObjectVersion
1070
     0
  0
VISUALSTYLE
  5
32
102
{ACAD_REACTORS
330
2A
102
}
102
{ACAD_XDICTIONARY
360
2ED
102
}
330
2A
100
AcDbVisualStyle
  2
Basic
 70
     7
 71
     1
 72
     0
 73
     1
 90
        0
 40
0.6
 41
30.0
 62
     5
 63
     7
 74
     0
 91
        4
 64
     7
 65
   257
 75
     1
175
     1
 42
1.0
 92
        8
 66
     7
 43
1.0
 76
     1
 77
     6
 78
     2
 67
     7
 79
     5
170
     0
171
     0
290
     0
174
     0
 93
        1
 44
0.0
173
     0
291
     1
 45
0.0
1001
ACAD
1000
AcDbSavedByObjectVersion
1070
     0
  0
VISUALSTYLE
  5
36
102
{ACAD_REACTORS
330
2A
102
}
102
{ACAD_XDICTIONARY
360
2F5
102
}
330
2A
100
AcDbVisualStyle
  2
Brighten
 70
    12
 71
     2
 72
     2
 73
     0
 90
        0
 40
0.6
 41
30.0
 62
     5
 63
     7
 74
     1
 91
        4
 64
     7
 65
   257
 75
     1
175
     1
 42
1.0
 92
        8
 66
     7
 43
1.0
 76
     1
 77
     6
 78
     2
 67
     7
 79
     5
170
     0
171
     0
290
     0
174
     0
 93
        1
 44
50.0
173
     0
291
     1
 45
0.0
1001
ACAD
1000
AcDbSavedByObjectVersion
1070
     0
  0
VISUALSTYLE
  5
3A
102
{ACAD_REACTORS
330
2A
102
}
102
{ACAD_XDICTIONARY
360
2FD
102
}
330
2A
100
AcDbVisualStyle
  2
ColorChange
 70
    16
 71
     2
 72
     2
 73
     3
 90
        0
 40
0.6
 41
30.0
 62
     5
 63
     8
 74
     1
 91
        4
 64
     7
 65
   257
 75
     1
175
     1
 42
1.0
 92
        8
 66
     8
 43
1.0
 76
     1
 77
     6
 78
     2
 67
     7
 79
     5
170
     0
171
     0
290
     0
174
     0
 93
        1
 44
0.0
173
     0
291
     1
 45
0.0
1001
ACAD
1000
AcDbSavedByObjectVersion
1070
     0
  0
VISUALSTYLE
  5
34
102
{ACAD_REACTORS
330
2A
102
}
102
{ACAD_XDICTIONARY
360
2F1
102
}
330
2A
100
AcDbVisualStyle
  2
Conceptual
 70
     9
 71
     3
 72
     2
 73
     0
 90
        0
 40
0.6
 41
30.0
 62
     5
 63
     7
 74
     2
 91
        2
 64
     7
 65
   257
 75
     1
175
     1
 42
179.0
 92
        8
 66
     7
 43
1.0
 76
     1
 77
     6
 78
     2
 67
     7
 79
     3
170
     0
171
     0
290
     0
174
     0
 93
        1
 44
0.0
173
     0
291
     0
 45
0.0
1001
ACAD
1000
AcDbSavedByObjectVersion
1070
     0
  0
VISUALSTYLE
  5
35
102
{ACAD_REACTORS
330
2A
102
}
102
{ACAD_XDICTIONARY
360
2F3
102
}
330
2A
100
AcDbVisualStyle
  2
Dim
 70
    11
 71
     2
 72
     2
 73
     0
 90
        0
 40
0.6
 41
30.0
 62
     5
 63
     7
 74
     1
 91
        4
 64
     7
 65
   257
 75
     1
175
     1
 42
1.0
 92
        8
 66
     7
 43
1.0
 76
     1
 77
     6
 78
     2
 67
     7
 79
     5
170
     0
171
     0
290
     0
174
     0
 93
        1
 44
-50.0
173
     0
291
     1
 45
0.0
1001
ACAD
1000
AcDbSavedByObjectVersion
1070
     0
  0
VISUALSTYLE
  5
3D
102
{ACAD_REACTORS
330
2A
102
}
102
{ACAD_XDICTIONARY
360
303
102
}
330
2A
100
AcDbVisualStyle
  2
EdgeColorOff
 70
    22
 71
     2
 72
     2
 73
     0
 90
        0
 40
0.6
 41
30.0
 62
     5
 63
     7
 74
     1
 91
        4
 64
     7
 65
   257
 75
     1
175
     1
 42
1.0
 92
        8
 66
     7
 43
1.0
 76
     1
 77
     6
 78
     2
 67
     7
 79
     5
170
     0
171
     0
290
     0
174
     0
 93
        1
 44
0.0
173
     0
291
     1
 45
0.0
1001
ACAD
1000
AcDbSavedByObjectVersion
1070
     0
  0
VISUALSTYLE
  5
39
102
{ACAD_REACTORS
330
2A
102
}
102
{ACAD_XDICTIONARY
360
2FB
102
}
330
2A
100
AcDbVisualStyle
  2
Facepattern
 70
    15
 71
     2
 72
     2
 73
     0
 90
        0
 40
0.6
 41
30.0
 62
     5
 63
     7
 74
     1
 91
        4
 64
     7
 65
   257
 75
     1
175
     1
 42
1.0
 92
        8
 66
     7
 43
1.0
 76
     1
 77
     6
 78
     2
 67
     7
 79
     5
170
     0
171
     0
290
     0
174
     0
 93
        1
 44
0.0
173
     0
291
     1
 45
0.0
1001
ACAD
1000
AcDbSavedByObjectVersion
1070
     0
  0
VISUALSTYLE
  5
2B
102
{ACAD_REACTORS
330
2A
102
}
102
{ACAD_XDICTIONARY
360
2DF
102
}
330
2A
100
AcDbVisualStyle
  2
Flat
 70
     0
 71
     2
 72
     1
 73
     1
 90
        2
 40
0.6
 41
30.0
 62
     5
 63
     7
 74
     0
 91
        0
 64
     7
 65
   257
 75
     1
175
     1
 42
1.0
 92
        8
 66
     7
 43
1.0
 76
     1
 77
     6
 78
     2
 67
     7
 79
     5
170
     0
171
     0
290
     0
174
     0
 93
       13
 44
0.0
173
     0
291
     1
 45
0.0
1001
ACAD
1000
AcDbSavedByObjectVersion
1070
     0
  0
VISUALSTYLE
  5
2C
102
{ACAD_REACTORS
330
2A
102
}
102
{ACAD_XDICTIONARY
360
2E1
102
}
330
2A
100
AcDbVisualStyle
  2
FlatWithEdges
 70
     1
 71
     2
 72
     1
 73
     1
 90
        2
 40
0.6
 41
30.0
 62
     5
 63
     7
 74
     1
 91
        0
 64
     7
 65
   257
 75
     1
175
     1
 42
1.0
 92
        0
 66
   257
 43
1.0
 76
     1
 77
     6
 78
     2
 67
     7
 79
     5
170
     0
171
     0
290
     0
174
     0
 93
       13
 44
0.0
173
     0
291
     1
 45
0.0
1001
ACAD
1000
AcDbSavedByObjectVersion
1070
     0
  0
VISUALSTYLE
  5
2D
102
{ACAD_REACTORS
330
2A
102
}
102
{ACAD_XDICTIONARY
360
2E3
102
}
330
2A
100
AcDbVisualStyle
  2
Gouraud
 70
     2
 71
     2
 72
     2
 73
     1
 90
        2
 40
0.6
 41
30.0
 62
     5
 63
     7
 74
     0
 91
        0
 64
     7
 65
   257
 75
     1
175
     1
 42
1.0
 92
        0
 66
     7
 43
1.0
 76
     1
 77
     6
 78
     2
 67
     7
 79
     5
170
     0
171
     0
290
     0
174
     0
 93
       13
 44
0.0
173
     0
291
     1
 45
0.0
1001
ACAD
1000
AcDbSavedByObjectVersion
1070
     0
  0
VISUALSTYLE
  5
2E
102
{ACAD_REACTORS
330
2A
102
}
102
{ACAD_XDICTIONARY
360
2E5
102
}
330
2A
100
AcDbVisualStyle
  2
GouraudWithEdges
 70
     3
 71
     2
 72
     2
 73
     1
 90
        2
 40
0.6
 41
30.0
 62
     5
 63
     7
 74
     1
 91
        0
 64
     7
 65
   257
 75
     1
175
     1
 42
1.0
 92
        0
 66
   257
 43
1.0
 76
     1
 77
     6
 78
     2
 67
     7
 79
     5
170
     0
171
     0
290
     0
174
     0
 93
       13
 44
0.0
173
     0
291
     1
 45
0.0
1001
ACAD
1000
AcDbSavedByObjectVersion
1070
     0
  0
VISUALSTYLE
  5
31
102
{ACAD_REACTORS
330
2A
102
}
102
{ACAD_XDICTIONARY
360
2EB
102
}
330
2A
100
AcDbVisualStyle
  2
Hidden
 70
     6
 71
     1
 72
     2
 73
     2
 90
        0
 40
0.6
 41
30.0
 62
     5
 63
     7
 74
     2
 91
        2
 64
     7
 65
   257
 75
     2
175
     1
 42
40.0
 92
        0
 66
   257
 43
1.0
 76
     1
 77
     6
 78
     2
 67
     7
 79
     3
170
     0
171
     0
290
     0
174
     0
 93
        1
 44
0.0
173
     0
291
     0
 45
0.0
1001
ACAD
1000
AcDbSavedByObjectVersion
1070
     0
  0
VISUALSTYLE
  5
3B
102
{ACAD_REACTORS
330
2A
102
}
102
{ACAD_XDICTIONARY
360
2FF
102
}
330
2A
100
AcDbVisualStyle
  2
JitterOff
 70
    20
 71
     2
 72
     2
 73
     0
 90
        0
 40
0.6
 41
30.0
 62
     5
 63
     7
 74
     1
 91
        4
 64
     7
 65
   257
 75
     1
175
     1
 42
1.0
 92
       10
 66
     7
 43
1.0
 76
     1
 77
     6
 78
     2
 67
     7
 79
     5
170
     0
171
     0
290
     0
174
     0
 93
        1
 44
0.0
173
     0
291
     1
 45
0.0
1001
ACAD
1000
AcDbSavedByObjectVersion
1070
     0
  0
VISUALSTYLE
  5
38
102
{ACAD_REACTORS
330
2A
102
}
102
{ACAD_XDICTIONARY
360
2F9
102
}
330
2A
100
AcDbVisualStyle
  2
Linepattern
 70
    14
 71
     2
 72
     2
 73
     0
 90
        0
 40
0.6
 41
30.0
 62
     5
 63
     7
 74
     1
 91
        4
 64
     7
 65
   257
 75
     7
175
     7
 42
1.0
 92
        8
 66
     7
 43
1.0
 76
     1
 77
     6
 78
     2
 67
     7
 79
     5
170
     0
171
     0
290
     0
174
     0
 93
        1
 44
0.0
173
     0
291
     1
 45
0.0
1001
ACAD
1000
AcDbSavedByObjectVersion
1070
     0
  0
VISUALSTYLE
  5
3C
102
{ACAD_REACTORS
330
2A
102
}
102
{ACAD_XDICTIONARY
360
301
102
}
330
2A
100
AcDbVisualStyle
  2
OverhangOff
 70
    21
 71
     2
 72
     2
 73
     0
 90
        0
 40
0.6
 41
30.0
 62
     5
 63
     7
 74
     1
 91
        4
 64
     7
 65
   257
 75
     1
175
     1
 42
1.0
 92
        9
 66
     7
 43
1.0
 76
     1
 77
     6
 78
     2
 67
     7
 79
     5
170
     0
171
     0
290
     0
174
     0
 93
        1
 44
0.0
173
     0
291
     1
 45
0.0
1001
ACAD
1000
AcDbSavedByObjectVersion
1070
     0
  0
VISUALSTYLE
  5
33
102
{ACAD_REACTORS
330
2A
102
}
102
{ACAD_XDICTIONARY
360
2EF
102
}
330
2A
100
AcDbVisualStyle
  2
Realistic
 70
     8
 71
     2
 72
     3
 73
     0
 90
        2
 40
0.6
 41
30.0
 62
     5
 63
     7
 74
     0
 91
        0
 64
     7
 65
   257
 75
     1
175
     1
 42
1.0
 92
        8
 66
   257
 43
1.0
 76
     1
 77
     6
 78
     2
 67
     7
 79
     3
170
     0
171
     0
290
     0
174
     0
 93
       13
 44
0.0
173
     0
291
     0
 45
0.0
1001
ACAD
1000
AcDbSavedByObjectVersion
1070
     0
  0
VISUALSTYLE
  5
42
102
{ACAD_REACTORS
330
2A
102
}
102
{ACAD_XDICTIONARY
360
30D
102
}
330
2A
100
AcDbVisualStyle
  2
Shaded
 70
    27
 71
     2
 72
     2
 73
     1
 90
        2
 40
0.6
 41
30.0
 62
     5
 63
     7
 74
     0
 91
        4
 64
     7
 65
   257
 75
     1
175
     1
 42
1.0
 92
        8
 66
   257
 43
1.0
 76
     1
 77
     6
 78
     2
 67
     8
 79
     3
170
     0
171
     0
290
     0
174
     0
 93
        5
 44
0.0
173
     0
291
     0
 45
0.0
1001
ACAD
1000
AcDbSavedByObjectVersion
1070
     0
  0
VISUALSTYLE
  5
41
102
{ACAD_REACTORS
330
2A
102
}
102
{ACAD_XDICTIONARY
360
30B
102
}
330
2A
100
AcDbVisualStyle
  2
Shaded with edges
 70
    26
 71
     2
 72
     2
 73
     1
 90
        2
 40
0.6
 41
30.0
 62
     5
 63
     7
 74
     1
 91
       10
 64
     7
 65
   257
 75
     2
175
     1
 42
1.0
 92
        8
 66
   257
 43
1.0
 76
     1
 77
     6
 78
     2
 67
     7
 79
     3
170
     0
171
     0
290
     0
174
     0
 93
        5
 44
0.0
173
     0
291
     0
 45
0.0
1001
ACAD
1000
AcDbSavedByObjectVersion
1070
     0
  0
VISUALSTYLE
  5
3E
102
{ACAD_REACTORS
330
2A
102
}
102
{ACAD_XDICTIONARY
360
305
102
}
330
2A
100
AcDbVisualStyle
  2
Shades of Gray
 70
    23
 71
     2
 72
     2
 73
     3
 90
        0
 40
0.6
 41
30.0
 62
     5
 63
     7
 74
     2
 91
        2
 64
     7
 65
     7
 75
     1
175
     1
 42
40.0
 92
        8
 66
     7
 43
1.0
 76
     1
 77
     6
 78
     2
 67
     7
 79
     3
170
     0
171
     0
290
     0
174
     0
 93
        1
 44
0.0
173
     0
291
     0
 45
0.0
1001
ACAD
1000
AcDbSavedByObjectVersion
1070
     0
  0
VISUALSTYLE
  5
3F
102
{ACAD_REACTORS
330
2A
102
}
102
{ACAD_XDICTIONARY
360
307
102
}
330
2A
100
AcDbVisualStyle
  2
Sketchy
 70
    24
 71
     1
 72
     2
 73
     2
 90
        0
 40
0.6
 41
30.0
 62
     5
 63
     7
 74
     2
 91
        2
 64
     7
 65
     7
 75
     1
175
     1
 42
40.0
 92
       11
 66
     7
 43
1.0
 76
     1
 77
     6
 78
     2
 67
     7
 79
     6
170
     0
171
     0
290
     0
174
     0
 93
        1
 44
0.0
173
     0
291
     0
 45
0.0
1001
ACAD
1000
AcDbSavedByObjectVersion
1070
     0
  0
VISUALSTYLE
  5
37
102
{ACAD_REACTORS
330
2A
102
}
102
{ACAD_XDICTIONARY
360
2F7
102
}
330
2A
100
AcDbVisualStyle
  2
Thicken
 70
    13
 71
     2
 72
     2
 73
     0
 90
        0
 40
0.6
 41
30.0
 62
     5
 63
     7
 74
     1
 91
        4
 64
     7
 65
   257
 75
     1
175
     1
 42
1.0
 92
       12
 66
     7
 43
1.0
 76
     1
 77
     6
 78
     2
 67
     7
 79
     5
170
     0
171
     0
290
     0
174
     0
 93
        1
 44
0.0
173
     0
291
     1
 45
0.0
1001
ACAD
1000
AcDbSavedByObjectVersion
1070
     0
  0
VISUALSTYLE
  5
30
102
{ACAD_REACTORS
330
2A
102
}
102
{ACAD_XDICTIONARY
360
2E9
102
}
330
2A
100
AcDbVisualStyle
  2
Wireframe
 70
     5
 71
     0
 72
     2
 73
     0
 90
        0
 40
0.6
 41
30.0
 62
     5
 63
     7
 74
     1
 91
        4
 64
     7
 65
   257
 75
     1
175
     1
 42
1.0
 92
        0
 66
   257
 43
1.0
 76
     1
 77
     6
 78
     2
 67
     7
 79
     3
170
     0
171
     0
290
     0
174
     0
 93
        1
 44
0.0
173
     0
291
     0
 45
0.0
1001
ACAD
1000
AcDbSavedByObjectVersion
1070
     0
  0
VISUALSTYLE
  5
40
102
{ACAD_REACTORS
330
2A
102
}
102
{ACAD_XDICTIONARY
360
309
102
}
330
2A
100
AcDbVisualStyle
  2
X-Ray
 70
    25
 71
     2
 72
     2
 73
     1
 90
        1
 40
0.5
 41
30.0
 62
     5
 63
     7
 74
     1
 91
        0
 64
     7
 65
   257
 75
     1
175
     1
 42
1.0
 92
        8
 66
     7
 43
1.0
 76
     1
 77
     6
 78
     2
 67
     7
 79
     3
170
     0
171
     0
290
     0
174
     0
 93
       13
 44
0.0
173
     0
291
     0
 45
0.0
1001
ACAD
1000
AcDbSavedByObjectVersion
1070
     0
  0
DICTIONARYVAR
  5
2DD
102
{ACAD_REACTORS
330
2D4
102
}
330
2D4
100
DictionaryVariables
280
     0
  1
1:1
  0
DICTIONARYVAR
  5
2DB
102
{ACAD_REACTORS
330
2D4
102
}
330
2D4
100
DictionaryVariables
280
     0
  1
2
  0
DICTIONARYVAR
  5
2DC
102
{ACAD_REACTORS
330
2D4
102
}
330
2D4
100
DictionaryVariables
280
     0
  1
1
  0
DICTIONARYVAR
  5
2DE
102
{ACAD_REACTORS
330
2D4
102
}
330
2D4
100
DictionaryVariables
280
     0
  1
1
  0
DICTIONARYVAR
  5
2D8
102
{ACAD_REACTORS
330
2D4
102
}
330
2D4
100
DictionaryVariables
280
     0
  1
80.000000
  0
DICTIONARYVAR
  5
2D7
102
{ACAD_REACTORS
330
2D4
102
}
330
2D4
100
DictionaryVariables
280
     0
  1
5.000000
  0
DICTIONARY
  5
311
330
45
100
AcDbDictionary
280
     1
281
     1
  3
ACAD_XREC_ROUNDTRIP
360
312
  0
DICTIONARY
  5
30F
330
44
100
AcDbDictionary
280
     1
281
     1
  3
ACAD_XREC_ROUNDTRIP
360
310
  0
DICTIONARY
  5
313
330
46
100
AcDbDictionary
280
     1
281
     1
  3
ACAD_XREC_ROUNDTRIP
360
314
  0
DICTIONARY
  5
2E7
330
2F
100
AcDbDictionary
280
     1
281
     1
  3
ACAD_XREC_ROUNDTRIP
360
2E8
  0
DICTIONARY
  5
2ED
330
32
100
AcDbDictionary
280
     1
281
     1
  3
ACAD_XREC_ROUNDTRIP
360
2EE
  0
DICTIONARY
  5
2F5
330
36
100
AcDbDictionary
280
     1
281
     1
  3
ACAD_XREC_ROUNDTRIP
360
2F6
  0
DICTIONARY
  5
2FD
330
3A
100
AcDbDictionary
280
     1
281
     1
  3
ACAD_XREC_ROUNDTRIP
360
2FE
  0
DICTIONARY
  5
2F1
330
34
100
AcDbDictionary
280
     1
281
     1
  3
ACAD_XREC_ROUNDTRIP
360
2F2
  0
DICTIONARY
  5
2F3
330
35
100
AcDbDictionary
280
     1
281
     1
  3
ACAD_XREC_ROUNDTRIP
360
2F4
  0
DICTIONARY
  5
303
330
3D
100
AcDbDictionary
280
     1
281
     1
  3
ACAD_XREC_ROUNDTRIP
360
304
  0
DICTIONARY
  5
2FB
330
39
100
AcDbDictionary
280
     1
281
     1
  3
ACAD_XREC_ROUNDTRIP
360
2FC
  0
DICTIONARY
  5
2DF
330
2B
100
AcDbDictionary
280
     1
281
     1
  3
ACAD_XREC_ROUNDTRIP
360
2E0
  0
DICTIONARY
  5
2E1
330
2C
100
AcDbDictionary
280
     1
281
     1
  3
ACAD_XREC_ROUNDTRIP
360
2E2
  0
DICTIONARY
  5
2E3
330
2D
100
AcDbDictionary
280
     1
281
     1
  3
ACAD_XREC_ROUNDTRIP
360
2E4
  0
DICTIONARY
  5
2E5
330
2E
100
AcDbDictionary
280
     1
281
     1
  3
ACAD_XREC_ROUNDTRIP
360
2E6
  0
DICTIONARY
  5
2EB
330
31
100
AcDbDictionary
280
     1
281
     1
  3
ACAD_XREC_ROUNDTRIP
360
2EC
  0
DICTIONARY
  5
2FF
330
3B
100
AcDbDictionary
280
     1
281
     1
  3
ACAD_XREC_ROUNDTRIP
360
300
  0
DICTIONARY
  5
2F9
330
38
100
AcDbDictionary
280
     1
281
     1
  3
ACAD_XREC_ROUNDTRIP
360
2FA
  0
DICTIONARY
  5
301
330
3C
100
AcDbDictionary
280
     1
281
     1
  3
ACAD_XREC_ROUNDTRIP
360
302
  0
DICTIONARY
  5
2EF
330
33
100
AcDbDictionary
280
     1
281
     1
  3
ACAD_XREC_ROUNDTRIP
360
2F0
  0
DICTIONARY
  5
30D
330
42
100
AcDbDictionary
280
     1
281
     1
  3
ACAD_XREC_ROUNDTRIP
360
30E
  0
DICTIONARY
  5
30B
330
41
100
AcDbDictionary
280
     1
281
     1
  3
ACAD_XREC_ROUNDTRIP
360
30C
  0
DICTIONARY
  5
305
330
3E
100
AcDbDictionary
280
     1
281
     1
  3
ACAD_XREC_ROUNDTRIP
360
306
  0
DICTIONARY
  5
307
330
3F
100
AcDbDictionary
280
     1
281
     1
  3
ACAD_XREC_ROUNDTRIP
360
308
  0
DICTIONARY
  5
2F7
330
37
100
AcDbDictionary
280
     1
281
     1
  3
ACAD_XREC_ROUNDTRIP
360
2F8
  0
DICTIONARY
  5
2E9
330
30
100
AcDbDictionary
280
     1
281
     1
  3
ACAD_XREC_ROUNDTRIP
360
2EA
  0
DICTIONARY
  5
309
330
40
100
AcDbDictionary
280
     1
281
     1
  3
ACAD_XREC_ROUNDTRIP
360
30A
  0
XRECORD
  5
312
102
{ACAD_REACTORS
330
311
102
}
330
311
100
AcDbXrecord
280
     1
102
MATERIAL
148
0.0
149
0.0
149
0.0
 93
        0
 94
      127
282
     0
 72
     1
 77
     1
171
     1
175
     1
179
     1
273
     0
  0
XRECORD
  5
310
102
{ACAD_REACTORS
330
30F
102
}
330
30F
100
AcDbXrecord
280
     1
102
MATERIAL
148
0.0
149
0.0
149
0.0
 93
        0
 94
      127
282
     0
 72
     1
 77
     1
171
     1
175
     1
179
     1
273
     0
  0
XRECORD
  5
314
102
{ACAD_REACTORS
330
313
102
}
330
313
100
AcDbXrecord
280
     1
102
MATERIAL
148
0.0
149
0.0
149
0.0
 93
        0
 94
      127
282
     0
 72
     1
 77
     1
171
     1
175
     1
179
     1
273
     0
  0
XRECORD
  5
2E8
102
{ACAD_REACTORS
330
2E7
102
}
330
2E7
100
AcDbXrecord
280
     1
102
RTVSPropertyOp0
 70
     1
102
RTVSPropertyOp1
 70
     1
102
RTVSPropertyOp2
 70
     1
102
RTVSPropertyOp3
 70
     1
102
RTVSPropertyOp4
 70
     1
102
RTVSPropertyOp5
 70
     1
102
RTVSPropertyOp6
 70
     1
102
RTVSPropertyOp7
 70
     1
102
RTVSPropertyOp8
 70
     1
102
RTVSPropertyOp9
 70
     1
102
RTVSPropertyOp10
 70
     1
102
RTVSPropertyOp11
 70
     1
102
RTVSPropertyOp12
 70
     1
102
RTVSPropertyOp13
 70
     1
102
RTVSPropertyOp14
 70
     1
102
RTVSPropertyOp15
 70
     1
102
RTVSPropertyOp16
 70
     1
102
RTVSPropertyOp17
 70
     1
102
RTVSPropertyOp18
 70
     1
102
RTVSPropertyOp19
 70
     1
102
RTVSPropertyOp20
 70
     1
102
RTVSPropertyOp21
 70
     1
102
RTVSPropertyOp22
 70
     1
102
RTVSPropertyOp23
 70
     1
102
RTVSPropertyOp24
 70
     1
102
RTVSPropertyOp25
 70
     1
102
RTVSPropertyOp26
 70
     1
102
RTVSPropertyOp27
 70
     1
102
RTVSPropertyOp28
 70
     1
102
RTVSPropertyOp29
 70
     1
102
RTVSPropertyOp30
 70
     1
102
RTVSPropertyOp31
 70
     1
102
RTVSPropertyOp32
 70
     1
102
RTVSPropertyOp33
 70
     1
102
RTVSPropertyOp34
 70
     1
102
RTVSPropertyOp35
 70
     1
102
RTVSPropertyOp36
 70
     1
102
RTVSPropertyOp37
 70
     1
102
RTVSPropertyOp38
 70
     1
102
RTVSPropertyOp39
 70
     1
102
RTVSPropertyOp40
 70
     1
102
RTVSPropertyOp41
 70
     1
102
RTVSPropertyOp42
 70
     1
102
RTVSPropertyOp43
 70
     1
102
RTVSPropertyOp44
 70
     1
102
RTVSPropertyOp45
 70
     1
102
RTVSPropertyOp46
 70
     1
102
RTVSPropertyOp47
 70
     1
102
RTVSPropertyOp48
 70
     1
102
RTVSPropertyOp49
 70
     1
102
RTVSPropertyOp50
 70
     1
102
RTVSPropertyOp51
 70
     0
102
RTVSPropertyOp52
 70
     0
102
RTVSPropertyOp53
 70
     1
102
RTVSPropertyOp54
 70
     1
102
RTVSPropertyOp55
 70
     1
102
RTVSPropertyOp56
 70
     1
102
RTVSPropertyOp57
 70
     1
102
RTVSPost2010Prop28
280
     1
102
RTVSPost2010PropOp28
 70
     1
102
RTVSPost2010Prop29
280
     1
102
RTVSPost2010PropOp29
 70
     1
102
RTVSPost2010Prop30
280
     0
102
RTVSPost2010PropOp30
 70
     1
102
RTVSPost2010Prop31
280
     0
102
RTVSPost2010PropOp31
 70
     1
102
RTVSPost2010Prop32
280
     0
102
RTVSPost2010PropOp32
 70
     1
102
RTVSPost2010Prop33
280
     0
102
RTVSPost2010PropOp33
 70
     1
102
RTVSPost2010Prop34
280
     0
102
RTVSPost2010PropOp34
 70
     1
102
RTVSPost2010Prop35
280
     0
102
RTVSPost2010PropOp35
 70
     1
102
RTVSPost2010Prop36
280
     0
102
RTVSPost2010PropOp36
 70
     1
102
RTVSPost2010Prop37
 90
       50
102
RTVSPost2010PropOp37
 70
     1
102
RTVSPost2010Prop38
140
0.0
102
RTVSPost2010PropOp38
 70
     1
102
RTVSPost2010Prop39
140
1.0
102
RTVSPost2010PropOp39
 70
     1
102
RTVSPost2010Prop40
 90
        0
102
RTVSPost2010PropOp40
 70
     1
102
RTVSPost2010Prop41ColorIndex
 90
       18
102
RTVSPost2010Prop41ColorRGB
 90
        0
102
RTVSPost2010PropOp41
 70
     1
102
RTVSPost2010Prop42
 90
       50
102
RTVSPost2010PropOp42
 70
     1
102
RTVSPost2010Prop43
 90
        3
102
RTVSPost2010PropOp43
 70
     1
102
RTVSPost2010Prop44ColorIndex
 90
        5
102
RTVSPost2010Prop44ColorRGB
 90
      255
102
RTVSPost2010PropOp44
 70
     1
102
RTVSPost2010Prop45
280
     0
102
RTVSPost2010PropOp45
 70
     1
102
RTVSPost2010Prop46
 90
       50
102
RTVSPost2010PropOp46
 70
     1
102
RTVSPost2010Prop47
 90
       50
102
RTVSPost2010PropOp47
 70
     1
102
RTVSPost2010Prop48
 90
       50
102
RTVSPost2010PropOp48
 70
     1
102
RTVSPost2010Prop49
280
     0
102
RTVSPost2010PropOp49
 70
     1
102
RTVSPost2010Prop50
 90
       50
102
RTVSPost2010PropOp50
 70
     1
102
RTVSPost2010Prop51ColorIndex
 90
      256
102
RTVSPost2010Prop51ColorRGB
 90
-16777216
102
RTVSPost2010PropOp51
 70
     0
102
RTVSPost2010Prop52
140
1.0
102
RTVSPost2010PropOp52
 70
     0
102
RTVSPost2010Prop53
 90
        2
102
RTVSPost2010PropOp53
 70
     1
102
RTVSPost2010Prop54
  1
strokes_ogs.tif
102
RTVSPost2010PropOp54
 70
     1
102
RTVSPost2010Prop55
280
     0
102
RTVSPost2010PropOp55
 70
     1
102
RTVSPost2010Prop56
140
1.0
102
RTVSPost2010PropOp56
 70
     1
102
RTVSPost2010Prop57
140
1.0
102
RTVSPost2010PropOp57
 70
     1
  0
XRECORD
  5
2EE
102
{ACAD_REACTORS
330
2ED
102
}
330
2ED
100
AcDbXrecord
280
     1
102
RTVSPropertyOp0
 70
     1
102
RTVSPropertyOp1
 70
     1
102
RTVSPropertyOp2
 70
     1
102
RTVSPropertyOp3
 70
     1
102
RTVSPropertyOp4
 70
     1
102
RTVSPropertyOp5
 70
     1
102
RTVSPropertyOp6
 70
     1
102
RTVSPropertyOp7
 70
     1
102
RTVSPropertyOp8
 70
     1
102
RTVSPropertyOp9
 70
     1
102
RTVSPropertyOp10
 70
     1
102
RTVSPropertyOp11
 70
     1
102
RTVSPropertyOp12
 70
     1
102
RTVSPropertyOp13
 70
     1
102
RTVSPropertyOp14
 70
     1
102
RTVSPropertyOp15
 70
     1
102
RTVSPropertyOp16
 70
     1
102
RTVSPropertyOp17
 70
     1
102
RTVSPropertyOp18
 70
     1
102
RTVSPropertyOp19
 70
     1
102
RTVSPropertyOp20
 70
     1
102
RTVSPropertyOp21
 70
     1
102
RTVSPropertyOp22
 70
     1
102
RTVSPropertyOp23
 70
     1
102
RTVSPropertyOp24
 70
     1
102
RTVSPropertyOp25
 70
     1
102
RTVSPropertyOp26
 70
     1
102
RTVSPropertyOp27
 70
     1
102
RTVSPropertyOp28
 70
     1
102
RTVSPropertyOp29
 70
     1
102
RTVSPropertyOp30
 70
     1
102
RTVSPropertyOp31
 70
     1
102
RTVSPropertyOp32
 70
     1
102
RTVSPropertyOp33
 70
     1
102
RTVSPropertyOp34
 70
     1
102
RTVSPropertyOp35
 70
     1
102
RTVSPropertyOp36
 70
     1
102
RTVSPropertyOp37
 70
     1
102
RTVSPropertyOp38
 70
     1
102
RTVSPropertyOp39
 70
     1
102
RTVSPropertyOp40
 70
     1
102
RTVSPropertyOp41
 70
     1
102
RTVSPropertyOp42
 70
     1
102
RTVSPropertyOp43
 70
     1
102
RTVSPropertyOp44
 70
     1
102
RTVSPropertyOp45
 70
     1
102
RTVSPropertyOp46
 70
     1
102
RTVSPropertyOp47
 70
     1
102
RTVSPropertyOp48
 70
     1
102
RTVSPropertyOp49
 70
     1
102
RTVSPropertyOp50
 70
     1
102
RTVSPropertyOp51
 70
     0
102
RTVSPropertyOp52
 70
     0
102
RTVSPropertyOp53
 70
     1
102
RTVSPropertyOp54
 70
     1
102
RTVSPropertyOp55
 70
     1
102
RTVSPropertyOp56
 70
     1
102
RTVSPropertyOp57
 70
     1
102
RTVSPost2010Prop28
280
     0
102
RTVSPost2010PropOp28
 70
     1
102
RTVSPost2010Prop29
280
     1
102
RTVSPost2010PropOp29
 70
     1
102
RTVSPost2010Prop30
280
     1
102
RTVSPost2010PropOp30
 70
     1
102
RTVSPost2010Prop31
280
     0
102
RTVSPost2010PropOp31
 70
     1
102
RTVSPost2010Prop32
280
     0
102
RTVSPost2010PropOp32
 70
     1
102
RTVSPost2010Prop33
280
     0
102
RTVSPost2010PropOp33
 70
     1
102
RTVSPost2010Prop34
280
     0
102
RTVSPost2010PropOp34
 70
     1
102
RTVSPost2010Prop35
280
     0
102
RTVSPost2010PropOp35
 70
     1
102
RTVSPost2010Prop36
280
     0
102
RTVSPost2010PropOp36
 70
     1
102
RTVSPost2010Prop37
 90
       50
102
RTVSPost2010PropOp37
 70
     1
102
RTVSPost2010Prop38
140
0.0
102
RTVSPost2010PropOp38
 70
     1
102
RTVSPost2010Prop39
140
1.0
102
RTVSPost2010PropOp39
 70
     1
102
RTVSPost2010Prop40
 90
        0
102
RTVSPost2010PropOp40
 70
     1
102
RTVSPost2010Prop41ColorIndex
 90
       18
102
RTVSPost2010Prop41ColorRGB
 90
        0
102
RTVSPost2010PropOp41
 70
     1
102
RTVSPost2010Prop42
 90
       50
102
RTVSPost2010PropOp42
 70
     1
102
RTVSPost2010Prop43
 90
        3
102
RTVSPost2010PropOp43
 70
     1
102
RTVSPost2010Prop44ColorIndex
 90
        5
102
RTVSPost2010Prop44ColorRGB
 90
      255
102
RTVSPost2010PropOp44
 70
     1
102
RTVSPost2010Prop45
280
     0
102
RTVSPost2010PropOp45
 70
     1
102
RTVSPost2010Prop46
 90
       50
102
RTVSPost2010PropOp46
 70
     1
102
RTVSPost2010Prop47
 90
       50
102
RTVSPost2010PropOp47
 70
     1
102
RTVSPost2010Prop48
 90
       50
102
RTVSPost2010PropOp48
 70
     1
102
RTVSPost2010Prop49
280
     0
102
RTVSPost2010PropOp49
 70
     1
102
RTVSPost2010Prop50
 90
       50
102
RTVSPost2010PropOp50
 70
     1
102
RTVSPost2010Prop51ColorIndex
 90
      256
102
RTVSPost2010Prop51ColorRGB
 90
-16777216
102
RTVSPost2010PropOp51
 70
     0
102
RTVSPost2010Prop52
140
1.0
102
RTVSPost2010PropOp52
 70
     0
102
RTVSPost2010Prop53
 90
        2
102
RTVSPost2010PropOp53
 70
     1
102
RTVSPost2010Prop54
  1
strokes_ogs.tif
102
RTVSPost2010PropOp54
 70
     1
102
RTVSPost2010Prop55
280
     0
102
RTVSPost2010PropOp55
 70
     1
102
RTVSPost2010Prop56
140
1.0
102
RTVSPost2010PropOp56
 70
     1
102
RTVSPost2010Prop57
140
1.0
102
RTVSPost2010PropOp57
 70
     1
  0
XRECORD
  5
2F6
102
{ACAD_REACTORS
330
2F5
102
}
330
2F5
100
AcDbXrecord
280
     1
102
RTVSPropertyOp0
 70
     1
102
RTVSPropertyOp1
 70
     1
102
RTVSPropertyOp2
 70
     1
102
RTVSPropertyOp3
 70
     1
102
RTVSPropertyOp4
 70
     1
102
RTVSPropertyOp5
 70
     1
102
RTVSPropertyOp6
 70
     1
102
RTVSPropertyOp7
 70
     1
102
RTVSPropertyOp8
 70
     1
102
RTVSPropertyOp9
 70
     1
102
RTVSPropertyOp10
 70
     1
102
RTVSPropertyOp11
 70
     1
102
RTVSPropertyOp12
 70
     1
102
RTVSPropertyOp13
 70
     1
102
RTVSPropertyOp14
 70
     1
102
RTVSPropertyOp15
 70
     1
102
RTVSPropertyOp16
 70
     1
102
RTVSPropertyOp17
 70
     1
102
RTVSPropertyOp18
 70
     1
102
RTVSPropertyOp19
 70
     1
102
RTVSPropertyOp20
 70
     1
102
RTVSPropertyOp21
 70
     1
102
RTVSPropertyOp22
 70
     1
102
RTVSPropertyOp23
 70
     1
102
RTVSPropertyOp24
 70
     1
102
RTVSPropertyOp25
 70
     1
102
RTVSPropertyOp26
 70
     1
102
RTVSPropertyOp27
 70
     1
102
RTVSPropertyOp28
 70
     1
102
RTVSPropertyOp29
 70
     1
102
RTVSPropertyOp30
 70
     1
102
RTVSPropertyOp31
 70
     1
102
RTVSPropertyOp32
 70
     1
102
RTVSPropertyOp33
 70
     1
102
RTVSPropertyOp34
 70
     1
102
RTVSPropertyOp35
 70
     1
102
RTVSPropertyOp36
 70
     1
102
RTVSPropertyOp37
 70
     1
102
RTVSPropertyOp38
 70
     1
102
RTVSPropertyOp39
 70
     1
102
RTVSPropertyOp40
 70
     1
102
RTVSPropertyOp41
 70
     1
102
RTVSPropertyOp42
 70
     1
102
RTVSPropertyOp43
 70
     1
102
RTVSPropertyOp44
 70
     1
102
RTVSPropertyOp45
 70
     1
102
RTVSPropertyOp46
 70
     1
102
RTVSPropertyOp47
 70
     1
102
RTVSPropertyOp48
 70
     1
102
RTVSPropertyOp49
 70
     1
102
RTVSPropertyOp50
 70
     1
102
RTVSPropertyOp51
 70
     0
102
RTVSPropertyOp52
 70
     0
102
RTVSPropertyOp53
 70
     1
102
RTVSPropertyOp54
 70
     1
102
RTVSPropertyOp55
 70
     1
102
RTVSPropertyOp56
 70
     1
102
RTVSPropertyOp57
 70
     1
102
RTVSPost2010Prop28
280
     0
102
RTVSPost2010PropOp28
 70
     1
102
RTVSPost2010Prop29
280
     1
102
RTVSPost2010PropOp29
 70
     1
102
RTVSPost2010Prop30
280
     1
102
RTVSPost2010PropOp30
 70
     1
102
RTVSPost2010Prop31
280
     0
102
RTVSPost2010PropOp31
 70
     1
102
RTVSPost2010Prop32
280
     0
102
RTVSPost2010PropOp32
 70
     1
102
RTVSPost2010Prop33
280
     0
102
RTVSPost2010PropOp33
 70
     1
102
RTVSPost2010Prop34
280
     0
102
RTVSPost2010PropOp34
 70
     1
102
RTVSPost2010Prop35
280
     0
102
RTVSPost2010PropOp35
 70
     1
102
RTVSPost2010Prop36
280
     0
102
RTVSPost2010PropOp36
 70
     1
102
RTVSPost2010Prop37
 90
       50
102
RTVSPost2010PropOp37
 70
     1
102
RTVSPost2010Prop38
140
0.0
102
RTVSPost2010PropOp38
 70
     1
102
RTVSPost2010Prop39
140
1.0
102
RTVSPost2010PropOp39
 70
     1
102
RTVSPost2010Prop40
 90
        0
102
RTVSPost2010PropOp40
 70
     1
102
RTVSPost2010Prop41ColorIndex
 90
       18
102
RTVSPost2010Prop41ColorRGB
 90
        0
102
RTVSPost2010PropOp41
 70
     1
102
RTVSPost2010Prop42
 90
       50
102
RTVSPost2010PropOp42
 70
     1
102
RTVSPost2010Prop43
 90
        3
102
RTVSPost2010PropOp43
 70
     1
102
RTVSPost2010Prop44ColorIndex
 90
        5
102
RTVSPost2010Prop44ColorRGB
 90
      255
102
RTVSPost2010PropOp44
 70
     1
102
RTVSPost2010Prop45
280
     0
102
RTVSPost2010PropOp45
 70
     1
102
RTVSPost2010Prop46
 90
       50
102
RTVSPost2010PropOp46
 70
     1
102
RTVSPost2010Prop47
 90
       50
102
RTVSPost2010PropOp47
 70
     1
102
RTVSPost2010Prop48
 90
       50
102
RTVSPost2010PropOp48
 70
     1
102
RTVSPost2010Prop49
280
     0
102
RTVSPost2010PropOp49
 70
     1
102
RTVSPost2010Prop50
 90
       50
102
RTVSPost2010PropOp50
 70
     1
102
RTVSPost2010Prop51ColorIndex
 90
      256
102
RTVSPost2010Prop51ColorRGB
 90
-16777216
102
RTVSPost2010PropOp51
 70
     0
102
RTVSPost2010Prop52
140
1.0
102
RTVSPost2010PropOp52
 70
     0
102
RTVSPost2010Prop53
 90
        2
102
RTVSPost2010PropOp53
 70
     1
102
RTVSPost2010Prop54
  1
strokes_ogs.tif
102
RTVSPost2010PropOp54
 70
     1
102
RTVSPost2010Prop55
280
     0
102
RTVSPost2010PropOp55
 70
     1
102
RTVSPost2010Prop56
140
1.0
102
RTVSPost2010PropOp56
 70
     1
102
RTVSPost2010Prop57
140
1.0
102
RTVSPost2010PropOp57
 70
     1
  0
XRECORD
  5
2FE
102
{ACAD_REACTORS
330
2FD
102
}
330
2FD
100
AcDbXrecord
280
     1
102
RTVSPropertyOp0
 70
     1
102
RTVSPropertyOp1
 70
     1
102
RTVSPropertyOp2
 70
     1
102
RTVSPropertyOp3
 70
     1
102
RTVSPropertyOp4
 70
     1
102
RTVSPropertyOp5
 70
     1
102
RTVSPropertyOp6
 70
     1
102
RTVSPropertyOp7
 70
     1
102
RTVSPropertyOp8
 70
     1
102
RTVSPropertyOp9
 70
     1
102
RTVSPropertyOp10
 70
     1
102
RTVSPropertyOp11
 70
     1
102
RTVSPropertyOp12
 70
     1
102
RTVSPropertyOp13
 70
     1
102
RTVSPropertyOp14
 70
     1
102
RTVSPropertyOp15
 70
     1
102
RTVSPropertyOp16
 70
     1
102
RTVSPropertyOp17
 70
     1
102
RTVSPropertyOp18
 70
     1
102
RTVSPropertyOp19
 70
     1
102
RTVSPropertyOp20
 70
     1
102
RTVSPropertyOp21
 70
     1
102
RTVSPropertyOp22
 70
     1
102
RTVSPropertyOp23
 70
     1
102
RTVSPropertyOp24
 70
     1
102
RTVSPropertyOp25
 70
     1
102
RTVSPropertyOp26
 70
     1
102
RTVSPropertyOp27
 70
     1
102
RTVSPropertyOp28
 70
     1
102
RTVSPropertyOp29
 70
     1
102
RTVSPropertyOp30
 70
     1
102
RTVSPropertyOp31
 70
     1
102
RTVSPropertyOp32
 70
     1
102
RTVSPropertyOp33
 70
     1
102
RTVSPropertyOp34
 70
     1
102
RTVSPropertyOp35
 70
     1
102
RTVSPropertyOp36
 70
     1
102
RTVSPropertyOp37
 70
     1
102
RTVSPropertyOp38
 70
     1
102
RTVSPropertyOp39
 70
     1
102
RTVSPropertyOp40
 70
     1
102
RTVSPropertyOp41
 70
     1
102
RTVSPropertyOp42
 70
     1
102
RTVSPropertyOp43
 70
     1
102
RTVSPropertyOp44
 70
     1
102
RTVSPropertyOp45
 70
     1
102
RTVSPropertyOp46
 70
     1
102
RTVSPropertyOp47
 70
     1
102
RTVSPropertyOp48
 70
     1
102
RTVSPropertyOp49
 70
     1
102
RTVSPropertyOp50
 70
     1
102
RTVSPropertyOp51
 70
     0
102
RTVSPropertyOp52
 70
     0
102
RTVSPropertyOp53
 70
     1
102
RTVSPropertyOp54
 70
     1
102
RTVSPropertyOp55
 70
     1
102
RTVSPropertyOp56
 70
     1
102
RTVSPropertyOp57
 70
     1
102
RTVSPost2010Prop28
280
     0
102
RTVSPost2010PropOp28
 70
     1
102
RTVSPost2010Prop29
280
     1
102
RTVSPost2010PropOp29
 70
     1
102
RTVSPost2010Prop30
280
     1
102
RTVSPost2010PropOp30
 70
     1
102
RTVSPost2010Prop31
280
     0
102
RTVSPost2010PropOp31
 70
     1
102
RTVSPost2010Prop32
280
     0
102
RTVSPost2010PropOp32
 70
     1
102
RTVSPost2010Prop33
280
     0
102
RTVSPost2010PropOp33
 70
     1
102
RTVSPost2010Prop34
280
     0
102
RTVSPost2010PropOp34
 70
     1
102
RTVSPost2010Prop35
280
     0
102
RTVSPost2010PropOp35
 70
     1
102
RTVSPost2010Prop36
280
     0
102
RTVSPost2010PropOp36
 70
     1
102
RTVSPost2010Prop37
 90
       50
102
RTVSPost2010PropOp37
 70
     1
102
RTVSPost2010Prop38
140
0.0
102
RTVSPost2010PropOp38
 70
     1
102
RTVSPost2010Prop39
140
1.0
102
RTVSPost2010PropOp39
 70
     1
102
RTVSPost2010Prop40
 90
        0
102
RTVSPost2010PropOp40
 70
     1
102
RTVSPost2010Prop41ColorIndex
 90
       18
102
RTVSPost2010Prop41ColorRGB
 90
        0
102
RTVSPost2010PropOp41
 70
     1
102
RTVSPost2010Prop42
 90
       50
102
RTVSPost2010PropOp42
 70
     1
102
RTVSPost2010Prop43
 90
        3
102
RTVSPost2010PropOp43
 70
     1
102
RTVSPost2010Prop44ColorIndex
 90
        5
102
RTVSPost2010Prop44ColorRGB
 90
      255
102
RTVSPost2010PropOp44
 70
     1
102
RTVSPost2010Prop45
280
     0
102
RTVSPost2010PropOp45
 70
     1
102
RTVSPost2010Prop46
 90
       50
102
RTVSPost2010PropOp46
 70
     1
102
RTVSPost2010Prop47
 90
       50
102
RTVSPost2010PropOp47
 70
     1
102
RTVSPost2010Prop48
 90
       50
102
RTVSPost2010PropOp48
 70
     1
102
RTVSPost2010Prop49
280
     0
102
RTVSPost2010PropOp49
 70
     1
102
RTVSPost2010Prop50
 90
       50
102
RTVSPost2010PropOp50
 70
     1
102
RTVSPost2010Prop51ColorIndex
 90
      256
102
RTVSPost2010Prop51ColorRGB
 90
-16777216
102
RTVSPost2010PropOp51
 70
     0
102
RTVSPost2010Prop52
140
1.0
102
RTVSPost2010PropOp52
 70
     0
102
RTVSPost2010Prop53
 90
        2
102
RTVSPost2010PropOp53
 70
     1
102
RTVSPost2010Prop54
  1
strokes_ogs.tif
102
RTVSPost2010PropOp54
 70
     1
102
RTVSPost2010Prop55
280
     0
102
RTVSPost2010PropOp55
 70
     1
102
RTVSPost2010Prop56
140
1.0
102
RTVSPost2010PropOp56
 70
     1
102
RTVSPost2010Prop57
140
1.0
102
RTVSPost2010PropOp57
 70
     1
  0
XRECORD
  5
2F2
102
{ACAD_REACTORS
330
2F1
102
}
330
2F1
100
AcDbXrecord
280
     1
102
RTVSPropertyOp0
 70
     1
102
RTVSPropertyOp1
 70
     1
102
RTVSPropertyOp2
 70
     1
102
RTVSPropertyOp3
 70
     1
102
RTVSPropertyOp4
 70
     1
102
RTVSPropertyOp5
 70
     1
102
RTVSPropertyOp6
 70
     1
102
RTVSPropertyOp7
 70
     1
102
RTVSPropertyOp8
 70
     1
102
RTVSPropertyOp9
 70
     1
102
RTVSPropertyOp10
 70
     1
102
RTVSPropertyOp11
 70
     1
102
RTVSPropertyOp12
 70
     1
102
RTVSPropertyOp13
 70
     1
102
RTVSPropertyOp14
 70
     1
102
RTVSPropertyOp15
 70
     1
102
RTVSPropertyOp16
 70
     1
102
RTVSPropertyOp17
 70
     1
102
RTVSPropertyOp18
 70
     1
102
RTVSPropertyOp19
 70
     1
102
RTVSPropertyOp20
 70
     1
102
RTVSPropertyOp21
 70
     1
102
RTVSPropertyOp22
 70
     1
102
RTVSPropertyOp23
 70
     1
102
RTVSPropertyOp24
 70
     1
102
RTVSPropertyOp25
 70
     1
102
RTVSPropertyOp26
 70
     1
102
RTVSPropertyOp27
 70
     1
102
RTVSPropertyOp28
 70
     1
102
RTVSPropertyOp29
 70
     1
102
RTVSPropertyOp30
 70
     1
102
RTVSPropertyOp31
 70
     1
102
RTVSPropertyOp32
 70
     1
102
RTVSPropertyOp33
 70
     1
102
RTVSPropertyOp34
 70
     1
102
RTVSPropertyOp35
 70
     1
102
RTVSPropertyOp36
 70
     1
102
RTVSPropertyOp37
 70
     1
102
RTVSPropertyOp38
 70
     1
102
RTVSPropertyOp39
 70
     1
102
RTVSPropertyOp40
 70
     1
102
RTVSPropertyOp41
 70
     1
102
RTVSPropertyOp42
 70
     1
102
RTVSPropertyOp43
 70
     1
102
RTVSPropertyOp44
 70
     1
102
RTVSPropertyOp45
 70
     1
102
RTVSPropertyOp46
 70
     1
102
RTVSPropertyOp47
 70
     1
102
RTVSPropertyOp48
 70
     1
102
RTVSPropertyOp49
 70
     1
102
RTVSPropertyOp50
 70
     1
102
RTVSPropertyOp51
 70
     0
102
RTVSPropertyOp52
 70
     0
102
RTVSPropertyOp53
 70
     1
102
RTVSPropertyOp54
 70
     1
102
RTVSPropertyOp55
 70
     1
102
RTVSPropertyOp56
 70
     1
102
RTVSPropertyOp57
 70
     1
102
RTVSPost2010Prop28
280
     0
102
RTVSPost2010PropOp28
 70
     1
102
RTVSPost2010Prop29
280
     1
102
RTVSPost2010PropOp29
 70
     1
102
RTVSPost2010Prop30
280
     1
102
RTVSPost2010PropOp30
 70
     1
102
RTVSPost2010Prop31
280
     0
102
RTVSPost2010PropOp31
 70
     1
102
RTVSPost2010Prop32
280
     0
102
RTVSPost2010PropOp32
 70
     1
102
RTVSPost2010Prop33
280
     0
102
RTVSPost2010PropOp33
 70
     1
102
RTVSPost2010Prop34
280
     0
102
RTVSPost2010PropOp34
 70
     1
102
RTVSPost2010Prop35
280
     0
102
RTVSPost2010PropOp35
 70
     1
102
RTVSPost2010Prop36
280
     0
102
RTVSPost2010PropOp36
 70
     1
102
RTVSPost2010Prop37
 90
       50
102
RTVSPost2010PropOp37
 70
     1
102
RTVSPost2010Prop38
140
0.0
102
RTVSPost2010PropOp38
 70
     1
102
RTVSPost2010Prop39
140
1.0
102
RTVSPost2010PropOp39
 70
     1
102
RTVSPost2010Prop40
 90
        0
102
RTVSPost2010PropOp40
 70
     1
102
RTVSPost2010Prop41ColorIndex
 90
       18
102
RTVSPost2010Prop41ColorRGB
 90
        0
102
RTVSPost2010PropOp41
 70
     1
102
RTVSPost2010Prop42
 90
       50
102
RTVSPost2010PropOp42
 70
     1
102
RTVSPost2010Prop43
 90
        3
102
RTVSPost2010PropOp43
 70
     1
102
RTVSPost2010Prop44ColorIndex
 90
        5
102
RTVSPost2010Prop44ColorRGB
 90
      255
102
RTVSPost2010PropOp44
 70
     1
102
RTVSPost2010Prop45
280
     0
102
RTVSPost2010PropOp45
 70
     1
102
RTVSPost2010Prop46
 90
       50
102
RTVSPost2010PropOp46
 70
     1
102
RTVSPost2010Prop47
 90
       50
102
RTVSPost2010PropOp47
 70
     1
102
RTVSPost2010Prop48
 90
       50
102
RTVSPost2010PropOp48
 70
     1
102
RTVSPost2010Prop49
280
     0
102
RTVSPost2010PropOp49
 70
     1
102
RTVSPost2010Prop50
 90
       50
102
RTVSPost2010PropOp50
 70
     1
102
RTVSPost2010Prop51ColorIndex
 90
      256
102
RTVSPost2010Prop51ColorRGB
 90
-16777216
102
RTVSPost2010PropOp51
 70
     0
102
RTVSPost2010Prop52
140
1.0
102
RTVSPost2010PropOp52
 70
     0
102
RTVSPost2010Prop53
 90
        2
102
RTVSPost2010PropOp53
 70
     1
102
RTVSPost2010Prop54
  1
strokes_ogs.tif
102
RTVSPost2010PropOp54
 70
     1
102
RTVSPost2010Prop55
280
     0
102
RTVSPost2010PropOp55
 70
     1
102
RTVSPost2010Prop56
140
1.0
102
RTVSPost2010PropOp56
 70
     1
102
RTVSPost2010Prop57
140
1.0
102
RTVSPost2010PropOp57
 70
     1
  0
XRECORD
  5
2F4
102
{ACAD_REACTORS
330
2F3
102
}
330
2F3
100
AcDbXrecord
280
     1
102
RTVSPropertyOp0
 70
     1
102
RTVSPropertyOp1
 70
     1
102
RTVSPropertyOp2
 70
     1
102
RTVSPropertyOp3
 70
     1
102
RTVSPropertyOp4
 70
     1
102
RTVSPropertyOp5
 70
     1
102
RTVSPropertyOp6
 70
     1
102
RTVSPropertyOp7
 70
     1
102
RTVSPropertyOp8
 70
     1
102
RTVSPropertyOp9
 70
     1
102
RTVSPropertyOp10
 70
     1
102
RTVSPropertyOp11
 70
     1
102
RTVSPropertyOp12
 70
     1
102
RTVSPropertyOp13
 70
     1
102
RTVSPropertyOp14
 70
     1
102
RTVSPropertyOp15
 70
     1
102
RTVSPropertyOp16
 70
     1
102
RTVSPropertyOp17
 70
     1
102
RTVSPropertyOp18
 70
     1
102
RTVSPropertyOp19
 70
     1
102
RTVSPropertyOp20
 70
     1
102
RTVSPropertyOp21
 70
     1
102
RTVSPropertyOp22
 70
     1
102
RTVSPropertyOp23
 70
     1
102
RTVSPropertyOp24
 70
     1
102
RTVSPropertyOp25
 70
     1
102
RTVSPropertyOp26
 70
     1
102
RTVSPropertyOp27
 70
     1
102
RTVSPropertyOp28
 70
     1
102
RTVSPropertyOp29
 70
     1
102
RTVSPropertyOp30
 70
     1
102
RTVSPropertyOp31
 70
     1
102
RTVSPropertyOp32
 70
     1
102
RTVSPropertyOp33
 70
     1
102
RTVSPropertyOp34
 70
     1
102
RTVSPropertyOp35
 70
     1
102
RTVSPropertyOp36
 70
     1
102
RTVSPropertyOp37
 70
     1
102
RTVSPropertyOp38
 70
     1
102
RTVSPropertyOp39
 70
     1
102
RTVSPropertyOp40
 70
     1
102
RTVSPropertyOp41
 70
     1
102
RTVSPropertyOp42
 70
     1
102
RTVSPropertyOp43
 70
     1
102
RTVSPropertyOp44
 70
     1
102
RTVSPropertyOp45
 70
     1
102
RTVSPropertyOp46
 70
     1
102
RTVSPropertyOp47
 70
     1
102
RTVSPropertyOp48
 70
     1
102
RTVSPropertyOp49
 70
     1
102
RTVSPropertyOp50
 70
     1
102
RTVSPropertyOp51
 70
     0
102
RTVSPropertyOp52
 70
     0
102
RTVSPropertyOp53
 70
     1
102
RTVSPropertyOp54
 70
     1
102
RTVSPropertyOp55
 70
     1
102
RTVSPropertyOp56
 70
     1
102
RTVSPropertyOp57
 70
     1
102
RTVSPost2010Prop28
280
     0
102
RTVSPost2010PropOp28
 70
     1
102
RTVSPost2010Prop29
280
     1
102
RTVSPost2010PropOp29
 70
     1
102
RTVSPost2010Prop30
280
     1
102
RTVSPost2010PropOp30
 70
     1
102
RTVSPost2010Prop31
280
     0
102
RTVSPost2010PropOp31
 70
     1
102
RTVSPost2010Prop32
280
     0
102
RTVSPost2010PropOp32
 70
     1
102
RTVSPost2010Prop33
280
     0
102
RTVSPost2010PropOp33
 70
     1
102
RTVSPost2010Prop34
280
     0
102
RTVSPost2010PropOp34
 70
     1
102
RTVSPost2010Prop35
280
     0
102
RTVSPost2010PropOp35
 70
     1
102
RTVSPost2010Prop36
280
     0
102
RTVSPost2010PropOp36
 70
     1
102
RTVSPost2010Prop37
 90
       50
102
RTVSPost2010PropOp37
 70
     1
102
RTVSPost2010Prop38
140
0.0
102
RTVSPost2010PropOp38
 70
     1
102
RTVSPost2010Prop39
140
1.0
102
RTVSPost2010PropOp39
 70
     1
102
RTVSPost2010Prop40
 90
        0
102
RTVSPost2010PropOp40
 70
     1
102
RTVSPost2010Prop41ColorIndex
 90
       18
102
RTVSPost2010Prop41ColorRGB
 90
        0
102
RTVSPost2010PropOp41
 70
     1
102
RTVSPost2010Prop42
 90
       50
102
RTVSPost2010PropOp42
 70
     1
102
RTVSPost2010Prop43
 90
        3
102
RTVSPost2010PropOp43
 70
     1
102
RTVSPost2010Prop44ColorIndex
 90
        5
102
RTVSPost2010Prop44ColorRGB
 90
      255
102
RTVSPost2010PropOp44
 70
     1
102
RTVSPost2010Prop45
280
     0
102
RTVSPost2010PropOp45
 70
     1
102
RTVSPost2010Prop46
 90
       50
102
RTVSPost2010PropOp46
 70
     1
102
RTVSPost2010Prop47
 90
       50
102
RTVSPost2010PropOp47
 70
     1
102
RTVSPost2010Prop48
 90
       50
102
RTVSPost2010PropOp48
 70
     1
102
RTVSPost2010Prop49
280
     0
102
RTVSPost2010PropOp49
 70
     1
102
RTVSPost2010Prop50
 90
       50
102
RTVSPost2010PropOp50
 70
     1
102
RTVSPost2010Prop51ColorIndex
 90
      256
102
RTVSPost2010Prop51ColorRGB
 90
-16777216
102
RTVSPost2010PropOp51
 70
     0
102
RTVSPost2010Prop52
140
1.0
102
RTVSPost2010PropOp52
 70
     0
102
RTVSPost2010Prop53
 90
        2
102
RTVSPost2010PropOp53
 70
     1
102
RTVSPost2010Prop54
  1
strokes_ogs.tif
102
RTVSPost2010PropOp54
 70
     1
102
RTVSPost2010Prop55
280
     0
102
RTVSPost2010PropOp55
 70
     1
102
RTVSPost2010Prop56
140
1.0
102
RTVSPost2010PropOp56
 70
     1
102
RTVSPost2010Prop57
140
1.0
102
RTVSPost2010PropOp57
 70
     1
  0
XRECORD
  5
304
102
{ACAD_REACTORS
330
303
102
}
330
303
100
AcDbXrecord
280
     1
102
RTVSPropertyOp0
 70
     0
102
RTVSPropertyOp1
 70
     0
102
RTVSPropertyOp2
 70
     0
102
RTVSPropertyOp3
 70
     0
102
RTVSPropertyOp4
 70
     0
102
RTVSPropertyOp5
 70
     0
102
RTVSPropertyOp6
 70
     0
102
RTVSPropertyOp7
 70
     0
102
RTVSPropertyOp8
 70
     0
102
RTVSPropertyOp9
 70
     0
102
RTVSPropertyOp10
 70
     0
102
RTVSPropertyOp11
 70
     0
102
RTVSPropertyOp12
 70
     0
102
RTVSPropertyOp13
 70
     0
102
RTVSPropertyOp14
 70
     2
102
RTVSPropertyOp15
 70
     0
102
RTVSPropertyOp16
 70
     0
102
RTVSPropertyOp17
 70
     0
102
RTVSPropertyOp18
 70
     0
102
RTVSPropertyOp19
 70
     0
102
RTVSPropertyOp20
 70
     0
102
RTVSPropertyOp21
 70
     0
102
RTVSPropertyOp22
 70
     0
102
RTVSPropertyOp23
 70
     0
102
RTVSPropertyOp24
 70
     0
102
RTVSPropertyOp25
 70
     0
102
RTVSPropertyOp26
 70
     0
102
RTVSPropertyOp27
 70
     0
102
RTVSPropertyOp28
 70
     0
102
RTVSPropertyOp29
 70
     0
102
RTVSPropertyOp30
 70
     0
102
RTVSPropertyOp31
 70
     0
102
RTVSPropertyOp32
 70
     0
102
RTVSPropertyOp33
 70
     0
102
RTVSPropertyOp34
 70
     0
102
RTVSPropertyOp35
 70
     0
102
RTVSPropertyOp36
 70
     0
102
RTVSPropertyOp37
 70
     0
102
RTVSPropertyOp38
 70
     0
102
RTVSPropertyOp39
 70
     0
102
RTVSPropertyOp40
 70
     0
102
RTVSPropertyOp41
 70
     0
102
RTVSPropertyOp42
 70
     0
102
RTVSPropertyOp43
 70
     0
102
RTVSPropertyOp44
 70
     0
102
RTVSPropertyOp45
 70
     0
102
RTVSPropertyOp46
 70
     0
102
RTVSPropertyOp47
 70
     0
102
RTVSPropertyOp48
 70
     0
102
RTVSPropertyOp49
 70
     0
102
RTVSPropertyOp50
 70
     0
102
RTVSPropertyOp51
 70
     0
102
RTVSPropertyOp52
 70
     0
102
RTVSPropertyOp53
 70
     0
102
RTVSPropertyOp54
 70
     0
102
RTVSPropertyOp55
 70
     0
102
RTVSPropertyOp56
 70
     0
102
RTVSPropertyOp57
 70
     0
102
RTVSPost2010Prop28
280
     0
102
RTVSPost2010PropOp28
 70
     0
102
RTVSPost2010Prop29
280
     1
102
RTVSPost2010PropOp29
 70
     0
102
RTVSPost2010Prop30
280
     1
102
RTVSPost2010PropOp30
 70
     0
102
RTVSPost2010Prop31
280
     0
102
RTVSPost2010PropOp31
 70
     0
102
RTVSPost2010Prop32
280
     0
102
RTVSPost2010PropOp32
 70
     0
102
RTVSPost2010Prop33
280
     0
102
RTVSPost2010PropOp33
 70
     0
102
RTVSPost2010Prop34
280
     0
102
RTVSPost2010PropOp34
 70
     0
102
RTVSPost2010Prop35
280
     0
102
RTVSPost2010PropOp35
 70
     0
102
RTVSPost2010Prop36
280
     0
102
RTVSPost2010PropOp36
 70
     0
102
RTVSPost2010Prop37
 90
       50
102
RTVSPost2010PropOp37
 70
     0
102
RTVSPost2010Prop38
140
0.0
102
RTVSPost2010PropOp38
 70
     0
102
RTVSPost2010Prop39
140
1.0
102
RTVSPost2010PropOp39
 70
     0
102
RTVSPost2010Prop40
 90
        0
102
RTVSPost2010PropOp40
 70
     0
102
RTVSPost2010Prop41ColorIndex
 90
       18
102
RTVSPost2010Prop41ColorRGB
 90
        0
102
RTVSPost2010PropOp41
 70
     0
102
RTVSPost2010Prop42
 90
       50
102
RTVSPost2010PropOp42
 70
     0
102
RTVSPost2010Prop43
 90
        3
102
RTVSPost2010PropOp43
 70
     0
102
RTVSPost2010Prop44ColorIndex
 90
        5
102
RTVSPost2010Prop44ColorRGB
 90
      255
102
RTVSPost2010PropOp44
 70
     0
102
RTVSPost2010Prop45
280
     0
102
RTVSPost2010PropOp45
 70
     0
102
RTVSPost2010Prop46
 90
       50
102
RTVSPost2010PropOp46
 70
     0
102
RTVSPost2010Prop47
 90
       50
102
RTVSPost2010PropOp47
 70
     0
102
RTVSPost2010Prop48
 90
       50
102
RTVSPost2010PropOp48
 70
     0
102
RTVSPost2010Prop49
280
     0
102
RTVSPost2010PropOp49
 70
     0
102
RTVSPost2010Prop50
 90
       50
102
RTVSPost2010PropOp50
 70
     0
102
RTVSPost2010Prop51ColorIndex
 90
      256
102
RTVSPost2010Prop51ColorRGB
 90
-16777216
102
RTVSPost2010PropOp51
 70
     0
102
RTVSPost2010Prop52
140
1.0
102
RTVSPost2010PropOp52
 70
     0
102
RTVSPost2010Prop53
 90
        2
102
RTVSPost2010PropOp53
 70
     0
102
RTVSPost2010Prop54
  1
strokes_ogs.tif
102
RTVSPost2010PropOp54
 70
     0
102
RTVSPost2010Prop55
280
     0
102
RTVSPost2010PropOp55
 70
     0
102
RTVSPost2010Prop56
140
1.0
102
RTVSPost2010PropOp56
 70
     0
102
RTVSPost2010Prop57
140
1.0
102
RTVSPost2010PropOp57
 70
     0
  0
XRECORD
  5
2FC
102
{ACAD_REACTORS
330
2FB
102
}
330
2FB
100
AcDbXrecord
280
     1
102
RTVSPropertyOp0
 70
     1
102
RTVSPropertyOp1
 70
     1
102
RTVSPropertyOp2
 70
     1
102
RTVSPropertyOp3
 70
     1
102
RTVSPropertyOp4
 70
     1
102
RTVSPropertyOp5
 70
     1
102
RTVSPropertyOp6
 70
     1
102
RTVSPropertyOp7
 70
     1
102
RTVSPropertyOp8
 70
     1
102
RTVSPropertyOp9
 70
     1
102
RTVSPropertyOp10
 70
     1
102
RTVSPropertyOp11
 70
     1
102
RTVSPropertyOp12
 70
     1
102
RTVSPropertyOp13
 70
     1
102
RTVSPropertyOp14
 70
     1
102
RTVSPropertyOp15
 70
     1
102
RTVSPropertyOp16
 70
     1
102
RTVSPropertyOp17
 70
     1
102
RTVSPropertyOp18
 70
     1
102
RTVSPropertyOp19
 70
     1
102
RTVSPropertyOp20
 70
     1
102
RTVSPropertyOp21
 70
     1
102
RTVSPropertyOp22
 70
     1
102
RTVSPropertyOp23
 70
     1
102
RTVSPropertyOp24
 70
     1
102
RTVSPropertyOp25
 70
     1
102
RTVSPropertyOp26
 70
     1
102
RTVSPropertyOp27
 70
     1
102
RTVSPropertyOp28
 70
     1
102
RTVSPropertyOp29
 70
     1
102
RTVSPropertyOp30
 70
     1
102
RTVSPropertyOp31
 70
     1
102
RTVSPropertyOp32
 70
     1
102
RTVSPropertyOp33
 70
     1
102
RTVSPropertyOp34
 70
     1
102
RTVSPropertyOp35
 70
     1
102
RTVSPropertyOp36
 70
     1
102
RTVSPropertyOp37
 70
     1
102
RTVSPropertyOp38
 70
     1
102
RTVSPropertyOp39
 70
     1
102
RTVSPropertyOp40
 70
     1
102
RTVSPropertyOp41
 70
     1
102
RTVSPropertyOp42
 70
     1
102
RTVSPropertyOp43
 70
     1
102
RTVSPropertyOp44
 70
     1
102
RTVSPropertyOp45
 70
     1
102
RTVSPropertyOp46
 70
     1
102
RTVSPropertyOp47
 70
     1
102
RTVSPropertyOp48
 70
     1
102
RTVSPropertyOp49
 70
     1
102
RTVSPropertyOp50
 70
     1
102
RTVSPropertyOp51
 70
     0
102
RTVSPropertyOp52
 70
     0
102
RTVSPropertyOp53
 70
     1
102
RTVSPropertyOp54
 70
     1
102
RTVSPropertyOp55
 70
     1
102
RTVSPropertyOp56
 70
     1
102
RTVSPropertyOp57
 70
     1
102
RTVSPost2010Prop28
280
     0
102
RTVSPost2010PropOp28
 70
     1
102
RTVSPost2010Prop29
280
     1
102
RTVSPost2010PropOp29
 70
     1
102
RTVSPost2010Prop30
280
     1
102
RTVSPost2010PropOp30
 70
     1
102
RTVSPost2010Prop31
280
     0
102
RTVSPost2010PropOp31
 70
     1
102
RTVSPost2010Prop32
280
     0
102
RTVSPost2010PropOp32
 70
     1
102
RTVSPost2010Prop33
280
     0
102
RTVSPost2010PropOp33
 70
     1
102
RTVSPost2010Prop34
280
     0
102
RTVSPost2010PropOp34
 70
     1
102
RTVSPost2010Prop35
280
     0
102
RTVSPost2010PropOp35
 70
     1
102
RTVSPost2010Prop36
280
     0
102
RTVSPost2010PropOp36
 70
     1
102
RTVSPost2010Prop37
 90
       50
102
RTVSPost2010PropOp37
 70
     1
102
RTVSPost2010Prop38
140
0.0
102
RTVSPost2010PropOp38
 70
     1
102
RTVSPost2010Prop39
140
1.0
102
RTVSPost2010PropOp39
 70
     1
102
RTVSPost2010Prop40
 90
        0
102
RTVSPost2010PropOp40
 70
     1
102
RTVSPost2010Prop41ColorIndex
 90
       18
102
RTVSPost2010Prop41ColorRGB
 90
        0
102
RTVSPost2010PropOp41
 70
     1
102
RTVSPost2010Prop42
 90
       50
102
RTVSPost2010PropOp42
 70
     1
102
RTVSPost2010Prop43
 90
        3
102
RTVSPost2010PropOp43
 70
     1
102
RTVSPost2010Prop44ColorIndex
 90
        5
102
RTVSPost2010Prop44ColorRGB
 90
      255
102
RTVSPost2010PropOp44
 70
     1
102
RTVSPost2010Prop45
280
     0
102
RTVSPost2010PropOp45
 70
     1
102
RTVSPost2010Prop46
 90
       50
102
RTVSPost2010PropOp46
 70
     1
102
RTVSPost2010Prop47
 90
       50
102
RTVSPost2010PropOp47
 70
     1
102
RTVSPost2010Prop48
 90
       50
102
RTVSPost2010PropOp48
 70
     1
102
RTVSPost2010Prop49
280
     0
102
RTVSPost2010PropOp49
 70
     1
102
RTVSPost2010Prop50
 90
       50
102
RTVSPost2010PropOp50
 70
     1
102
RTVSPost2010Prop51ColorIndex
 90
      256
102
RTVSPost2010Prop51ColorRGB
 90
-16777216
102
RTVSPost2010PropOp51
 70
     0
102
RTVSPost2010Prop52
140
1.0
102
RTVSPost2010PropOp52
 70
     0
102
RTVSPost2010Prop53
 90
        2
102
RTVSPost2010PropOp53
 70
     1
102
RTVSPost2010Prop54
  1
strokes_ogs.tif
102
RTVSPost2010PropOp54
 70
     1
102
RTVSPost2010Prop55
280
     0
102
RTVSPost2010PropOp55
 70
     1
102
RTVSPost2010Prop56
140
1.0
102
RTVSPost2010PropOp56
 70
     1
102
RTVSPost2010Prop57
140
1.0
102
RTVSPost2010PropOp57
 70
     1
  0
XRECORD
  5
2E0
102
{ACAD_REACTORS
330
2DF
102
}
330
2DF
100
AcDbXrecord
280
     1
102
RTVSPropertyOp0
 70
     1
102
RTVSPropertyOp1
 70
     1
102
RTVSPropertyOp2
 70
     1
102
RTVSPropertyOp3
 70
     1
102
RTVSPropertyOp4
 70
     1
102
RTVSPropertyOp5
 70
     1
102
RTVSPropertyOp6
 70
     1
102
RTVSPropertyOp7
 70
     1
102
RTVSPropertyOp8
 70
     1
102
RTVSPropertyOp9
 70
     1
102
RTVSPropertyOp10
 70
     1
102
RTVSPropertyOp11
 70
     1
102
RTVSPropertyOp12
 70
     1
102
RTVSPropertyOp13
 70
     1
102
RTVSPropertyOp14
 70
     1
102
RTVSPropertyOp15
 70
     1
102
RTVSPropertyOp16
 70
     1
102
RTVSPropertyOp17
 70
     1
102
RTVSPropertyOp18
 70
     1
102
RTVSPropertyOp19
 70
     1
102
RTVSPropertyOp20
 70
     1
102
RTVSPropertyOp21
 70
     1
102
RTVSPropertyOp22
 70
     1
102
RTVSPropertyOp23
 70
     1
102
RTVSPropertyOp24
 70
     1
102
RTVSPropertyOp25
 70
     1
102
RTVSPropertyOp26
 70
     1
102
RTVSPropertyOp27
 70
     1
102
RTVSPropertyOp28
 70
     1
102
RTVSPropertyOp29
 70
     1
102
RTVSPropertyOp30
 70
     1
102
RTVSPropertyOp31
 70
     1
102
RTVSPropertyOp32
 70
     1
102
RTVSPropertyOp33
 70
     1
102
RTVSPropertyOp34
 70
     1
102
RTVSPropertyOp35
 70
     1
102
RTVSPropertyOp36
 70
     1
102
RTVSPropertyOp37
 70
     1
102
RTVSPropertyOp38
 70
     1
102
RTVSPropertyOp39
 70
     1
102
RTVSPropertyOp40
 70
     1
102
RTVSPropertyOp41
 70
     1
102
RTVSPropertyOp42
 70
     1
102
RTVSPropertyOp43
 70
     1
102
RTVSPropertyOp44
 70
     1
102
RTVSPropertyOp45
 70
     1
102
RTVSPropertyOp46
 70
     1
102
RTVSPropertyOp47
 70
     1
102
RTVSPropertyOp48
 70
     1
102
RTVSPropertyOp49
 70
     1
102
RTVSPropertyOp50
 70
     1
102
RTVSPropertyOp51
 70
     0
102
RTVSPropertyOp52
 70
     0
102
RTVSPropertyOp53
 70
     1
102
RTVSPropertyOp54
 70
     1
102
RTVSPropertyOp55
 70
     1
102
RTVSPropertyOp56
 70
     1
102
RTVSPropertyOp57
 70
     1
102
RTVSPost2010Prop28
280
     0
102
RTVSPost2010PropOp28
 70
     1
102
RTVSPost2010Prop29
280
     1
102
RTVSPost2010PropOp29
 70
     1
102
RTVSPost2010Prop30
280
     1
102
RTVSPost2010PropOp30
 70
     1
102
RTVSPost2010Prop31
280
     0
102
RTVSPost2010PropOp31
 70
     1
102
RTVSPost2010Prop32
280
     0
102
RTVSPost2010PropOp32
 70
     1
102
RTVSPost2010Prop33
280
     0
102
RTVSPost2010PropOp33
 70
     1
102
RTVSPost2010Prop34
280
     0
102
RTVSPost2010PropOp34
 70
     1
102
RTVSPost2010Prop35
280
     0
102
RTVSPost2010PropOp35
 70
     1
102
RTVSPost2010Prop36
280
     0
102
RTVSPost2010PropOp36
 70
     1
102
RTVSPost2010Prop37
 90
       50
102
RTVSPost2010PropOp37
 70
     1
102
RTVSPost2010Prop38
140
0.0
102
RTVSPost2010PropOp38
 70
     1
102
RTVSPost2010Prop39
140
1.0
102
RTVSPost2010PropOp39
 70
     1
102
RTVSPost2010Prop40
 90
        0
102
RTVSPost2010PropOp40
 70
     1
102
RTVSPost2010Prop41ColorIndex
 90
       18
102
RTVSPost2010Prop41ColorRGB
 90
        0
102
RTVSPost2010PropOp41
 70
     1
102
RTVSPost2010Prop42
 90
       50
102
RTVSPost2010PropOp42
 70
     1
102
RTVSPost2010Prop43
 90
        3
102
RTVSPost2010PropOp43
 70
     1
102
RTVSPost2010Prop44ColorIndex
 90
        5
102
RTVSPost2010Prop44ColorRGB
 90
      255
102
RTVSPost2010PropOp44
 70
     1
102
RTVSPost2010Prop45
280
     0
102
RTVSPost2010PropOp45
 70
     1
102
RTVSPost2010Prop46
 90
       50
102
RTVSPost2010PropOp46
 70
     1
102
RTVSPost2010Prop47
 90
       50
102
RTVSPost2010PropOp47
 70
     1
102
RTVSPost2010Prop48
 90
       50
102
RTVSPost2010PropOp48
 70
     1
102
RTVSPost2010Prop49
280
     0
102
RTVSPost2010PropOp49
 70
     1
102
RTVSPost2010Prop50
 90
       50
102
RTVSPost2010PropOp50
 70
     1
102
RTVSPost2010Prop51ColorIndex
 90
      256
102
RTVSPost2010Prop51ColorRGB
 90
-16777216
102
RTVSPost2010PropOp51
 70
     0
102
RTVSPost2010Prop52
140
1.0
102
RTVSPost2010PropOp52
 70
     0
102
RTVSPost2010Prop53
 90
        2
102
RTVSPost2010PropOp53
 70
     1
102
RTVSPost2010Prop54
  1
strokes_ogs.tif
102
RTVSPost2010PropOp54
 70
     1
102
RTVSPost2010Prop55
280
     0
102
RTVSPost2010PropOp55
 70
     1
102
RTVSPost2010Prop56
140
1.0
102
RTVSPost2010PropOp56
 70
     1
102
RTVSPost2010Prop57
140
1.0
102
RTVSPost2010PropOp57
 70
     1
  0
XRECORD
  5
2E2
102
{ACAD_REACTORS
330
2E1
102
}
330
2E1
100
AcDbXrecord
280
     1
102
RTVSPropertyOp0
 70
     1
102
RTVSPropertyOp1
 70
     1
102
RTVSPropertyOp2
 70
     1
102
RTVSPropertyOp3
 70
     1
102
RTVSPropertyOp4
 70
     1
102
RTVSPropertyOp5
 70
     1
102
RTVSPropertyOp6
 70
     1
102
RTVSPropertyOp7
 70
     1
102
RTVSPropertyOp8
 70
     1
102
RTVSPropertyOp9
 70
     1
102
RTVSPropertyOp10
 70
     1
102
RTVSPropertyOp11
 70
     1
102
RTVSPropertyOp12
 70
     1
102
RTVSPropertyOp13
 70
     1
102
RTVSPropertyOp14
 70
     1
102
RTVSPropertyOp15
 70
     1
102
RTVSPropertyOp16
 70
     1
102
RTVSPropertyOp17
 70
     1
102
RTVSPropertyOp18
 70
     1
102
RTVSPropertyOp19
 70
     1
102
RTVSPropertyOp20
 70
     1
102
RTVSPropertyOp21
 70
     1
102
RTVSPropertyOp22
 70
     1
102
RTVSPropertyOp23
 70
     1
102
RTVSPropertyOp24
 70
     1
102
RTVSPropertyOp25
 70
     1
102
RTVSPropertyOp26
 70
     1
102
RTVSPropertyOp27
 70
     1
102
RTVSPropertyOp28
 70
     1
102
RTVSPropertyOp29
 70
     1
102
RTVSPropertyOp30
 70
     1
102
RTVSPropertyOp31
 70
     1
102
RTVSPropertyOp32
 70
     1
102
RTVSPropertyOp33
 70
     1
102
RTVSPropertyOp34
 70
     1
102
RTVSPropertyOp35
 70
     1
102
RTVSPropertyOp36
 70
     1
102
RTVSPropertyOp37
 70
     1
102
RTVSPropertyOp38
 70
     1
102
RTVSPropertyOp39
 70
     1
102
RTVSPropertyOp40
 70
     1
102
RTVSPropertyOp41
 70
     1
102
RTVSPropertyOp42
 70
     1
102
RTVSPropertyOp43
 70
     1
102
RTVSPropertyOp44
 70
     1
102
RTVSPropertyOp45
 70
     1
102
RTVSPropertyOp46
 70
     1
102
RTVSPropertyOp47
 70
     1
102
RTVSPropertyOp48
 70
     1
102
RTVSPropertyOp49
 70
     1
102
RTVSPropertyOp50
 70
     1
102
RTVSPropertyOp51
 70
     0
102
RTVSPropertyOp52
 70
     0
102
RTVSPropertyOp53
 70
     1
102
RTVSPropertyOp54
 70
     1
102
RTVSPropertyOp55
 70
     1
102
RTVSPropertyOp56
 70
     1
102
RTVSPropertyOp57
 70
     1
102
RTVSPost2010Prop28
280
     0
102
RTVSPost2010PropOp28
 70
     1
102
RTVSPost2010Prop29
280
     1
102
RTVSPost2010PropOp29
 70
     1
102
RTVSPost2010Prop30
280
     1
102
RTVSPost2010PropOp30
 70
     1
102
RTVSPost2010Prop31
280
     0
102
RTVSPost2010PropOp31
 70
     1
102
RTVSPost2010Prop32
280
     0
102
RTVSPost2010PropOp32
 70
     1
102
RTVSPost2010Prop33
280
     0
102
RTVSPost2010PropOp33
 70
     1
102
RTVSPost2010Prop34
280
     0
102
RTVSPost2010PropOp34
 70
     1
102
RTVSPost2010Prop35
280
     0
102
RTVSPost2010PropOp35
 70
     1
102
RTVSPost2010Prop36
280
     0
102
RTVSPost2010PropOp36
 70
     1
102
RTVSPost2010Prop37
 90
       50
102
RTVSPost2010PropOp37
 70
     1
102
RTVSPost2010Prop38
140
0.0
102
RTVSPost2010PropOp38
 70
     1
102
RTVSPost2010Prop39
140
1.0
102
RTVSPost2010PropOp39
 70
     1
102
RTVSPost2010Prop40
 90
        0
102
RTVSPost2010PropOp40
 70
     1
102
RTVSPost2010Prop41ColorIndex
 90
       18
102
RTVSPost2010Prop41ColorRGB
 90
        0
102
RTVSPost2010PropOp41
 70
     1
102
RTVSPost2010Prop42
 90
       50
102
RTVSPost2010PropOp42
 70
     1
102
RTVSPost2010Prop43
 90
        3
102
RTVSPost2010PropOp43
 70
     1
102
RTVSPost2010Prop44ColorIndex
 90
        5
102
RTVSPost2010Prop44ColorRGB
 90
      255
102
RTVSPost2010PropOp44
 70
     1
102
RTVSPost2010Prop45
280
     0
102
RTVSPost2010PropOp45
 70
     1
102
RTVSPost2010Prop46
 90
       50
102
RTVSPost2010PropOp46
 70
     1
102
RTVSPost2010Prop47
 90
       50
102
RTVSPost2010PropOp47
 70
     1
102
RTVSPost2010Prop48
 90
       50
102
RTVSPost2010PropOp48
 70
     1
102
RTVSPost2010Prop49
280
     0
102
RTVSPost2010PropOp49
 70
     1
102
RTVSPost2010Prop50
 90
       50
102
RTVSPost2010PropOp50
 70
     1
102
RTVSPost2010Prop51ColorIndex
 90
      256
102
RTVSPost2010Prop51ColorRGB
 90
-16777216
102
RTVSPost2010PropOp51
 70
     0
102
RTVSPost2010Prop52
140
1.0
102
RTVSPost2010PropOp52
 70
     0
102
RTVSPost2010Prop53
 90
        2
102
RTVSPost2010PropOp53
 70
     1
102
RTVSPost2010Prop54
  1
strokes_ogs.tif
102
RTVSPost2010PropOp54
 70
     1
102
RTVSPost2010Prop55
280
     0
102
RTVSPost2010PropOp55
 70
     1
102
RTVSPost2010Prop56
140
1.0
102
RTVSPost2010PropOp56
 70
     1
102
RTVSPost2010Prop57
140
1.0
102
RTVSPost2010PropOp57
 70
     1
  0
XRECORD
  5
2E4
102
{ACAD_REACTORS
330
2E3
102
}
330
2E3
100
AcDbXrecord
280
     1
102
RTVSPropertyOp0
 70
     1
102
RTVSPropertyOp1
 70
     1
102
RTVSPropertyOp2
 70
     1
102
RTVSPropertyOp3
 70
     1
102
RTVSPropertyOp4
 70
     1
102
RTVSPropertyOp5
 70
     1
102
RTVSPropertyOp6
 70
     1
102
RTVSPropertyOp7
 70
     1
102
RTVSPropertyOp8
 70
     1
102
RTVSPropertyOp9
 70
     1
102
RTVSPropertyOp10
 70
     1
102
RTVSPropertyOp11
 70
     1
102
RTVSPropertyOp12
 70
     1
102
RTVSPropertyOp13
 70
     1
102
RTVSPropertyOp14
 70
     1
102
RTVSPropertyOp15
 70
     1
102
RTVSPropertyOp16
 70
     1
102
RTVSPropertyOp17
 70
     1
102
RTVSPropertyOp18
 70
     1
102
RTVSPropertyOp19
 70
     1
102
RTVSPropertyOp20
 70
     1
102
RTVSPropertyOp21
 70
     1
102
RTVSPropertyOp22
 70
     1
102
RTVSPropertyOp23
 70
     1
102
RTVSPropertyOp24
 70
     1
102
RTVSPropertyOp25
 70
     1
102
RTVSPropertyOp26
 70
     1
102
RTVSPropertyOp27
 70
     1
102
RTVSPropertyOp28
 70
     1
102
RTVSPropertyOp29
 70
     1
102
RTVSPropertyOp30
 70
     1
102
RTVSPropertyOp31
 70
     1
102
RTVSPropertyOp32
 70
     1
102
RTVSPropertyOp33
 70
     1
102
RTVSPropertyOp34
 70
     1
102
RTVSPropertyOp35
 70
     1
102
RTVSPropertyOp36
 70
     1
102
RTVSPropertyOp37
 70
     1
102
RTVSPropertyOp38
 70
     1
102
RTVSPropertyOp39
 70
     1
102
RTVSPropertyOp40
 70
     1
102
RTVSPropertyOp41
 70
     1
102
RTVSPropertyOp42
 70
     1
102
RTVSPropertyOp43
 70
     1
102
RTVSPropertyOp44
 70
     1
102
RTVSPropertyOp45
 70
     1
102
RTVSPropertyOp46
 70
     1
102
RTVSPropertyOp47
 70
     1
102
RTVSPropertyOp48
 70
     1
102
RTVSPropertyOp49
 70
     1
102
RTVSPropertyOp50
 70
     1
102
RTVSPropertyOp51
 70
     0
102
RTVSPropertyOp52
 70
     0
102
RTVSPropertyOp53
 70
     1
102
RTVSPropertyOp54
 70
     1
102
RTVSPropertyOp55
 70
     1
102
RTVSPropertyOp56
 70
     1
102
RTVSPropertyOp57
 70
     1
102
RTVSPost2010Prop28
280
     0
102
RTVSPost2010PropOp28
 70
     1
102
RTVSPost2010Prop29
280
     1
102
RTVSPost2010PropOp29
 70
     1
102
RTVSPost2010Prop30
280
     1
102
RTVSPost2010PropOp30
 70
     1
102
RTVSPost2010Prop31
280
     0
102
RTVSPost2010PropOp31
 70
     1
102
RTVSPost2010Prop32
280
     0
102
RTVSPost2010PropOp32
 70
     1
102
RTVSPost2010Prop33
280
     0
102
RTVSPost2010PropOp33
 70
     1
102
RTVSPost2010Prop34
280
     0
102
RTVSPost2010PropOp34
 70
     1
102
RTVSPost2010Prop35
280
     0
102
RTVSPost2010PropOp35
 70
     1
102
RTVSPost2010Prop36
280
     0
102
RTVSPost2010PropOp36
 70
     1
102
RTVSPost2010Prop37
 90
       50
102
RTVSPost2010PropOp37
 70
     1
102
RTVSPost2010Prop38
140
0.0
102
RTVSPost2010PropOp38
 70
     1
102
RTVSPost2010Prop39
140
1.0
102
RTVSPost2010PropOp39
 70
     1
102
RTVSPost2010Prop40
 90
        0
102
RTVSPost2010PropOp40
 70
     1
102
RTVSPost2010Prop41ColorIndex
 90
       18
102
RTVSPost2010Prop41ColorRGB
 90
        0
102
RTVSPost2010PropOp41
 70
     1
102
RTVSPost2010Prop42
 90
       50
102
RTVSPost2010PropOp42
 70
     1
102
RTVSPost2010Prop43
 90
        3
102
RTVSPost2010PropOp43
 70
     1
102
RTVSPost2010Prop44ColorIndex
 90
        5
102
RTVSPost2010Prop44ColorRGB
 90
      255
102
RTVSPost2010PropOp44
 70
     1
102
RTVSPost2010Prop45
280
     0
102
RTVSPost2010PropOp45
 70
     1
102
RTVSPost2010Prop46
 90
       50
102
RTVSPost2010PropOp46
 70
     1
102
RTVSPost2010Prop47
 90
       50
102
RTVSPost2010PropOp47
 70
     1
102
RTVSPost2010Prop48
 90
       50
102
RTVSPost2010PropOp48
 70
     1
102
RTVSPost2010Prop49
280
     0
102
RTVSPost2010PropOp49
 70
     1
102
RTVSPost2010Prop50
 90
       50
102
RTVSPost2010PropOp50
 70
     1
102
RTVSPost2010Prop51ColorIndex
 90
      256
102
RTVSPost2010Prop51ColorRGB
 90
-16777216
102
RTVSPost2010PropOp51
 70
     0
102
RTVSPost2010Prop52
140
1.0
102
RTVSPost2010PropOp52
 70
     0
102
RTVSPost2010Prop53
 90
        2
102
RTVSPost2010PropOp53
 70
     1
102
RTVSPost2010Prop54
  1
strokes_ogs.tif
102
RTVSPost2010PropOp54
 70
     1
102
RTVSPost2010Prop55
280
     0
102
RTVSPost2010PropOp55
 70
     1
102
RTVSPost2010Prop56
140
1.0
102
RTVSPost2010PropOp56
 70
     1
102
RTVSPost2010Prop57
140
1.0
102
RTVSPost2010PropOp57
 70
     1
  0
XRECORD
  5
2E6
102
{ACAD_REACTORS
330
2E5
102
}
330
2E5
100
AcDbXrecord
280
     1
102
RTVSPropertyOp0
 70
     1
102
RTVSPropertyOp1
 70
     1
102
RTVSPropertyOp2
 70
     1
102
RTVSPropertyOp3
 70
     1
102
RTVSPropertyOp4
 70
     1
102
RTVSPropertyOp5
 70
     1
102
RTVSPropertyOp6
 70
     1
102
RTVSPropertyOp7
 70
     1
102
RTVSPropertyOp8
 70
     1
102
RTVSPropertyOp9
 70
     1
102
RTVSPropertyOp10
 70
     1
102
RTVSPropertyOp11
 70
     1
102
RTVSPropertyOp12
 70
     1
102
RTVSPropertyOp13
 70
     1
102
RTVSPropertyOp14
 70
     1
102
RTVSPropertyOp15
 70
     1
102
RTVSPropertyOp16
 70
     1
102
RTVSPropertyOp17
 70
     1
102
RTVSPropertyOp18
 70
     1
102
RTVSPropertyOp19
 70
     1
102
RTVSPropertyOp20
 70
     1
102
RTVSPropertyOp21
 70
     1
102
RTVSPropertyOp22
 70
     1
102
RTVSPropertyOp23
 70
     1
102
RTVSPropertyOp24
 70
     1
102
RTVSPropertyOp25
 70
     1
102
RTVSPropertyOp26
 70
     1
102
RTVSPropertyOp27
 70
     1
102
RTVSPropertyOp28
 70
     1
102
RTVSPropertyOp29
 70
     1
102
RTVSPropertyOp30
 70
     1
102
RTVSPropertyOp31
 70
     1
102
RTVSPropertyOp32
 70
     1
102
RTVSPropertyOp33
 70
     1
102
RTVSPropertyOp34
 70
     1
102
RTVSPropertyOp35
 70
     1
102
RTVSPropertyOp36
 70
     1
102
RTVSPropertyOp37
 70
     1
102
RTVSPropertyOp38
 70
     1
102
RTVSPropertyOp39
 70
     1
102
RTVSPropertyOp40
 70
     1
102
RTVSPropertyOp41
 70
     1
102
RTVSPropertyOp42
 70
     1
102
RTVSPropertyOp43
 70
     1
102
RTVSPropertyOp44
 70
     1
102
RTVSPropertyOp45
 70
     1
102
RTVSPropertyOp46
 70
     1
102
RTVSPropertyOp47
 70
     1
102
RTVSPropertyOp48
 70
     1
102
RTVSPropertyOp49
 70
     1
102
RTVSPropertyOp50
 70
     1
102
RTVSPropertyOp51
 70
     0
102
RTVSPropertyOp52
 70
     0
102
RTVSPropertyOp53
 70
     1
102
RTVSPropertyOp54
 70
     1
102
RTVSPropertyOp55
 70
     1
102
RTVSPropertyOp56
 70
     1
102
RTVSPropertyOp57
 70
     1
102
RTVSPost2010Prop28
280
     0
102
RTVSPost2010PropOp28
 70
     1
102
RTVSPost2010Prop29
280
     1
102
RTVSPost2010PropOp29
 70
     1
102
RTVSPost2010Prop30
280
     1
102
RTVSPost2010PropOp30
 70
     1
102
RTVSPost2010Prop31
280
     0
102
RTVSPost2010PropOp31
 70
     1
102
RTVSPost2010Prop32
280
     0
102
RTVSPost2010PropOp32
 70
     1
102
RTVSPost2010Prop33
280
     0
102
RTVSPost2010PropOp33
 70
     1
102
RTVSPost2010Prop34
280
     0
102
RTVSPost2010PropOp34
 70
     1
102
RTVSPost2010Prop35
280
     0
102
RTVSPost2010PropOp35
 70
     1
102
RTVSPost2010Prop36
280
     0
102
RTVSPost2010PropOp36
 70
     1
102
RTVSPost2010Prop37
 90
       50
102
RTVSPost2010PropOp37
 70
     1
102
RTVSPost2010Prop38
140
0.0
102
RTVSPost2010PropOp38
 70
     1
102
RTVSPost2010Prop39
140
1.0
102
RTVSPost2010PropOp39
 70
     1
102
RTVSPost2010Prop40
 90
        0
102
RTVSPost2010PropOp40
 70
     1
102
RTVSPost2010Prop41ColorIndex
 90
       18
102
RTVSPost2010Prop41ColorRGB
 90
        0
102
RTVSPost2010PropOp41
 70
     1
102
RTVSPost2010Prop42
 90
       50
102
RTVSPost2010PropOp42
 70
     1
102
RTVSPost2010Prop43
 90
        3
102
RTVSPost2010PropOp43
 70
     1
102
RTVSPost2010Prop44ColorIndex
 90
        5
102
RTVSPost2010Prop44ColorRGB
 90
      255
102
RTVSPost2010PropOp44
 70
     1
102
RTVSPost2010Prop45
280
     0
102
RTVSPost2010PropOp45
 70
     1
102
RTVSPost2010Prop46
 90
       50
102
RTVSPost2010PropOp46
 70
     1
102
RTVSPost2010Prop47
 90
       50
102
RTVSPost2010PropOp47
 70
     1
102
RTVSPost2010Prop48
 90
       50
102
RTVSPost2010PropOp48
 70
     1
102
RTVSPost2010Prop49
280
     0
102
RTVSPost2010PropOp49
 70
     1
102
RTVSPost2010Prop50
 90
       50
102
RTVSPost2010PropOp50
 70
     1
102
RTVSPost2010Prop51ColorIndex
 90
      256
102
RTVSPost2010Prop51ColorRGB
 90
-16777216
102
RTVSPost2010PropOp51
 70
     0
102
RTVSPost2010Prop52
140
1.0
102
RTVSPost2010PropOp52
 70
     0
102
RTVSPost2010Prop53
 90
        2
102
RTVSPost2010PropOp53
 70
     1
102
RTVSPost2010Prop54
  1
strokes_ogs.tif
102
RTVSPost2010PropOp54
 70
     1
102
RTVSPost2010Prop55
280
     0
102
RTVSPost2010PropOp55
 70
     1
102
RTVSPost2010Prop56
140
1.0
102
RTVSPost2010PropOp56
 70
     1
102
RTVSPost2010Prop57
140
1.0
102
RTVSPost2010PropOp57
 70
     1
  0
XRECORD
  5
2EC
102
{ACAD_REACTORS
330
2EB
102
}
330
2EB
100
AcDbXrecord
280
     1
102
RTVSPropertyOp0
 70
     1
102
RTVSPropertyOp1
 70
     1
102
RTVSPropertyOp2
 70
     1
102
RTVSPropertyOp3
 70
     1
102
RTVSPropertyOp4
 70
     1
102
RTVSPropertyOp5
 70
     1
102
RTVSPropertyOp6
 70
     1
102
RTVSPropertyOp7
 70
     1
102
RTVSPropertyOp8
 70
     1
102
RTVSPropertyOp9
 70
     1
102
RTVSPropertyOp10
 70
     1
102
RTVSPropertyOp11
 70
     1
102
RTVSPropertyOp12
 70
     1
102
RTVSPropertyOp13
 70
     1
102
RTVSPropertyOp14
 70
     1
102
RTVSPropertyOp15
 70
     1
102
RTVSPropertyOp16
 70
     1
102
RTVSPropertyOp17
 70
     1
102
RTVSPropertyOp18
 70
     1
102
RTVSPropertyOp19
 70
     1
102
RTVSPropertyOp20
 70
     1
102
RTVSPropertyOp21
 70
     1
102
RTVSPropertyOp22
 70
     1
102
RTVSPropertyOp23
 70
     1
102
RTVSPropertyOp24
 70
     1
102
RTVSPropertyOp25
 70
     1
102
RTVSPropertyOp26
 70
     1
102
RTVSPropertyOp27
 70
     1
102
RTVSPropertyOp28
 70
     1
102
RTVSPropertyOp29
 70
     1
102
RTVSPropertyOp30
 70
     1
102
RTVSPropertyOp31
 70
     1
102
RTVSPropertyOp32
 70
     1
102
RTVSPropertyOp33
 70
     1
102
RTVSPropertyOp34
 70
     1
102
RTVSPropertyOp35
 70
     1
102
RTVSPropertyOp36
 70
     1
102
RTVSPropertyOp37
 70
     1
102
RTVSPropertyOp38
 70
     1
102
RTVSPropertyOp39
 70
     1
102
RTVSPropertyOp40
 70
     1
102
RTVSPropertyOp41
 70
     1
102
RTVSPropertyOp42
 70
     1
102
RTVSPropertyOp43
 70
     1
102
RTVSPropertyOp44
 70
     1
102
RTVSPropertyOp45
 70
     1
102
RTVSPropertyOp46
 70
     1
102
RTVSPropertyOp47
 70
     1
102
RTVSPropertyOp48
 70
     1
102
RTVSPropertyOp49
 70
     1
102
RTVSPropertyOp50
 70
     1
102
RTVSPropertyOp51
 70
     0
102
RTVSPropertyOp52
 70
     0
102
RTVSPropertyOp53
 70
     1
102
RTVSPropertyOp54
 70
     1
102
RTVSPropertyOp55
 70
     1
102
RTVSPropertyOp56
 70
     1
102
RTVSPropertyOp57
 70
     1
102
RTVSPost2010Prop28
280
     0
102
RTVSPost2010PropOp28
 70
     1
102
RTVSPost2010Prop29
280
     1
102
RTVSPost2010PropOp29
 70
     1
102
RTVSPost2010Prop30
280
     1
102
RTVSPost2010PropOp30
 70
     1
102
RTVSPost2010Prop31
280
     0
102
RTVSPost2010PropOp31
 70
     1
102
RTVSPost2010Prop32
280
     0
102
RTVSPost2010PropOp32
 70
     1
102
RTVSPost2010Prop33
280
     0
102
RTVSPost2010PropOp33
 70
     1
102
RTVSPost2010Prop34
280
     0
102
RTVSPost2010PropOp34
 70
     1
102
RTVSPost2010Prop35
280
     0
102
RTVSPost2010PropOp35
 70
     1
102
RTVSPost2010Prop36
280
     0
102
RTVSPost2010PropOp36
 70
     1
102
RTVSPost2010Prop37
 90
       50
102
RTVSPost2010PropOp37
 70
     1
102
RTVSPost2010Prop38
140
0.0
102
RTVSPost2010PropOp38
 70
     1
102
RTVSPost2010Prop39
140
1.0
102
RTVSPost2010PropOp39
 70
     1
102
RTVSPost2010Prop40
 90
        0
102
RTVSPost2010PropOp40
 70
     1
102
RTVSPost2010Prop41ColorIndex
 90
       18
102
RTVSPost2010Prop41ColorRGB
 90
        0
102
RTVSPost2010PropOp41
 70
     1
102
RTVSPost2010Prop42
 90
       50
102
RTVSPost2010PropOp42
 70
     1
102
RTVSPost2010Prop43
 90
        3
102
RTVSPost2010PropOp43
 70
     1
102
RTVSPost2010Prop44ColorIndex
 90
        5
102
RTVSPost2010Prop44ColorRGB
 90
      255
102
RTVSPost2010PropOp44
 70
     1
102
RTVSPost2010Prop45
280
     0
102
RTVSPost2010PropOp45
 70
     1
102
RTVSPost2010Prop46
 90
       50
102
RTVSPost2010PropOp46
 70
     1
102
RTVSPost2010Prop47
 90
       50
102
RTVSPost2010PropOp47
 70
     1
102
RTVSPost2010Prop48
 90
       50
102
RTVSPost2010PropOp48
 70
     1
102
RTVSPost2010Prop49
280
     0
102
RTVSPost2010PropOp49
 70
     1
102
RTVSPost2010Prop50
 90
       50
102
RTVSPost2010PropOp50
 70
     1
102
RTVSPost2010Prop51ColorIndex
 90
      256
102
RTVSPost2010Prop51ColorRGB
 90
-16777216
102
RTVSPost2010PropOp51
 70
     0
102
RTVSPost2010Prop52
140
1.0
102
RTVSPost2010PropOp52
 70
     0
102
RTVSPost2010Prop53
 90
        2
102
RTVSPost2010PropOp53
 70
     1
102
RTVSPost2010Prop54
  1
strokes_ogs.tif
102
RTVSPost2010PropOp54
 70
     1
102
RTVSPost2010Prop55
280
     0
102
RTVSPost2010PropOp55
 70
     1
102
RTVSPost2010Prop56
140
1.0
102
RTVSPost2010PropOp56
 70
     1
102
RTVSPost2010Prop57
140
1.0
102
RTVSPost2010PropOp57
 70
     1
  0
XRECORD
  5
300
102
{ACAD_REACTORS
330
2FF
102
}
330
2FF
100
AcDbXrecord
280
     1
102
RTVSPropertyOp0
 70
     0
102
RTVSPropertyOp1
 70
     0
102
RTVSPropertyOp2
 70
     0
102
RTVSPropertyOp3
 70
     0
102
RTVSPropertyOp4
 70
     0
102
RTVSPropertyOp5
 70
     0
102
RTVSPropertyOp6
 70
     0
102
RTVSPropertyOp7
 70
     0
102
RTVSPropertyOp8
 70
     0
102
RTVSPropertyOp9
 70
     0
102
RTVSPropertyOp10
 70
     0
102
RTVSPropertyOp11
 70
     0
102
RTVSPropertyOp12
 70
     0
102
RTVSPropertyOp13
 70
     0
102
RTVSPropertyOp14
 70
     2
102
RTVSPropertyOp15
 70
     0
102
RTVSPropertyOp16
 70
     0
102
RTVSPropertyOp17
 70
     0
102
RTVSPropertyOp18
 70
     0
102
RTVSPropertyOp19
 70
     0
102
RTVSPropertyOp20
 70
     0
102
RTVSPropertyOp21
 70
     0
102
RTVSPropertyOp22
 70
     0
102
RTVSPropertyOp23
 70
     0
102
RTVSPropertyOp24
 70
     0
102
RTVSPropertyOp25
 70
     0
102
RTVSPropertyOp26
 70
     0
102
RTVSPropertyOp27
 70
     0
102
RTVSPropertyOp28
 70
     0
102
RTVSPropertyOp29
 70
     0
102
RTVSPropertyOp30
 70
     0
102
RTVSPropertyOp31
 70
     0
102
RTVSPropertyOp32
 70
     0
102
RTVSPropertyOp33
 70
     0
102
RTVSPropertyOp34
 70
     0
102
RTVSPropertyOp35
 70
     0
102
RTVSPropertyOp36
 70
     0
102
RTVSPropertyOp37
 70
     0
102
RTVSPropertyOp38
 70
     0
102
RTVSPropertyOp39
 70
     0
102
RTVSPropertyOp40
 70
     0
102
RTVSPropertyOp41
 70
     0
102
RTVSPropertyOp42
 70
     0
102
RTVSPropertyOp43
 70
     0
102
RTVSPropertyOp44
 70
     0
102
RTVSPropertyOp45
 70
     0
102
RTVSPropertyOp46
 70
     0
102
RTVSPropertyOp47
 70
     0
102
RTVSPropertyOp48
 70
     0
102
RTVSPropertyOp49
 70
     0
102
RTVSPropertyOp50
 70
     0
102
RTVSPropertyOp51
 70
     0
102
RTVSPropertyOp52
 70
     0
102
RTVSPropertyOp53
 70
     0
102
RTVSPropertyOp54
 70
     0
102
RTVSPropertyOp55
 70
     0
102
RTVSPropertyOp56
 70
     0
102
RTVSPropertyOp57
 70
     0
102
RTVSPost2010Prop28
280
     0
102
RTVSPost2010PropOp28
 70
     0
102
RTVSPost2010Prop29
280
     1
102
RTVSPost2010PropOp29
 70
     0
102
RTVSPost2010Prop30
280
     1
102
RTVSPost2010PropOp30
 70
     0
102
RTVSPost2010Prop31
280
     0
102
RTVSPost2010PropOp31
 70
     0
102
RTVSPost2010Prop32
280
     0
102
RTVSPost2010PropOp32
 70
     0
102
RTVSPost2010Prop33
280
     0
102
RTVSPost2010PropOp33
 70
     0
102
RTVSPost2010Prop34
280
     0
102
RTVSPost2010PropOp34
 70
     0
102
RTVSPost2010Prop35
280
     0
102
RTVSPost2010PropOp35
 70
     0
102
RTVSPost2010Prop36
280
     0
102
RTVSPost2010PropOp36
 70
     0
102
RTVSPost2010Prop37
 90
       50
102
RTVSPost2010PropOp37
 70
     0
102
RTVSPost2010Prop38
140
0.0
102
RTVSPost2010PropOp38
 70
     0
102
RTVSPost2010Prop39
140
1.0
102
RTVSPost2010PropOp39
 70
     0
102
RTVSPost2010Prop40
 90
        0
102
RTVSPost2010PropOp40
 70
     0
102
RTVSPost2010Prop41ColorIndex
 90
       18
102
RTVSPost2010Prop41ColorRGB
 90
        0
102
RTVSPost2010PropOp41
 70
     0
102
RTVSPost2010Prop42
 90
       50
102
RTVSPost2010PropOp42
 70
     0
102
RTVSPost2010Prop43
 90
        3
102
RTVSPost2010PropOp43
 70
     0
102
RTVSPost2010Prop44ColorIndex
 90
        5
102
RTVSPost2010Prop44ColorRGB
 90
      255
102
RTVSPost2010PropOp44
 70
     0
102
RTVSPost2010Prop45
280
     0
102
RTVSPost2010PropOp45
 70
     0
102
RTVSPost2010Prop46
 90
       50
102
RTVSPost2010PropOp46
 70
     0
102
RTVSPost2010Prop47
 90
       50
102
RTVSPost2010PropOp47
 70
     0
102
RTVSPost2010Prop48
 90
       50
102
RTVSPost2010PropOp48
 70
     0
102
RTVSPost2010Prop49
280
     0
102
RTVSPost2010PropOp49
 70
     0
102
RTVSPost2010Prop50
 90
       50
102
RTVSPost2010PropOp50
 70
     0
102
RTVSPost2010Prop51ColorIndex
 90
      256
102
RTVSPost2010Prop51ColorRGB
 90
-16777216
102
RTVSPost2010PropOp51
 70
     0
102
RTVSPost2010Prop52
140
1.0
102
RTVSPost2010PropOp52
 70
     0
102
RTVSPost2010Prop53
 90
        2
102
RTVSPost2010PropOp53
 70
     0
102
RTVSPost2010Prop54
  1
strokes_ogs.tif
102
RTVSPost2010PropOp54
 70
     0
102
RTVSPost2010Prop55
280
     0
102
RTVSPost2010PropOp55
 70
     0
102
RTVSPost2010Prop56
140
1.0
102
RTVSPost2010PropOp56
 70
     0
102
RTVSPost2010Prop57
140
1.0
102
RTVSPost2010PropOp57
 70
     0
  0
XRECORD
  5
2FA
102
{ACAD_REACTORS
330
2F9
102
}
330
2F9
100
AcDbXrecord
280
     1
102
RTVSPropertyOp0
 70
     1
102
RTVSPropertyOp1
 70
     1
102
RTVSPropertyOp2
 70
     1
102
RTVSPropertyOp3
 70
     1
102
RTVSPropertyOp4
 70
     1
102
RTVSPropertyOp5
 70
     1
102
RTVSPropertyOp6
 70
     1
102
RTVSPropertyOp7
 70
     1
102
RTVSPropertyOp8
 70
     1
102
RTVSPropertyOp9
 70
     1
102
RTVSPropertyOp10
 70
     1
102
RTVSPropertyOp11
 70
     1
102
RTVSPropertyOp12
 70
     1
102
RTVSPropertyOp13
 70
     1
102
RTVSPropertyOp14
 70
     1
102
RTVSPropertyOp15
 70
     1
102
RTVSPropertyOp16
 70
     1
102
RTVSPropertyOp17
 70
     1
102
RTVSPropertyOp18
 70
     1
102
RTVSPropertyOp19
 70
     1
102
RTVSPropertyOp20
 70
     1
102
RTVSPropertyOp21
 70
     1
102
RTVSPropertyOp22
 70
     1
102
RTVSPropertyOp23
 70
     1
102
RTVSPropertyOp24
 70
     1
102
RTVSPropertyOp25
 70
     1
102
RTVSPropertyOp26
 70
     1
102
RTVSPropertyOp27
 70
     1
102
RTVSPropertyOp28
 70
     1
102
RTVSPropertyOp29
 70
     1
102
RTVSPropertyOp30
 70
     1
102
RTVSPropertyOp31
 70
     1
102
RTVSPropertyOp32
 70
     1
102
RTVSPropertyOp33
 70
     1
102
RTVSPropertyOp34
 70
     1
102
RTVSPropertyOp35
 70
     1
102
RTVSPropertyOp36
 70
     1
102
RTVSPropertyOp37
 70
     1
102
RTVSPropertyOp38
 70
     1
102
RTVSPropertyOp39
 70
     1
102
RTVSPropertyOp40
 70
     1
102
RTVSPropertyOp41
 70
     1
102
RTVSPropertyOp42
 70
     1
102
RTVSPropertyOp43
 70
     1
102
RTVSPropertyOp44
 70
     1
102
RTVSPropertyOp45
 70
     1
102
RTVSPropertyOp46
 70
     1
102
RTVSPropertyOp47
 70
     1
102
RTVSPropertyOp48
 70
     1
102
RTVSPropertyOp49
 70
     1
102
RTVSPropertyOp50
 70
     1
102
RTVSPropertyOp51
 70
     0
102
RTVSPropertyOp52
 70
     0
102
RTVSPropertyOp53
 70
     1
102
RTVSPropertyOp54
 70
     1
102
RTVSPropertyOp55
 70
     1
102
RTVSPropertyOp56
 70
     1
102
RTVSPropertyOp57
 70
     1
102
RTVSPost2010Prop28
280
     0
102
RTVSPost2010PropOp28
 70
     1
102
RTVSPost2010Prop29
280
     1
102
RTVSPost2010PropOp29
 70
     1
102
RTVSPost2010Prop30
280
     1
102
RTVSPost2010PropOp30
 70
     1
102
RTVSPost2010Prop31
280
     0
102
RTVSPost2010PropOp31
 70
     1
102
RTVSPost2010Prop32
280
     0
102
RTVSPost2010PropOp32
 70
     1
102
RTVSPost2010Prop33
280
     0
102
RTVSPost2010PropOp33
 70
     1
102
RTVSPost2010Prop34
280
     0
102
RTVSPost2010PropOp34
 70
     1
102
RTVSPost2010Prop35
280
     0
102
RTVSPost2010PropOp35
 70
     1
102
RTVSPost2010Prop36
280
     0
102
RTVSPost2010PropOp36
 70
     1
102
RTVSPost2010Prop37
 90
       50
102
RTVSPost2010PropOp37
 70
     1
102
RTVSPost2010Prop38
140
0.0
102
RTVSPost2010PropOp38
 70
     1
102
RTVSPost2010Prop39
140
1.0
102
RTVSPost2010PropOp39
 70
     1
102
RTVSPost2010Prop40
 90
        0
102
RTVSPost2010PropOp40
 70
     1
102
RTVSPost2010Prop41ColorIndex
 90
       18
102
RTVSPost2010Prop41ColorRGB
 90
        0
102
RTVSPost2010PropOp41
 70
     1
102
RTVSPost2010Prop42
 90
       50
102
RTVSPost2010PropOp42
 70
     1
102
RTVSPost2010Prop43
 90
        3
102
RTVSPost2010PropOp43
 70
     1
102
RTVSPost2010Prop44ColorIndex
 90
        5
102
RTVSPost2010Prop44ColorRGB
 90
      255
102
RTVSPost2010PropOp44
 70
     1
102
RTVSPost2010Prop45
280
     0
102
RTVSPost2010PropOp45
 70
     1
102
RTVSPost2010Prop46
 90
       50
102
RTVSPost2010PropOp46
 70
     1
102
RTVSPost2010Prop47
 90
       50
102
RTVSPost2010PropOp47
 70
     1
102
RTVSPost2010Prop48
 90
       50
102
RTVSPost2010PropOp48
 70
     1
102
RTVSPost2010Prop49
280
     0
102
RTVSPost2010PropOp49
 70
     1
102
RTVSPost2010Prop50
 90
       50
102
RTVSPost2010PropOp50
 70
     1
102
RTVSPost2010Prop51ColorIndex
 90
      256
102
RTVSPost2010Prop51ColorRGB
 90
-16777216
102
RTVSPost2010PropOp51
 70
     0
102
RTVSPost2010Prop52
140
1.0
102
RTVSPost2010PropOp52
 70
     0
102
RTVSPost2010Prop53
 90
        2
102
RTVSPost2010PropOp53
 70
     1
102
RTVSPost2010Prop54
  1
strokes_ogs.tif
102
RTVSPost2010PropOp54
 70
     1
102
RTVSPost2010Prop55
280
     0
102
RTVSPost2010PropOp55
 70
     1
102
RTVSPost2010Prop56
140
1.0
102
RTVSPost2010PropOp56
 70
     1
102
RTVSPost2010Prop57
140
1.0
102
RTVSPost2010PropOp57
 70
     1
  0
XRECORD
  5
302
102
{ACAD_REACTORS
330
301
102
}
330
301
100
AcDbXrecord
280
     1
102
RTVSPropertyOp0
 70
     0
102
RTVSPropertyOp1
 70
     0
102
RTVSPropertyOp2
 70
     0
102
RTVSPropertyOp3
 70
     0
102
RTVSPropertyOp4
 70
     0
102
RTVSPropertyOp5
 70
     0
102
RTVSPropertyOp6
 70
     0
102
RTVSPropertyOp7
 70
     0
102
RTVSPropertyOp8
 70
     0
102
RTVSPropertyOp9
 70
     0
102
RTVSPropertyOp10
 70
     0
102
RTVSPropertyOp11
 70
     0
102
RTVSPropertyOp12
 70
     0
102
RTVSPropertyOp13
 70
     0
102
RTVSPropertyOp14
 70
     2
102
RTVSPropertyOp15
 70
     0
102
RTVSPropertyOp16
 70
     0
102
RTVSPropertyOp17
 70
     0
102
RTVSPropertyOp18
 70
     0
102
RTVSPropertyOp19
 70
     0
102
RTVSPropertyOp20
 70
     0
102
RTVSPropertyOp21
 70
     0
102
RTVSPropertyOp22
 70
     0
102
RTVSPropertyOp23
 70
     0
102
RTVSPropertyOp24
 70
     0
102
RTVSPropertyOp25
 70
     0
102
RTVSPropertyOp26
 70
     0
102
RTVSPropertyOp27
 70
     0
102
RTVSPropertyOp28
 70
     0
102
RTVSPropertyOp29
 70
     0
102
RTVSPropertyOp30
 70
     0
102
RTVSPropertyOp31
 70
     0
102
RTVSPropertyOp32
 70
     0
102
RTVSPropertyOp33
 70
     0
102
RTVSPropertyOp34
 70
     0
102
RTVSPropertyOp35
 70
     0
102
RTVSPropertyOp36
 70
     0
102
RTVSPropertyOp37
 70
     0
102
RTVSPropertyOp38
 70
     0
102
RTVSPropertyOp39
 70
     0
102
RTVSPropertyOp40
 70
     0
102
RTVSPropertyOp41
 70
     0
102
RTVSPropertyOp42
 70
     0
102
RTVSPropertyOp43
 70
     0
102
RTVSPropertyOp44
 70
     0
102
RTVSPropertyOp45
 70
     0
102
RTVSPropertyOp46
 70
     0
102
RTVSPropertyOp47
 70
     0
102
RTVSPropertyOp48
 70
     0
102
RTVSPropertyOp49
 70
     0
102
RTVSPropertyOp50
 70
     0
102
RTVSPropertyOp51
 70
     0
102
RTVSPropertyOp52
 70
     0
102
RTVSPropertyOp53
 70
     0
102
RTVSPropertyOp54
 70
     0
102
RTVSPropertyOp55
 70
     0
102
RTVSPropertyOp56
 70
     0
102
RTVSPropertyOp57
 70
     0
102
RTVSPost2010Prop28
280
     0
102
RTVSPost2010PropOp28
 70
     0
102
RTVSPost2010Prop29
280
     1
102
RTVSPost2010PropOp29
 70
     0
102
RTVSPost2010Prop30
280
     1
102
RTVSPost2010PropOp30
 70
     0
102
RTVSPost2010Prop31
280
     0
102
RTVSPost2010PropOp31
 70
     0
102
RTVSPost2010Prop32
280
     0
102
RTVSPost2010PropOp32
 70
     0
102
RTVSPost2010Prop33
280
     0
102
RTVSPost2010PropOp33
 70
     0
102
RTVSPost2010Prop34
280
     0
102
RTVSPost2010PropOp34
 70
     0
102
RTVSPost2010Prop35
280
     0
102
RTVSPost2010PropOp35
 70
     0
102
RTVSPost2010Prop36
280
     0
102
RTVSPost2010PropOp36
 70
     0
102
RTVSPost2010Prop37
 90
       50
102
RTVSPost2010PropOp37
 70
     0
102
RTVSPost2010Prop38
140
0.0
102
RTVSPost2010PropOp38
 70
     0
102
RTVSPost2010Prop39
140
1.0
102
RTVSPost2010PropOp39
 70
     0
102
RTVSPost2010Prop40
 90
        0
102
RTVSPost2010PropOp40
 70
     0
102
RTVSPost2010Prop41ColorIndex
 90
       18
102
RTVSPost2010Prop41ColorRGB
 90
        0
102
RTVSPost2010PropOp41
 70
     0
102
RTVSPost2010Prop42
 90
       50
102
RTVSPost2010PropOp42
 70
     0
102
RTVSPost2010Prop43
 90
        3
102
RTVSPost2010PropOp43
 70
     0
102
RTVSPost2010Prop44ColorIndex
 90
        5
102
RTVSPost2010Prop44ColorRGB
 90
      255
102
RTVSPost2010PropOp44
 70
     0
102
RTVSPost2010Prop45
280
     0
102
RTVSPost2010PropOp45
 70
     0
102
RTVSPost2010Prop46
 90
       50
102
RTVSPost2010PropOp46
 70
     0
102
RTVSPost2010Prop47
 90
       50
102
RTVSPost2010PropOp47
 70
     0
102
RTVSPost2010Prop48
 90
       50
102
RTVSPost2010PropOp48
 70
     0
102
RTVSPost2010Prop49
280
     0
102
RTVSPost2010PropOp49
 70
     0
102
RTVSPost2010Prop50
 90
       50
102
RTVSPost2010PropOp50
 70
     0
102
RTVSPost2010Prop51ColorIndex
 90
      256
102
RTVSPost2010Prop51ColorRGB
 90
-16777216
102
RTVSPost2010PropOp51
 70
     0
102
RTVSPost2010Prop52
140
1.0
102
RTVSPost2010PropOp52
 70
     0
102
RTVSPost2010Prop53
 90
        2
102
RTVSPost2010PropOp53
 70
     0
102
RTVSPost2010Prop54
  1
strokes_ogs.tif
102
RTVSPost2010PropOp54
 70
     0
102
RTVSPost2010Prop55
280
     0
102
RTVSPost2010PropOp55
 70
     0
102
RTVSPost2010Prop56
140
1.0
102
RTVSPost2010PropOp56
 70
     0
102
RTVSPost2010Prop57
140
1.0
102
RTVSPost2010PropOp57
 70
     0
  0
XRECORD
  5
2F0
102
{ACAD_REACTORS
330
2EF
102
}
330
2EF
100
AcDbXrecord
280
     1
102
RTVSPropertyOp0
 70
     1
102
RTVSPropertyOp1
 70
     1
102
RTVSPropertyOp2
 70
     1
102
RTVSPropertyOp3
 70
     1
102
RTVSPropertyOp4
 70
     1
102
RTVSPropertyOp5
 70
     1
102
RTVSPropertyOp6
 70
     1
102
RTVSPropertyOp7
 70
     1
102
RTVSPropertyOp8
 70
     1
102
RTVSPropertyOp9
 70
     1
102
RTVSPropertyOp10
 70
     1
102
RTVSPropertyOp11
 70
     1
102
RTVSPropertyOp12
 70
     1
102
RTVSPropertyOp13
 70
     1
102
RTVSPropertyOp14
 70
     1
102
RTVSPropertyOp15
 70
     1
102
RTVSPropertyOp16
 70
     1
102
RTVSPropertyOp17
 70
     1
102
RTVSPropertyOp18
 70
     1
102
RTVSPropertyOp19
 70
     1
102
RTVSPropertyOp20
 70
     1
102
RTVSPropertyOp21
 70
     1
102
RTVSPropertyOp22
 70
     1
102
RTVSPropertyOp23
 70
     1
102
RTVSPropertyOp24
 70
     1
102
RTVSPropertyOp25
 70
     1
102
RTVSPropertyOp26
 70
     1
102
RTVSPropertyOp27
 70
     1
102
RTVSPropertyOp28
 70
     1
102
RTVSPropertyOp29
 70
     1
102
RTVSPropertyOp30
 70
     1
102
RTVSPropertyOp31
 70
     1
102
RTVSPropertyOp32
 70
     1
102
RTVSPropertyOp33
 70
     1
102
RTVSPropertyOp34
 70
     1
102
RTVSPropertyOp35
 70
     1
102
RTVSPropertyOp36
 70
     1
102
RTVSPropertyOp37
 70
     1
102
RTVSPropertyOp38
 70
     1
102
RTVSPropertyOp39
 70
     1
102
RTVSPropertyOp40
 70
     1
102
RTVSPropertyOp41
 70
     1
102
RTVSPropertyOp42
 70
     1
102
RTVSPropertyOp43
 70
     1
102
RTVSPropertyOp44
 70
     1
102
RTVSPropertyOp45
 70
     1
102
RTVSPropertyOp46
 70
     1
102
RTVSPropertyOp47
 70
     1
102
RTVSPropertyOp48
 70
     1
102
RTVSPropertyOp49
 70
     1
102
RTVSPropertyOp50
 70
     1
102
RTVSPropertyOp51
 70
     0
102
RTVSPropertyOp52
 70
     0
102
RTVSPropertyOp53
 70
     1
102
RTVSPropertyOp54
 70
     1
102
RTVSPropertyOp55
 70
     1
102
RTVSPropertyOp56
 70
     1
102
RTVSPropertyOp57
 70
     1
102
RTVSPost2010Prop28
280
     0
102
RTVSPost2010PropOp28
 70
     1
102
RTVSPost2010Prop29
280
     1
102
RTVSPost2010PropOp29
 70
     1
102
RTVSPost2010Prop30
280
     1
102
RTVSPost2010PropOp30
 70
     1
102
RTVSPost2010Prop31
280
     0
102
RTVSPost2010PropOp31
 70
     1
102
RTVSPost2010Prop32
280
     0
102
RTVSPost2010PropOp32
 70
     1
102
RTVSPost2010Prop33
280
     0
102
RTVSPost2010PropOp33
 70
     1
102
RTVSPost2010Prop34
280
     0
102
RTVSPost2010PropOp34
 70
     1
102
RTVSPost2010Prop35
280
     0
102
RTVSPost2010PropOp35
 70
     1
102
RTVSPost2010Prop36
280
     0
102
RTVSPost2010PropOp36
 70
     1
102
RTVSPost2010Prop37
 90
       50
102
RTVSPost2010PropOp37
 70
     1
102
RTVSPost2010Prop38
140
0.0
102
RTVSPost2010PropOp38
 70
     1
102
RTVSPost2010Prop39
140
1.0
102
RTVSPost2010PropOp39
 70
     1
102
RTVSPost2010Prop40
 90
        0
102
RTVSPost2010PropOp40
 70
     1
102
RTVSPost2010Prop41ColorIndex
 90
       18
102
RTVSPost2010Prop41ColorRGB
 90
        0
102
RTVSPost2010PropOp41
 70
     1
102
RTVSPost2010Prop42
 90
       50
102
RTVSPost2010PropOp42
 70
     1
102
RTVSPost2010Prop43
 90
        3
102
RTVSPost2010PropOp43
 70
     1
102
RTVSPost2010Prop44ColorIndex
 90
        5
102
RTVSPost2010Prop44ColorRGB
 90
      255
102
RTVSPost2010PropOp44
 70
     1
102
RTVSPost2010Prop45
280
     0
102
RTVSPost2010PropOp45
 70
     1
102
RTVSPost2010Prop46
 90
       50
102
RTVSPost2010PropOp46
 70
     1
102
RTVSPost2010Prop47
 90
       50
102
RTVSPost2010PropOp47
 70
     1
102
RTVSPost2010Prop48
 90
       50
102
RTVSPost2010PropOp48
 70
     1
102
RTVSPost2010Prop49
280
     0
102
RTVSPost2010PropOp49
 70
     1
102
RTVSPost2010Prop50
 90
       50
102
RTVSPost2010PropOp50
 70
     1
102
RTVSPost2010Prop51ColorIndex
 90
      256
102
RTVSPost2010Prop51ColorRGB
 90
-16777216
102
RTVSPost2010PropOp51
 70
     0
102
RTVSPost2010Prop52
140
1.0
102
RTVSPost2010PropOp52
 70
     0
102
RTVSPost2010Prop53
 90
        2
102
RTVSPost2010PropOp53
 70
     1
102
RTVSPost2010Prop54
  1
strokes_ogs.tif
102
RTVSPost2010PropOp54
 70
     1
102
RTVSPost2010Prop55
280
     0
102
RTVSPost2010PropOp55
 70
     1
102
RTVSPost2010Prop56
140
1.0
102
RTVSPost2010PropOp56
 70
     1
102
RTVSPost2010Prop57
140
1.0
102
RTVSPost2010PropOp57
 70
     1
  0
XRECORD
  5
30E
102
{ACAD_REACTORS
330
30D
102
}
330
30D
100
AcDbXrecord
280
     1
102
RTVSPropertyOp0
 70
     1
102
RTVSPropertyOp1
 70
     1
102
RTVSPropertyOp2
 70
     1
102
RTVSPropertyOp3
 70
     1
102
RTVSPropertyOp4
 70
     1
102
RTVSPropertyOp5
 70
     1
102
RTVSPropertyOp6
 70
     1
102
RTVSPropertyOp7
 70
     1
102
RTVSPropertyOp8
 70
     1
102
RTVSPropertyOp9
 70
     1
102
RTVSPropertyOp10
 70
     1
102
RTVSPropertyOp11
 70
     1
102
RTVSPropertyOp12
 70
     1
102
RTVSPropertyOp13
 70
     1
102
RTVSPropertyOp14
 70
     1
102
RTVSPropertyOp15
 70
     1
102
RTVSPropertyOp16
 70
     1
102
RTVSPropertyOp17
 70
     1
102
RTVSPropertyOp18
 70
     1
102
RTVSPropertyOp19
 70
     1
102
RTVSPropertyOp20
 70
     1
102
RTVSPropertyOp21
 70
     1
102
RTVSPropertyOp22
 70
     1
102
RTVSPropertyOp23
 70
     1
102
RTVSPropertyOp24
 70
     1
102
RTVSPropertyOp25
 70
     1
102
RTVSPropertyOp26
 70
     1
102
RTVSPropertyOp27
 70
     1
102
RTVSPropertyOp28
 70
     1
102
RTVSPropertyOp29
 70
     1
102
RTVSPropertyOp30
 70
     1
102
RTVSPropertyOp31
 70
     1
102
RTVSPropertyOp32
 70
     1
102
RTVSPropertyOp33
 70
     1
102
RTVSPropertyOp34
 70
     1
102
RTVSPropertyOp35
 70
     1
102
RTVSPropertyOp36
 70
     1
102
RTVSPropertyOp37
 70
     1
102
RTVSPropertyOp38
 70
     1
102
RTVSPropertyOp39
 70
     1
102
RTVSPropertyOp40
 70
     1
102
RTVSPropertyOp41
 70
     1
102
RTVSPropertyOp42
 70
     1
102
RTVSPropertyOp43
 70
     1
102
RTVSPropertyOp44
 70
     1
102
RTVSPropertyOp45
 70
     1
102
RTVSPropertyOp46
 70
     1
102
RTVSPropertyOp47
 70
     1
102
RTVSPropertyOp48
 70
     1
102
RTVSPropertyOp49
 70
     1
102
RTVSPropertyOp50
 70
     1
102
RTVSPropertyOp51
 70
     0
102
RTVSPropertyOp52
 70
     0
102
RTVSPropertyOp53
 70
     1
102
RTVSPropertyOp54
 70
     1
102
RTVSPropertyOp55
 70
     1
102
RTVSPropertyOp56
 70
     1
102
RTVSPropertyOp57
 70
     1
102
RTVSPost2010Prop28
280
     0
102
RTVSPost2010PropOp28
 70
     1
102
RTVSPost2010Prop29
280
     1
102
RTVSPost2010PropOp29
 70
     1
102
RTVSPost2010Prop30
280
     1
102
RTVSPost2010PropOp30
 70
     1
102
RTVSPost2010Prop31
280
     0
102
RTVSPost2010PropOp31
 70
     1
102
RTVSPost2010Prop32
280
     0
102
RTVSPost2010PropOp32
 70
     1
102
RTVSPost2010Prop33
280
     0
102
RTVSPost2010PropOp33
 70
     1
102
RTVSPost2010Prop34
280
     0
102
RTVSPost2010PropOp34
 70
     1
102
RTVSPost2010Prop35
280
     0
102
RTVSPost2010PropOp35
 70
     1
102
RTVSPost2010Prop36
280
     0
102
RTVSPost2010PropOp36
 70
     1
102
RTVSPost2010Prop37
 90
       50
102
RTVSPost2010PropOp37
 70
     1
102
RTVSPost2010Prop38
140
0.0
102
RTVSPost2010PropOp38
 70
     1
102
RTVSPost2010Prop39
140
1.0
102
RTVSPost2010PropOp39
 70
     1
102
RTVSPost2010Prop40
 90
        0
102
RTVSPost2010PropOp40
 70
     1
102
RTVSPost2010Prop41ColorIndex
 90
       18
102
RTVSPost2010Prop41ColorRGB
 90
        0
102
RTVSPost2010PropOp41
 70
     1
102
RTVSPost2010Prop42
 90
       50
102
RTVSPost2010PropOp42
 70
     1
102
RTVSPost2010Prop43
 90
        3
102
RTVSPost2010PropOp43
 70
     1
102
RTVSPost2010Prop44ColorIndex
 90
        5
102
RTVSPost2010Prop44ColorRGB
 90
      255
102
RTVSPost2010PropOp44
 70
     1
102
RTVSPost2010Prop45
280
     0
102
RTVSPost2010PropOp45
 70
     1
102
RTVSPost2010Prop46
 90
       50
102
RTVSPost2010PropOp46
 70
     1
102
RTVSPost2010Prop47
 90
       50
102
RTVSPost2010PropOp47
 70
     1
102
RTVSPost2010Prop48
 90
       50
102
RTVSPost2010PropOp48
 70
     1
102
RTVSPost2010Prop49
280
     0
102
RTVSPost2010PropOp49
 70
     1
102
RTVSPost2010Prop50
 90
       50
102
RTVSPost2010PropOp50
 70
     1
102
RTVSPost2010Prop51ColorIndex
 90
      256
102
RTVSPost2010Prop51ColorRGB
 90
-16777216
102
RTVSPost2010PropOp51
 70
     0
102
RTVSPost2010Prop52
140
1.0
102
RTVSPost2010PropOp52
 70
     0
102
RTVSPost2010Prop53
 90
        2
102
RTVSPost2010PropOp53
 70
     1
102
RTVSPost2010Prop54
  1
strokes_ogs.tif
102
RTVSPost2010PropOp54
 70
     1
102
RTVSPost2010Prop55
280
     0
102
RTVSPost2010PropOp55
 70
     1
102
RTVSPost2010Prop56
140
1.0
102
RTVSPost2010PropOp56
 70
     1
102
RTVSPost2010Prop57
140
1.0
102
RTVSPost2010PropOp57
 70
     1
  0
XRECORD
  5
30C
102
{ACAD_REACTORS
330
30B
102
}
330
30B
100
AcDbXrecord
280
     1
102
RTVSPropertyOp0
 70
     1
102
RTVSPropertyOp1
 70
     1
102
RTVSPropertyOp2
 70
     1
102
RTVSPropertyOp3
 70
     1
102
RTVSPropertyOp4
 70
     1
102
RTVSPropertyOp5
 70
     1
102
RTVSPropertyOp6
 70
     1
102
RTVSPropertyOp7
 70
     1
102
RTVSPropertyOp8
 70
     1
102
RTVSPropertyOp9
 70
     1
102
RTVSPropertyOp10
 70
     1
102
RTVSPropertyOp11
 70
     1
102
RTVSPropertyOp12
 70
     1
102
RTVSPropertyOp13
 70
     1
102
RTVSPropertyOp14
 70
     1
102
RTVSPropertyOp15
 70
     1
102
RTVSPropertyOp16
 70
     1
102
RTVSPropertyOp17
 70
     1
102
RTVSPropertyOp18
 70
     1
102
RTVSPropertyOp19
 70
     1
102
RTVSPropertyOp20
 70
     1
102
RTVSPropertyOp21
 70
     1
102
RTVSPropertyOp22
 70
     1
102
RTVSPropertyOp23
 70
     1
102
RTVSPropertyOp24
 70
     1
102
RTVSPropertyOp25
 70
     1
102
RTVSPropertyOp26
 70
     1
102
RTVSPropertyOp27
 70
     1
102
RTVSPropertyOp28
 70
     1
102
RTVSPropertyOp29
 70
     1
102
RTVSPropertyOp30
 70
     1
102
RTVSPropertyOp31
 70
     1
102
RTVSPropertyOp32
 70
     1
102
RTVSPropertyOp33
 70
     1
102
RTVSPropertyOp34
 70
     1
102
RTVSPropertyOp35
 70
     1
102
RTVSPropertyOp36
 70
     1
102
RTVSPropertyOp37
 70
     1
102
RTVSPropertyOp38
 70
     1
102
RTVSPropertyOp39
 70
     1
102
RTVSPropertyOp40
 70
     1
102
RTVSPropertyOp41
 70
     1
102
RTVSPropertyOp42
 70
     1
102
RTVSPropertyOp43
 70
     1
102
RTVSPropertyOp44
 70
     1
102
RTVSPropertyOp45
 70
     1
102
RTVSPropertyOp46
 70
     1
102
RTVSPropertyOp47
 70
     1
102
RTVSPropertyOp48
 70
     1
102
RTVSPropertyOp49
 70
     1
102
RTVSPropertyOp50
 70
     1
102
RTVSPropertyOp51
 70
     0
102
RTVSPropertyOp52
 70
     0
102
RTVSPropertyOp53
 70
     1
102
RTVSPropertyOp54
 70
     1
102
RTVSPropertyOp55
 70
     1
102
RTVSPropertyOp56
 70
     1
102
RTVSPropertyOp57
 70
     1
102
RTVSPost2010Prop28
280
     0
102
RTVSPost2010PropOp28
 70
     1
102
RTVSPost2010Prop29
280
     1
102
RTVSPost2010PropOp29
 70
     1
102
RTVSPost2010Prop30
280
     1
102
RTVSPost2010PropOp30
 70
     1
102
RTVSPost2010Prop31
280
     0
102
RTVSPost2010PropOp31
 70
     1
102
RTVSPost2010Prop32
280
     0
102
RTVSPost2010PropOp32
 70
     1
102
RTVSPost2010Prop33
280
     0
102
RTVSPost2010PropOp33
 70
     1
102
RTVSPost2010Prop34
280
     0
102
RTVSPost2010PropOp34
 70
     1
102
RTVSPost2010Prop35
280
     0
102
RTVSPost2010PropOp35
 70
     1
102
RTVSPost2010Prop36
280
     0
102
RTVSPost2010PropOp36
 70
     1
102
RTVSPost2010Prop37
 90
       50
102
RTVSPost2010PropOp37
 70
     1
102
RTVSPost2010Prop38
140
0.0
102
RTVSPost2010PropOp38
 70
     1
102
RTVSPost2010Prop39
140
1.0
102
RTVSPost2010PropOp39
 70
     1
102
RTVSPost2010Prop40
 90
        0
102
RTVSPost2010PropOp40
 70
     1
102
RTVSPost2010Prop41ColorIndex
 90
       18
102
RTVSPost2010Prop41ColorRGB
 90
        0
102
RTVSPost2010PropOp41
 70
     1
102
RTVSPost2010Prop42
 90
       50
102
RTVSPost2010PropOp42
 70
     1
102
RTVSPost2010Prop43
 90
        3
102
RTVSPost2010PropOp43
 70
     1
102
RTVSPost2010Prop44ColorIndex
 90
        5
102
RTVSPost2010Prop44ColorRGB
 90
      255
102
RTVSPost2010PropOp44
 70
     1
102
RTVSPost2010Prop45
280
     0
102
RTVSPost2010PropOp45
 70
     1
102
RTVSPost2010Prop46
 90
       50
102
RTVSPost2010PropOp46
 70
     1
102
RTVSPost2010Prop47
 90
       50
102
RTVSPost2010PropOp47
 70
     1
102
RTVSPost2010Prop48
 90
       50
102
RTVSPost2010PropOp48
 70
     1
102
RTVSPost2010Prop49
280
     0
102
RTVSPost2010PropOp49
 70
     1
102
RTVSPost2010Prop50
 90
       50
102
RTVSPost2010PropOp50
 70
     1
102
RTVSPost2010Prop51ColorIndex
 90
      256
102
RTVSPost2010Prop51ColorRGB
 90
-16777216
102
RTVSPost2010PropOp51
 70
     0
102
RTVSPost2010Prop52
140
1.0
102
RTVSPost2010PropOp52
 70
     0
102
RTVSPost2010Prop53
 90
        2
102
RTVSPost2010PropOp53
 70
     1
102
RTVSPost2010Prop54
  1
strokes_ogs.tif
102
RTVSPost2010PropOp54
 70
     1
102
RTVSPost2010Prop55
280
     0
102
RTVSPost2010PropOp55
 70
     1
102
RTVSPost2010Prop56
140
1.0
102
RTVSPost2010PropOp56
 70
     1
102
RTVSPost2010Prop57
140
1.0
102
RTVSPost2010PropOp57
 70
     1
  0
XRECORD
  5
306
102
{ACAD_REACTORS
330
305
102
}
330
305
100
AcDbXrecord
280
     1
102
RTVSPropertyOp0
 70
     1
102
RTVSPropertyOp1
 70
     1
102
RTVSPropertyOp2
 70
     1
102
RTVSPropertyOp3
 70
     1
102
RTVSPropertyOp4
 70
     1
102
RTVSPropertyOp5
 70
     1
102
RTVSPropertyOp6
 70
     1
102
RTVSPropertyOp7
 70
     1
102
RTVSPropertyOp8
 70
     1
102
RTVSPropertyOp9
 70
     1
102
RTVSPropertyOp10
 70
     1
102
RTVSPropertyOp11
 70
     1
102
RTVSPropertyOp12
 70
     1
102
RTVSPropertyOp13
 70
     1
102
RTVSPropertyOp14
 70
     1
102
RTVSPropertyOp15
 70
     1
102
RTVSPropertyOp16
 70
     1
102
RTVSPropertyOp17
 70
     1
102
RTVSPropertyOp18
 70
     1
102
RTVSPropertyOp19
 70
     1
102
RTVSPropertyOp20
 70
     1
102
RTVSPropertyOp21
 70
     1
102
RTVSPropertyOp22
 70
     1
102
RTVSPropertyOp23
 70
     1
102
RTVSPropertyOp24
 70
     1
102
RTVSPropertyOp25
 70
     1
102
RTVSPropertyOp26
 70
     1
102
RTVSPropertyOp27
 70
     1
102
RTVSPropertyOp28
 70
     1
102
RTVSPropertyOp29
 70
     1
102
RTVSPropertyOp30
 70
     1
102
RTVSPropertyOp31
 70
     1
102
RTVSPropertyOp32
 70
     1
102
RTVSPropertyOp33
 70
     1
102
RTVSPropertyOp34
 70
     1
102
RTVSPropertyOp35
 70
     1
102
RTVSPropertyOp36
 70
     1
102
RTVSPropertyOp37
 70
     1
102
RTVSPropertyOp38
 70
     1
102
RTVSPropertyOp39
 70
     1
102
RTVSPropertyOp40
 70
     1
102
RTVSPropertyOp41
 70
     1
102
RTVSPropertyOp42
 70
     1
102
RTVSPropertyOp43
 70
     1
102
RTVSPropertyOp44
 70
     1
102
RTVSPropertyOp45
 70
     1
102
RTVSPropertyOp46
 70
     1
102
RTVSPropertyOp47
 70
     1
102
RTVSPropertyOp48
 70
     1
102
RTVSPropertyOp49
 70
     1
102
RTVSPropertyOp50
 70
     1
102
RTVSPropertyOp51
 70
     0
102
RTVSPropertyOp52
 70
     0
102
RTVSPropertyOp53
 70
     1
102
RTVSPropertyOp54
 70
     1
102
RTVSPropertyOp55
 70
     1
102
RTVSPropertyOp56
 70
     1
102
RTVSPropertyOp57
 70
     1
102
RTVSPost2010Prop28
280
     0
102
RTVSPost2010PropOp28
 70
     1
102
RTVSPost2010Prop29
280
     1
102
RTVSPost2010PropOp29
 70
     1
102
RTVSPost2010Prop30
280
     1
102
RTVSPost2010PropOp30
 70
     1
102
RTVSPost2010Prop31
280
     0
102
RTVSPost2010PropOp31
 70
     1
102
RTVSPost2010Prop32
280
     0
102
RTVSPost2010PropOp32
 70
     1
102
RTVSPost2010Prop33
280
     0
102
RTVSPost2010PropOp33
 70
     1
102
RTVSPost2010Prop34
280
     0
102
RTVSPost2010PropOp34
 70
     1
102
RTVSPost2010Prop35
280
     0
102
RTVSPost2010PropOp35
 70
     1
102
RTVSPost2010Prop36
280
     0
102
RTVSPost2010PropOp36
 70
     1
102
RTVSPost2010Prop37
 90
       50
102
RTVSPost2010PropOp37
 70
     1
102
RTVSPost2010Prop38
140
0.0
102
RTVSPost2010PropOp38
 70
     1
102
RTVSPost2010Prop39
140
1.0
102
RTVSPost2010PropOp39
 70
     1
102
RTVSPost2010Prop40
 90
        0
102
RTVSPost2010PropOp40
 70
     1
102
RTVSPost2010Prop41ColorIndex
 90
       18
102
RTVSPost2010Prop41ColorRGB
 90
        0
102
RTVSPost2010PropOp41
 70
     1
102
RTVSPost2010Prop42
 90
       50
102
RTVSPost2010PropOp42
 70
     1
102
RTVSPost2010Prop43
 90
        3
102
RTVSPost2010PropOp43
 70
     1
102
RTVSPost2010Prop44ColorIndex
 90
        5
102
RTVSPost2010Prop44ColorRGB
 90
      255
102
RTVSPost2010PropOp44
 70
     1
102
RTVSPost2010Prop45
280
     0
102
RTVSPost2010PropOp45
 70
     1
102
RTVSPost2010Prop46
 90
       50
102
RTVSPost2010PropOp46
 70
     1
102
RTVSPost2010Prop47
 90
       50
102
RTVSPost2010PropOp47
 70
     1
102
RTVSPost2010Prop48
 90
       50
102
RTVSPost2010PropOp48
 70
     1
102
RTVSPost2010Prop49
280
     0
102
RTVSPost2010PropOp49
 70
     1
102
RTVSPost2010Prop50
 90
       50
102
RTVSPost2010PropOp50
 70
     1
102
RTVSPost2010Prop51ColorIndex
 90
      256
102
RTVSPost2010Prop51ColorRGB
 90
-16777216
102
RTVSPost2010PropOp51
 70
     0
102
RTVSPost2010Prop52
140
1.0
102
RTVSPost2010PropOp52
 70
     0
102
RTVSPost2010Prop53
 90
        2
102
RTVSPost2010PropOp53
 70
     1
102
RTVSPost2010Prop54
  1
strokes_ogs.tif
102
RTVSPost2010PropOp54
 70
     1
102
RTVSPost2010Prop55
280
     0
102
RTVSPost2010PropOp55
 70
     1
102
RTVSPost2010Prop56
140
1.0
102
RTVSPost2010PropOp56
 70
     1
102
RTVSPost2010Prop57
140
1.0
102
RTVSPost2010PropOp57
 70
     1
  0
XRECORD
  5
308
102
{ACAD_REACTORS
330
307
102
}
330
307
100
AcDbXrecord
280
     1
102
RTVSPropertyOp0
 70
     1
102
RTVSPropertyOp1
 70
     1
102
RTVSPropertyOp2
 70
     1
102
RTVSPropertyOp3
 70
     1
102
RTVSPropertyOp4
 70
     1
102
RTVSPropertyOp5
 70
     1
102
RTVSPropertyOp6
 70
     1
102
RTVSPropertyOp7
 70
     1
102
RTVSPropertyOp8
 70
     1
102
RTVSPropertyOp9
 70
     1
102
RTVSPropertyOp10
 70
     1
102
RTVSPropertyOp11
 70
     1
102
RTVSPropertyOp12
 70
     1
102
RTVSPropertyOp13
 70
     1
102
RTVSPropertyOp14
 70
     1
102
RTVSPropertyOp15
 70
     1
102
RTVSPropertyOp16
 70
     1
102
RTVSPropertyOp17
 70
     1
102
RTVSPropertyOp18
 70
     1
102
RTVSPropertyOp19
 70
     1
102
RTVSPropertyOp20
 70
     1
102
RTVSPropertyOp21
 70
     1
102
RTVSPropertyOp22
 70
     1
102
RTVSPropertyOp23
 70
     1
102
RTVSPropertyOp24
 70
     1
102
RTVSPropertyOp25
 70
     1
102
RTVSPropertyOp26
 70
     1
102
RTVSPropertyOp27
 70
     1
102
RTVSPropertyOp28
 70
     1
102
RTVSPropertyOp29
 70
     1
102
RTVSPropertyOp30
 70
     1
102
RTVSPropertyOp31
 70
     1
102
RTVSPropertyOp32
 70
     1
102
RTVSPropertyOp33
 70
     1
102
RTVSPropertyOp34
 70
     1
102
RTVSPropertyOp35
 70
     1
102
RTVSPropertyOp36
 70
     1
102
RTVSPropertyOp37
 70
     1
102
RTVSPropertyOp38
 70
     1
102
RTVSPropertyOp39
 70
     1
102
RTVSPropertyOp40
 70
     1
102
RTVSPropertyOp41
 70
     1
102
RTVSPropertyOp42
 70
     1
102
RTVSPropertyOp43
 70
     1
102
RTVSPropertyOp44
 70
     1
102
RTVSPropertyOp45
 70
     1
102
RTVSPropertyOp46
 70
     1
102
RTVSPropertyOp47
 70
     1
102
RTVSPropertyOp48
 70
     1
102
RTVSPropertyOp49
 70
     1
102
RTVSPropertyOp50
 70
     1
102
RTVSPropertyOp51
 70
     0
102
RTVSPropertyOp52
 70
     0
102
RTVSPropertyOp53
 70
     1
102
RTVSPropertyOp54
 70
     1
102
RTVSPropertyOp55
 70
     1
102
RTVSPropertyOp56
 70
     1
102
RTVSPropertyOp57
 70
     1
102
RTVSPost2010Prop28
280
     0
102
RTVSPost2010PropOp28
 70
     1
102
RTVSPost2010Prop29
280
     1
102
RTVSPost2010PropOp29
 70
     1
102
RTVSPost2010Prop30
280
     1
102
RTVSPost2010PropOp30
 70
     1
102
RTVSPost2010Prop31
280
     0
102
RTVSPost2010PropOp31
 70
     1
102
RTVSPost2010Prop32
280
     0
102
RTVSPost2010PropOp32
 70
     1
102
RTVSPost2010Prop33
280
     0
102
RTVSPost2010PropOp33
 70
     1
102
RTVSPost2010Prop34
280
     0
102
RTVSPost2010PropOp34
 70
     1
102
RTVSPost2010Prop35
280
     0
102
RTVSPost2010PropOp35
 70
     1
102
RTVSPost2010Prop36
280
     0
102
RTVSPost2010PropOp36
 70
     1
102
RTVSPost2010Prop37
 90
       50
102
RTVSPost2010PropOp37
 70
     1
102
RTVSPost2010Prop38
140
0.0
102
RTVSPost2010PropOp38
 70
     1
102
RTVSPost2010Prop39
140
1.0
102
RTVSPost2010PropOp39
 70
     1
102
RTVSPost2010Prop40
 90
        0
102
RTVSPost2010PropOp40
 70
     1
102
RTVSPost2010Prop41ColorIndex
 90
       18
102
RTVSPost2010Prop41ColorRGB
 90
        0
102
RTVSPost2010PropOp41
 70
     1
102
RTVSPost2010Prop42
 90
       50
102
RTVSPost2010PropOp42
 70
     1
102
RTVSPost2010Prop43
 90
        3
102
RTVSPost2010PropOp43
 70
     1
102
RTVSPost2010Prop44ColorIndex
 90
        5
102
RTVSPost2010Prop44ColorRGB
 90
      255
102
RTVSPost2010PropOp44
 70
     1
102
RTVSPost2010Prop45
280
     0
102
RTVSPost2010PropOp45
 70
     1
102
RTVSPost2010Prop46
 90
       50
102
RTVSPost2010PropOp46
 70
     1
102
RTVSPost2010Prop47
 90
       50
102
RTVSPost2010PropOp47
 70
     1
102
RTVSPost2010Prop48
 90
       50
102
RTVSPost2010PropOp48
 70
     1
102
RTVSPost2010Prop49
280
     0
102
RTVSPost2010PropOp49
 70
     1
102
RTVSPost2010Prop50
 90
       50
102
RTVSPost2010PropOp50
 70
     1
102
RTVSPost2010Prop51ColorIndex
 90
      256
102
RTVSPost2010Prop51ColorRGB
 90
-16777216
102
RTVSPost2010PropOp51
 70
     0
102
RTVSPost2010Prop52
140
1.0
102
RTVSPost2010PropOp52
 70
     0
102
RTVSPost2010Prop53
 90
        2
102
RTVSPost2010PropOp53
 70
     1
102
RTVSPost2010Prop54
  1
strokes_ogs.tif
102
RTVSPost2010PropOp54
 70
     1
102
RTVSPost2010Prop55
280
     0
102
RTVSPost2010PropOp55
 70
     1
102
RTVSPost2010Prop56
140
1.0
102
RTVSPost2010PropOp56
 70
     1
102
RTVSPost2010Prop57
140
1.0
102
RTVSPost2010PropOp57
 70
     1
  0
XRECORD
  5
2F8
102
{ACAD_REACTORS
330
2F7
102
}
330
2F7
100
AcDbXrecord
280
     1
102
RTVSPropertyOp0
 70
     1
102
RTVSPropertyOp1
 70
     1
102
RTVSPropertyOp2
 70
     1
102
RTVSPropertyOp3
 70
     1
102
RTVSPropertyOp4
 70
     1
102
RTVSPropertyOp5
 70
     1
102
RTVSPropertyOp6
 70
     1
102
RTVSPropertyOp7
 70
     1
102
RTVSPropertyOp8
 70
     1
102
RTVSPropertyOp9
 70
     1
102
RTVSPropertyOp10
 70
     1
102
RTVSPropertyOp11
 70
     1
102
RTVSPropertyOp12
 70
     1
102
RTVSPropertyOp13
 70
     1
102
RTVSPropertyOp14
 70
     1
102
RTVSPropertyOp15
 70
     1
102
RTVSPropertyOp16
 70
     1
102
RTVSPropertyOp17
 70
     1
102
RTVSPropertyOp18
 70
     1
102
RTVSPropertyOp19
 70
     1
102
RTVSPropertyOp20
 70
     1
102
RTVSPropertyOp21
 70
     1
102
RTVSPropertyOp22
 70
     1
102
RTVSPropertyOp23
 70
     1
102
RTVSPropertyOp24
 70
     1
102
RTVSPropertyOp25
 70
     1
102
RTVSPropertyOp26
 70
     1
102
RTVSPropertyOp27
 70
     1
102
RTVSPropertyOp28
 70
     1
102
RTVSPropertyOp29
 70
     1
102
RTVSPropertyOp30
 70
     1
102
RTVSPropertyOp31
 70
     1
102
RTVSPropertyOp32
 70
     1
102
RTVSPropertyOp33
 70
     1
102
RTVSPropertyOp34
 70
     1
102
RTVSPropertyOp35
 70
     1
102
RTVSPropertyOp36
 70
     1
102
RTVSPropertyOp37
 70
     1
102
RTVSPropertyOp38
 70
     1
102
RTVSPropertyOp39
 70
     1
102
RTVSPropertyOp40
 70
     1
102
RTVSPropertyOp41
 70
     1
102
RTVSPropertyOp42
 70
     1
102
RTVSPropertyOp43
 70
     1
102
RTVSPropertyOp44
 70
     1
102
RTVSPropertyOp45
 70
     1
102
RTVSPropertyOp46
 70
     1
102
RTVSPropertyOp47
 70
     1
102
RTVSPropertyOp48
 70
     1
102
RTVSPropertyOp49
 70
     1
102
RTVSPropertyOp50
 70
     1
102
RTVSPropertyOp51
 70
     0
102
RTVSPropertyOp52
 70
     0
102
RTVSPropertyOp53
 70
     1
102
RTVSPropertyOp54
 70
     1
102
RTVSPropertyOp55
 70
     1
102
RTVSPropertyOp56
 70
     1
102
RTVSPropertyOp57
 70
     1
102
RTVSPost2010Prop28
280
     0
102
RTVSPost2010PropOp28
 70
     1
102
RTVSPost2010Prop29
280
     1
102
RTVSPost2010PropOp29
 70
     1
102
RTVSPost2010Prop30
280
     1
102
RTVSPost2010PropOp30
 70
     1
102
RTVSPost2010Prop31
280
     0
102
RTVSPost2010PropOp31
 70
     1
102
RTVSPost2010Prop32
280
     0
102
RTVSPost2010PropOp32
 70
     1
102
RTVSPost2010Prop33
280
     0
102
RTVSPost2010PropOp33
 70
     1
102
RTVSPost2010Prop34
280
     0
102
RTVSPost2010PropOp34
 70
     1
102
RTVSPost2010Prop35
280
     0
102
RTVSPost2010PropOp35
 70
     1
102
RTVSPost2010Prop36
280
     0
102
RTVSPost2010PropOp36
 70
     1
102
RTVSPost2010Prop37
 90
       50
102
RTVSPost2010PropOp37
 70
     1
102
RTVSPost2010Prop38
140
0.0
102
RTVSPost2010PropOp38
 70
     1
102
RTVSPost2010Prop39
140
1.0
102
RTVSPost2010PropOp39
 70
     1
102
RTVSPost2010Prop40
 90
        0
102
RTVSPost2010PropOp40
 70
     1
102
RTVSPost2010Prop41ColorIndex
 90
       18
102
RTVSPost2010Prop41ColorRGB
 90
        0
102
RTVSPost2010PropOp41
 70
     1
102
RTVSPost2010Prop42
 90
       50
102
RTVSPost2010PropOp42
 70
     1
102
RTVSPost2010Prop43
 90
        3
102
RTVSPost2010PropOp43
 70
     1
102
RTVSPost2010Prop44ColorIndex
 90
        5
102
RTVSPost2010Prop44ColorRGB
 90
      255
102
RTVSPost2010PropOp44
 70
     1
102
RTVSPost2010Prop45
280
     0
102
RTVSPost2010PropOp45
 70
     1
102
RTVSPost2010Prop46
 90
       50
102
RTVSPost2010PropOp46
 70
     1
102
RTVSPost2010Prop47
 90
       50
102
RTVSPost2010PropOp47
 70
     1
102
RTVSPost2010Prop48
 90
       50
102
RTVSPost2010PropOp48
 70
     1
102
RTVSPost2010Prop49
280
     0
102
RTVSPost2010PropOp49
 70
     1
102
RTVSPost2010Prop50
 90
       50
102
RTVSPost2010PropOp50
 70
     1
102
RTVSPost2010Prop51ColorIndex
 90
      256
102
RTVSPost2010Prop51ColorRGB
 90
-16777216
102
RTVSPost2010PropOp51
 70
     0
102
RTVSPost2010Prop52
140
1.0
102
RTVSPost2010PropOp52
 70
     0
102
RTVSPost2010Prop53
 90
        2
102
RTVSPost2010PropOp53
 70
     1
102
RTVSPost2010Prop54
  1
strokes_ogs.tif
102
RTVSPost2010PropOp54
 70
     1
102
RTVSPost2010Prop55
280
     0
102
RTVSPost2010PropOp55
 70
     1
102
RTVSPost2010Prop56
140
1.0
102
RTVSPost2010PropOp56
 70
     1
102
RTVSPost2010Prop57
140
1.0
102
RTVSPost2010PropOp57
 70
     1
  0
XRECORD
  5
2EA
102
{ACAD_REACTORS
330
2E9
102
}
330
2E9
100
AcDbXrecord
280
     1
102
RTVSPropertyOp0
 70
     1
102
RTVSPropertyOp1
 70
     1
102
RTVSPropertyOp2
 70
     1
102
RTVSPropertyOp3
 70
     1
102
RTVSPropertyOp4
 70
     1
102
RTVSPropertyOp5
 70
     1
102
RTVSPropertyOp6
 70
     1
102
RTVSPropertyOp7
 70
     1
102
RTVSPropertyOp8
 70
     1
102
RTVSPropertyOp9
 70
     1
102
RTVSPropertyOp10
 70
     1
102
RTVSPropertyOp11
 70
     1
102
RTVSPropertyOp12
 70
     1
102
RTVSPropertyOp13
 70
     1
102
RTVSPropertyOp14
 70
     1
102
RTVSPropertyOp15
 70
     1
102
RTVSPropertyOp16
 70
     1
102
RTVSPropertyOp17
 70
     1
102
RTVSPropertyOp18
 70
     1
102
RTVSPropertyOp19
 70
     1
102
RTVSPropertyOp20
 70
     1
102
RTVSPropertyOp21
 70
     1
102
RTVSPropertyOp22
 70
     1
102
RTVSPropertyOp23
 70
     1
102
RTVSPropertyOp24
 70
     1
102
RTVSPropertyOp25
 70
     1
102
RTVSPropertyOp26
 70
     1
102
RTVSPropertyOp27
 70
     1
102
RTVSPropertyOp28
 70
     1
102
RTVSPropertyOp29
 70
     1
102
RTVSPropertyOp30
 70
     1
102
RTVSPropertyOp31
 70
     1
102
RTVSPropertyOp32
 70
     1
102
RTVSPropertyOp33
 70
     1
102
RTVSPropertyOp34
 70
     1
102
RTVSPropertyOp35
 70
     1
102
RTVSPropertyOp36
 70
     1
102
RTVSPropertyOp37
 70
     1
102
RTVSPropertyOp38
 70
     1
102
RTVSPropertyOp39
 70
     1
102
RTVSPropertyOp40
 70
     1
102
RTVSPropertyOp41
 70
     1
102
RTVSPropertyOp42
 70
     1
102
RTVSPropertyOp43
 70
     1
102
RTVSPropertyOp44
 70
     1
102
RTVSPropertyOp45
 70
     1
102
RTVSPropertyOp46
 70
     1
102
RTVSPropertyOp47
 70
     1
102
RTVSPropertyOp48
 70
     1
102
RTVSPropertyOp49
 70
     1
102
RTVSPropertyOp50
 70
     1
102
RTVSPropertyOp51
 70
     0
102
RTVSPropertyOp52
 70
     0
102
RTVSPropertyOp53
 70
     1
102
RTVSPropertyOp54
 70
     1
102
RTVSPropertyOp55
 70
     1
102
RTVSPropertyOp56
 70
     1
102
RTVSPropertyOp57
 70
     1
102
RTVSPost2010Prop28
280
     0
102
RTVSPost2010PropOp28
 70
     1
102
RTVSPost2010Prop29
280
     1
102
RTVSPost2010PropOp29
 70
     1
102
RTVSPost2010Prop30
280
     1
102
RTVSPost2010PropOp30
 70
     1
102
RTVSPost2010Prop31
280
     0
102
RTVSPost2010PropOp31
 70
     1
102
RTVSPost2010Prop32
280
     0
102
RTVSPost2010PropOp32
 70
     1
102
RTVSPost2010Prop33
280
     0
102
RTVSPost2010PropOp33
 70
     1
102
RTVSPost2010Prop34
280
     0
102
RTVSPost2010PropOp34
 70
     1
102
RTVSPost2010Prop35
280
     0
102
RTVSPost2010PropOp35
 70
     1
102
RTVSPost2010Prop36
280
     0
102
RTVSPost2010PropOp36
 70
     1
102
RTVSPost2010Prop37
 90
       50
102
RTVSPost2010PropOp37
 70
     1
102
RTVSPost2010Prop38
140
0.0
102
RTVSPost2010PropOp38
 70
     1
102
RTVSPost2010Prop39
140
1.0
102
RTVSPost2010PropOp39
 70
     1
102
RTVSPost2010Prop40
 90
        0
102
RTVSPost2010PropOp40
 70
     1
102
RTVSPost2010Prop41ColorIndex
 90
       18
102
RTVSPost2010Prop41ColorRGB
 90
        0
102
RTVSPost2010PropOp41
 70
     1
102
RTVSPost2010Prop42
 90
       50
102
RTVSPost2010PropOp42
 70
     1
102
RTVSPost2010Prop43
 90
        3
102
RTVSPost2010PropOp43
 70
     1
102
RTVSPost2010Prop44ColorIndex
 90
        5
102
RTVSPost2010Prop44ColorRGB
 90
      255
102
RTVSPost2010PropOp44
 70
     1
102
RTVSPost2010Prop45
280
     0
102
RTVSPost2010PropOp45
 70
     1
102
RTVSPost2010Prop46
 90
       50
102
RTVSPost2010PropOp46
 70
     1
102
RTVSPost2010Prop47
 90
       50
102
RTVSPost2010PropOp47
 70
     1
102
RTVSPost2010Prop48
 90
       50
102
RTVSPost2010PropOp48
 70
     1
102
RTVSPost2010Prop49
280
     0
102
RTVSPost2010PropOp49
 70
     1
102
RTVSPost2010Prop50
 90
       50
102
RTVSPost2010PropOp50
 70
     1
102
RTVSPost2010Prop51ColorIndex
 90
      256
102
RTVSPost2010Prop51ColorRGB
 90
-16777216
102
RTVSPost2010PropOp51
 70
     0
102
RTVSPost2010Prop52
140
1.0
102
RTVSPost2010PropOp52
 70
     0
102
RTVSPost2010Prop53
 90
        2
102
RTVSPost2010PropOp53
 70
     1
102
RTVSPost2010Prop54
  1
strokes_ogs.tif
102
RTVSPost2010PropOp54
 70
     1
102
RTVSPost2010Prop55
280
     0
102
RTVSPost2010PropOp55
 70
     1
102
RTVSPost2010Prop56
140
1.0
102
RTVSPost2010PropOp56
 70
     1
102
RTVSPost2010Prop57
140
1.0
102
RTVSPost2010PropOp57
 70
     1
  0
XRECORD
  5
30A
102
{ACAD_REACTORS
330
309
102
}
330
309
100
AcDbXrecord
280
     1
102
RTVSPropertyOp0
 70
     1
102
RTVSPropertyOp1
 70
     1
102
RTVSPropertyOp2
 70
     1
102
RTVSPropertyOp3
 70
     1
102
RTVSPropertyOp4
 70
     1
102
RTVSPropertyOp5
 70
     1
102
RTVSPropertyOp6
 70
     1
102
RTVSPropertyOp7
 70
     1
102
RTVSPropertyOp8
 70
     1
102
RTVSPropertyOp9
 70
     1
102
RTVSPropertyOp10
 70
     1
102
RTVSPropertyOp11
 70
     1
102
RTVSPropertyOp12
 70
     1
102
RTVSPropertyOp13
 70
     1
102
RTVSPropertyOp14
 70
     1
102
RTVSPropertyOp15
 70
     1
102
RTVSPropertyOp16
 70
     1
102
RTVSPropertyOp17
 70
     1
102
RTVSPropertyOp18
 70
     1
102
RTVSPropertyOp19
 70
     1
102
RTVSPropertyOp20
 70
     1
102
RTVSPropertyOp21
 70
     1
102
RTVSPropertyOp22
 70
     1
102
RTVSPropertyOp23
 70
     1
102
RTVSPropertyOp24
 70
     1
102
RTVSPropertyOp25
 70
     1
102
RTVSPropertyOp26
 70
     1
102
RTVSPropertyOp27
 70
     1
102
RTVSPropertyOp28
 70
     1
102
RTVSPropertyOp29
 70
     1
102
RTVSPropertyOp30
 70
     1
102
RTVSPropertyOp31
 70
     1
102
RTVSPropertyOp32
 70
     1
102
RTVSPropertyOp33
 70
     1
102
RTVSPropertyOp34
 70
     1
102
RTVSPropertyOp35
 70
     1
102
RTVSPropertyOp36
 70
     1
102
RTVSPropertyOp37
 70
     1
102
RTVSPropertyOp38
 70
     1
102
RTVSPropertyOp39
 70
     1
102
RTVSPropertyOp40
 70
     1
102
RTVSPropertyOp41
 70
     1
102
RTVSPropertyOp42
 70
     1
102
RTVSPropertyOp43
 70
     1
102
RTVSPropertyOp44
 70
     1
102
RTVSPropertyOp45
 70
     1
102
RTVSPropertyOp46
 70
     1
102
RTVSPropertyOp47
 70
     1
102
RTVSPropertyOp48
 70
     1
102
RTVSPropertyOp49
 70
     1
102
RTVSPropertyOp50
 70
     1
102
RTVSPropertyOp51
 70
     0
102
RTVSPropertyOp52
 70
     0
102
RTVSPropertyOp53
 70
     1
102
RTVSPropertyOp54
 70
     1
102
RTVSPropertyOp55
 70
     1
102
RTVSPropertyOp56
 70
     1
102
RTVSPropertyOp57
 70
     1
102
RTVSPost2010Prop28
280
     0
102
RTVSPost2010PropOp28
 70
     1
102
RTVSPost2010Prop29
280
     1
102
RTVSPost2010PropOp29
 70
     1
102
RTVSPost2010Prop30
280
     1
102
RTVSPost2010PropOp30
 70
     1
102
RTVSPost2010Prop31
280
     0
102
RTVSPost2010PropOp31
 70
     1
102
RTVSPost2010Prop32
280
     0
102
RTVSPost2010PropOp32
 70
     1
102
RTVSPost2010Prop33
280
     0
102
RTVSPost2010PropOp33
 70
     1
102
RTVSPost2010Prop34
280
     0
102
RTVSPost2010PropOp34
 70
     1
102
RTVSPost2010Prop35
280
     0
102
RTVSPost2010PropOp35
 70
     1
102
RTVSPost2010Prop36
280
     0
102
RTVSPost2010PropOp36
 70
     1
102
RTVSPost2010Prop37
 90
       50
102
RTVSPost2010PropOp37
 70
     1
102
RTVSPost2010Prop38
140
0.0
102
RTVSPost2010PropOp38
 70
     1
102
RTVSPost2010Prop39
140
1.0
102
RTVSPost2010PropOp39
 70
     1
102
RTVSPost2010Prop40
 90
        0
102
RTVSPost2010PropOp40
 70
     1
102
RTVSPost2010Prop41ColorIndex
 90
       18
102
RTVSPost2010Prop41ColorRGB
 90
        0
102
RTVSPost2010PropOp41
 70
     1
102
RTVSPost2010Prop42
 90
       50
102
RTVSPost2010PropOp42
 70
     1
102
RTVSPost2010Prop43
 90
        3
102
RTVSPost2010PropOp43
 70
     1
102
RTVSPost2010Prop44ColorIndex
 90
        5
102
RTVSPost2010Prop44ColorRGB
 90
      255
102
RTVSPost2010PropOp44
 70
     1
102
RTVSPost2010Prop45
280
     0
102
RTVSPost2010PropOp45
 70
     1
102
RTVSPost2010Prop46
 90
       50
102
RTVSPost2010PropOp46
 70
     1
102
RTVSPost2010Prop47
 90
       50
102
RTVSPost2010PropOp47
 70
     1
102
RTVSPost2010Prop48
 90
       50
102
RTVSPost2010PropOp48
 70
     1
102
RTVSPost2010Prop49
280
     0
102
RTVSPost2010PropOp49
 70
     1
102
RTVSPost2010Prop50
 90
       50
102
RTVSPost2010PropOp50
 70
     1
102
RTVSPost2010Prop51ColorIndex
 90
      256
102
RTVSPost2010Prop51ColorRGB
 90
-16777216
102
RTVSPost2010PropOp51
 70
     0
102
RTVSPost2010Prop52
140
1.0
102
RTVSPost2010PropOp52
 70
     0
102
RTVSPost2010Prop53
 90
        2
102
RTVSPost2010PropOp53
 70
     1
102
RTVSPost2010Prop54
  1
strokes_ogs.tif
102
RTVSPost2010PropOp54
 70
     1
102
RTVSPost2010Prop55
280
     0
102
RTVSPost2010PropOp55
 70
     1
102
RTVSPost2010Prop56
140
1.0
102
RTVSPost2010PropOp56
 70
     1
102
RTVSPost2010Prop57
140
1.0
102
RTVSPost2010PropOp57
 70
     1
  0
ENDSEC
  0
EOF
