  0
SECTION
  2
HEADER
  9
$ACADVER
  1
AC1021
  9
$ACADMAINTVER
 70
    50
  9
$DWGCODEPAGE
  3
ANSI_932
  9
$SUBJECT
  1
排水金具
  9
$AUTHOR
  1
寺澤智広
  9
$COMMENTS
  1
2012.07.05 作成^M^J2013.07.30  ﾎﾟｯﾌﾟｱｯﾌﾟ締付厚さ変更
  9
$LASTSAVEDBY
  1
yamadak36
  9
$INSBASE
 10
0.0
 20
0.0
 30
0.0
  9
$EXTMIN
 10
0.0
 20
0.0
 30
0.0
  9
$EXTMAX
 10
420.0000000000001
 20
594.0
 30
0.0
  9
$LIMMIN
 10
0.0
 20
0.0
  9
$LIMMAX
 10
420.0
 20
594.0
  9
$ORTHOMODE
 70
     1
  9
$REGENMODE
 70
     0
  9
$FILLMODE
 70
     1
  9
$QTEXTMODE
 70
     0
  9
$MIRRTEXT
 70
     0
  9
$LTSCALE
 40
16.0
  9
$ATTMODE
 70
     1
  9
$TEXTSIZE
 40
4.0
  9
$TRACEWID
 40
0.05
  9
$TEXTSTYLE
  7
MSP明朝
  9
$CLAYER
  8
0
  9
$CELTYPE
  6
BYLAYER
  9
$CECOLOR
 62
   256
  9
$CELTSCALE
 40
1.0
  9
$DISPSILH
 70
     0
  9
$DIMSCALE
 40
2.0
  9
$DIMASZ
 40
1.5
  9
$DIMEXO
 40
0.5
  9
$DIMDLI
 40
10.0
  9
$DIMRND
 40
0.0
  9
$DIMDLE
 40
0.0
  9
$DIMEXE
 40
2.0
  9
$DIMTP
 40
0.0
  9
$DIMTM
 40
0.000000001
  9
$DIMTXT
 40
4.0
  9
$DIMCEN
 40
0.0
  9
$DIMTSZ
 40
0.0
  9
$DIMTOL
 70
     0
  9
$DIMLIM
 70
     0
  9
$DIMTIH
 70
     0
  9
$DIMTOH
 70
     0
  9
$DIMSE1
 70
     0
  9
$DIMSE2
 70
     0
  9
$DIMTAD
 70
     3
  9
$DIMZIN
 70
     8
  9
$DIMBLK
  1
YAZ1
  9
$DIMASO
 70
     1
  9
$DIMSHO
 70
     1
  9
$DIMPOST
  1

  9
$DIMAPOST
  1

  9
$DIMALT
 70
     0
  9
$DIMALTD
 70
     2
  9
$DIMALTF
 40
25.4
  9
$DIMLFAC
 40
1.0
  9
$DIMTOFL
 70
     1
  9
$DIMTVP
 40
0.0
  9
$DIMTIX
 70
     0
  9
$DIMSOXD
 70
     0
  9
$DIMSAH
 70
     0
  9
$DIMBLK1
  1

  9
$DIMBLK2
  1

  9
$DIMSTYLE
  2
STANDARD
  9
$DIMCLRD
 70
     0
  9
$DIMCLRE
 70
     0
  9
$DIMCLRT
 70
     0
  9
$DIMTFAC
 40
1.0
  9
$DIMGAP
 40
1.0
  9
$DIMJUST
 70
     0
  9
$DIMSD1
 70
     0
  9
$DIMSD2
 70
     0
  9
$DIMTOLJ
 70
     1
  9
$DIMTZIN
 70
     8
  9
$DIMALTZ
 70
     0
  9
$DIMALTTZ
 70
     0
  9
$DIMUPT
 70
     0
  9
$DIMDEC
 70
     2
  9
$DIMTDEC
 70
     2
  9
$DIMALTU
 70
     2
  9
$DIMALTTD
 70
     2
  9
$DIMTXSTY
  7
STANDARD
  9
$DIMAUNIT
 70
     0
  9
$DIMADEC
 70
     2
  9
$DIMALTRND
 40
0.0
  9
$DIMAZIN
 70
     2
  9
$DIMDSEP
 70
    46
  9
$DIMATFIT
 70
     1
  9
$DIMFRAC
 70
     0
  9
$DIMLDRBLK
  1
YAZ1
  9
$DIMLUNIT
 70
     2
  9
$DIMLWD
 70
    -2
  9
$DIMLWE
 70
    -2
  9
$DIMTMOVE
 70
     0
  9
$DIMFXL
 40
1.0
  9
$DIMFXLON
 70
     0
  9
$DIMJOGANG
 40
0.7853981633974483
  9
$DIMTFILL
 70
     0
  9
$DIMTFILLCLR
 70
     0
  9
$DIMARCSYM
 70
     0
  9
$DIMLTYPE
  6

  9
$DIMLTEX1
  6

  9
$DIMLTEX2
  6

  9
$LUNITS
 70
     2
  9
$LUPREC
 70
     2
  9
$SKETCHINC
 40
0.1
  9
$FILLETRAD
 40
10.0
  9
$AUNITS
 70
     0
  9
$AUPREC
 70
     2
  9
$MENU
  1
amecex
  9
$ELEVATION
 40
0.0
  9
$PELEVATION
 40
0.0
  9
$THICKNESS
 40
0.0
  9
$LIMCHECK
 70
     0
  9
$CHAMFERA
 40
0.5
  9
$CHAMFERB
 40
0.5
  9
$CHAMFERC
 40
0.0
  9
$CHAMFERD
 40
0.0
  9
$SKPOLY
 70
     0
  9
$TDCREATE
 40
2455266.571175023
  9
$TDUCREATE
 40
2455266.196175023
  9
$TDUPDATE
 40
2457367.564854120
  9
$TDUUPDATE
 40
2457367.189854120
  9
$TDINDWG
 40
0.2429536458
  9
$TDUSRTIMER
 40
0.2429536111
  9
$USRTIMER
 70
     1
  9
$ANGBASE
 50
0.0
  9
$ANGDIR
 70
     0
  9
$PDMODE
 70
     2
  9
$PDSIZE
 40
2.0
  9
$PLINEWID
 40
0.0
  9
$SPLFRAME
 70
     0
  9
$SPLINETYPE
 70
     6
  9
$SPLINESEGS
 70
     8
  9
$HANDSEED
  5
655A
  9
$SURFTAB1
 70
     6
  9
$SURFTAB2
 70
     6
  9
$SURFTYPE
 70
     6
  9
$SURFU
 70
     6
  9
$SURFV
 70
     6
  9
$UCSBASE
  2

  9
$UCSNAME
  2

  9
$UCSORG
 10
0.0
 20
0.0
 30
0.0
  9
$UCSXDIR
 10
1.0
 20
0.0
 30
0.0
  9
$UCSYDIR
 10
0.0
 20
1.0
 30
0.0
  9
$UCSORTHOREF
  2

  9
$UCSORTHOVIEW
 70
     0
  9
$UCSORGTOP
 10
0.0
 20
0.0
 30
0.0
  9
$UCSORGBOTTOM
 10
0.0
 20
0.0
 30
0.0
  9
$UCSORGLEFT
 10
0.0
 20
0.0
 30
0.0
  9
$UCSORGRIGHT
 10
0.0
 20
0.0
 30
0.0
  9
$UCSORGFRONT
 10
0.0
 20
0.0
 30
0.0
  9
$UCSORGBACK
 10
0.0
 20
0.0
 30
0.0
  9
$PUCSBASE
  2

  9
$PUCSNAME
  2

  9
$PUCSORG
 10
0.0
 20
0.0
 30
0.0
  9
$PUCSXDIR
 10
1.0
 20
0.0
 30
0.0
  9
$PUCSYDIR
 10
0.0
 20
1.0
 30
0.0
  9
$PUCSORTHOREF
  2

  9
$PUCSORTHOVIEW
 70
     0
  9
$PUCSORGTOP
 10
0.0
 20
0.0
 30
0.0
  9
$PUCSORGBOTTOM
 10
0.0
 20
0.0
 30
0.0
  9
$PUCSORGLEFT
 10
0.0
 20
0.0
 30
0.0
  9
$PUCSORGRIGHT
 10
0.0
 20
0.0
 30
0.0
  9
$PUCSORGFRONT
 10
0.0
 20
0.0
 30
0.0
  9
$PUCSORGBACK
 10
0.0
 20
0.0
 30
0.0
  9
$USERI1
 70
     1
  9
$USERI2
 70
     2
  9
$USERI3
 70
     0
  9
$USERI4
 70
     0
  9
$USERI5
 70
     0
  9
$USERR1
 40
2004.01
  9
$USERR2
 40
0.0
  9
$USERR3
 40
0.0
  9
$USERR4
 40
0.0
  9
$USERR5
 40
0.0
  9
$WORLDVIEW
 70
     1
  9
$SHADEDGE
 70
     3
  9
$SHADEDIF
 70
    70
  9
$TILEMODE
 70
     1
  9
$MAXACTVP
 70
    16
  9
$PINSBASE
 10
0.0
 20
0.0
 30
0.0
  9
$PLIMCHECK
 70
     0
  9
$PEXTMIN
 10
26.66999878883363
 20
20.31999878883363
 30
0.0
  9
$PEXTMAX
 10
240.0299890995026
 20
182.8799890995025
 30
0.0
  9
$PLIMMIN
 10
-6.350006103515625
 20
-6.349999904632567
  9
$PLIMMAX
 10
273.0499877929688
 20
209.5499939918518
  9
$UNITMODE
 70
     0
  9
$VISRETAIN
 70
     0
  9
$PLINEGEN
 70
     0
  9
$PSLTSCALE
 70
     1
  9
$TREEDEPTH
 70
  3020
  9
$CMLSTYLE
  2
STANDARD
  9
$CMLJUST
 70
     0
  9
$CMLSCALE
 40
1.0
  9
$PROXYGRAPHICS
 70
     1
  9
$MEASUREMENT
 70
     1
  9
$CELWEIGHT
370
    -1
  9
$ENDCAPS
280
     0
  9
$JOINSTYLE
280
     0
  9
$LWDISPLAY
290
     0
  9
$INSUNITS
 70
     0
  9
$HYPERLINKBASE
  1

  9
$STYLESHEET
  1
R16.CTB
  9
$XEDIT
290
     1
  9
$CEPSNTYPE
380
     0
  9
$PSTYLEMODE
290
     1
  9
$FINGERPRINTGUID
  2
{28C3145F-7154-4FEB-8A20-1D8C33D1AA00}
  9
$VERSIONGUID
  2
{B269164E-C0D7-4347-86CF-BFC62EB9A62C}
  9
$EXTNAMES
290
     1
  9
$PSVPSCALE
 40
0.0
  9
$OLESTARTUP
290
     0
  9
$SORTENTS
280
   127
  9
$INDEXCTL
280
     0
  9
$HIDETEXT
280
     0
  9
$XCLIPFRAME
290
     0
  9
$HALOGAP
280
     0
  9
$OBSCOLOR
 70
   257
  9
$OBSLTYPE
280
     0
  9
$INTERSECTIONDISPLAY
280
     0
  9
$INTERSECTIONCOLOR
 70
   257
  9
$DIMASSOC
280
     1
  9
$PROJECTNAME
  1

  9
$CAMERADISPLAY
290
     0
  9
$LENSLENGTH
 40
50.0
  9
$CAMERAHEIGHT
 40
0.0
  9
$STEPSPERSEC
 40
2.0
  9
$STEPSIZE
 40
6.0
  9
$3DDWFPREC
 40
2.0
  9
$PSOLWIDTH
 40
0.25
  9
$PSOLHEIGHT
 40
4.0
  9
$LOFTANG1
 40
1.570796326794896
  9
$LOFTANG2
 40
1.570796326794896
  9
$LOFTMAG1
 40
0.0
  9
$LOFTMAG2
 40
0.0
  9
$LOFTPARAM
 70
     7
  9
$LOFTNORMALS
280
     1
  9
$LATITUDE
 40
37.795
  9
$LONGITUDE
 40
-122.394
  9
$NORTHDIRECTION
 40
0.0
  9
$TIMEZONE
 70
 -8000
  9
$LIGHTGLYPHDISPLAY
280
     1
  9
$TILEMODELIGHTSYNCH
280
     1
  9
$CMATERIAL
347
612F
  9
$SOLIDHIST
280
     1
  9
$SHOWHIST
280
     1
  9
$DWFFRAME
280
     2
  9
$DGNFRAME
280
     0
  9
$REALWORLDSCALE
290
     1
  9
$INTERFERECOLOR
 62
     1
  9
$INTERFEREOBJVS
345
6151
  9
$INTERFEREVPVS
346
614E
  9
$CSHADOW
280
     0
  9
$SHADOWPLANELOCATION
 40
0.0
  0
ENDSEC
  0
SECTION
  2
CLASSES
  0
CLASS
  1
ACDBDICTIONARYWDFLT
  2
AcDbDictionaryWithDefault
  3
ObjectDBX Classes
 90
        0
 91
        1
280
     0
281
     0
  0
CLASS
  1
DIMASSOC
  2
AcDbDimAssoc
  3
"AcDbDimAssoc|Product Desc:     AcDim ARX App For Dimension|Company:          Autodesk, Inc.|WEB Address:      www.autodesk.com"
 90
        0
 91
        0
280
     0
281
     0
  0
CLASS
  1
DICTIONARYVAR
  2
AcDbDictionaryVar
  3
ObjectDBX Classes
 90
        0
 91
        9
280
     0
281
     0
  0
CLASS
  1
MATERIAL
  2
AcDbMaterial
  3
ObjectDBX Classes
 90
     1153
 91
        3
280
     0
281
     0
  0
CLASS
  1
VISUALSTYLE
  2
AcDbVisualStyle
  3
ObjectDBX Classes
 90
     4095
 91
       24
280
     0
281
     0
  0
CLASS
  1
TABLESTYLE
  2
AcDbTableStyle
  3
ObjectDBX Classes
 90
     4095
 91
        1
280
     0
281
     0
  0
CLASS
  1
SCALE
  2
AcDbScale
  3
ObjectDBX Classes
 90
     1153
 91
       17
280
     0
281
     0
  0
CLASS
  1
MLEADERSTYLE
  2
AcDbMLeaderStyle
  3
ACDB_MLEADERSTYLE_CLASS
 90
     4095
 91
        1
280
     0
281
     0
  0
CLASS
  1
SORTENTSTABLE
  2
AcDbSortentsTable
  3
ObjectDBX Classes
 90
        0
 91
        1
280
     0
281
     0
  0
CLASS
  1
CELLSTYLEMAP
  2
AcDbCellStyleMap
  3
ObjectDBX Classes
 90
     1152
 91
        3
280
     0
281
     0
  0
CLASS
  1
ACAD_EVALUATION_GRAPH
  2
AcDbEvalGraph
  3
ObjectDBX Classes
 90
     1153
 91
        1
280
     0
281
     0
  0
CLASS
  1
ACAECUSTOBJ
  2
AcAeEditorObj
  3
AcAeEditorObj
 90
     1024
 91
        1
280
     0
281
     0
  0
CLASS
  1
ACDB_DYNAMICBLOCKPURGEPREVENTER_VERSION
  2
AcDbDynamicBlockPurgePreventer
  3
ObjectDBX Classes
 90
     1153
 91
        1
280
     0
281
     0
  0
ENDSEC
  0
SECTION
  2
TABLES
  0
TABLE
  2
VPORT
  5
8
330
0
100
AcDbSymbolTable
 70
     1
  0
VPORT
  5
612D
330
8
100
AcDbSymbolTableRecord
100
AcDbViewportTableRecord
  2
*Active
 70
     0
 10
0.0
 20
0.0
 11
1.0
 21
1.0
 12
177.0324563148679
 22
110.7936832884229
 13
0.0
 23
0.0
 14
1.0
 24
1.0
 15
0.0
 25
0.0
 16
0.0
 26
0.0
 36
1.0
 17
0.0
 27
0.0
 37
0.0
 40
372.1401085701372
 41
2.079530638852672
 42
50.0
 43
0.0
 44
0.0
 50
0.0
 51
0.0
 71
     0
 72
  1000
 73
     1
 74
     1
 75
     0
 76
     0
 77
     0
 78
     0
281
     0
 65
     1
110
0.0
120
0.0
130
0.0
111
1.0
121
0.0
131
0.0
112
0.0
122
1.0
132
0.0
 79
     0
146
0.0
348
614D
 60
     3
 61
     5
292
     1
282
     1
141
0.0
142
0.0
 63
   250
421
  3355443
  0
ENDTAB
  0
TABLE
  2
LTYPE
  5
5
330
0
100
AcDbSymbolTable
 70
     4
  0
LTYPE
  5
12
330
5
100
AcDbSymbolTableRecord
100
AcDbLinetypeTableRecord
  2
BYBLOCK
 70
     0
  3

 72
    65
 73
     0
 40
0.0
  0
LTYPE
  5
13
330
5
100
AcDbSymbolTableRecord
100
AcDbLinetypeTableRecord
  2
BYLAYER
 70
     0
  3

 72
    65
 73
     0
 40
0.0
  0
LTYPE
  5
14
330
5
100
AcDbSymbolTableRecord
100
AcDbLinetypeTableRecord
  2
CONTINUOUS
 70
     0
  3
Solid line
 72
    65
 73
     0
 40
0.0
  0
LTYPE
  5
7F6
330
5
100
AcDbSymbolTableRecord
100
AcDbLinetypeTableRecord
  2
CENTER2
 70
     0
  3
___ _ ___ _ ___ _ ___ _ ___ _ ___ _ ___ _ ___ _
 72
    65
 73
     4
 40
1.125
 49
0.75
 74
     0
 49
-0.125
 74
     0
 49
0.125
 74
     0
 49
-0.125
 74
     0
  0
LTYPE
  5
7F7
330
5
100
AcDbSymbolTableRecord
100
AcDbLinetypeTableRecord
  2
DASHED2
 70
     0
  3
_ _ _ _ _ _ _ _ _ _ _ _ _ _ _ _ _ _ _ _ _ _ _ _
 72
    65
 73
     2
 40
0.375
 49
0.25
 74
     0
 49
-0.125
 74
     0
  0
LTYPE
  5
7F8
330
5
100
AcDbSymbolTableRecord
100
AcDbLinetypeTableRecord
  2
PHANTOM2
 70
     0
  3
___ _ _ ___ _ _ ___ _ _ ___ _ _ ___ _ _ ___ _ _
 72
    65
 73
     6
 40
1.25
 49
0.625
 74
     0
 49
-0.125
 74
     0
 49
0.125
 74
     0
 49
-0.125
 74
     0
 49
0.125
 74
     0
 49
-0.125
 74
     0
  0
ENDTAB
  0
TABLE
  2
LAYER
  5
2
102
{ACAD_XDICTIONARY
360
B1D
102
}
330
0
100
AcDbSymbolTable
 70
    16
  0
LAYER
  5
F
102
{ACAD_XDICTIONARY
360
6196
102
}
330
2
100
AcDbSymbolTableRecord
100
AcDbLayerTableRecord
  2
0
 70
     0
 62
     7
  6
CONTINUOUS
370
    -3
390
27
347
613F
  0
LAYER
  5
99
330
2
100
AcDbSymbolTableRecord
100
AcDbLayerTableRecord
  2
Defpoints
 70
     0
 62
     7
  6
CONTINUOUS
290
     0
370
    -3
390
27
347
613F
  0
LAYER
  5
7F9
102
{ACAD_XDICTIONARY
360
6198
102
}
330
2
100
AcDbSymbolTableRecord
100
AcDbLayerTableRecord
  2
CENTER
 70
     0
 62
     1
  6
CENTER2
370
    -3
390
27
347
613F
  0
LAYER
  5
7FB
102
{ACAD_XDICTIONARY
360
619A
102
}
330
2
100
AcDbSymbolTableRecord
100
AcDbLayerTableRecord
  2
HOJYO
 70
     0
 62
    -6
  6
CONTINUOUS
370
    -3
390
27
347
613F
  0
LAYER
  5
7FC
102
{ACAD_XDICTIONARY
360
619C
102
}
330
2
100
AcDbSymbolTableRecord
100
AcDbLayerTableRecord
  2
SCALE
 70
     0
 62
     4
  6
CONTINUOUS
370
    -3
390
27
347
613F
  0
LAYER
  5
7FD
102
{ACAD_XDICTIONARY
360
619E
102
}
330
2
100
AcDbSymbolTableRecord
100
AcDbLayerTableRecord
  2
TXT1
 70
     0
 62
     3
  6
CONTINUOUS
370
    -3
390
27
347
613F
  0
LAYER
  5
7FF
102
{ACAD_XDICTIONARY
360
61A0
102
}
330
2
100
AcDbSymbolTableRecord
100
AcDbLayerTableRecord
  2
DRAHAT
 70
     0
 62
     1
  6
CONTINUOUS
370
    -3
390
27
347
613F
  0
LAYER
  5
800
102
{ACAD_XDICTIONARY
360
61A2
102
}
330
2
100
AcDbSymbolTableRecord
100
AcDbLayerTableRecord
  2
GAIKEI
 70
     0
 62
     2
  6
CONTINUOUS
370
    -3
390
27
347
613F
  0
LAYER
  5
801
102
{ACAD_XDICTIONARY
360
61A4
102
}
330
2
100
AcDbSymbolTableRecord
100
AcDbLayerTableRecord
  2
ZOKUSEI
 70
     0
 62
     3
  6
CONTINUOUS
370
    -3
390
27
347
613F
  0
LAYER
  5
802
102
{ACAD_XDICTIONARY
360
61A6
102
}
330
2
100
AcDbSymbolTableRecord
100
AcDbLayerTableRecord
  2
WBLK
 70
     5
 62
    -6
  6
CONTINUOUS
370
    -3
390
27
347
613F
  0
LAYER
  5
803
102
{ACAD_XDICTIONARY
360
61A8
102
}
330
2
100
AcDbSymbolTableRecord
100
AcDbLayerTableRecord
  2
HASEN
 70
     0
 62
     7
  6
DASHED2
370
    -3
390
27
347
613F
  0
LAYER
  5
804
102
{ACAD_XDICTIONARY
360
61AA
102
}
330
2
100
AcDbSymbolTableRecord
100
AcDbLayerTableRecord
  2
NITENSASEN
 70
     0
 62
     7
  6
PHANTOM2
370
    -3
390
27
347
613F
  0
LAYER
  5
B1B
102
{ACAD_XDICTIONARY
360
61AC
102
}
330
2
100
AcDbSymbolTableRecord
100
AcDbLayerTableRecord
  2
図枠
 70
     0
 62
     7
  6
CONTINUOUS
370
    -3
390
27
347
613F
  0
LAYER
  5
DD8
102
{ACAD_XDICTIONARY
360
61AE
102
}
330
2
100
AcDbSymbolTableRecord
100
AcDbLayerTableRecord
  2
BLKDRA
 70
     0
 62
     7
  6
CONTINUOUS
370
    -3
390
27
347
613F
  0
LAYER
  5
1758
102
{ACAD_XDICTIONARY
360
61B0
102
}
330
2
100
AcDbSymbolTableRecord
100
AcDbLayerTableRecord
  2
印
 70
     0
 62
     1
  6
CONTINUOUS
370
    -3
390
27
347
613F
  0
LAYER
  5
1A51
102
{ACAD_XDICTIONARY
360
61B2
102
}
330
2
100
AcDbSymbolTableRecord
100
AcDbLayerTableRecord
  2
DRADOT
 70
     0
 62
    -6
  6
CONTINUOUS
370
    -3
390
27
347
613F
  0
ENDTAB
  0
TABLE
  2
STYLE
  5
3
330
0
100
AcDbSymbolTable
 70
     2
  0
STYLE
  5
10
330
3
100
AcDbSymbolTableRecord
100
AcDbTextStyleTableRecord
  2
STANDARD
 70
     0
 40
0.0
 41
0.7
 50
0.0
 71
     0
 42
8.0
  3
romans.shx
  4
extfont.shx
  0
STYLE
  5
B1C
330
3
100
AcDbSymbolTableRecord
100
AcDbTextStyleTableRecord
  2
MSP明朝
 70
     0
 40
0.0
 41
1.0
 50
0.0
 71
     0
 42
4.0
  3
MS Mincho.ttf
  4

1001
ACAD
1000
MS Mincho
1071
    32785
  0
ENDTAB
  0
TABLE
  2
VIEW
  5
6
330
0
100
AcDbSymbolTable
 70
     1
  0
VIEW
  5
AEC
330
6
100
AcDbSymbolTableRecord
100
AcDbViewTableRecord
  2
zoom_all
 70
     0
 40
597.6437625036007
 10
210.0000009778888
 20
297.000001383014
 41
922.8055664189341
 11
0.0
 21
0.0
 31
1.0
 12
0.0
 22
0.0
 32
0.0
 42
50.0
 43
0.0
 44
0.0
 50
0.0
 71
     0
281
     0
 72
     1
110
0.0
120
0.0
130
0.0
111
1.0
121
0.0
131
0.0
112
0.0
122
1.0
132
0.0
 79
     0
146
0.0
 73
     0
348
614D
  0
ENDTAB
  0
TABLE
  2
UCS
  5
7
330
0
100
AcDbSymbolTable
 70
     0
  0
ENDTAB
  0
TABLE
  2
APPID
  5
9
330
0
100
AcDbSymbolTable
 70
    18
  0
APPID
  5
11
330
9
100
AcDbSymbolTableRecord
100
AcDbRegAppTableRecord
  2
ACAD
 70
     0
  0
APPID
  5
805
330
9
100
AcDbSymbolTableRecord
100
AcDbRegAppTableRecord
  2
EX_DIM
 70
     0
  0
APPID
  5
806
330
9
100
AcDbSymbolTableRecord
100
AcDbRegAppTableRecord
  2
EX_ETC
 70
     0
  0
APPID
  5
807
330
9
100
AcDbSymbolTableRecord
100
AcDbRegAppTableRecord
  2
EX_TSTY
 70
     0
  0
APPID
  5
808
330
9
100
AcDbSymbolTableRecord
100
AcDbRegAppTableRecord
  2
EX_TSTYL
 70
     0
  0
APPID
  5
809
330
9
100
AcDbSymbolTableRecord
100
AcDbRegAppTableRecord
  2
EX_TCON
 70
     0
  0
APPID
  5
80A
330
9
100
AcDbSymbolTableRecord
100
AcDbRegAppTableRecord
  2
EX_TCONL
 70
     0
  0
APPID
  5
80B
330
9
100
AcDbSymbolTableRecord
100
AcDbRegAppTableRecord
  2
DCO15
 70
     0
  0
APPID
  5
DDE
330
9
100
AcDbSymbolTableRecord
100
AcDbRegAppTableRecord
  2
AB_PARTS
 70
     0
  0
APPID
  5
DDF
330
9
100
AcDbSymbolTableRecord
100
AcDbRegAppTableRecord
  2
SW_PARTS
 70
     0
  0
APPID
  5
1A54
330
9
100
AcDbSymbolTableRecord
100
AcDbRegAppTableRecord
  2
AB_TABLE
 70
     0
  0
APPID
  5
1EF6
330
9
100
AcDbSymbolTableRecord
100
AcDbRegAppTableRecord
  2
ACAD_PSEXT
 70
     0
  0
APPID
  5
627E
330
9
100
AcDbSymbolTableRecord
100
AcDbRegAppTableRecord
  2
ACAD_EXEMPT_FROM_CAD_STANDARDS
 70
     0
  0
APPID
  5
62E9
330
9
100
AcDbSymbolTableRecord
100
AcDbRegAppTableRecord
  2
CIR2ARC
 70
     0
  0
APPID
  5
64E0
330
9
100
AcDbSymbolTableRecord
100
AcDbRegAppTableRecord
  2
ACAD_MLEADERVER
 70
     0
  0
APPID
  5
64EF
330
9
100
AcDbSymbolTableRecord
100
AcDbRegAppTableRecord
  2
ACAUTHENVIRON
 70
     0
  0
APPID
  5
64F3
330
9
100
AcDbSymbolTableRecord
100
AcDbRegAppTableRecord
  2
AcDbDynamicBlockTrueName
 70
     0
  0
APPID
  5
64F4
330
9
100
AcDbSymbolTableRecord
100
AcDbRegAppTableRecord
  2
AcDbDynamicBlockGUID
 70
     0
  0
ENDTAB
  0
TABLE
  2
DIMSTYLE
  5
A
330
0
100
AcDbSymbolTable
 70
     1
100
AcDbDimStyleTable
 71
     1
340
22
  0
DIMSTYLE
105
22
102
{ACAD_REACTORS
330
5F43
330
5F42
330
5F41
330
5F40
330
5F3F
330
5F3E
330
5F1D
330
5F1C
330
5F12
330
5EF0
330
5EED
330
5EEC
330
5EEB
330
5EE8
330
5DD3
330
5DD2
330
5DD1
330
5DD0
330
5DC9
330
6180
330
5EF1
330
6C6
102
}
330
A
100
AcDbSymbolTableRecord
100
AcDbDimStyleTableRecord
  2
STANDARD
 70
     0
 41
1.5
 42
0.5
 43
10.0
 44
2.0
 48
0.000000001
 73
     0
 74
     0
 77
     3
 78
     8
 79
     2
140
4.0
141
0.0
147
1.0
172
     1
179
     2
271
     2
272
     2
284
     8
289
     1
340
10
341
45
342
45
  0
ENDTAB
  0
TABLE
  2
BLOCK_RECORD
  5
1
330
0
100
AcDbSymbolTable
 70
    38
  0
BLOCK_RECORD
  5
18
102
{ACAD_XDICTIONARY
360
62F6
102
}
330
1
100
AcDbSymbolTableRecord
100
AcDbBlockTableRecord
  2
*MODEL_SPACE
340
2C
 70
     0
280
     1
281
     0
  0
BLOCK_RECORD
  5
15
330
1
100
AcDbSymbolTableRecord
100
AcDbBlockTableRecord
  2
*PAPER_SPACE
340
2D
 70
     0
280
     1
281
     0
  0
BLOCK_RECORD
  5
45
330
1
100
AcDbSymbolTableRecord
100
AcDbBlockTableRecord
  2
YAZ1
340
0
102
{BLKREFS
331
6F3
331
6F4
331
6DF
331
6357
331
6358
331
6362
331
6363
331
636D
331
636E
331
6378
331
6379
331
6381
331
6382
331
638A
331
638B
331
6393
331
6394
331
639C
331
639D
331
63A5
331
63A6
331
63B0
331
63B1
331
63BF
331
63C0
331
63C7
331
63C8
331
63D0
331
63D1
331
63D9
331
63DA
331
63E2
331
63E3
331
63EB
331
63EC
331
63F4
331
63F5
331
63FD
331
63FE
331
6406
331
6407
331
6411
331
6412
331
641A
331
641B
102
}
 70
     0
280
     1
281
     0
  0
BLOCK_RECORD
  5
CB
330
1
100
AcDbSymbolTableRecord
100
AcDbBlockTableRecord
  2
YAZ3
340
0
102
{BLKREFS
331
6DE
102
}
 70
     0
280
     1
281
     0
  0
BLOCK_RECORD
  5
D2
330
1
100
AcDbSymbolTableRecord
100
AcDbBlockTableRecord
  2
DOT1
340
0
102
{BLKREFS
331
6D4
102
}
 70
     0
280
     1
281
     0
  0
BLOCK_RECORD
  5
D7
330
1
100
AcDbSymbolTableRecord
100
AcDbBlockTableRecord
  2
TICK
340
0
102
{BLKREFS
331
6E1
102
}
 70
     0
280
     1
281
     0
  0
BLOCK_RECORD
  5
DC
330
1
100
AcDbSymbolTableRecord
100
AcDbBlockTableRecord
  2
YAZ0
340
0
102
{BLKREFS
331
6E0
102
}
 70
     0
280
     1
281
     0
  0
BLOCK_RECORD
  5
E0
330
1
100
AcDbSymbolTableRecord
100
AcDbBlockTableRecord
  2
YAZ6
340
0
102
{BLKREFS
331
6D5
102
}
 70
     0
280
     1
281
     0
  0
BLOCK_RECORD
  5
E7
330
1
100
AcDbSymbolTableRecord
100
AcDbBlockTableRecord
  2
YAZ8
340
0
102
{BLKREFS
331
6DD
102
}
 70
     0
280
     1
281
     0
  0
BLOCK_RECORD
  5
EE
330
1
100
AcDbSymbolTableRecord
100
AcDbBlockTableRecord
  2
HYBASE
340
0
102
{BLKREFS
331
A53
102
}
 70
     0
280
     1
281
     0
  0
BLOCK_RECORD
  5
F1
330
1
100
AcDbSymbolTableRecord
100
AcDbBlockTableRecord
  2
HYW1
340
0
102
{BLKREFS
331
6CE
102
}
 70
     0
280
     1
281
     0
  0
BLOCK_RECORD
  5
FC
330
1
100
AcDbSymbolTableRecord
100
AcDbBlockTableRecord
  2
HYW2
340
0
102
{BLKREFS
331
6CD
102
}
 70
     0
280
     1
281
     0
  0
BLOCK_RECORD
  5
100
330
1
100
AcDbSymbolTableRecord
100
AcDbBlockTableRecord
  2
HYW3
340
0
102
{BLKREFS
331
6CC
102
}
 70
     0
280
     1
281
     0
  0
BLOCK_RECORD
  5
104
330
1
100
AcDbSymbolTableRecord
100
AcDbBlockTableRecord
  2
INSLYTXT
340
0
102
{BLKREFS
331
AEA
102
}
 70
     0
280
     1
281
     0
  0
BLOCK_RECORD
  5
6C3
330
1
100
AcDbSymbolTableRecord
100
AcDbBlockTableRecord
  2
MTWBLK
340
0
102
{BLKREFS
331
A92
102
}
 70
     0
280
     1
281
     0
  0
BLOCK_RECORD
  5
6EE
330
1
100
AcDbSymbolTableRecord
100
AcDbBlockTableRecord
  2
*D13
340
0
 70
     0
280
     1
281
     0
  0
BLOCK_RECORD
  5
AF2
102
{ACAD_XDICTIONARY
360
64F0
102
}
330
1
100
AcDbSymbolTableRecord
100
AcDbBlockTableRecord
  2
NITTO CERA社名
340
0
310
2800000020000000200000000100080000000000000400000000000000000000000000000000000000000000000080000080000000808000800000008000800080800000C0C0C000C0DCC000F0CAA6000020400000206000002080000020A0000020C0000020E00000400000004020000040400000406000004080000040A0
310
000040C0000040E00000600000006020000060400000606000006080000060A0000060C0000060E00000800000008020000080400000806000008080000080A0000080C0000080E00000A0000000A0200000A0400000A0600000A0800000A0A00000A0C00000A0E00000C0000000C0200000C0400000C0600000C0800000C0
310
A00000C0C00000C0E00000E0000000E0200000E0400000E0600000E0800000E0A00000E0C00000E0E00040000000400020004000400040006000400080004000A0004000C0004000E00040200000402020004020400040206000402080004020A0004020C0004020E000404000004040200040404000404060004040800040
310
40A0004040C0004040E00040600000406020004060400040606000406080004060A0004060C0004060E00040800000408020004080400040806000408080004080A0004080C0004080E00040A0000040A0200040A0400040A0600040A0800040A0A00040A0C00040A0E00040C0000040C0200040C0400040C0600040C08000
310
40C0A00040C0C00040C0E00040E0000040E0200040E0400040E0600040E0800040E0A00040E0C00040E0E00080000000800020008000400080006000800080008000A0008000C0008000E00080200000802020008020400080206000802080008020A0008020C0008020E00080400000804020008040400080406000804080
310
008040A0008040C0008040E00080600000806020008060400080606000806080008060A0008060C0008060E00080800000808020008080400080806000808080008080A0008080C0008080E00080A0000080A0200080A0400080A0600080A0800080A0A00080A0C00080A0E00080C0000080C0200080C0400080C0600080C0
310
800080C0A00080C0C00080C0E00080E0000080E0200080E0400080E0600080E0800080E0A00080E0C00080E0E000C0000000C0002000C0004000C0006000C0008000C000A000C000C000C000E000C0200000C0202000C0204000C0206000C0208000C020A000C020C000C020E000C0400000C0402000C0404000C0406000C0
310
408000C040A000C040C000C040E000C0600000C0602000C0604000C0606000C0608000C060A000C060C000C060E000C0800000C0802000C0804000C0806000C0808000C080A000C080C000C080E000C0A00000C0A02000C0A04000C0A06000C0A08000C0A0A000C0A0C000C0A0E000C0C00000C0C02000C0C04000C0C06000
310
C0C08000C0C0A000F0FBFF00A4A0A000808080000000FF0000FF000000FFFF00FF000000FF00FF00FFFF0000FFFFFF0000000000000000000000000000000000000000000000000000000000000000000000000000000000000000000000000000000000000000000000000000000000000000000000000000000000000000
310
00000000000000000000000000000000000000000000000000000000000000000000000000000000000000000000000000000000000000000000000000000000000000000000000000000000000000000000000000000000000000000000000000000000000000000000000000000000000000000000000000000000000000
310
00000000000000000000000000000000000000000000000000000000000000000000000000000000000000000000000000000000000000000000000000000000000000000000000000000000000000000000000000000000000000000000000000000000000000000000000000000000000000000000000000000000000000
310
000000000000000000000000000000000000000000000000000000000000000000000000000000000000000000000000000000000000000000000000000000000000000000000000000000000000000000000000000000000000000000000000000000000000000000000000000000000000000000FFFFFFFFFF00FFFFFFFF
310
FF00FF00FFFF0000FFFFFFFFFFFFFFFFFFFF00000000FFFFFFFFFFFFFFFF00FFFF00FFFFFFFF0000FFFFFFFFFFFFFFFFFFFF00000000FFFFFFFFFFFFFFFF00FFFFFFFFFFFFFF0000FFFFFFFFFFFFFFFFFFFF00000000FFFFFFFFFFFFFFFFFFFFFFFFFFFFFFFF000000FFFFFFFFFFFFFFFFFF00000000000000000000000000
310
00000000000000000000000000000000000000000000000000000000000000000000000000000000000000000000000000000000000000000000000000000000000000000000000000000000000000000000000000000000000000000000000000000000000000000000000000000000000000000000000000000000000000
310
00000000000000000000000000000000000000000000000000000000000000000000000000000000000000000000000000000000000000000000000000000000000000000000000000000000000000000000000000000000000000000000000000000000000000000000000000000000000000000000000000000000000000
310
00000000000000000000000000000000000000000000000000000000000000000000000000000000000000000000000000000000000000000000000000000000000000000000000000000000000000000000000000000000000000000000000000000000000000000000000000000000000000000000000000000000000000
310
0000000000000000000000000000000000000000000000000000000000000000000000000000000000000000000000000000000000000000
102
{BLKREFS
331
4D2E
102
}
 70
     0
280
     1
281
     0
1001
AcDbDynamicBlockGUID
1000
{FEEF36B2-B689-45AE-9FB8-B3EECDAA437D}
  0
BLOCK_RECORD
  5
19E6
330
1
100
AcDbSymbolTableRecord
100
AcDbBlockTableRecord
  2
TSTYUKI
340
0
102
{BLKREFS
331
1B4B
102
}
 70
     0
280
     1
281
     0
  0
BLOCK_RECORD
  5
5F44
330
1
100
AcDbSymbolTableRecord
100
AcDbBlockTableRecord
  2
*D16
340
0
 70
     0
280
     1
281
     0
  0
BLOCK_RECORD
  5
5F52
330
1
100
AcDbSymbolTableRecord
100
AcDbBlockTableRecord
  2
*D17
340
0
 70
     0
280
     1
281
     0
  0
BLOCK_RECORD
  5
5F5E
330
1
100
AcDbSymbolTableRecord
100
AcDbBlockTableRecord
  2
*D18
340
0
 70
     0
280
     1
281
     0
  0
BLOCK_RECORD
  5
5F6A
330
1
100
AcDbSymbolTableRecord
100
AcDbBlockTableRecord
  2
*D19
340
0
 70
     0
280
     1
281
     0
  0
BLOCK_RECORD
  5
5F76
330
1
100
AcDbSymbolTableRecord
100
AcDbBlockTableRecord
  2
*D20
340
0
 70
     0
280
     1
281
     0
  0
BLOCK_RECORD
  5
5F82
330
1
100
AcDbSymbolTableRecord
100
AcDbBlockTableRecord
  2
*D21
340
0
 70
     0
280
     1
281
     0
  0
BLOCK_RECORD
  5
5F8E
330
1
100
AcDbSymbolTableRecord
100
AcDbBlockTableRecord
  2
*D22
340
0
 70
     0
280
     1
281
     0
  0
BLOCK_RECORD
  5
5F9A
330
1
100
AcDbSymbolTableRecord
100
AcDbBlockTableRecord
  2
*D23
340
0
 70
     0
280
     1
281
     0
  0
BLOCK_RECORD
  5
5FA6
330
1
100
AcDbSymbolTableRecord
100
AcDbBlockTableRecord
  2
*D24
340
0
 70
     0
280
     1
281
     0
  0
BLOCK_RECORD
  5
5FB2
330
1
100
AcDbSymbolTableRecord
100
AcDbBlockTableRecord
  2
*D25
340
0
 70
     0
280
     1
281
     0
  0
BLOCK_RECORD
  5
5FC0
330
1
100
AcDbSymbolTableRecord
100
AcDbBlockTableRecord
  2
*D26
340
0
 70
     0
280
     1
281
     0
  0
BLOCK_RECORD
  5
5FCE
330
1
100
AcDbSymbolTableRecord
100
AcDbBlockTableRecord
  2
*D27
340
0
 70
     0
280
     1
281
     0
  0
BLOCK_RECORD
  5
5FDA
330
1
100
AcDbSymbolTableRecord
100
AcDbBlockTableRecord
  2
*D28
340
0
 70
     0
280
     1
281
     0
  0
BLOCK_RECORD
  5
5FE6
330
1
100
AcDbSymbolTableRecord
100
AcDbBlockTableRecord
  2
*D29
340
0
 70
     0
280
     1
281
     0
  0
BLOCK_RECORD
  5
5FF2
330
1
100
AcDbSymbolTableRecord
100
AcDbBlockTableRecord
  2
*D30
340
0
 70
     0
280
     1
281
     0
  0
BLOCK_RECORD
  5
5FFE
330
1
100
AcDbSymbolTableRecord
100
AcDbBlockTableRecord
  2
*D31
340
0
 70
     0
280
     1
281
     0
  0
BLOCK_RECORD
  5
600A
330
1
100
AcDbSymbolTableRecord
100
AcDbBlockTableRecord
  2
*D32
340
0
 70
     0
280
     1
281
     0
  0
BLOCK_RECORD
  5
6018
330
1
100
AcDbSymbolTableRecord
100
AcDbBlockTableRecord
  2
*D33
340
0
 70
     0
280
     1
281
     0
  0
BLOCK_RECORD
  5
6026
330
1
100
AcDbSymbolTableRecord
100
AcDbBlockTableRecord
  2
*D34
340
0
 70
     0
280
     1
281
     0
  0
BLOCK_RECORD
  5
6034
330
1
100
AcDbSymbolTableRecord
100
AcDbBlockTableRecord
  2
*D35
340
0
 70
     0
280
     1
281
     0
  0
BLOCK_RECORD
  5
6181
330
1
100
AcDbSymbolTableRecord
100
AcDbBlockTableRecord
  2
*D36
340
0
 70
     0
280
     1
281
     0
  0
ENDTAB
  0
ENDSEC
  0
SECTION
  2
BLOCKS
  0
BLOCK
  5
20
330
18
100
AcDbEntity
  8
0
100
AcDbBlockBegin
  2
*MODEL_SPACE
 70
     0
 10
0.0
 20
0.0
 30
0.0
  3
*MODEL_SPACE
  1

  0
ENDBLK
  5
21
330
18
100
AcDbEntity
  8
0
100
AcDbBlockEnd
  0
BLOCK
  5
1E
330
15
100
AcDbEntity
 67
     1
  8
0
100
AcDbBlockBegin
  2
*PAPER_SPACE
 70
     0
 10
0.0
 20
0.0
 30
0.0
  3
*PAPER_SPACE
  1

  0
ENDBLK
  5
1F
330
15
100
AcDbEntity
 67
     1
  8
0
100
AcDbBlockEnd
  0
BLOCK
  5
46
330
45
100
AcDbEntity
  8
0
100
AcDbBlockBegin
  2
YAZ1
 70
     0
 10
0.0
 20
0.0
 30
0.0
  3
YAZ1
  1

  0
LINE
  5
47
330
45
100
AcDbEntity
  8
0
 62
     0
100
AcDbLine
 10
-1.0
 20
0.0
 30
0.0
 11
0.0
 21
0.0
 31
0.0
  0
LINE
  5
48
330
45
100
AcDbEntity
  8
0
 62
     0
100
AcDbLine
 10
0.0
 20
0.0
 30
0.0
 11
-1.0
 21
0.2679491924311037
 31
0.0
  0
LINE
  5
49
330
45
100
AcDbEntity
  8
0
 62
     0
100
AcDbLine
 10
0.0
 20
0.0
 30
0.0
 11
-1.0
 21
-0.2679491924311037
 31
0.0
  0
ENDBLK
  5
4A
330
45
100
AcDbEntity
  8
0
100
AcDbBlockEnd
  0
BLOCK
  5
CC
330
CB
100
AcDbEntity
  8
0
100
AcDbBlockBegin
  2
YAZ3
 70
     0
 10
0.0
 20
0.0
 30
0.0
  3
YAZ3
  1

  0
LINE
  5
CD
330
CB
100
AcDbEntity
  8
0
 62
     0
100
AcDbLine
 10
-1.0
 20
0.0
 30
0.0
 11
0.0
 21
0.0
 31
0.0
  0
LINE
  5
CE
330
CB
100
AcDbEntity
  8
0
 62
     0
100
AcDbLine
 10
0.0
 20
0.0
 30
0.0
 11
-1.0
 21
0.2679491924311037
 31
0.0
  0
LINE
  5
CF
330
CB
100
AcDbEntity
  8
0
 62
     0
100
AcDbLine
 10
0.0
 20
0.0
 30
0.0
 11
-1.0
 21
-0.2679491924311037
 31
0.0
  0
SOLID
  5
D0
330
CB
100
AcDbEntity
  8
0
 62
     0
100
AcDbTrace
 10
0.0
 20
0.0
 30
0.0
 11
-1.0
 21
0.2679491924311037
 31
0.0
 12
-1.0
 22
-0.2679491924311037
 32
0.0
 13
-1.0
 23
-0.2679491924311037
 33
0.0
  0
ENDBLK
  5
D1
330
CB
100
AcDbEntity
  8
0
100
AcDbBlockEnd
  0
BLOCK
  5
D3
330
D2
100
AcDbEntity
  8
0
100
AcDbBlockBegin
  2
DOT1
 70
     0
 10
0.0
 20
0.0
 30
0.0
  3
DOT1
  1

  0
LWPOLYLINE
  5
D4
330
D2
100
AcDbEntity
  8
0
 62
     0
100
AcDbPolyline
 90
        2
 70
     1
 43
0.25
 10
-0.125
 20
0.0
 42
1.0
 10
0.125
 20
0.0
 42
1.0
  0
LINE
  5
D5
330
D2
100
AcDbEntity
  8
0
 62
     0
100
AcDbLine
 10
-1.0
 20
0.0
 30
0.0
 11
0.0
 21
0.0
 31
0.0
  0
ENDBLK
  5
D6
330
D2
100
AcDbEntity
  8
0
100
AcDbBlockEnd
  0
BLOCK
  5
D8
330
D7
100
AcDbEntity
  8
0
100
AcDbBlockBegin
  2
TICK
 70
     0
 10
0.0
 20
0.0
 30
0.0
  3
TICK
  1

  0
LINE
  5
D9
330
D7
100
AcDbEntity
  8
0
 62
     0
100
AcDbLine
 10
0.5
 20
0.5
 30
0.0
 11
-0.5
 21
-0.5
 31
0.0
  0
LINE
  5
DA
330
D7
100
AcDbEntity
  8
0
 62
     0
100
AcDbLine
 10
0.0
 20
0.0
 30
0.0
 11
-1.0
 21
0.0
 31
0.0
  0
ENDBLK
  5
DB
330
D7
100
AcDbEntity
  8
0
100
AcDbBlockEnd
  0
BLOCK
  5
DD
330
DC
100
AcDbEntity
  8
0
100
AcDbBlockBegin
  2
YAZ0
 70
     0
 10
0.0
 20
0.0
 30
0.0
  3
YAZ0
  1

  0
LINE
  5
DE
330
DC
100
AcDbEntity
  8
0
 62
     0
100
AcDbLine
 10
0.0
 20
0.0
 30
0.0
 11
-1.0
 21
0.0
 31
0.0
  0
ENDBLK
  5
DF
330
DC
100
AcDbEntity
  8
0
100
AcDbBlockEnd
  0
BLOCK
  5
E1
330
E0
100
AcDbEntity
  8
0
100
AcDbBlockBegin
  2
YAZ6
 70
     0
 10
0.0
 20
0.0
 30
0.0
  3
YAZ6
  1

  0
LINE
  5
E2
330
E0
100
AcDbEntity
  8
0
 62
     0
100
AcDbLine
 10
0.0000000000000213
 20
0.0
 30
0.0
 11
1.000000000000021
 21
-0.2679491924311037
 31
0.0
  0
LINE
  5
E3
330
E0
100
AcDbEntity
  8
0
 62
     0
100
AcDbLine
 10
1.000000000000021
 20
0.0
 30
0.0
 11
0.0000000000000213
 21
0.0
 31
0.0
  0
LINE
  5
E4
330
E0
100
AcDbEntity
  8
0
 62
     0
100
AcDbLine
 10
0.0000000000000213
 20
0.0
 30
0.0
 11
1.000000000000021
 21
0.2679491924311037
 31
0.0
  0
LINE
  5
E5
330
E0
100
AcDbEntity
  8
0
 62
     0
100
AcDbLine
 10
-0.9999999999999785
 20
0.0
 30
0.0
 11
0.0000000000000213
 21
0.0
 31
0.0
  0
ENDBLK
  5
E6
330
E0
100
AcDbEntity
  8
0
100
AcDbBlockEnd
  0
BLOCK
  5
E8
330
E7
100
AcDbEntity
  8
0
100
AcDbBlockBegin
  2
YAZ8
 70
     0
 10
0.0
 20
0.0
 30
0.0
  3
YAZ8
  1

  0
SOLID
  5
E9
330
E7
100
AcDbEntity
  8
0
 62
     0
100
AcDbTrace
 10
-0.0000000000000142
 20
0.0
 30
0.0
 11
0.9999999999999856
 21
0.2679491924311037
 31
0.0
 12
0.9999999999999856
 22
-0.2679491924311037
 32
0.0
 13
0.9999999999999856
 23
0.2679491924311037
 33
0.0
  0
LINE
  5
EA
330
E7
100
AcDbEntity
  8
0
 62
     0
100
AcDbLine
 10
-0.0000000000000142
 20
0.0
 30
0.0
 11
0.9999999999999856
 21
-0.2679491924311037
 31
0.0
  0
LINE
  5
EB
330
E7
100
AcDbEntity
  8
0
 62
     0
100
AcDbLine
 10
-0.0000000000000142
 20
0.0
 30
0.0
 11
0.9999999999999856
 21
0.2679491924311037
 31
0.0
  0
LINE
  5
EC
330
E7
100
AcDbEntity
  8
0
 62
     0
100
AcDbLine
 10
-1.000000000000013
 20
0.0
 30
0.0
 11
-0.0000000000000142
 21
0.0
 31
0.0
  0
ENDBLK
  5
ED
330
E7
100
AcDbEntity
  8
0
100
AcDbBlockEnd
  0
BLOCK
  5
EF
330
EE
100
AcDbEntity
  8
0
100
AcDbBlockBegin
  2
HYBASE
 70
     0
 10
0.0
 20
0.0
 30
0.0
  3
HYBASE
  1

  0
ENDBLK
  5
F0
330
EE
100
AcDbEntity
  8
0
100
AcDbBlockEnd
  0
BLOCK
  5
F2
330
F1
100
AcDbEntity
  8
0
100
AcDbBlockBegin
  2
HYW1
 70
     2
 10
0.0
 20
0.0
 30
0.0
  3
HYW1
  1

  0
LINE
  5
F3
330
F1
100
AcDbEntity
  8
0
100
AcDbLine
 10
0.0
 20
0.0
 30
0.0
 11
1.0
 21
0.0
 31
0.0
  0
LINE
  5
F4
330
F1
100
AcDbEntity
  8
0
100
AcDbLine
 10
1.0
 20
0.0
 30
0.0
 11
1.0
 21
1.0
 31
0.0
  0
LINE
  5
F5
330
F1
100
AcDbEntity
  8
0
100
AcDbLine
 10
1.0
 20
1.0
 30
0.0
 11
0.0000000000000001
 21
1.0
 31
0.0
  0
LINE
  5
F6
330
F1
100
AcDbEntity
  8
0
100
AcDbLine
 10
0.0000000000000001
 20
1.0
 30
0.0
 11
0.0
 21
0.0
 31
0.0
  0
ATTDEF
  5
F7
330
F1
100
AcDbEntity
  8
0
100
AcDbText
 10
-0.2486376891619071
 20
0.3700653978223733
 30
0.0
 40
0.1
  1

100
AcDbAttributeDefinition
  3

  2
HKCT
 70
     1
280
     0
  0
ATTDEF
  5
F8
330
F1
100
AcDbEntity
  8
0
100
AcDbText
 10
-0.2486376891619071
 20
0.2500653978223733
 30
0.0
 40
0.1
  1

100
AcDbAttributeDefinition
  3

  2
HMTL
 70
     1
280
     0
  0
ATTDEF
  5
F9
330
F1
100
AcDbEntity
  8
0
100
AcDbText
 10
-0.2486376891619071
 20
0.1300653978223733
 30
0.0
 40
0.1
  1

100
AcDbAttributeDefinition
  3

  2
HKWL
 70
     1
280
     0
  0
ATTDEF
  5
FA
330
F1
100
AcDbEntity
  8
0
100
AcDbText
 10
-0.2486376891619071
 20
0.0100653978223733
 30
0.0
 40
0.1
  1

100
AcDbAttributeDefinition
  3

  2
HKML
 70
     1
280
     0
  0
ENDBLK
  5
FB
330
F1
100
AcDbEntity
  8
0
100
AcDbBlockEnd
  0
BLOCK
  5
FD
330
FC
100
AcDbEntity
  8
0
100
AcDbBlockBegin
  2
HYW2
 70
     0
 10
0.0
 20
0.0
 30
0.0
  3
HYW2
  1

  0
LINE
  5
FE
330
FC
100
AcDbEntity
  8
0
100
AcDbLine
 10
1.0
 20
0.0
 30
0.0
 11
1.0
 21
1.0
 31
0.0
  0
ENDBLK
  5
FF
330
FC
100
AcDbEntity
  8
0
100
AcDbBlockEnd
  0
BLOCK
  5
101
330
100
100
AcDbEntity
  8
0
100
AcDbBlockBegin
  2
HYW3
 70
     0
 10
0.0
 20
0.0
 30
0.0
  3
HYW3
  1

  0
LINE
  5
102
330
100
100
AcDbEntity
  8
0
100
AcDbLine
 10
1.0
 20
1.0
 30
0.0
 11
0.0000000000000001
 21
1.0
 31
0.0
  0
ENDBLK
  5
103
330
100
100
AcDbEntity
  8
0
100
AcDbBlockEnd
  0
BLOCK
  5
105
330
104
100
AcDbEntity
  8
0
100
AcDbBlockBegin
  2
INSLYTXT
 70
     0
 10
0.0
 20
0.0
 30
0.0
  3
INSLYTXT
  1

  0
ENDBLK
  5
106
330
104
100
AcDbEntity
  8
0
100
AcDbBlockEnd
1001
EX_TSTYL
1002
{
1000
TYP1
1040
4.0
1040
0.0
1040
0.0
1040
0.0
1040
7.0
1040
0.0
1040
0.0
1040
0.0
1040
10.0
1040
0.0
1040
0.0
1040
0.0
1040
15.0
1040
0.0
1040
0.0
1040
0.0
1040
15.0
1040
0.0
1040
0.0
1040
0.0
1040
20.0
1040
0.0
1040
0.0
1040
0.0
1040
30.0
1040
0.0
1040
0.0
1040
0.0
1040
40.0
1040
0.0
1040
0.0
1040
0.0
1040
50.0
1040
0.0
1040
0.0
1040
0.0
1002
}
1001
EX_TCONL
1002
{
1000
BNO1
1000
SRD-
1000

1000
01
1070
     1
1000
PROJ-
1000
A
1000
100
1070
     1
1000
PROJ-
1000
B
1000
200
1070
     1
1000
PROJ-
1000
C
1000
300
1070
    10
1000
PROJ-
1000
C
1000
300
1070
    10
1002
}
1001
EX_DIM
1002
{
1070
     0
1040
10.0
1040
4.0
1000

1000
1
1040
0.0
1070
     1
1070
     0
1000
YAZ0
1070
     0
1002
}
1001
EX_ETC
1002
{
1040
1.0
1040
3.0
1000
ACAD
1070
    10
1070
     1
1070
     1
1070
     4
1070
     5
1070
    97
1070
     1
1002
}
1001
EX_TSTY
1002
{
1000
TYP1
1040
4.0
1040
7.0
1040
10.0
1040
15.0
1040
15.0
1040
0.0
1040
0.0
1040
0.0
1040
0.0
1040
0.0
1010
0.0
1020
0.0
1030
0.0
1010
0.0
1020
0.0
1030
0.0
1010
0.0
1020
0.0
1030
0.0
1010
0.0
1020
0.0
1030
0.0
1010
0.0
1020
0.0
1030
0.0
1002
}
1001
EX_TCON
1002
{
1000
BNO1
1000
SRD-
1000
PROJ-
1000
PROJ-
1000
PROJ-
1000
PROJ-
1000

1000
A
1000
B
1000
C
1000
C
1000
01
1000
100
1000
200
1000
300
1000
300
1070
     1
1070
     1
1070
     1
1070
    10
1070
    10
1002
}
  0
BLOCK
  5
6C4
330
6C3
100
AcDbEntity
  8
0
100
AcDbBlockBegin
  2
MTWBLK
 70
     0
 10
0.0
 20
0.0
 30
0.0
  3
MTWBLK
  1

  0
LINE
  5
6C5
330
6C3
100
AcDbEntity
  8
0
100
AcDbLine
 10
-13.71326758209989
 20
128.2549656478263
 30
0.0
 11
-3.713267582099888
 21
128.2549656478263
 31
0.0
  0
DIMENSION
  5
6C6
330
6C3
100
AcDbEntity
  8
SCALE
100
AcDbDimension
  2
*D13
 10
-4.625238393966697
 20
97.11258168854923
 30
0.0
 11
-9.625222135582376
 21
100.1125816885492
 31
0.0
 12
-35.0
 22
-8.0
 32
0.0
 71
     5
 42
-1.0
 73
     0
 74
     0
 75
     0
  3
STANDARD
100
AcDbAlignedDimension
 13
-14.62520587719805
 23
88.91721785759221
 33
0.0
 14
-4.625238393966697
 24
88.91721785759221
 34
0.0
100
AcDbRotatedDimension
  0
LINE
  5
6C7
330
6C3
100
AcDbEntity
  8
ZOKUSEI
100
AcDbLine
 10
-13.71326758209989
 20
123.6655623229827
 30
0.0
 11
-3.713267582099891
 21
123.6655623229827
 31
0.0
  0
LINE
  5
6C8
330
6C3
100
AcDbEntity
  8
GAIKEI
100
AcDbLine
 10
-13.71326758209989
 20
117.4370848303069
 30
0.0
 11
-3.713267582099891
 21
117.4370848303069
 31
0.0
  0
LINE
  5
6C9
330
6C3
100
AcDbEntity
  8
DRAHAT
100
AcDbLine
 10
-13.71326758209989
 20
112.5198665317327
 30
0.0
 11
-3.713267582099891
 21
112.5198665317327
 31
0.0
  0
TEXT
  5
6CA
330
6C3
100
AcDbEntity
  8
TXT1
100
AcDbText
 10
-11.51214832750383
 20
82.6887410657369
 30
0.0
 40
4.0
  1
111
 41
0.7
100
AcDbText
  0
LINE
  5
6CB
330
6C3
100
AcDbEntity
  8
CENTER
100
AcDbLine
 10
-13.71326758209989
 20
106.9470189865179
 30
0.0
 11
-3.713267582099888
 21
106.9470189865179
 31
0.0
  0
INSERT
  5
6CC
330
6C3
100
AcDbEntity
  8
WBLK
100
AcDbBlockReference
  2
HYW3
 10
-11.67544169931204
 20
8.112663714663936
 30
0.0
 50
270.0
  0
INSERT
  5
6CD
330
6C3
100
AcDbEntity
  8
WBLK
100
AcDbBlockReference
  2
HYW2
 10
-11.67544169931204
 20
18.11266371466394
 30
0.0
 50
270.0
  0
INSERT
  5
6CE
330
6C3
100
AcDbEntity
  8
WBLK
100
AcDbBlockReference
 66
     1
  2
HYW1
 10
-11.67544169931204
 20
28.11266371466394
 30
0.0
 50
270.0
  0
ATTRIB
  5
6CF
330
6CE
100
AcDbEntity
  8
0
100
AcDbText
 10
-11.30537630148967
 20
28.36130140382585
 30
0.0
 40
0.1
  1

 50
270.0
100
AcDbAttribute
  2
HKCT
 70
     1
280
     0
  0
ATTRIB
  5
6D0
330
6CE
100
AcDbEntity
  8
0
100
AcDbText
 10
-11.42537630148968
 20
28.36130140382585
 30
0.0
 40
0.1
  1

 50
270.0
100
AcDbAttribute
  2
HMTL
 70
     1
280
     0
  0
ATTRIB
  5
6D1
330
6CE
100
AcDbEntity
  8
0
100
AcDbText
 10
-11.54537630148968
 20
28.36130140382585
 30
0.0
 40
0.1
  1

 50
270.0
100
AcDbAttribute
  2
HKWL
 70
     1
280
     0
  0
ATTRIB
  5
6D2
330
6CE
100
AcDbEntity
  8
0
100
AcDbText
 10
-11.66537630148968
 20
28.36130140382585
 30
0.0
 40
0.1
  1

 50
270.0
100
AcDbAttribute
  2
HKML
 70
     1
280
     0
  0
SEQEND
  5
6D3
330
6CE
100
AcDbEntity
  8
WBLK
  0
INSERT
  5
6D4
330
6C3
100
AcDbEntity
  8
WBLK
100
AcDbBlockReference
  2
DOT1
 10
-11.67544169931204
 20
48.11266371466394
 30
0.0
 50
270.0
  0
INSERT
  5
6D5
330
6C3
100
AcDbEntity
  8
WBLK
100
AcDbBlockReference
  2
YAZ6
 10
-6.675441699312044
 20
18.11266371466394
 30
0.0
 50
270.0
  0
TEXT
  5
6D6
330
6C3
100
AcDbEntity
  8
WBLK
100
AcDbText
 10
-20.69469490555332
 20
61.70860867733876
 30
0.0
 40
4.0
  1
MechBlk
 41
0.7
100
AcDbText
  0
POINT
  5
6D7
330
6C3
100
AcDbEntity
  8
WBLK
100
AcDbPoint
 10
-11.67544169931204
 20
8.112663714663936
 30
0.0
  0
POINT
  5
6D8
330
6C3
100
AcDbEntity
  8
WBLK
100
AcDbPoint
 10
-11.67544169931204
 20
18.11266371466394
 30
0.0
  0
POINT
  5
6D9
330
6C3
100
AcDbEntity
  8
WBLK
100
AcDbPoint
 10
-11.67544169931204
 20
28.11266371466394
 30
0.0
  0
POINT
  5
6DA
330
6C3
100
AcDbEntity
  8
WBLK
100
AcDbPoint
 10
-11.67544169931204
 20
38.11266371466394
 30
0.0
  0
POINT
  5
6DB
330
6C3
100
AcDbEntity
  8
WBLK
100
AcDbPoint
 10
-11.67544169931204
 20
48.11266371466394
 30
0.0
  0
POINT
  5
6DC
330
6C3
100
AcDbEntity
  8
WBLK
100
AcDbPoint
 10
-11.67544169931204
 20
58.11266371466394
 30
0.0
  0
INSERT
  5
6DD
330
6C3
100
AcDbEntity
  8
WBLK
100
AcDbBlockReference
  2
YAZ8
 10
-11.67544169931204
 20
58.11266371466394
 30
0.0
 50
270.0
  0
INSERT
  5
6DE
330
6C3
100
AcDbEntity
  8
WBLK
100
AcDbBlockReference
  2
YAZ3
 10
-6.675441699312044
 20
8.112663714663936
 30
0.0
 50
270.0
  0
INSERT
  5
6DF
330
6C3
100
AcDbEntity
  8
WBLK
100
AcDbBlockReference
  2
YAZ1
 10
-6.675441699312044
 20
28.11266371466394
 30
0.0
 50
270.0
  0
INSERT
  5
6E0
330
6C3
100
AcDbEntity
  8
WBLK
100
AcDbBlockReference
  2
YAZ0
 10
-6.675441699312044
 20
38.11266371466394
 30
0.0
 50
270.0
  0
INSERT
  5
6E1
330
6C3
100
AcDbEntity
  8
WBLK
100
AcDbBlockReference
  2
TICK
 10
-6.675441699312044
 20
48.11266371466394
 30
0.0
 50
270.0
  0
POINT
  5
6E2
330
6C3
100
AcDbEntity
  8
WBLK
100
AcDbPoint
 10
-6.675441699312044
 20
8.112663714663936
 30
0.0
  0
POINT
  5
6E3
330
6C3
100
AcDbEntity
  8
WBLK
100
AcDbPoint
 10
-6.675441699312044
 20
18.11266371466394
 30
0.0
  0
POINT
  5
6E4
330
6C3
100
AcDbEntity
  8
WBLK
100
AcDbPoint
 10
-6.675441699312044
 20
18.11266371466394
 30
0.0
  0
POINT
  5
6E5
330
6C3
100
AcDbEntity
  8
WBLK
100
AcDbPoint
 10
-6.675441699312044
 20
28.11266371466394
 30
0.0
  0
POINT
  5
6E6
330
6C3
100
AcDbEntity
  8
WBLK
100
AcDbPoint
 10
-6.675441699312044
 20
38.11266371466394
 30
0.0
  0
POINT
  5
6E7
330
6C3
100
AcDbEntity
  8
WBLK
100
AcDbPoint
 10
-6.675441699312044
 20
48.11266371466394
 30
0.0
  0
POINT
  5
6E8
330
6C3
100
AcDbEntity
  8
WBLK
100
AcDbPoint
 10
-6.675441699312044
 20
58.11266371466394
 30
0.0
  0
LINE
  5
6E9
330
6C3
100
AcDbEntity
  8
NITENSASEN
100
AcDbLine
 10
-13.71326758209989
 20
147.4304630499613
 30
0.0
 11
-3.713267582099883
 21
147.4304630499613
 31
0.0
  0
LINE
  5
6EA
330
6C3
100
AcDbEntity
  8
HASEN
100
AcDbLine
 10
-13.71326758209989
 20
152.4304630499614
 30
0.0
 11
-3.713267582099883
 21
152.4304630499614
 31
0.0
  0
TEXT
  5
6EB
330
6C3
100
AcDbEntity
  8
WBLK
100
AcDbText
 10
-13.47983624538824
 20
137.4337743999746
 30
0.0
 40
4.0
  1
Line
 41
0.7
100
AcDbText
  0
TEXT
  5
6EC
330
6C3
100
AcDbEntity
  8
WBLK
100
AcDbText
 10
-15.44752527374351
 20
131.5331118810293
 30
0.0
 40
4.0
  1
Layer
 41
0.7
100
AcDbText
  0
ENDBLK
  5
6ED
330
6C3
100
AcDbEntity
  8
0
100
AcDbBlockEnd
  0
BLOCK
  5
6EF
330
6EE
100
AcDbEntity
  8
0
100
AcDbBlockBegin
  2
*D13
 70
     1
 10
0.0
 20
0.0
 30
0.0
  3
*D13
  1

  0
LINE
  5
6F0
330
6EE
100
AcDbEntity
  8
0
  6
ByBlock
100
AcDbLine
 10
20.37479412280195
 20
97.41721785759224
 30
0.0
 11
20.37479412280195
 21
107.1125816885492
 31
0.0
  0
LINE
  5
6F1
330
6EE
100
AcDbEntity
  8
0
  6
ByBlock
100
AcDbLine
 10
30.3747616060333
 20
97.41721785759224
 30
0.0
 11
30.3747616060333
 21
107.1125816885492
 31
0.0
  0
LINE
  5
6F2
330
6EE
100
AcDbEntity
  8
0
  6
ByBlock
100
AcDbLine
 10
21.87479412280195
 20
105.1125816885492
 30
0.0
 11
28.87476160603331
 21
105.1125816885492
 31
0.0
  0
INSERT
  5
6F3
330
6EE
100
AcDbEntity
  8
0
  6
ByBlock
100
AcDbBlockReference
  2
YAZ1
 10
20.37479412280195
 20
105.1125816885492
 30
0.0
 41
1.5
 42
1.5
 43
1.5
 50
180.0
  0
INSERT
  5
6F4
330
6EE
100
AcDbEntity
  8
0
  6
ByBlock
100
AcDbBlockReference
  2
YAZ1
 10
30.3747616060333
 20
105.1125816885492
 30
0.0
 41
1.5
 42
1.5
 43
1.5
  0
MTEXT
  5
6F5
330
6EE
100
AcDbEntity
  8
0
  6
ByBlock
100
AcDbMText
 10
25.37477786441762
 20
108.1125816885492
 30
0.0
 40
4.0
 41
0.0
 46
0.0
 71
     5
 72
     5
  1
\A1;10
 73
     1
 44
1.0
  0
POINT
  5
6F6
330
6EE
100
AcDbEntity
  8
Defpoints
  6
ByBlock
 62
     0
100
AcDbPoint
 10
20.37479412280195
 20
96.91721785759222
 30
0.0
  0
POINT
  5
6F7
330
6EE
100
AcDbEntity
  8
Defpoints
  6
ByBlock
 62
     0
100
AcDbPoint
 10
30.3747616060333
 20
96.91721785759222
 30
0.0
  0
POINT
  5
6F8
330
6EE
100
AcDbEntity
  8
Defpoints
  6
ByBlock
 62
     0
100
AcDbPoint
 10
30.3747616060333
 20
105.1125816885492
 30
0.0
  0
ENDBLK
  5
6F9
330
6EE
100
AcDbEntity
  8
0
100
AcDbBlockEnd
  0
BLOCK
  5
AF3
330
AF2
100
AcDbEntity
  8
0
100
AcDbBlockBegin
  2
NITTO CERA社名
 70
     0
 10
0.0
 20
0.0
 30
0.0
  3
NITTO CERA社名
  1

  0
TEXT
  5
64ED
330
AF2
100
AcDbEntity
  8
図枠
100
AcDbText
 10
17.6536741383793
 20
0.9283468251990319
 30
0.0
 40
13.49578927781894
  1
グローエジャパン
 41
0.7
  7
MSP明朝
100
AcDbText
  0
TEXT
  5
64EE
330
AF2
100
AcDbEntity
  8
図枠
100
AcDbText
 10
129.2048946104183
 20
2.415871441007026
 30
0.0
 40
10.1699999999596
  1
㈱
  7
MSP明朝
100
AcDbText
  0
ENDBLK
  5
AF5
330
AF2
100
AcDbEntity
  8
0
100
AcDbBlockEnd
  0
BLOCK
  5
19E7
330
19E6
100
AcDbEntity
  8
0
100
AcDbBlockBegin
  2
TSTYUKI
 70
     2
 10
0.0
 20
0.0
 30
0.0
  3
TSTYUKI
  1

  0
TEXT
  5
19E8
330
19E6
100
AcDbEntity
  8
TXT1
100
AcDbText
 10
0.0
 20
0.0
 30
0.0
 40
4.0
  1
注記
 41
0.7
100
AcDbText
  0
POINT
  5
19E9
330
19E6
100
AcDbEntity
  8
DRADOT
100
AcDbPoint
 10
0.0
 20
0.0
 30
0.0
  0
ATTDEF
  5
19EA
330
19E6
100
AcDbEntity
  8
ZOKUSEI
100
AcDbText
 10
10.0
 20
0.0
 30
0.0
 40
4.0
  1
1.
 41
0.7
100
AcDbAttributeDefinition
  3

  2
注記1行目
 70
     0
280
     0
  0
ATTDEF
  5
19EB
330
19E6
100
AcDbEntity
  8
ZOKUSEI
100
AcDbText
 10
10.0
 20
5.999999999999969
 30
0.0
 40
4.0
  1

 41
0.7
100
AcDbAttributeDefinition
  3

  2
注記2行目
 70
     0
280
     0
  0
ATTDEF
  5
19EC
330
19E6
100
AcDbEntity
  8
ZOKUSEI
100
AcDbText
 10
10.0
 20
11.99999999999998
 30
0.0
 40
4.0
  1

 41
0.7
100
AcDbAttributeDefinition
  3

  2
注記3行目
 70
     0
280
     0
  0
ATTDEF
  5
19ED
330
19E6
100
AcDbEntity
  8
ZOKUSEI
100
AcDbText
 10
10.0
 20
17.99999999999997
 30
0.0
 40
4.0
  1

 41
0.7
100
AcDbAttributeDefinition
  3

  2
注記4行目
 70
     0
280
     0
  0
ATTDEF
  5
19EE
330
19E6
100
AcDbEntity
  8
ZOKUSEI
100
AcDbText
 10
10.0
 20
23.99999999999999
 30
0.0
 40
4.0
  1

 41
0.7
100
AcDbAttributeDefinition
  3

  2
注記5行目
 70
     0
280
     0
  0
ATTDEF
  5
19EF
330
19E6
100
AcDbEntity
  8
ZOKUSEI
100
AcDbText
 10
10.0
 20
29.99999999999996
 30
0.0
 40
4.0
  1

 41
0.7
100
AcDbAttributeDefinition
  3

  2
注記6行目
 70
     0
280
     0
  0
ATTDEF
  5
19F0
330
19E6
100
AcDbEntity
  8
ZOKUSEI
100
AcDbText
 10
10.0
 20
35.99999999999996
 30
0.0
 40
4.0
  1

 41
0.7
100
AcDbAttributeDefinition
  3

  2
注記7行目
 70
     0
280
     0
  0
ATTDEF
  5
19F1
330
19E6
100
AcDbEntity
  8
ZOKUSEI
100
AcDbText
 10
10.0
 20
41.99999999999993
 30
0.0
 40
4.0
  1

 41
0.7
100
AcDbAttributeDefinition
  3

  2
注記8行目
 70
     0
280
     0
  0
ATTDEF
  5
19F2
330
19E6
100
AcDbEntity
  8
ZOKUSEI
100
AcDbText
 10
10.0
 20
47.99999999999997
 30
0.0
 40
4.0
  1

 41
0.7
100
AcDbAttributeDefinition
  3

  2
注記9行目
 70
     0
280
     0
  0
ATTDEF
  5
19F3
330
19E6
100
AcDbEntity
  8
ZOKUSEI
100
AcDbText
 10
10.0
 20
53.99999999999995
 30
0.0
 40
4.0
  1

 41
0.7
100
AcDbAttributeDefinition
  3

  2
注記10行目
 70
     0
280
     0
  0
ATTDEF
  5
19F4
330
19E6
100
AcDbEntity
  8
ZOKUSEI
100
AcDbText
 10
10.0
 20
59.99999999999996
 30
0.0
 40
4.0
  1

 41
0.7
100
AcDbAttributeDefinition
  3

  2
注記11行目
 70
     0
280
     0
  0
ATTDEF
  5
19F5
330
19E6
100
AcDbEntity
  8
ZOKUSEI
100
AcDbText
 10
10.0
 20
65.99999999999993
 30
0.0
 40
4.0
  1

 41
0.7
100
AcDbAttributeDefinition
  3

  2
注記12行目
 70
     0
280
     0
  0
ENDBLK
  5
19F6
330
19E6
100
AcDbEntity
  8
0
100
AcDbBlockEnd
  0
BLOCK
  5
5F50
330
5F44
100
AcDbEntity
  8
0
100
AcDbBlockBegin
  2
*D16
 70
     1
 10
0.0
 20
0.0
 30
0.0
  3
*D16
  1

  0
LINE
  5
640C
330
5F44
100
AcDbEntity
  8
SCALE
 62
     0
440
 16777216
370
    -2
100
AcDbLine
 10
314.3251706953559
 20
127.1584962780597
 30
0.0
 11
314.3251706953559
 21
113.3378265707714
 31
0.0
  0
LINE
  5
640D
330
5F44
100
AcDbEntity
  8
SCALE
 62
     0
440
 16777216
370
    -2
100
AcDbLine
 10
282.575170695356
 20
127.1584962780597
 30
0.0
 11
282.575170695356
 21
113.3378265707714
 31
0.0
  0
LINE
  5
640E
330
5F44
100
AcDbEntity
  8
SCALE
 62
     0
440
 16777216
370
    -2
100
AcDbLine
 10
320.3251706953559
 20
113.3378265707714
 30
0.0
 11
326.325170695356
 21
113.3378265707714
 31
0.0
  0
LINE
  5
640F
330
5F44
100
AcDbEntity
  8
SCALE
 62
     0
440
 16777216
370
    -2
100
AcDbLine
 10
276.5751706953559
 20
113.3378265707714
 30
0.0
 11
237.3289715437508
 21
113.3378265707714
 31
0.0
  0
LINE
  5
6410
330
5F44
100
AcDbEntity
  8
SCALE
 62
     0
440
 16777216
370
    -2
100
AcDbLine
 10
314.3251706953559
 20
113.3378265707714
 30
0.0
 11
282.575170695356
 21
113.3378265707714
 31
0.0
  0
INSERT
  5
6411
330
5F44
100
AcDbEntity
  8
SCALE
 62
     0
440
 16777216
370
    -2
100
AcDbBlockReference
  2
YAZ1
 10
314.3251706953559
 20
113.3378265707714
 30
0.0
 41
6.0
 42
6.0
 43
6.0
 50
180.0
  0
INSERT
  5
6412
330
5F44
100
AcDbEntity
  8
SCALE
 62
     0
440
 16777216
370
    -2
100
AcDbBlockReference
  2
YAZ1
 10
282.575170695356
 20
113.3378265707714
 30
0.0
 41
6.0
 42
6.0
 43
6.0
  0
MTEXT
  5
6413
330
5F44
100
AcDbEntity
  8
SCALE
 62
     0
440
 16777216
100
AcDbMText
 10
247.3956382104175
 20
120.3378265707714
 30
0.0
 40
8.0
 41
0.0
 46
0.0
 71
     5
 72
     1
  1
\A1;%%c32
 73
     1
 44
1.0
  0
POINT
  5
6414
330
5F44
100
AcDbEntity
  8
Defpoints
 62
     0
440
 16777216
100
AcDbPoint
 10
314.3251706953559
 20
128.1584962780597
 30
0.0
  0
POINT
  5
6415
330
5F44
100
AcDbEntity
  8
Defpoints
 62
     0
440
 16777216
100
AcDbPoint
 10
282.575170695356
 20
128.1584962780597
 30
0.0
  0
POINT
  5
6416
330
5F44
100
AcDbEntity
  8
Defpoints
 62
     0
440
 16777216
100
AcDbPoint
 10
282.575170695356
 20
113.3378265707714
 30
0.0
  0
ENDBLK
  5
5F51
330
5F44
100
AcDbEntity
  8
0
100
AcDbBlockEnd
  0
BLOCK
  5
5F5C
330
5F52
100
AcDbEntity
  8
0
100
AcDbBlockBegin
  2
*D17
 70
     1
 10
0.0
 20
0.0
 30
0.0
  3
*D17
  1

  0
LINE
  5
6403
330
5F52
100
AcDbEntity
  8
SCALE
 62
     0
440
 16777216
370
    -2
100
AcDbLine
 10
124.746907622606
 20
323.1577036130667
 30
0.0
 11
99.40092876304214
 21
323.1577036130667
 31
0.0
  0
LINE
  5
6404
330
5F52
100
AcDbEntity
  8
SCALE
 62
     0
440
 16777216
370
    -2
100
AcDbLine
 10
183.4273163377121
 20
193.1577036130665
 30
0.0
 11
99.40092876304213
 21
193.1577036130665
 31
0.0
  0
LINE
  5
6405
330
5F52
100
AcDbEntity
  8
SCALE
 62
     0
440
 16777216
370
    -2
100
AcDbLine
 10
99.40092876304214
 20
317.1577036130666
 30
0.0
 11
99.40092876304213
 21
199.1577036130665
 31
0.0
  0
INSERT
  5
6406
330
5F52
100
AcDbEntity
  8
SCALE
 62
     0
440
 16777216
370
    -2
100
AcDbBlockReference
  2
YAZ1
 10
99.40092876304214
 20
323.1577036130667
 30
0.0
 41
6.0
 42
6.0
 43
6.0
 50
90.0
  0
INSERT
  5
6407
330
5F52
100
AcDbEntity
  8
SCALE
 62
     0
440
 16777216
370
    -2
100
AcDbBlockReference
  2
YAZ1
 10
99.40092876304213
 20
193.1577036130665
 30
0.0
 41
6.0
 42
6.0
 43
6.0
 50
270.0
  0
MTEXT
  5
6408
330
5F52
100
AcDbEntity
  8
SCALE
 62
     0
440
 16777216
100
AcDbMText
 10
92.40092876304208
 20
257.9476390266858
 30
0.0
 40
8.0
 41
0.0
 46
0.0
 71
     5
 72
     1
  1
\A1;（130）
 11
0.0000000000000001
 21
1.0
 31
0.0
 73
     1
 44
1.0
  0
POINT
  5
6409
330
5F52
100
AcDbEntity
  8
Defpoints
 62
     0
440
 16777216
100
AcDbPoint
 10
125.746907622606
 20
323.1577036130667
 30
0.0
  0
POINT
  5
640A
330
5F52
100
AcDbEntity
  8
Defpoints
 62
     0
440
 16777216
100
AcDbPoint
 10
184.4273163377121
 20
193.1577036130665
 30
0.0
  0
POINT
  5
640B
330
5F52
100
AcDbEntity
  8
Defpoints
 62
     0
440
 16777216
100
AcDbPoint
 10
99.40092876304213
 20
193.1577036130665
 30
0.0
  0
ENDBLK
  5
5F5D
330
5F52
100
AcDbEntity
  8
0
100
AcDbBlockEnd
  0
BLOCK
  5
5F68
330
5F5E
100
AcDbEntity
  8
0
100
AcDbBlockBegin
  2
*D18
 70
     1
 10
0.0
 20
0.0
 30
0.0
  3
*D18
  1

  0
LINE
  5
63FA
330
5F5E
100
AcDbEntity
  8
SCALE
 62
     0
440
 16777216
370
    -2
100
AcDbLine
 10
261.4501703377127
 20
285.157703613067
 30
0.0
 11
357.8725280887672
 21
285.157703613067
 31
0.0
  0
LINE
  5
63FB
330
5F5E
100
AcDbEntity
  8
SCALE
 62
     0
440
 16777216
370
    -2
100
AcDbLine
 10
315.3251703377127
 20
98.15849627805972
 30
0.0
 11
357.8725280887671
 21
98.15849627805972
 31
0.0
  0
LINE
  5
63FC
330
5F5E
100
AcDbEntity
  8
SCALE
 62
     0
440
 16777216
370
    -2
100
AcDbLine
 10
357.8725280887672
 20
279.1577036130671
 30
0.0
 11
357.8725280887671
 21
104.1584962780597
 31
0.0
  0
INSERT
  5
63FD
330
5F5E
100
AcDbEntity
  8
SCALE
 62
     0
440
 16777216
370
    -2
100
AcDbBlockReference
  2
YAZ1
 10
357.8725280887672
 20
285.157703613067
 30
0.0
 41
6.0
 42
6.0
 43
6.0
 50
90.0
  0
INSERT
  5
63FE
330
5F5E
100
AcDbEntity
  8
SCALE
 62
     0
440
 16777216
370
    -2
100
AcDbBlockReference
  2
YAZ1
 10
357.8725280887671
 20
98.15849627805972
 30
0.0
 41
6.0
 42
6.0
 43
6.0
 50
270.0
  0
MTEXT
  5
63FF
330
5F5E
100
AcDbEntity
  8
SCALE
 62
     0
440
 16777216
100
AcDbMText
 10
350.872528088767
 20
191.732963273777
 30
0.0
 40
8.0
 41
0.0
 46
0.0
 71
     5
 72
     1
  1
\A1;（550）
 11
0.0000000000000001
 21
1.0
 31
0.0
 73
     1
 44
1.0
  0
POINT
  5
6400
330
5F5E
100
AcDbEntity
  8
Defpoints
 62
     0
440
 16777216
100
AcDbPoint
 10
260.4501703377128
 20
285.157703613067
 30
0.0
  0
POINT
  5
6401
330
5F5E
100
AcDbEntity
  8
Defpoints
 62
     0
440
 16777216
100
AcDbPoint
 10
314.3251703377127
 20
98.15849627805972
 30
0.0
  0
POINT
  5
6402
330
5F5E
100
AcDbEntity
  8
Defpoints
 62
     0
440
 16777216
100
AcDbPoint
 10
357.8725280887671
 20
98.15849627805972
 30
0.0
  0
ENDBLK
  5
5F69
330
5F5E
100
AcDbEntity
  8
0
100
AcDbBlockEnd
  0
BLOCK
  5
5F74
330
5F6A
100
AcDbEntity
  8
0
100
AcDbBlockBegin
  2
*D19
 70
     1
 10
0.0
 20
0.0
 30
0.0
  3
*D19
  1

  0
LINE
  5
63F1
330
5F6A
100
AcDbEntity
  8
SCALE
 62
     0
440
 16777216
370
    -2
100
AcDbLine
 10
261.4501703377123
 20
285.1577036130667
 30
0.0
 11
337.424786179356
 21
285.1577036130667
 31
0.0
  0
LINE
  5
63F2
330
5F6A
100
AcDbEntity
  8
SCALE
 62
     0
440
 16777216
370
    -2
100
AcDbLine
 10
185.4273163377121
 20
193.1577036130665
 30
0.0
 11
337.424786179356
 21
193.1577036130665
 31
0.0
  0
LINE
  5
63F3
330
5F6A
100
AcDbEntity
  8
SCALE
 62
     0
440
 16777216
370
    -2
100
AcDbLine
 10
337.424786179356
 20
279.1577036130666
 30
0.0
 11
337.424786179356
 21
199.1577036130665
 31
0.0
  0
INSERT
  5
63F4
330
5F6A
100
AcDbEntity
  8
SCALE
 62
     0
440
 16777216
370
    -2
100
AcDbBlockReference
  2
YAZ1
 10
337.424786179356
 20
285.1577036130667
 30
0.0
 41
6.0
 42
6.0
 43
6.0
 50
90.0
  0
INSERT
  5
63F5
330
5F6A
100
AcDbEntity
  8
SCALE
 62
     0
440
 16777216
370
    -2
100
AcDbBlockReference
  2
YAZ1
 10
337.424786179356
 20
193.1577036130665
 30
0.0
 41
6.0
 42
6.0
 43
6.0
 50
270.0
  0
MTEXT
  5
63F6
330
5F6A
100
AcDbEntity
  8
SCALE
 62
     0
440
 16777216
100
AcDbMText
 10
330.4247861793559
 20
238.5234416893347
 30
0.0
 40
8.0
 41
0.0
 46
0.0
 71
     5
 72
     1
  1
\A1;（92）
 11
0.0000000000000001
 21
1.0
 31
0.0
 73
     1
 44
1.0
  0
POINT
  5
63F7
330
5F6A
100
AcDbEntity
  8
Defpoints
 62
     0
440
 16777216
100
AcDbPoint
 10
260.4501703377124
 20
285.1577036130667
 30
0.0
  0
POINT
  5
63F8
330
5F6A
100
AcDbEntity
  8
Defpoints
 62
     0
440
 16777216
100
AcDbPoint
 10
184.4273163377121
 20
193.1577036130665
 30
0.0
  0
POINT
  5
63F9
330
5F6A
100
AcDbEntity
  8
Defpoints
 62
     0
440
 16777216
100
AcDbPoint
 10
337.424786179356
 20
193.1577036130665
 30
0.0
  0
ENDBLK
  5
5F75
330
5F6A
100
AcDbEntity
  8
0
100
AcDbBlockEnd
  0
BLOCK
  5
5F80
330
5F76
100
AcDbEntity
  8
0
100
AcDbBlockBegin
  2
*D20
 70
     1
 10
0.0
 20
0.0
 30
0.0
  3
*D20
  1

  0
LINE
  5
63E8
330
5F76
100
AcDbEntity
  8
SCALE
 62
     0
440
 16777216
370
    -2
100
AcDbLine
 10
222.4387423377123
 20
230.1577036130665
 30
0.0
 11
222.4387423377123
 21
156.0346067529923
 31
0.0
  0
LINE
  5
63E9
330
5F76
100
AcDbEntity
  8
SCALE
 62
     0
440
 16777216
370
    -2
100
AcDbLine
 10
298.4501703377123
 20
160.1731971795615
 30
0.0
 11
298.4501703377123
 21
156.0346067529923
 31
0.0
  0
LINE
  5
63EA
330
5F76
100
AcDbEntity
  8
SCALE
 62
     0
440
 16777216
370
    -2
100
AcDbLine
 10
228.4387423377122
 20
156.0346067529923
 30
0.0
 11
292.4501703377123
 21
156.0346067529923
 31
0.0
  0
INSERT
  5
63EB
330
5F76
100
AcDbEntity
  8
SCALE
 62
     0
440
 16777216
370
    -2
100
AcDbBlockReference
  2
YAZ1
 10
222.4387423377123
 20
156.0346067529923
 30
0.0
 41
6.0
 42
6.0
 43
6.0
 50
180.0
  0
INSERT
  5
63EC
330
5F76
100
AcDbEntity
  8
SCALE
 62
     0
440
 16777216
370
    -2
100
AcDbBlockReference
  2
YAZ1
 10
298.4501703377123
 20
156.0346067529923
 30
0.0
 41
6.0
 42
6.0
 43
6.0
  0
MTEXT
  5
63ED
330
5F76
100
AcDbEntity
  8
SCALE
 62
     0
440
 16777216
100
AcDbMText
 10
260.4444563377123
 20
163.0346067529923
 30
0.0
 40
8.0
 41
0.0
 46
0.0
 71
     5
 72
     1
  1
\A1;（76）
 73
     1
 44
1.0
  0
POINT
  5
63EE
330
5F76
100
AcDbEntity
  8
Defpoints
 62
     0
440
 16777216
100
AcDbPoint
 10
222.4387423377123
 20
231.1577036130665
 30
0.0
  0
POINT
  5
63EF
330
5F76
100
AcDbEntity
  8
Defpoints
 62
     0
440
 16777216
100
AcDbPoint
 10
298.4501703377123
 20
161.1731971795615
 30
0.0
  0
POINT
  5
63F0
330
5F76
100
AcDbEntity
  8
Defpoints
 62
     0
440
 16777216
100
AcDbPoint
 10
298.4501703377123
 20
156.0346067529923
 30
0.0
  0
ENDBLK
  5
5F81
330
5F76
100
AcDbEntity
  8
0
100
AcDbBlockEnd
  0
BLOCK
  5
5F8C
330
5F82
100
AcDbEntity
  8
0
100
AcDbBlockBegin
  2
*D21
 70
     1
 10
0.0
 20
0.0
 30
0.0
  3
*D21
  1

  0
LINE
  5
63DF
330
5F82
100
AcDbEntity
  8
SCALE
 62
     0
440
 16777216
370
    -2
100
AcDbLine
 10
146.4273163377122
 20
230.1577036130665
 30
0.0
 11
146.4273163377122
 21
156.0346067529923
 31
0.0
  0
LINE
  5
63E0
330
5F82
100
AcDbEntity
  8
SCALE
 62
     0
440
 16777216
370
    -2
100
AcDbLine
 10
222.4387423377123
 20
230.1577036130665
 30
0.0
 11
222.4387423377123
 21
156.0346067529923
 31
0.0
  0
LINE
  5
63E1
330
5F82
100
AcDbEntity
  8
SCALE
 62
     0
440
 16777216
370
    -2
100
AcDbLine
 10
152.4273163377122
 20
156.0346067529923
 30
0.0
 11
216.4387423377123
 21
156.0346067529923
 31
0.0
  0
INSERT
  5
63E2
330
5F82
100
AcDbEntity
  8
SCALE
 62
     0
440
 16777216
370
    -2
100
AcDbBlockReference
  2
YAZ1
 10
146.4273163377122
 20
156.0346067529923
 30
0.0
 41
6.0
 42
6.0
 43
6.0
 50
180.0
  0
INSERT
  5
63E3
330
5F82
100
AcDbEntity
  8
SCALE
 62
     0
440
 16777216
370
    -2
100
AcDbBlockReference
  2
YAZ1
 10
222.4387423377123
 20
156.0346067529923
 30
0.0
 41
6.0
 42
6.0
 43
6.0
  0
MTEXT
  5
63E4
330
5F82
100
AcDbEntity
  8
SCALE
 62
     0
440
 16777216
100
AcDbMText
 10
184.4330293377122
 20
163.0346067529923
 30
0.0
 40
8.0
 41
0.0
 46
0.0
 71
     5
 72
     1
  1
\A1;（76）
 73
     1
 44
1.0
  0
POINT
  5
63E5
330
5F82
100
AcDbEntity
  8
Defpoints
 62
     0
440
 16777216
100
AcDbPoint
 10
146.4273163377122
 20
231.1577036130665
 30
0.0
  0
POINT
  5
63E6
330
5F82
100
AcDbEntity
  8
Defpoints
 62
     0
440
 16777216
100
AcDbPoint
 10
222.4387423377123
 20
231.1577036130665
 30
0.0
  0
POINT
  5
63E7
330
5F82
100
AcDbEntity
  8
Defpoints
 62
     0
440
 16777216
100
AcDbPoint
 10
222.4387423377123
 20
156.0346067529923
 30
0.0
  0
ENDBLK
  5
5F8D
330
5F82
100
AcDbEntity
  8
0
100
AcDbBlockEnd
  0
BLOCK
  5
5F98
330
5F8E
100
AcDbEntity
  8
0
100
AcDbBlockBegin
  2
*D22
 70
     1
 10
0.0
 20
0.0
 30
0.0
  3
*D22
  1

  0
LINE
  5
63D6
330
5F8E
100
AcDbEntity
  8
SCALE
 62
     0
440
 16777216
370
    -2
100
AcDbLine
 10
198.4501703377173
 20
240.8577036130675
 30
0.0
 11
198.4501703377173
 21
312.672443335084
 31
0.0
  0
LINE
  5
63D7
330
5F8E
100
AcDbEntity
  8
SCALE
 62
     0
440
 16777216
370
    -2
100
AcDbLine
 10
246.4273163377172
 20
240.8577036130675
 30
0.0
 11
246.4273163377172
 21
312.672443335084
 31
0.0
  0
LINE
  5
63D8
330
5F8E
100
AcDbEntity
  8
SCALE
 62
     0
440
 16777216
370
    -2
100
AcDbLine
 10
204.4501703377173
 20
312.672443335084
 30
0.0
 11
240.4273163377173
 21
312.672443335084
 31
0.0
  0
INSERT
  5
63D9
330
5F8E
100
AcDbEntity
  8
SCALE
 62
     0
440
 16777216
370
    -2
100
AcDbBlockReference
  2
YAZ1
 10
198.4501703377173
 20
312.672443335084
 30
0.0
 41
6.0
 42
6.0
 43
6.0
 50
180.0
  0
INSERT
  5
63DA
330
5F8E
100
AcDbEntity
  8
SCALE
 62
     0
440
 16777216
370
    -2
100
AcDbBlockReference
  2
YAZ1
 10
246.4273163377172
 20
312.672443335084
 30
0.0
 41
6.0
 42
6.0
 43
6.0
  0
MTEXT
  5
63DB
330
5F8E
100
AcDbEntity
  8
SCALE
 62
     0
440
 16777216
100
AcDbMText
 10
237.4750870004316
 20
319.6724433350841
 30
0.0
 40
8.0
 41
0.0
 46
0.0
 71
     5
 72
     1
  1
\A1;六角対辺43
 73
     1
 44
1.0
  0
POINT
  5
63DC
330
5F8E
100
AcDbEntity
  8
Defpoints
 62
     0
440
 16777216
100
AcDbPoint
 10
198.4501703377173
 20
239.8577036130675
 30
0.0
  0
POINT
  5
63DD
330
5F8E
100
AcDbEntity
  8
Defpoints
 62
     0
440
 16777216
100
AcDbPoint
 10
246.4273163377172
 20
239.8577036130675
 30
0.0
  0
POINT
  5
63DE
330
5F8E
100
AcDbEntity
  8
Defpoints
 62
     0
440
 16777216
100
AcDbPoint
 10
246.4273163377172
 20
312.672443335084
 30
0.0
  0
ENDBLK
  5
5F99
330
5F8E
100
AcDbEntity
  8
0
100
AcDbBlockEnd
  0
BLOCK
  5
5FA4
330
5F9A
100
AcDbEntity
  8
0
100
AcDbBlockBegin
  2
*D23
 70
     1
 10
0.0
 20
0.0
 30
0.0
  3
*D23
  1

  0
LINE
  5
63CD
330
5F9A
100
AcDbEntity
  8
SCALE
 62
     0
440
 16777216
370
    -2
100
AcDbLine
 10
265.4501703377123
 20
127.1584962780595
 30
0.0
 11
265.4501703377123
 21
81.86117835363097
 31
0.0
  0
LINE
  5
63CE
330
5F9A
100
AcDbEntity
  8
SCALE
 62
     0
440
 16777216
370
    -2
100
AcDbLine
 10
331.4501703377124
 20
127.1584962780595
 30
0.0
 11
331.4501703377124
 21
81.86117835363097
 31
0.0
  0
LINE
  5
63CF
330
5F9A
100
AcDbEntity
  8
SCALE
 62
     0
440
 16777216
370
    -2
100
AcDbLine
 10
271.4501703377123
 20
81.86117835363097
 30
0.0
 11
325.4501703377123
 21
81.86117835363097
 31
0.0
  0
INSERT
  5
63D0
330
5F9A
100
AcDbEntity
  8
SCALE
 62
     0
440
 16777216
370
    -2
100
AcDbBlockReference
  2
YAZ1
 10
265.4501703377123
 20
81.86117835363097
 30
0.0
 41
6.0
 42
6.0
 43
6.0
 50
180.0
  0
INSERT
  5
63D1
330
5F9A
100
AcDbEntity
  8
SCALE
 62
     0
440
 16777216
370
    -2
100
AcDbBlockReference
  2
YAZ1
 10
331.4501703377124
 20
81.86117835363097
 30
0.0
 41
6.0
 42
6.0
 43
6.0
  0
MTEXT
  5
63D2
330
5F9A
100
AcDbEntity
  8
SCALE
 62
     0
440
 16777216
100
AcDbMText
 10
298.3355363089998
 20
88.86117835363098
 30
0.0
 40
8.0
 41
0.0
 46
0.0
 71
     5
 72
     1
  1
\A1;%%c66
 73
     1
 44
1.0
  0
POINT
  5
63D3
330
5F9A
100
AcDbEntity
  8
Defpoints
 62
     0
440
 16777216
100
AcDbPoint
 10
265.4501703377123
 20
128.1584962780595
 30
0.0
  0
POINT
  5
63D4
330
5F9A
100
AcDbEntity
  8
Defpoints
 62
     0
440
 16777216
100
AcDbPoint
 10
331.4501703377124
 20
128.1584962780595
 30
0.0
  0
POINT
  5
63D5
330
5F9A
100
AcDbEntity
  8
Defpoints
 62
     0
440
 16777216
100
AcDbPoint
 10
331.4501703377124
 20
81.86117835363097
 30
0.0
  0
ENDBLK
  5
5FA5
330
5F9A
100
AcDbEntity
  8
0
100
AcDbBlockEnd
  0
BLOCK
  5
5FB0
330
5FA6
100
AcDbEntity
  8
0
100
AcDbBlockBegin
  2
*D24
 70
     1
 10
0.0
 20
0.0
 30
0.0
  3
*D24
  1

  0
LINE
  5
63C4
330
5FA6
100
AcDbEntity
  8
SCALE
 62
     0
440
 16777216
370
    -2
100
AcDbLine
 10
124.746907622606
 20
323.1577036130667
 30
0.0
 11
115.762583931285
 21
323.1577036130667
 31
0.0
  0
LINE
  5
63C5
330
5FA6
100
AcDbEntity
  8
SCALE
 62
     0
440
 16777216
370
    -2
100
AcDbLine
 10
128.6273163377127
 20
271.1577036130666
 30
0.0
 11
115.762583931285
 21
271.1577036130667
 31
0.0
  0
LINE
  5
63C6
330
5FA6
100
AcDbEntity
  8
SCALE
 62
     0
440
 16777216
370
    -2
100
AcDbLine
 10
115.762583931285
 20
317.1577036130666
 30
0.0
 11
115.762583931285
 21
277.1577036130667
 31
0.0
  0
INSERT
  5
63C7
330
5FA6
100
AcDbEntity
  8
SCALE
 62
     0
440
 16777216
370
    -2
100
AcDbBlockReference
  2
YAZ1
 10
115.762583931285
 20
323.1577036130667
 30
0.0
 41
6.0
 42
6.0
 43
6.0
 50
90.0
  0
INSERT
  5
63C8
330
5FA6
100
AcDbEntity
  8
SCALE
 62
     0
440
 16777216
370
    -2
100
AcDbBlockReference
  2
YAZ1
 10
115.762583931285
 20
271.1577036130667
 30
0.0
 41
6.0
 42
6.0
 43
6.0
 50
270.0
  0
MTEXT
  5
63C9
330
5FA6
100
AcDbEntity
  8
SCALE
 62
     0
440
 16777216
100
AcDbMText
 10
108.7625839312849
 20
305.8107616374657
 30
0.0
 40
8.0
 41
0.0
 46
0.0
 71
     5
 72
     1
  1
\A1;（52）
 11
0.0000000000000001
 21
1.0
 31
0.0
 73
     1
 44
1.0
  0
POINT
  5
63CA
330
5FA6
100
AcDbEntity
  8
Defpoints
 62
     0
440
 16777216
100
AcDbPoint
 10
125.746907622606
 20
323.1577036130667
 30
0.0
  0
POINT
  5
63CB
330
5FA6
100
AcDbEntity
  8
Defpoints
 62
     0
440
 16777216
100
AcDbPoint
 10
129.6273163377127
 20
271.1577036130666
 30
0.0
  0
POINT
  5
63CC
330
5FA6
100
AcDbEntity
  8
Defpoints
 62
     0
440
 16777216
100
AcDbPoint
 10
115.762583931285
 20
271.1577036130667
 30
0.0
  0
ENDBLK
  5
5FB1
330
5FA6
100
AcDbEntity
  8
0
100
AcDbBlockEnd
  0
BLOCK
  5
5FBE
330
5FB2
100
AcDbEntity
  8
0
100
AcDbBlockBegin
  2
*D25
 70
     1
 10
0.0
 20
0.0
 30
0.0
  3
*D25
  1

  0
LINE
  5
63B6
330
5FB2
100
AcDbEntity
  8
SCALE
 62
     0
440
 16777216
370
    -2
100
AcDbLine
 10
297.1418844040445
 20
473.6311826552044
 30
0.0
 11
279.1540150817301
 21
473.6311826552044
 31
0.0
  0
LINE
  5
63B7
330
5FB2
100
AcDbEntity
  8
SCALE
 62
     0
440
 16777216
370
    -2
100
AcDbLine
 10
294.8418844040443
 20
492.8765866552044
 30
0.0
 11
279.1540150817301
 21
492.8765866552044
 31
0.0
  0
LINE
  5
63B8
330
5FB2
100
AcDbEntity
  8
SCALE
 62
     0
440
 16777216
370
    -2
100
AcDbLine
 10
279.1540150817301
 20
467.6311826552043
 30
0.0
 11
279.1540150817301
 21
461.6311826552044
 31
0.0
  0
LINE
  5
63B9
330
5FB2
100
AcDbEntity
  8
SCALE
 62
     0
440
 16777216
370
    -2
100
AcDbLine
 10
279.1540150817301
 20
498.8765866552044
 30
0.0
 11
279.1540150817301
 21
504.8765866552043
 31
0.0
  0
LINE
  5
63BA
330
5FB2
100
AcDbEntity
  8
SCALE
 62
     0
440
 16777216
370
    -2
100
AcDbLine
 10
279.1540150817301
 20
483.2538846552044
 30
0.0
 11
263.65401508173
 21
492.4442474667727
 31
0.0
  0
LINE
  5
63BB
330
5FB2
100
AcDbEntity
  8
SCALE
 62
     0
440
 16777216
370
    -2
100
AcDbLine
 10
263.65401508173
 20
492.4442474667727
 30
0.0
 11
263.65401508173
 21
560.6842474667727
 31
0.0
  0
MTEXT
  5
63BC
330
5FB2
100
AcDbEntity
  8
SCALE
 62
     0
440
 16777216
100
AcDbMText
 10
256.6540150817301
 20
526.5642474667727
 30
0.0
 40
8.0
 41
0.0
 46
0.0
 71
     5
 72
     1
  1
\A1;天板締付範囲6～40
 11
0.0000000000000001
 21
1.0
 31
0.0
 73
     1
 44
1.0
  0
LINE
  5
63BD
330
5FB2
100
AcDbEntity
  8
SCALE
 62
     0
440
 16777216
370
    -2
100
AcDbLine
 10
279.1540150817301
 20
473.6311826552044
 30
0.0
 11
279.1540150817301
 21
492.8765866552044
 31
0.0
  0
LINE
  5
63BE
330
5FB2
100
AcDbEntity
  8
SCALE
 62
     0
440
 16777216
370
    -2
100
AcDbLine
 10
279.1540150817301
 20
473.6311826552044
 30
0.0
 11
279.1540150817301
 21
492.8765866552044
 31
0.0
  0
INSERT
  5
63BF
330
5FB2
100
AcDbEntity
  8
SCALE
 62
     0
440
 16777216
370
    -2
100
AcDbBlockReference
  2
YAZ1
 10
279.1540150817301
 20
473.6311826552044
 30
0.0
 41
6.0
 42
6.0
 43
6.0
 50
90.0
  0
INSERT
  5
63C0
330
5FB2
100
AcDbEntity
  8
SCALE
 62
     0
440
 16777216
370
    -2
100
AcDbBlockReference
  2
YAZ1
 10
279.1540150817301
 20
492.8765866552044
 30
0.0
 41
6.0
 42
6.0
 43
6.0
 50
270.0
  0
POINT
  5
63C1
330
5FB2
100
AcDbEntity
  8
Defpoints
 62
     0
440
 16777216
100
AcDbPoint
 10
298.1418844040445
 20
473.6311826552044
 30
0.0
  0
POINT
  5
63C2
330
5FB2
100
AcDbEntity
  8
Defpoints
 62
     0
440
 16777216
100
AcDbPoint
 10
295.8418844040443
 20
492.8765866552044
 30
0.0
  0
POINT
  5
63C3
330
5FB2
100
AcDbEntity
  8
Defpoints
 62
     0
440
 16777216
100
AcDbPoint
 10
279.1540150817301
 20
492.8765866552044
 30
0.0
  0
ENDBLK
  5
5FBF
330
5FB2
100
AcDbEntity
  8
0
100
AcDbBlockEnd
  0
BLOCK
  5
5FCC
330
5FC0
100
AcDbEntity
  8
0
100
AcDbBlockBegin
  2
*D26
 70
     1
 10
0.0
 20
0.0
 30
0.0
  3
*D26
  1

  0
LINE
  5
63AB
330
5FC0
100
AcDbEntity
  8
SCALE
 62
     0
440
 16777216
370
    -2
100
AcDbLine
 10
319.8794884040444
 20
465.3457146552044
 30
0.0
 11
319.8794884040444
 21
458.6109552824784
 31
0.0
  0
LINE
  5
63AC
330
5FC0
100
AcDbEntity
  8
SCALE
 62
     0
440
 16777216
370
    -2
100
AcDbLine
 10
301.4042804040443
 20
465.3457146552044
 30
0.0
 11
301.4042804040443
 21
458.6109552824784
 31
0.0
  0
LINE
  5
63AD
330
5FC0
100
AcDbEntity
  8
SCALE
 62
     0
440
 16777216
370
    -2
100
AcDbLine
 10
325.8794884040444
 20
458.6109552824784
 30
0.0
 11
331.8794884040443
 21
458.6109552824784
 31
0.0
  0
LINE
  5
63AE
330
5FC0
100
AcDbEntity
  8
SCALE
 62
     0
440
 16777216
370
    -2
100
AcDbLine
 10
295.4042804040444
 20
458.6109552824784
 30
0.0
 11
234.2575959799332
 21
458.6109552824784
 31
0.0
  0
LINE
  5
63AF
330
5FC0
100
AcDbEntity
  8
SCALE
 62
     0
440
 16777216
370
    -2
100
AcDbLine
 10
319.8794884040444
 20
458.6109552824784
 30
0.0
 11
301.4042804040443
 21
458.6109552824784
 31
0.0
  0
INSERT
  5
63B0
330
5FC0
100
AcDbEntity
  8
SCALE
 62
     0
440
 16777216
370
    -2
100
AcDbBlockReference
  2
YAZ1
 10
319.8794884040444
 20
458.6109552824784
 30
0.0
 41
6.0
 42
6.0
 43
6.0
 50
180.0
  0
INSERT
  5
63B1
330
5FC0
100
AcDbEntity
  8
SCALE
 62
     0
440
 16777216
370
    -2
100
AcDbBlockReference
  2
YAZ1
 10
301.4042804040443
 20
458.6109552824784
 30
0.0
 41
6.0
 42
6.0
 43
6.0
  0
MTEXT
  5
63B2
330
5FC0
100
AcDbEntity
  8
SCALE
 62
     0
440
 16777216
100
AcDbMText
 10
255.6309293132665
 20
465.6109552824784
 30
0.0
 40
8.0
 41
0.0
 46
0.0
 71
     5
 72
     1
  1
\A1;六角対辺16
 73
     1
 44
1.0
  0
POINT
  5
63B3
330
5FC0
100
AcDbEntity
  8
Defpoints
 62
     0
440
 16777216
100
AcDbPoint
 10
319.8794884040444
 20
466.3457146552046
 30
0.0
  0
POINT
  5
63B4
330
5FC0
100
AcDbEntity
  8
Defpoints
 62
     0
440
 16777216
100
AcDbPoint
 10
301.4042804040443
 20
466.3457146552046
 30
0.0
  0
POINT
  5
63B5
330
5FC0
100
AcDbEntity
  8
Defpoints
 62
     0
440
 16777216
100
AcDbPoint
 10
301.4042804040443
 20
458.6109552824784
 30
0.0
  0
ENDBLK
  5
5FCD
330
5FC0
100
AcDbEntity
  8
0
100
AcDbBlockEnd
  0
BLOCK
  5
5FD8
330
5FCE
100
AcDbEntity
  8
0
100
AcDbBlockBegin
  2
*D27
 70
     1
 10
0.0
 20
0.0
 30
0.0
  3
*D27
  1

  0
LINE
  5
63A2
330
5FCE
100
AcDbEntity
  8
SCALE
 62
     0
440
 16777216
370
    -2
100
AcDbLine
 10
295.6418844040445
 20
494.5490826552044
 30
0.0
 11
295.6418844040445
 21
539.2727614692903
 31
0.0
  0
LINE
  5
63A3
330
5FCE
100
AcDbEntity
  8
SCALE
 62
     0
440
 16777216
370
    -2
100
AcDbLine
 10
325.6418844040445
 20
494.5490826552044
 30
0.0
 11
325.6418844040445
 21
539.2727614692903
 31
0.0
  0
LINE
  5
63A4
330
5FCE
100
AcDbEntity
  8
SCALE
 62
     0
440
 16777216
370
    -2
100
AcDbLine
 10
301.6418844040445
 20
539.2727614692903
 30
0.0
 11
319.6418844040445
 21
539.2727614692903
 31
0.0
  0
INSERT
  5
63A5
330
5FCE
100
AcDbEntity
  8
SCALE
 62
     0
440
 16777216
370
    -2
100
AcDbBlockReference
  2
YAZ1
 10
295.6418844040445
 20
539.2727614692903
 30
0.0
 41
6.0
 42
6.0
 43
6.0
 50
180.0
  0
INSERT
  5
63A6
330
5FCE
100
AcDbEntity
  8
SCALE
 62
     0
440
 16777216
370
    -2
100
AcDbBlockReference
  2
YAZ1
 10
325.6418844040445
 20
539.2727614692903
 30
0.0
 41
6.0
 42
6.0
 43
6.0
  0
MTEXT
  5
63A7
330
5FCE
100
AcDbEntity
  8
SCALE
 62
     0
440
 16777216
100
AcDbMText
 10
310.6418844040445
 20
546.2727614692903
 30
0.0
 40
8.0
 41
0.0
 46
0.0
 71
     5
 72
     1
  1
\A1;%%c30
 73
     1
 44
1.0
  0
POINT
  5
63A8
330
5FCE
100
AcDbEntity
  8
Defpoints
 62
     0
440
 16777216
100
AcDbPoint
 10
295.6418844040445
 20
493.5490826552045
 30
0.0
  0
POINT
  5
63A9
330
5FCE
100
AcDbEntity
  8
Defpoints
 62
     0
440
 16777216
100
AcDbPoint
 10
325.6418844040445
 20
493.5490826552045
 30
0.0
  0
POINT
  5
63AA
330
5FCE
100
AcDbEntity
  8
Defpoints
 62
     0
440
 16777216
100
AcDbPoint
 10
325.6418844040445
 20
539.2727614692903
 30
0.0
  0
ENDBLK
  5
5FD9
330
5FCE
100
AcDbEntity
  8
0
100
AcDbBlockEnd
  0
BLOCK
  5
5FE4
330
5FDA
100
AcDbEntity
  8
0
100
AcDbBlockBegin
  2
*D28
 70
     1
 10
0.0
 20
0.0
 30
0.0
  3
*D28
  1

  0
LINE
  5
6399
330
5FDA
100
AcDbEntity
  8
SCALE
 62
     0
440
 16777216
370
    -2
100
AcDbLine
 10
311.6418844040445
 20
525.3765866552043
 30
0.0
 11
355.8879995822521
 21
525.3765866552043
 31
0.0
  0
LINE
  5
639A
330
5FDA
100
AcDbEntity
  8
SCALE
 62
     0
440
 16777216
370
    -2
100
AcDbLine
 10
326.4418844040445
 20
492.8765866552044
 30
0.0
 11
355.8879995822521
 21
492.8765866552044
 31
0.0
  0
LINE
  5
639B
330
5FDA
100
AcDbEntity
  8
SCALE
 62
     0
440
 16777216
370
    -2
100
AcDbLine
 10
355.8879995822521
 20
519.3765866552045
 30
0.0
 11
355.8879995822521
 21
498.8765866552044
 31
0.0
  0
INSERT
  5
639C
330
5FDA
100
AcDbEntity
  8
SCALE
 62
     0
440
 16777216
370
    -2
100
AcDbBlockReference
  2
YAZ1
 10
355.8879995822521
 20
525.3765866552043
 30
0.0
 41
6.0
 42
6.0
 43
6.0
 50
90.0
  0
INSERT
  5
639D
330
5FDA
100
AcDbEntity
  8
SCALE
 62
     0
440
 16777216
370
    -2
100
AcDbBlockReference
  2
YAZ1
 10
355.8879995822521
 20
492.8765866552044
 30
0.0
 41
6.0
 42
6.0
 43
6.0
 50
270.0
  0
MTEXT
  5
639E
330
5FDA
100
AcDbEntity
  8
SCALE
 62
     0
440
 16777216
100
AcDbMText
 10
348.8879995822521
 20
507.6871730974478
 30
0.0
 40
8.0
 41
0.0
 46
0.0
 71
     5
 72
     1
  1
\A1;（32.5）
 11
0.0000000000000001
 21
1.0
 31
0.0
 73
     1
 44
1.0
  0
POINT
  5
639F
330
5FDA
100
AcDbEntity
  8
Defpoints
 62
     0
440
 16777216
100
AcDbPoint
 10
310.6418844040445
 20
525.3765866552043
 30
0.0
  0
POINT
  5
63A0
330
5FDA
100
AcDbEntity
  8
Defpoints
 62
     0
440
 16777216
100
AcDbPoint
 10
325.4418844040444
 20
492.8765866552044
 30
0.0
  0
POINT
  5
63A1
330
5FDA
100
AcDbEntity
  8
Defpoints
 62
     0
440
 16777216
100
AcDbPoint
 10
355.8879995822521
 20
492.8765866552044
 30
0.0
  0
ENDBLK
  5
5FE5
330
5FDA
100
AcDbEntity
  8
0
100
AcDbBlockEnd
  0
BLOCK
  5
5FF0
330
5FE6
100
AcDbEntity
  8
0
100
AcDbBlockBegin
  2
*D29
 70
     1
 10
0.0
 20
0.0
 30
0.0
  3
*D29
  1

  0
LINE
  5
6390
330
5FE6
100
AcDbEntity
  8
SCALE
 62
     0
440
 16777216
370
    -2
100
AcDbLine
 10
326.4418844040445
 20
492.8765866552044
 30
0.0
 11
355.887999582252
 21
492.8765866552044
 31
0.0
  0
LINE
  5
6391
330
5FE6
100
AcDbEntity
  8
SCALE
 62
     0
440
 16777216
370
    -2
100
AcDbLine
 10
315.3918844040445
 20
386.3765866552045
 30
0.0
 11
355.887999582252
 21
386.3765866552045
 31
0.0
  0
LINE
  5
6392
330
5FE6
100
AcDbEntity
  8
SCALE
 62
     0
440
 16777216
370
    -2
100
AcDbLine
 10
355.887999582252
 20
486.8765866552045
 30
0.0
 11
355.887999582252
 21
392.3765866552045
 31
0.0
  0
INSERT
  5
6393
330
5FE6
100
AcDbEntity
  8
SCALE
 62
     0
440
 16777216
370
    -2
100
AcDbBlockReference
  2
YAZ1
 10
355.887999582252
 20
492.8765866552044
 30
0.0
 41
6.0
 42
6.0
 43
6.0
 50
90.0
  0
INSERT
  5
6394
330
5FE6
100
AcDbEntity
  8
SCALE
 62
     0
440
 16777216
370
    -2
100
AcDbBlockReference
  2
YAZ1
 10
355.887999582252
 20
386.3765866552045
 30
0.0
 41
6.0
 42
6.0
 43
6.0
 50
270.0
  0
MTEXT
  5
6395
330
5FE6
100
AcDbEntity
  8
SCALE
 62
     0
440
 16777216
100
AcDbMText
 10
348.8879995822519
 20
439.6265866552044
 30
0.0
 40
8.0
 41
0.0
 46
0.0
 71
     5
 72
     1
  1
\A1;（106.5）
 11
0.0000000000000001
 21
1.0
 31
0.0
 73
     1
 44
1.0
  0
POINT
  5
6396
330
5FE6
100
AcDbEntity
  8
Defpoints
 62
     0
440
 16777216
100
AcDbPoint
 10
325.4418844040444
 20
492.8765866552044
 30
0.0
  0
POINT
  5
6397
330
5FE6
100
AcDbEntity
  8
Defpoints
 62
     0
440
 16777216
100
AcDbPoint
 10
314.3918844040445
 20
386.3765866552045
 30
0.0
  0
POINT
  5
6398
330
5FE6
100
AcDbEntity
  8
Defpoints
 62
     0
440
 16777216
100
AcDbPoint
 10
355.887999582252
 20
386.3765866552045
 30
0.0
  0
ENDBLK
  5
5FF1
330
5FE6
100
AcDbEntity
  8
0
100
AcDbBlockEnd
  0
BLOCK
  5
5FFC
330
5FF2
100
AcDbEntity
  8
0
100
AcDbBlockBegin
  2
*D30
 70
     1
 10
0.0
 20
0.0
 30
0.0
  3
*D30
  1

  0
LINE
  5
6387
330
5FF2
100
AcDbEntity
  8
SCALE
 62
     0
440
 16777216
370
    -2
100
AcDbLine
 10
208.9571453417016
 20
390.7577036130679
 30
0.0
 11
208.4328342280554
 21
390.7577036130679
 31
0.0
  0
LINE
  5
6388
330
5FF2
100
AcDbEntity
  8
SCALE
 62
     0
440
 16777216
370
    -2
100
AcDbLine
 10
163.3024157508635
 20
294.7577036130679
 30
0.0
 11
208.4328342280554
 21
294.7577036130679
 31
0.0
  0
LINE
  5
6389
330
5FF2
100
AcDbEntity
  8
SCALE
 62
     0
440
 16777216
370
    -2
100
AcDbLine
 10
208.4328342280554
 20
384.7577036130679
 30
0.0
 11
208.4328342280554
 21
300.7577036130679
 31
0.0
  0
INSERT
  5
638A
330
5FF2
100
AcDbEntity
  8
SCALE
 62
     0
440
 16777216
370
    -2
100
AcDbBlockReference
  2
YAZ1
 10
208.4328342280554
 20
390.7577036130679
 30
0.0
 41
6.0
 42
6.0
 43
6.0
 50
90.0
  0
INSERT
  5
638B
330
5FF2
100
AcDbEntity
  8
SCALE
 62
     0
440
 16777216
370
    -2
100
AcDbBlockReference
  2
YAZ1
 10
208.4328342280554
 20
294.7577036130679
 30
0.0
 41
6.0
 42
6.0
 43
6.0
 50
270.0
  0
MTEXT
  5
638C
330
5FF2
100
AcDbEntity
  8
SCALE
 62
     0
440
 16777216
100
AcDbMText
 10
201.4328342280554
 20
342.7577036130679
 30
0.0
 40
8.0
 41
0.0
 46
0.0
 71
     5
 72
     1
  1
\A1;（96）
 11
0.0000000000000001
 21
1.0
 31
0.0
 73
     1
 44
1.0
  0
POINT
  5
638D
330
5FF2
100
AcDbEntity
  8
Defpoints
 62
     0
440
 16777216
100
AcDbPoint
 10
207.9571453417015
 20
390.7577036130679
 30
0.0
  0
POINT
  5
638E
330
5FF2
100
AcDbEntity
  8
Defpoints
 62
     0
440
 16777216
100
AcDbPoint
 10
162.3024157508635
 20
294.7577036130679
 30
0.0
  0
POINT
  5
638F
330
5FF2
100
AcDbEntity
  8
Defpoints
 62
     0
440
 16777216
100
AcDbPoint
 10
208.4328342280554
 20
294.7577036130679
 30
0.0
  0
ENDBLK
  5
5FFD
330
5FF2
100
AcDbEntity
  8
0
100
AcDbBlockEnd
  0
BLOCK
  5
6008
330
5FFE
100
AcDbEntity
  8
0
100
AcDbBlockBegin
  2
*D31
 70
     1
 10
0.0
 20
0.0
 30
0.0
  3
*D31
  1

  0
LINE
  5
637E
330
5FFE
100
AcDbEntity
  8
SCALE
 62
     0
440
 16777216
370
    -2
100
AcDbLine
 10
119.4272078587912
 20
509.7552036130673
 30
0.0
 11
119.4272078587912
 21
533.9599056130678
 31
0.0
  0
LINE
  5
637F
330
5FFE
100
AcDbEntity
  8
SCALE
 62
     0
440
 16777216
370
    -2
100
AcDbLine
 10
173.4272078587912
 20
509.7552036130673
 30
0.0
 11
173.4272078587912
 21
533.9599056130678
 31
0.0
  0
LINE
  5
6380
330
5FFE
100
AcDbEntity
  8
SCALE
 62
     0
440
 16777216
370
    -2
100
AcDbLine
 10
125.4272078587912
 20
533.9599056130678
 30
0.0
 11
167.4272078587911
 21
533.9599056130678
 31
0.0
  0
INSERT
  5
6381
330
5FFE
100
AcDbEntity
  8
SCALE
 62
     0
440
 16777216
370
    -2
100
AcDbBlockReference
  2
YAZ1
 10
119.4272078587912
 20
533.9599056130678
 30
0.0
 41
6.0
 42
6.0
 43
6.0
 50
180.0
  0
INSERT
  5
6382
330
5FFE
100
AcDbEntity
  8
SCALE
 62
     0
440
 16777216
370
    -2
100
AcDbBlockReference
  2
YAZ1
 10
173.4272078587912
 20
533.9599056130678
 30
0.0
 41
6.0
 42
6.0
 43
6.0
  0
MTEXT
  5
6383
330
5FFE
100
AcDbEntity
  8
SCALE
 62
     0
440
 16777216
100
AcDbMText
 10
146.4272078587911
 20
540.9599056130677
 30
0.0
 40
8.0
 41
0.0
 46
0.0
 71
     5
 72
     1
  1
\A1;%%c54
 73
     1
 44
1.0
  0
POINT
  5
6384
330
5FFE
100
AcDbEntity
  8
Defpoints
 62
     0
440
 16777216
100
AcDbPoint
 10
119.4272078587912
 20
508.7552036130674
 30
0.0
  0
POINT
  5
6385
330
5FFE
100
AcDbEntity
  8
Defpoints
 62
     0
440
 16777216
100
AcDbPoint
 10
173.4272078587912
 20
508.7552036130674
 30
0.0
  0
POINT
  5
6386
330
5FFE
100
AcDbEntity
  8
Defpoints
 62
     0
440
 16777216
100
AcDbPoint
 10
173.4272078587912
 20
533.9599056130678
 30
0.0
  0
ENDBLK
  5
6009
330
5FFE
100
AcDbEntity
  8
0
100
AcDbBlockEnd
  0
BLOCK
  5
6016
330
600A
100
AcDbEntity
  8
0
100
AcDbBlockBegin
  2
*D32
 70
     1
 10
0.0
 20
0.0
 30
0.0
  3
*D32
  1

  0
LINE
  5
6373
330
600A
100
AcDbEntity
  8
SCALE
 62
     0
440
 16777216
370
    -2
100
AcDbLine
 10
174.4272078587912
 20
508.7552036130674
 30
0.0
 11
200.273683858791
 21
508.7552036130674
 31
0.0
  0
LINE
  5
6374
330
600A
100
AcDbEntity
  8
SCALE
 62
     0
440
 16777216
370
    -2
100
AcDbLine
 10
166.427205858791
 20
473.5665396130682
 30
0.0
 11
200.273683858791
 21
473.5665396130682
 31
0.0
  0
LINE
  5
6375
330
600A
100
AcDbEntity
  8
SCALE
 62
     0
440
 16777216
370
    -2
100
AcDbLine
 10
200.273683858791
 20
467.5665396130681
 30
0.0
 11
200.273683858791
 21
461.5665396130681
 31
0.0
  0
LINE
  5
6376
330
600A
100
AcDbEntity
  8
SCALE
 62
     0
440
 16777216
370
    -2
100
AcDbLine
 10
200.273683858791
 20
514.7552036130674
 30
0.0
 11
200.273683858791
 21
560.1952036130674
 31
0.0
  0
LINE
  5
6377
330
600A
100
AcDbEntity
  8
SCALE
 62
     0
440
 16777216
370
    -2
100
AcDbLine
 10
200.273683858791
 20
473.5665396130682
 30
0.0
 11
200.273683858791
 21
508.7552036130674
 31
0.0
  0
INSERT
  5
6378
330
600A
100
AcDbEntity
  8
SCALE
 62
     0
440
 16777216
370
    -2
100
AcDbBlockReference
  2
YAZ1
 10
200.273683858791
 20
473.5665396130682
 30
0.0
 41
6.0
 42
6.0
 43
6.0
 50
90.0
  0
INSERT
  5
6379
330
600A
100
AcDbEntity
  8
SCALE
 62
     0
440
 16777216
370
    -2
100
AcDbBlockReference
  2
YAZ1
 10
200.273683858791
 20
508.7552036130674
 30
0.0
 41
6.0
 42
6.0
 43
6.0
 50
270.0
  0
MTEXT
  5
637A
330
600A
100
AcDbEntity
  8
SCALE
 62
     0
440
 16777216
100
AcDbMText
 10
191.1784457635528
 20
542.4752036130675
 30
0.0
 40
8.0
 41
0.0
 46
0.0
 71
     5
 72
     1
  1
\A1;(最小34)
 11
0.0000000000000001
 21
1.0
 31
0.0
 73
     1
 44
1.0
  0
POINT
  5
637B
330
600A
100
AcDbEntity
  8
Defpoints
 62
     0
440
 16777216
100
AcDbPoint
 10
173.4272078587912
 20
508.7552036130674
 30
0.0
  0
POINT
  5
637C
330
600A
100
AcDbEntity
  8
Defpoints
 62
     0
440
 16777216
100
AcDbPoint
 10
165.427205858791
 20
473.5665396130682
 30
0.0
  0
POINT
  5
637D
330
600A
100
AcDbEntity
  8
Defpoints
 62
     0
440
 16777216
100
AcDbPoint
 10
200.273683858791
 20
473.5665396130682
 30
0.0
  0
ENDBLK
  5
6017
330
600A
100
AcDbEntity
  8
0
100
AcDbBlockEnd
  0
BLOCK
  5
6024
330
6018
100
AcDbEntity
  8
0
100
AcDbBlockBegin
  2
*D33
 70
     1
 10
0.0
 20
0.0
 30
0.0
  3
*D33
  1

  0
LINE
  5
6368
330
6018
100
AcDbEntity
  8
SCALE
 62
     0
440
 16777216
370
    -2
100
AcDbLine
 10
170.4272078587911
 20
453.7099136130677
 30
0.0
 11
170.4272078587911
 21
443.921859715296
 31
0.0
  0
LINE
  5
6369
330
6018
100
AcDbEntity
  8
SCALE
 62
     0
440
 16777216
370
    -2
100
AcDbLine
 10
122.4272078587912
 20
453.7099136130677
 30
0.0
 11
122.4272078587912
 21
443.921859715296
 31
0.0
  0
LINE
  5
636A
330
6018
100
AcDbEntity
  8
SCALE
 62
     0
440
 16777216
370
    -2
100
AcDbLine
 10
116.4272078587912
 20
443.921859715296
 30
0.0
 11
110.4272078587912
 21
443.921859715296
 31
0.0
  0
LINE
  5
636B
330
6018
100
AcDbEntity
  8
SCALE
 62
     0
440
 16777216
370
    -2
100
AcDbLine
 10
176.4272078587912
 20
443.921859715296
 30
0.0
 11
229.1738745254579
 21
443.921859715296
 31
0.0
  0
LINE
  5
636C
330
6018
100
AcDbEntity
  8
SCALE
 62
     0
440
 16777216
370
    -2
100
AcDbLine
 10
122.4272078587912
 20
443.921859715296
 30
0.0
 11
170.4272078587911
 21
443.921859715296
 31
0.0
  0
INSERT
  5
636D
330
6018
100
AcDbEntity
  8
SCALE
 62
     0
440
 16777216
370
    -2
100
AcDbBlockReference
  2
YAZ1
 10
122.4272078587912
 20
443.921859715296
 30
0.0
 41
6.0
 42
6.0
 43
6.0
  0
INSERT
  5
636E
330
6018
100
AcDbEntity
  8
SCALE
 62
     0
440
 16777216
370
    -2
100
AcDbBlockReference
  2
YAZ1
 10
170.4272078587911
 20
443.921859715296
 30
0.0
 41
6.0
 42
6.0
 43
6.0
 50
180.0
  0
MTEXT
  5
636F
330
6018
100
AcDbEntity
  8
SCALE
 62
     0
440
 16777216
100
AcDbMText
 10
207.8005411921246
 20
450.921859715296
 30
0.0
 40
8.0
 41
0.0
 46
0.0
 71
     5
 72
     1
  1
\A1;六角対辺43
 73
     1
 44
1.0
  0
POINT
  5
6370
330
6018
100
AcDbEntity
  8
Defpoints
 62
     0
440
 16777216
100
AcDbPoint
 10
170.4272078587911
 20
454.7099136130678
 30
0.0
  0
POINT
  5
6371
330
6018
100
AcDbEntity
  8
Defpoints
 62
     0
440
 16777216
100
AcDbPoint
 10
122.4272078587912
 20
454.7099136130678
 30
0.0
  0
POINT
  5
6372
330
6018
100
AcDbEntity
  8
Defpoints
 62
     0
440
 16777216
100
AcDbPoint
 10
122.4272078587912
 20
443.921859715296
 30
0.0
  0
ENDBLK
  5
6025
330
6018
100
AcDbEntity
  8
0
100
AcDbBlockEnd
  0
BLOCK
  5
6032
330
6026
100
AcDbEntity
  8
0
100
AcDbBlockBegin
  2
*D34
 70
     1
 10
0.0
 20
0.0
 30
0.0
  3
*D34
  1

  0
LINE
  5
635D
330
6026
100
AcDbEntity
  8
SCALE
 62
     0
440
 16777216
370
    -2
100
AcDbLine
 10
168.9272078587912
 20
438.2552016130676
 30
0.0
 11
168.9272078587912
 21
420.4386836130676
 31
0.0
  0
LINE
  5
635E
330
6026
100
AcDbEntity
  8
SCALE
 62
     0
440
 16777216
370
    -2
100
AcDbLine
 10
123.9272078587912
 20
438.2552016130676
 30
0.0
 11
123.9272078587912
 21
420.4386836130676
 31
0.0
  0
LINE
  5
635F
330
6026
100
AcDbEntity
  8
SCALE
 62
     0
440
 16777216
370
    -2
100
AcDbLine
 10
117.9272078587912
 20
420.4386836130676
 30
0.0
 11
111.9272078587912
 21
420.4386836130676
 31
0.0
  0
LINE
  5
6360
330
6026
100
AcDbEntity
  8
SCALE
 62
     0
440
 16777216
370
    -2
100
AcDbLine
 10
174.9272078587912
 20
420.4386836130676
 30
0.0
 11
226.8738745254579
 21
420.4386836130676
 31
0.0
  0
LINE
  5
6361
330
6026
100
AcDbEntity
  8
SCALE
 62
     0
440
 16777216
370
    -2
100
AcDbLine
 10
123.9272078587912
 20
420.4386836130676
 30
0.0
 11
168.9272078587912
 21
420.4386836130676
 31
0.0
  0
INSERT
  5
6362
330
6026
100
AcDbEntity
  8
SCALE
 62
     0
440
 16777216
370
    -2
100
AcDbBlockReference
  2
YAZ1
 10
123.9272078587912
 20
420.4386836130676
 30
0.0
 41
6.0
 42
6.0
 43
6.0
  0
INSERT
  5
6363
330
6026
100
AcDbEntity
  8
SCALE
 62
     0
440
 16777216
370
    -2
100
AcDbBlockReference
  2
YAZ1
 10
168.9272078587912
 20
420.4386836130676
 30
0.0
 41
6.0
 42
6.0
 43
6.0
 50
180.0
  0
MTEXT
  5
6364
330
6026
100
AcDbEntity
  8
SCALE
 62
     0
440
 16777216
100
AcDbMText
 10
206.3005411921245
 20
427.4386836130676
 30
0.0
 40
8.0
 41
0.0
 46
0.0
 71
     5
 72
     1
  1
\A1;六角対辺41
 73
     1
 44
1.0
  0
POINT
  5
6365
330
6026
100
AcDbEntity
  8
Defpoints
 62
     0
440
 16777216
100
AcDbPoint
 10
168.9272078587912
 20
439.2552016130677
 30
0.0
  0
POINT
  5
6366
330
6026
100
AcDbEntity
  8
Defpoints
 62
     0
440
 16777216
100
AcDbPoint
 10
123.9272078587912
 20
439.2552016130677
 30
0.0
  0
POINT
  5
6367
330
6026
100
AcDbEntity
  8
Defpoints
 62
     0
440
 16777216
100
AcDbPoint
 10
123.9272078587912
 20
420.4386836130676
 30
0.0
  0
ENDBLK
  5
6033
330
6026
100
AcDbEntity
  8
0
100
AcDbBlockEnd
  0
BLOCK
  5
603E
330
6034
100
AcDbEntity
  8
0
100
AcDbBlockBegin
  2
*D35
 70
     1
 10
0.0
 20
0.0
 30
0.0
  3
*D35
  1

  0
LINE
  5
6354
330
6034
100
AcDbEntity
  8
SCALE
 62
     0
440
 16777216
370
    -2
100
AcDbLine
 10
129.552205858791
 20
294.7552036130673
 30
0.0
 11
87.37775985879107
 21
294.7552036130675
 31
0.0
  0
LINE
  5
6355
330
6034
100
AcDbEntity
  8
SCALE
 62
     0
440
 16777216
370
    -2
100
AcDbLine
 10
119.427205858791
 20
509.7552036130673
 30
0.0
 11
87.37775985879109
 21
509.7552036130673
 31
0.0
  0
LINE
  5
6356
330
6034
100
AcDbEntity
  8
SCALE
 62
     0
440
 16777216
370
    -2
100
AcDbLine
 10
87.37775985879107
 20
300.7552036130675
 30
0.0
 11
87.37775985879109
 21
503.7552036130675
 31
0.0
  0
INSERT
  5
6357
330
6034
100
AcDbEntity
  8
SCALE
 62
     0
440
 16777216
370
    -2
100
AcDbBlockReference
  2
YAZ1
 10
87.37775985879107
 20
294.7552036130675
 30
0.0
 41
6.0
 42
6.0
 43
6.0
 50
270.0
  0
INSERT
  5
6358
330
6034
100
AcDbEntity
  8
SCALE
 62
     0
440
 16777216
370
    -2
100
AcDbBlockReference
  2
YAZ1
 10
87.37775985879109
 20
509.7552036130673
 30
0.0
 41
6.0
 42
6.0
 43
6.0
 50
90.0
  0
MTEXT
  5
6359
330
6034
100
AcDbEntity
  8
SCALE
 62
     0
440
 16777216
100
AcDbMText
 10
78.28252176355292
 20
402.2552036130674
 30
0.0
 40
8.0
 41
0.0
 46
0.0
 71
     5
 72
     1
  1
\A1;(215)
 11
0.0000000000000001
 21
1.0
 31
0.0
 73
     1
 44
1.0
  0
POINT
  5
635A
330
6034
100
AcDbEntity
  8
Defpoints
 62
     0
440
 16777216
100
AcDbPoint
 10
130.552205858791
 20
294.7552036130673
 30
0.0
  0
POINT
  5
635B
330
6034
100
AcDbEntity
  8
Defpoints
 62
     0
440
 16777216
100
AcDbPoint
 10
120.427205858791
 20
509.7552036130673
 30
0.0
  0
POINT
  5
635C
330
6034
100
AcDbEntity
  8
Defpoints
 62
     0
440
 16777216
100
AcDbPoint
 10
87.37775985879109
 20
509.7552036130673
 30
0.0
  0
ENDBLK
  5
603F
330
6034
100
AcDbEntity
  8
0
100
AcDbBlockEnd
  0
BLOCK
  5
6182
330
6181
100
AcDbEntity
  8
0
100
AcDbBlockBegin
  2
*D36
 70
     1
 10
0.0
 20
0.0
 30
0.0
  3
*D36
  1

  0
LINE
  5
6417
330
6181
100
AcDbEntity
  8
SCALE
 62
     0
440
 16777216
370
    -2
100
AcDbLine
 10
163.3022078587911
 20
329.1952036130674
 30
0.0
 11
188.4973864705667
 21
329.1952036130674
 31
0.0
  0
LINE
  5
6418
330
6181
100
AcDbEntity
  8
SCALE
 62
     0
440
 16777216
370
    -2
100
AcDbLine
 10
163.3022078587913
 20
294.7577036130679
 30
0.0
 11
188.4973864705666
 21
294.7577036130679
 31
0.0
  0
LINE
  5
6419
330
6181
100
AcDbEntity
  8
SCALE
 62
     0
440
 16777216
370
    -2
100
AcDbLine
 10
184.4973864705666
 20
326.1952036130673
 30
0.0
 11
184.4973864705666
 21
297.7577036130679
 31
0.0
  0
INSERT
  5
641A
330
6181
100
AcDbEntity
  8
SCALE
 62
     0
440
 16777216
370
    -2
100
AcDbBlockReference
  2
YAZ1
 10
184.4973864705666
 20
329.1952036130674
 30
0.0
 41
3.0
 42
3.0
 43
3.0
 50
90.0
  0
INSERT
  5
641B
330
6181
100
AcDbEntity
  8
SCALE
 62
     0
440
 16777216
370
    -2
100
AcDbBlockReference
  2
YAZ1
 10
184.4973864705666
 20
294.7577036130679
 30
0.0
 41
3.0
 42
3.0
 43
3.0
 50
270.0
  0
MTEXT
  5
641C
330
6181
100
AcDbEntity
  8
SCALE
 62
     0
440
 16777216
100
AcDbMText
 10
178.4973864705666
 20
311.9764536130677
 30
0.0
 40
8.0
 41
0.0
 46
0.0
 71
     5
 72
     1
  1
\A1;15～50
 11
0.0000000000000001
 21
1.0
 31
0.0
 73
     1
 44
1.0
  0
POINT
  5
641D
330
6181
100
AcDbEntity
  8
Defpoints
 62
     0
440
 16777216
100
AcDbPoint
 10
162.3022078587912
 20
329.1952036130674
 30
0.0
  0
POINT
  5
641E
330
6181
100
AcDbEntity
  8
Defpoints
 62
     0
440
 16777216
100
AcDbPoint
 10
162.3022078587913
 20
294.7577036130679
 30
0.0
  0
POINT
  5
641F
330
6181
100
AcDbEntity
  8
Defpoints
 62
     0
440
 16777216
100
AcDbPoint
 10
184.4973864705666
 20
294.7577036130679
 30
0.0
  0
ENDBLK
  5
6183
330
6181
100
AcDbEntity
  8
0
100
AcDbBlockEnd
  0
ENDSEC
  0
SECTION
  2
ENTITIES
  0
INSERT
  5
A53
330
18
100
AcDbEntity
  8
WBLK
100
AcDbBlockReference
  2
HYBASE
 10
149.8626121932736
 20
146.2019859251579
 30
0.0
 41
2.0
 42
2.0
 43
2.0
  0
LINE
  5
A54
330
18
100
AcDbEntity
  8
HOJYO
100
AcDbLine
 10
420.0000000000001
 20
594.0
 30
0.0
 11
420.0
 21
0.0
 31
0.0
  0
LINE
  5
A55
330
18
100
AcDbEntity
  8
HOJYO
100
AcDbLine
 10
420.0
 20
0.0
 30
0.0
 11
0.0
 21
0.0
 31
0.0
  0
LINE
  5
A56
330
18
100
AcDbEntity
  8
HOJYO
100
AcDbLine
 10
0.0
 20
0.0
 30
0.0
 11
0.0
 21
594.0
 31
0.0
  0
LINE
  5
A57
330
18
100
AcDbEntity
  8
HOJYO
100
AcDbLine
 10
0.0
 20
594.0
 30
0.0
 11
420.0000000000001
 21
594.0
 31
0.0
  0
INSERT
  5
A92
330
18
100
AcDbEntity
  8
WBLK
100
AcDbBlockReference
  2
MTWBLK
 10
56.0
 20
13.99999999999994
 30
0.0
 41
2.0
 42
2.0
 43
2.0
  0
INSERT
  5
AEA
330
18
100
AcDbEntity
  8
0
100
AcDbBlockReference
  2
INSLYTXT
 10
0.0
 20
0.0
 30
0.0
 41
2.0
 42
2.0
 43
2.0
  0
TEXT
  5
B2C
330
18
100
AcDbEntity
  8
0
100
AcDbText
 10
109.24
 20
60.7989013790891
 30
0.0
 40
7.0
  1
1:2
 41
0.75
  7
MSP明朝
 72
     1
 11
115.0
 21
64.2989013790891
 31
0.0
100
AcDbText
 73
     2
  0
TEXT
  5
B2D
330
18
100
AcDbEntity
  8
0
100
AcDbText
 10
229.315019924255
 20
60.2989013790891
 30
0.0
 40
8.0
  1
JPK12900
  7
MSP明朝
 11
229.315019924255
 21
64.2989013790891
 31
0.0
100
AcDbText
 73
     2
  0
TEXT
  5
B2F
330
18
100
AcDbEntity
  8
0
100
AcDbText
 10
227.0516748731524
 20
40.79890137908909
 30
0.0
 40
7.0
  1
洗面器用ワイヤー式ポップアップ（Sトラップ付）
 41
0.7
  7
MSP明朝
 11
227.0516748731524
 21
44.29890137908909
 31
0.0
100
AcDbText
 73
     2
  0
TEXT
  5
B31
330
18
100
AcDbEntity
  8
0
100
AcDbText
 10
45.8
 20
60.7989013790891
 30
0.0
 40
7.0
  1
2015.10.01
 41
0.75
  7
MSP明朝
 72
     1
 11
65.0
 21
64.2989013790891
 31
0.0
100
AcDbText
 73
     2
  0
INSERT
  5
1B4B
330
18
100
AcDbEntity
  8
ZOKUSEI
100
AcDbBlockReference
 66
     1
  2
TSTYUKI
 10
39.0772821340397
 20
79.96088981810482
 30
0.0
 41
2.0
 42
2.0
 43
2.0
  0
ATTRIB
  5
1B4C
330
1B4B
100
AcDbEntity
  8
ZOKUSEI
100
AcDbText
 10
59.0772821340397
 20
79.96088981810482
 30
0.0
 40
8.0
  1
1.（）内寸法は参考寸法である。
 41
0.7
100
AcDbAttribute
  2
注記1行目
 70
     0
280
     0
  0
ATTRIB
  5
1B4D
330
1B4B
100
AcDbEntity
  8
ZOKUSEI
100
AcDbText
 10
59.0772821340397
 20
91.96088981810476
 30
0.0
 40
8.0
  1
2.テール管の差込代は、15mm以上確保すること。
 41
0.7
100
AcDbAttribute
  2
注記2行目
 70
     0
280
     0
  0
ATTRIB
  5
1B4E
330
1B4B
100
AcDbEntity
  8
ZOKUSEI
100
AcDbText
 10
59.0772821340397
 20
103.9608898181048
 30
0.0
 40
8.0
  1
3.壁排水管の差込代は、40mm以上確保すること。
 41
0.7
100
AcDbAttribute
  2
注記3行目
 70
     0
280
     0
  0
ATTRIB
  5
1B4F
330
1B4B
100
AcDbEntity
  8
ZOKUSEI
100
AcDbText
 10
59.0772821340397
 20
115.9608898181047
 30
0.0
 40
8.0
  1

 41
0.7
100
AcDbAttribute
  2
注記4行目
 70
     0
280
     0
  0
ATTRIB
  5
1B50
330
1B4B
100
AcDbEntity
  8
ZOKUSEI
100
AcDbText
 10
59.0772821340397
 20
127.9608898181048
 30
0.0
 40
8.0
  1

 41
0.7
100
AcDbAttribute
  2
注記5行目
 70
     0
280
     0
  0
ATTRIB
  5
1B51
330
1B4B
100
AcDbEntity
  8
ZOKUSEI
100
AcDbText
 10
59.0772821340397
 20
139.9608898181047
 30
0.0
 40
8.0
  1

 41
0.7
100
AcDbAttribute
  2
注記6行目
 70
     0
280
     0
  0
ATTRIB
  5
1B52
330
1B4B
100
AcDbEntity
  8
ZOKUSEI
100
AcDbText
 10
59.0772821340397
 20
151.9608898181048
 30
0.0
 40
8.0
  1

 41
0.7
100
AcDbAttribute
  2
注記7行目
 70
     0
280
     0
  0
ATTRIB
  5
1B53
330
1B4B
100
AcDbEntity
  8
ZOKUSEI
100
AcDbText
 10
59.0772821340397
 20
163.9608898181047
 30
0.0
 40
8.0
  1

 41
0.7
100
AcDbAttribute
  2
注記8行目
 70
     0
280
     0
  0
ATTRIB
  5
1B54
330
1B4B
100
AcDbEntity
  8
ZOKUSEI
100
AcDbText
 10
59.0772821340397
 20
175.9608898181046
 30
0.0
 40
8.0
  1

 41
0.7
100
AcDbAttribute
  2
注記9行目
 70
     0
280
     0
  0
ATTRIB
  5
1B55
330
1B4B
100
AcDbEntity
  8
ZOKUSEI
100
AcDbText
 10
59.0772821340397
 20
187.9608898181047
 30
0.0
 40
8.0
  1

 41
0.7
100
AcDbAttribute
  2
注記10行目
 70
     0
280
     0
  0
ATTRIB
  5
1B56
330
1B4B
100
AcDbEntity
  8
ZOKUSEI
100
AcDbText
 10
59.0772821340397
 20
199.9608898181046
 30
0.0
 40
8.0
  1

 41
0.7
100
AcDbAttribute
  2
注記11行目
 70
     0
280
     0
  0
ATTRIB
  5
1B57
330
1B4B
100
AcDbEntity
  8
ZOKUSEI
100
AcDbText
 10
59.0772821340397
 20
211.9608898181047
 30
0.0
 40
8.0
  1

 41
0.7
100
AcDbAttribute
  2
注記12行目
 70
     0
280
     0
  0
SEQEND
  5
1B58
330
1B4B
100
AcDbEntity
  8
ZOKUSEI
  0
INSERT
  5
4D2E
330
18
100
AcDbEntity
  8
0
100
AcDbBlockReference
  2
NITTO CERA社名
 10
219.4192608284774
 20
16.72161694727602
 30
0.0
  0
TEXT
  5
4D2F
330
18
100
AcDbEntity
  8
図枠
100
AcDbText
 10
31.70857142857143
 20
16.2989013790891
 30
0.0
 40
6.0
  1
考
 41
0.75
  7
MSP明朝
 72
     1
 11
35.0
 21
19.2989013790891
 31
0.0
100
AcDbText
 73
     2
  0
TEXT
  5
4D30
330
18
100
AcDbEntity
  8
図枠
100
AcDbText
 10
31.70857142857143
 20
26.29890137908911
 30
0.0
 40
6.0
  1
備
 41
0.75
  7
MSP明朝
 72
     1
 11
35.0
 21
29.2989013790891
 31
0.0
100
AcDbText
 73
     2
  0
TEXT
  5
4D31
330
18
100
AcDbEntity
  8
図枠
100
AcDbText
 10
211.7085714285714
 20
36.29890137908911
 30
0.0
 40
6.0
  1
名
 41
0.75
  7
MSP明朝
 72
     1
 11
215.0
 21
39.2989013790891
 31
0.0
100
AcDbText
 73
     2
  0
TEXT
  5
4D32
330
18
100
AcDbEntity
  8
図枠
100
AcDbText
 10
211.7085714285714
 20
46.29890137908909
 30
0.0
 40
6.0
  1
品
 41
0.75
  7
MSP明朝
 72
     1
 11
215.0
 21
49.29890137908909
 31
0.0
100
AcDbText
 73
     2
  0
TEXT
  5
4D33
330
18
100
AcDbEntity
  8
図枠
100
AcDbText
 10
31.70857142857143
 20
36.29890137908911
 30
0.0
 40
6.0
  1
番
 41
0.75
  7
MSP明朝
 72
     1
 11
35.0
 21
39.2989013790891
 31
0.0
100
AcDbText
 73
     2
  0
TEXT
  5
4D34
330
18
100
AcDbEntity
  8
図枠
100
AcDbText
 10
31.70857142857143
 20
46.29890137908909
 30
0.0
 40
6.0
  1
図
 41
0.75
  7
MSP明朝
 72
     1
 11
35.0
 21
49.29890137908909
 31
0.0
100
AcDbText
 73
     2
  0
TEXT
  5
4D35
330
18
100
AcDbEntity
  8
図枠
100
AcDbText
 10
211.7085714285714
 20
56.29890137908909
 30
0.0
 40
6.0
  1
番
 41
0.75
  7
MSP明朝
 72
     1
 11
215.0
 21
59.29890137908909
 31
0.0
100
AcDbText
 73
     2
  0
TEXT
  5
4D36
330
18
100
AcDbEntity
  8
図枠
100
AcDbText
 10
211.7085714285714
 20
66.2989013790891
 30
0.0
 40
6.0
  1
品
 41
0.75
  7
MSP明朝
 72
     1
 11
215.0
 21
69.2989013790891
 31
0.0
100
AcDbText
 73
     2
  0
TEXT
  5
4D37
330
18
100
AcDbEntity
  8
図枠
100
AcDbText
 10
171.7085714285714
 20
56.29890137908909
 30
0.0
 40
6.0
  1
図
 41
0.75
  7
MSP明朝
 72
     1
 11
175.0
 21
59.29890137908909
 31
0.0
100
AcDbText
 73
     2
  0
TEXT
  5
4D38
330
18
100
AcDbEntity
  8
図枠
100
AcDbText
 10
171.7085714285714
 20
66.2989013790891
 30
0.0
 40
6.0
  1
検
 41
0.75
  7
MSP明朝
 72
     1
 11
175.0
 21
69.2989013790891
 31
0.0
100
AcDbText
 73
     2
  0
TEXT
  5
4D39
330
18
100
AcDbEntity
  8
図枠
100
AcDbText
 10
131.7085714285714
 20
56.29890137908909
 30
0.0
 40
6.0
  1
図
 41
0.75
  7
MSP明朝
 72
     1
 11
135.0
 21
59.29890137908909
 31
0.0
100
AcDbText
 73
     2
  0
TEXT
  5
4D3A
330
18
100
AcDbEntity
  8
図枠
100
AcDbText
 10
131.7085714285714
 20
66.2989013790891
 30
0.0
 40
6.0
  1
製
 41
0.75
  7
MSP明朝
 72
     1
 11
135.0
 21
69.2989013790891
 31
0.0
100
AcDbText
 73
     2
  0
TEXT
  5
4D3B
330
18
100
AcDbEntity
  8
図枠
100
AcDbText
 10
91.70857142857142
 20
56.29890137908909
 30
0.0
 40
6.0
  1
度
 41
0.75
  7
MSP明朝
 72
     1
 11
95.0
 21
59.29890137908909
 31
0.0
100
AcDbText
 73
     2
  0
TEXT
  5
4D3C
330
18
100
AcDbEntity
  8
図枠
100
AcDbText
 10
91.70857142857142
 20
66.2989013790891
 30
0.0
 40
6.0
  1
尺
 41
0.75
  7
MSP明朝
 72
     1
 11
95.0
 21
69.2989013790891
 31
0.0
100
AcDbText
 73
     2
  0
TEXT
  5
4D3D
330
18
100
AcDbEntity
  8
図枠
100
AcDbText
 10
31.70857142857143
 20
56.29890137908909
 30
0.0
 40
6.0
  1
付
 41
0.75
  7
MSP明朝
 72
     1
 11
35.0
 21
59.29890137908909
 31
0.0
100
AcDbText
 73
     2
  0
TEXT
  5
4D3E
330
18
100
AcDbEntity
  8
図枠
100
AcDbText
 10
31.70857142857143
 20
66.2989013790891
 30
0.0
 40
6.0
  1
日
 41
0.75
  7
MSP明朝
 72
     1
 11
35.0
 21
69.2989013790891
 31
0.0
100
AcDbText
 73
     2
  0
LINE
  5
4D3F
330
18
100
AcDbEntity
  8
図枠
 62
     0
100
AcDbLine
 10
30.0
 20
74.29890137908913
 30
0.0
 11
390.0
 21
74.2989013790891
 31
0.0
  0
LINE
  5
4D40
330
18
100
AcDbEntity
  8
図枠
 62
     0
100
AcDbLine
 10
30.0
 20
54.29890137908911
 30
0.0
 11
390.0
 21
54.29890137908909
 31
0.0
  0
LINE
  5
4D41
330
18
100
AcDbEntity
  8
図枠
 62
     0
100
AcDbLine
 10
30.0
 20
34.29890137908911
 30
0.0
 11
390.0
 21
34.29890137908911
 31
0.0
  0
LINE
  5
4D42
330
18
100
AcDbEntity
  8
図枠
 62
     0
100
AcDbLine
 10
30.0
 20
14.2989013790891
 30
0.0
 11
390.0000000000002
 21
14.2989013790891
 31
0.0
  0
LINE
  5
4D43
330
18
100
AcDbEntity
  8
図枠
 62
     0
100
AcDbLine
 10
30.0
 20
14.2989013790891
 30
0.0
 11
30.00000000000001
 21
578.2158489093859
 31
0.0
  0
LINE
  5
4D44
330
18
100
AcDbEntity
  8
図枠
 62
     0
100
AcDbLine
 10
40.0
 20
14.2989013790891
 30
0.0
 11
40.0
 21
74.29890137908913
 31
0.0
  0
LINE
  5
4D45
330
18
100
AcDbEntity
  8
図枠
 62
     0
100
AcDbLine
 10
210.0
 20
14.2989013790891
 30
0.0
 11
210.0
 21
74.2989013790891
 31
0.0
  0
LINE
  5
4D46
330
18
100
AcDbEntity
  8
図枠
 62
     0
100
AcDbLine
 10
220.0
 20
34.29890137908911
 30
0.0
 11
220.0000000000001
 21
74.2989013790891
 31
0.0
  0
LINE
  5
4D47
330
18
100
AcDbEntity
  8
図枠
 62
     0
100
AcDbLine
 10
390.0000000000002
 20
14.2989013790891
 30
0.0
 11
390.0000000000002
 21
578.2158489093859
 31
0.0
  0
LINE
  5
4D48
330
18
100
AcDbEntity
  8
図枠
 62
     0
100
AcDbLine
 10
180.0
 20
54.29890137908909
 30
0.0
 11
180.0
 21
74.2989013790891
 31
0.0
  0
LINE
  5
4D49
330
18
100
AcDbEntity
  8
図枠
 62
     0
100
AcDbLine
 10
170.0
 20
54.29890137908909
 30
0.0
 11
170.0
 21
74.2989013790891
 31
0.0
  0
LINE
  5
4D4A
330
18
100
AcDbEntity
  8
図枠
 62
     0
100
AcDbLine
 10
140.0
 20
54.29890137908909
 30
0.0
 11
140.0
 21
74.2989013790891
 31
0.0
  0
LINE
  5
4D4B
330
18
100
AcDbEntity
  8
図枠
 62
     0
100
AcDbLine
 10
130.0
 20
54.29890137908909
 30
0.0
 11
130.0
 21
74.2989013790891
 31
0.0
  0
LINE
  5
4D4C
330
18
100
AcDbEntity
  8
図枠
 62
     0
100
AcDbLine
 10
100.0
 20
54.29890137908909
 30
0.0
 11
100.0
 21
74.2989013790891
 31
0.0
  0
LINE
  5
4D4D
330
18
100
AcDbEntity
  8
図枠
 62
     0
100
AcDbLine
 10
90.0
 20
54.29890137908909
 30
0.0
 11
90.0
 21
74.2989013790891
 31
0.0
  0
LINE
  5
4D4E
330
18
100
AcDbEntity
  8
図枠
 62
     0
100
AcDbLine
 10
30.00000000000001
 20
578.2158489093859
 30
0.0
 11
390.0000000000002
 21
578.2158489093859
 31
0.0
  0
DIMENSION
  5
5DC9
330
18
100
AcDbEntity
  8
SCALE
100
AcDbDimension
  2
*D35
 10
87.37775985879109
 20
509.7552036130673
 30
0.0
 11
87.37775985879101
 21
402.2552036130674
 31
0.0
 70
   160
  1
(215)
 71
     5
 42
215.0
 73
     0
 74
     0
 75
     0
  3
STANDARD
100
AcDbAlignedDimension
 13
130.552205858791
 23
294.7552036130673
 33
0.0
 14
120.427205858791
 24
509.7552036130673
 34
0.0
 50
90.0
100
AcDbRotatedDimension
1001
ACAD
1000
DSTYLE
1002
{
1070
     3
1000
%%c<>
1070
    41
1040
6.0
1070
    42
1040
1.0
1070
    44
1040
0.0
1070
   140
1040
8.0
1070
   147
1040
3.0
1002
}
  0
LINE
  5
5DCA
330
18
100
AcDbEntity
  8
BLKDRA
  6
Continuous
100
AcDbLine
 10
162.3022078587912
 20
433.2552036130675
 30
0.0
 11
162.3022078587912
 21
390.7552036130675
 31
0.0
  0
LINE
  5
5DCB
330
18
100
AcDbEntity
  8
BLKDRA
  6
Continuous
100
AcDbLine
 10
162.3022078587912
 20
390.7552036130675
 30
0.0
 11
162.3022078587912
 21
329.1952036130674
 31
0.0
  0
LINE
  5
5DCC
330
18
100
AcDbEntity
  8
BLKDRA
  6
Continuous
100
AcDbLine
 10
130.5522078587912
 20
433.2552036130675
 30
0.0
 11
130.5522078587912
 21
329.1952036130674
 31
0.0
  0
LINE
  5
5DCD
330
18
100
AcDbEntity
  8
CENTER
 62
     0
100
AcDbLine
 10
146.4272078587911
 20
516.8525176130676
 30
0.0
 11
146.4272078587911
 21
231.2446253572532
 31
0.0
  0
LINE
  5
5DCE
330
18
100
AcDbEntity
  8
BLKDRA
  6
Continuous
100
AcDbLine
 10
130.5522078587912
 20
329.1952036130674
 30
0.0
 11
146.4272078587911
 21
329.1952036130674
 31
0.0
  0
LINE
  5
5DCF
330
18
100
AcDbEntity
  8
BLKDRA
  6
Continuous
100
AcDbLine
 10
162.3022078587912
 20
329.1952036130674
 30
0.0
 11
146.4272078587911
 21
329.1952036130674
 31
0.0
  0
DIMENSION
  5
5DD0
330
18
100
AcDbEntity
  8
SCALE
100
AcDbDimension
  2
*D34
 10
123.9272078587912
 20
420.4386836130676
 30
0.0
 11
206.3005411921245
 21
420.4386836130676
 31
0.0
 70
   160
  1
六角対辺41
 71
     5
 42
45.0
 73
     0
 74
     0
 75
     0
  3
STANDARD
100
AcDbAlignedDimension
 13
168.9272078587912
 23
439.2552016130677
 33
0.0
 14
123.9272078587912
 24
439.2552016130677
 34
0.0
100
AcDbRotatedDimension
1001
ACAD
1000
DSTYLE
1002
{
1070
     3
1000
%%c<>
1070
    41
1040
6.0
1070
    42
1040
1.0
1070
    44
1040
0.0
1070
   140
1040
8.0
1070
   147
1040
3.0
1002
}
  0
DIMENSION
  5
5DD1
330
18
100
AcDbEntity
  8
SCALE
100
AcDbDimension
  2
*D33
 10
122.4272078587912
 20
443.921859715296
 30
0.0
 11
207.8005411921246
 21
443.921859715296
 31
0.0
 70
   160
  1
六角対辺43
 71
     5
 42
48.0
 73
     0
 74
     0
 75
     0
  3
STANDARD
100
AcDbAlignedDimension
 13
170.4272078587911
 23
454.7099136130678
 33
0.0
 14
122.4272078587912
 24
454.7099136130678
 34
0.0
100
AcDbRotatedDimension
1001
ACAD
1000
DSTYLE
1002
{
1070
     3
1000
%%c<>
1070
    41
1040
6.0
1070
    42
1040
1.0
1070
    44
1040
0.0
1070
   140
1040
8.0
1070
   147
1040
3.0
1002
}
  0
DIMENSION
  5
5DD2
330
18
100
AcDbEntity
  8
SCALE
100
AcDbDimension
  2
*D32
 10
200.273683858791
 20
473.5665396130682
 30
0.0
 11
200.2736838587909
 21
542.4752036130675
 31
0.0
 70
   160
  1
(最小34)
 71
     5
 42
35.18866399999935
 73
     0
 74
     0
 75
     0
  3
STANDARD
100
AcDbAlignedDimension
 13
173.4272078587912
 23
508.7552036130674
 33
0.0
 14
165.427205858791
 24
473.5665396130682
 34
0.0
 50
90.0
100
AcDbRotatedDimension
1001
ACAD
1000
DSTYLE
1002
{
1070
     3
1000
%%c<>
1070
    41
1040
6.0
1070
    42
1040
1.0
1070
    44
1040
0.0
1070
   140
1040
8.0
1070
   147
1040
3.0
1002
}
  0
DIMENSION
  5
5DD3
330
18
100
AcDbEntity
  8
SCALE
100
AcDbDimension
  2
*D31
 10
173.4272078587912
 20
533.9599056130678
 30
0.0
 11
146.4272078587911
 21
533.9599056130678
 31
0.0
 70
   160
  1
%%c54
 71
     5
 42
54.0
 73
     0
 74
     0
 75
     0
  3
STANDARD
100
AcDbAlignedDimension
 13
119.4272078587912
 23
508.7552036130674
 33
0.0
 14
173.4272078587912
 24
508.7552036130674
 34
0.0
100
AcDbRotatedDimension
1001
ACAD
1000
DSTYLE
1002
{
1070
     3
1000
%%c<>
1070
    41
1040
6.0
1070
    42
1040
1.0
1070
    44
1040
0.0
1070
   140
1040
8.0
1070
   147
1040
3.0
1002
}
  0
LWPOLYLINE
  5
5DD4
330
18
100
AcDbEntity
  8
BLKDRA
  6
Continuous
100
AcDbPolyline
 90
       73
 70
     1
 43
0.0
 10
164.1807298587911
 20
445.2552036130675
 10
163.7766038587913
 20
445.2323716130677
 10
163.3755558587911
 20
445.1640496130677
 10
162.9806338587907
 20
445.0507576130681
 10
162.594845858791
 20
444.8933596130678
 10
162.2211278587908
 20
444.6930496130677
 10
161.8623238587913
 20
444.4513556130678
 10
161.5211638587909
 20
444.1701156130676
 10
161.200245858791
 20
443.8514696130674
 10
160.9020098587909
 20
443.4978436130678
 10
160.6287278587908
 20
443.1119296130678
 10
160.382477858791
 20
442.6966616130677
 10
160.165133858791
 20
442.2552036130674
 10
159.9783518587908
 20
441.7909116130678
 10
159.8235538587911
 20
441.3073236130681
 10
159.7019158587911
 20
440.8081176130678
 10
159.6143638587912
 20
440.2970916130682
 10
159.5615638587908
 20
439.7781376130678
 10
159.5439198587912
 20
439.2552036130673
 10
159.5615638587908
 20
438.7322676130676
 10
159.6143638587912
 20
438.2133136130678
 10
159.7019158587911
 20
437.702289613068
 10
159.8235538587911
 20
437.2030816130679
 10
159.9783518587908
 20
436.7194936130677
 10
160.165133858791
 20
436.2552036130674
 10
160.382477858791
 20
435.8137436130678
 10
160.6287278587908
 20
435.3984776130679
 10
160.9020098587909
 20
435.0125616130677
 10
161.200245858791
 20
434.6589356130676
 10
161.5211638587909
 20
434.3402916130677
 10
161.8623238587913
 20
434.0590496130677
 10
162.2211278587908
 20
433.8173556130677
 10
162.594845858791
 20
433.6170476130678
 10
162.9806338587907
 20
433.4596476130678
 10
163.3755558587911
 20
433.3463556130678
 10
163.7766038587913
 20
433.2780356130674
 10
164.1807298587911
 20
433.2552036130675
 10
164.5848538587913
 20
433.2780356130674
 10
164.985901858791
 20
433.3463556130678
 10
165.380823858791
 20
433.4596476130678
 10
165.766611858791
 20
433.6170476130678
 10
166.1403298587909
 20
433.8173556130677
 10
166.4991338587908
 20
434.0590496130677
 10
166.8402938587911
 20
434.3402916130677
 10
167.1612118587911
 20
434.6589356130676
 10
167.4594478587908
 20
435.0125616130677
 10
167.7327298587909
 20
435.3984776130679
 10
167.978979858791
 20
435.8137436130678
 10
168.1963238587911
 20
436.2552036130674
 10
168.3831058587914
 20
436.7194936130677
 10
168.5379038587914
 20
437.2030816130679
 10
168.659541858791
 20
437.702289613068
 10
168.747093858791
 20
438.2133136130678
 10
168.7998938587909
 20
438.7322676130676
 10
168.8175378587914
 20
439.2552036130673
 10
168.7998938587909
 20
439.7781376130678
 10
168.747093858791
 20
440.2970916130682
 10
168.659541858791
 20
440.8081176130678
 10
168.5379038587914
 20
441.3073236130681
 10
168.3831058587914
 20
441.7909116130678
 10
168.1963238587911
 20
442.2552036130674
 10
167.978979858791
 20
442.6966616130677
 10
167.7327298587909
 20
443.1119296130678
 10
167.4594478587908
 20
443.4978436130678
 10
167.1612118587911
 20
443.8514696130674
 10
166.8402938587911
 20
444.1701156130676
 10
166.4991338587908
 20
444.4513556130678
 10
166.1403298587909
 20
444.6930496130677
 10
165.766611858791
 20
444.8933596130678
 10
165.380823858791
 20
445.0507576130681
 10
164.985901858791
 20
445.1640496130677
 10
164.5848538587913
 20
445.2323716130677
 10
164.1807298587911
 20
445.2552036130675
  0
ARC
  5
5DD5
330
18
100
AcDbEntity
  8
BLKDRA
  6
Continuous
100
AcDbCircle
 10
158.9272078587911
 20
439.2552036130673
 30
0.0
 40
10.0
100
AcDbArc
 50
323.1301019999955
 51
36.8698980000045
  0
LINE
  5
5DD6
330
18
100
AcDbEntity
  8
BLKDRA
  6
Continuous
100
AcDbLine
 10
166.9272078587912
 20
433.2552036130675
 30
0.0
 11
146.4272078587911
 21
433.2552036130675
 31
0.0
  0
LINE
  5
5DD7
330
18
100
AcDbEntity
  8
BLKDRA
  6
Continuous
100
AcDbLine
 10
166.9272078587912
 20
445.2552036130675
 30
0.0
 11
146.4272078587911
 21
445.2552036130675
 31
0.0
  0
ARC
  5
5DD8
330
18
100
AcDbEntity
  8
BLKDRA
  6
Continuous
100
AcDbCircle
 10
133.9272078587912
 20
439.2552036130673
 30
0.0
 40
10.0
100
AcDbArc
 50
143.1301019999955
 51
216.8698980000045
  0
LWPOLYLINE
  5
5DD9
330
18
100
AcDbEntity
  8
BLKDRA
  6
Continuous
100
AcDbPolyline
 90
       73
 70
     1
 43
0.0
 10
128.673687858791
 20
445.2552036130675
 10
128.2695618587911
 20
445.2323716130677
 10
127.8685138587909
 20
445.1640496130677
 10
127.473591858791
 20
445.0507576130681
 10
127.0878058587912
 20
444.8933596130678
 10
126.7140878587913
 20
444.6930496130677
 10
126.3552818587911
 20
444.4513556130678
 10
126.0141218587912
 20
444.1701156130676
 10
125.6932038587913
 20
443.8514696130674
 10
125.3949678587908
 20
443.4978436130678
 10
125.1216858587911
 20
443.1119296130678
 10
124.8754358587914
 20
442.6966616130677
 10
124.6580918587913
 20
442.2552036130674
 10
124.4713118587908
 20
441.7909116130678
 10
124.316511858791
 20
441.3073236130681
 10
124.1948738587909
 20
440.8081176130678
 10
124.107321858791
 20
440.2970916130682
 10
124.0545218587911
 20
439.7781376130678
 10
124.036877858791
 20
439.2552036130673
 10
124.0545218587911
 20
438.7322676130676
 10
124.107321858791
 20
438.2133136130678
 10
124.1948738587909
 20
437.702289613068
 10
124.316511858791
 20
437.2030816130679
 10
124.4713118587908
 20
436.7194936130677
 10
124.6580918587913
 20
436.2552036130674
 10
124.8754358587914
 20
435.8137436130678
 10
125.1216858587911
 20
435.3984776130679
 10
125.3949678587908
 20
435.0125616130677
 10
125.6932038587913
 20
434.6589356130676
 10
126.0141218587912
 20
434.3402916130677
 10
126.3552818587911
 20
434.0590496130677
 10
126.7140878587913
 20
433.8173556130677
 10
127.0878058587912
 20
433.6170476130678
 10
127.473591858791
 20
433.4596476130678
 10
127.8685138587909
 20
433.3463556130678
 10
128.2695618587911
 20
433.2780356130674
 10
128.673687858791
 20
433.2552036130675
 10
129.0778118587911
 20
433.2780356130674
 10
129.4788598587909
 20
433.3463556130678
 10
129.8737818587908
 20
433.4596476130678
 10
130.2595698587913
 20
433.6170476130678
 10
130.6332878587911
 20
433.8173556130677
 10
130.9920918587911
 20
434.0590496130677
 10
131.3332518587911
 20
434.3402916130677
 10
131.6541718587912
 20
434.6589356130676
 10
131.952405858791
 20
435.0125616130677
 10
132.2256898587914
 20
435.3984776130679
 10
132.4719398587911
 20
435.8137436130678
 10
132.689281858791
 20
436.2552036130674
 10
132.8760638587912
 20
436.7194936130677
 10
133.0308618587912
 20
437.2030816130679
 10
133.1525018587911
 20
437.702289613068
 10
133.240053858791
 20
438.2133136130678
 10
133.2928518587907
 20
438.7322676130676
 10
133.3104958587912
 20
439.2552036130673
 10
133.2928518587907
 20
439.7781376130678
 10
133.240053858791
 20
440.2970916130682
 10
133.1525018587911
 20
440.8081176130678
 10
133.0308618587912
 20
441.3073236130681
 10
132.8760638587912
 20
441.7909116130678
 10
132.689281858791
 20
442.2552036130674
 10
132.4719398587911
 20
442.6966616130677
 10
132.2256898587914
 20
443.1119296130678
 10
131.952405858791
 20
443.4978436130678
 10
131.6541718587912
 20
443.8514696130674
 10
131.3332518587911
 20
444.1701156130676
 10
130.9920918587911
 20
444.4513556130678
 10
130.6332878587911
 20
444.6930496130677
 10
130.2595698587913
 20
444.8933596130678
 10
129.8737818587908
 20
445.0507576130681
 10
129.4788598587909
 20
445.1640496130677
 10
129.0778118587911
 20
445.2323716130677
 10
128.673687858791
 20
445.2552036130675
  0
LWPOLYLINE
  5
5DDA
330
18
100
AcDbEntity
  8
BLKDRA
  6
Continuous
100
AcDbPolyline
 90
       73
 70
     1
 43
0.0
 10
155.7008258587909
 20
439.2552036130673
 10
155.6655378587914
 20
439.7781376130678
 10
155.5599398587912
 20
440.2970916130682
 10
155.3848358587913
 20
440.8081176130678
 10
155.1415598587911
 20
441.3073236130681
 10
154.8319598587911
 20
441.7909116130678
 10
154.4583978587909
 20
442.2552036130674
 10
154.0237118587908
 20
442.6966616130677
 10
153.531211858791
 20
443.1119296130678
 10
152.984645858791
 20
443.4978436130678
 10
152.388175858791
 20
443.8514696130674
 10
151.7463378587911
 20
444.1701156130676
 10
151.0640178587907
 20
444.4513556130678
 10
150.346407858791
 20
444.6930496130677
 10
149.5989718587914
 20
444.8933596130678
 10
148.827397858791
 20
445.0507576130681
 10
148.0375558587914
 20
445.1640496130677
 10
147.2354578587913
 20
445.2323716130677
 10
146.4272078587911
 20
445.2552036130675
 10
145.6189598587909
 20
445.2323716130677
 10
144.8168618587908
 20
445.1640496130677
 10
144.027019858791
 20
445.0507576130681
 10
143.255443858791
 20
444.8933596130678
 10
142.5080078587909
 20
444.6930496130677
 10
141.7903978587908
 20
444.4513556130678
 10
141.1080798587911
 20
444.1701156130676
 10
140.4662418587911
 20
443.8514696130674
 10
139.8697698587914
 20
443.4978436130678
 10
139.3232038587914
 20
443.1119296130678
 10
138.8307038587911
 20
442.6966616130677
 10
138.3960198587913
 20
442.2552036130674
 10
138.0224558587913
 20
441.7909116130678
 10
137.712857858791
 20
441.3073236130681
 10
137.4695798587911
 20
440.8081176130678
 10
137.2944758587912
 20
440.2970916130682
 10
137.1888778587911
 20
439.7781376130678
 10
137.153589858791
 20
439.2552036130673
 10
137.1888778587911
 20
438.7322676130676
 10
137.2944758587912
 20
438.2133136130678
 10
137.4695798587911
 20
437.702289613068
 10
137.712857858791
 20
437.2030816130679
 10
138.0224558587913
 20
436.7194936130677
 10
138.3960198587913
 20
436.2552036130674
 10
138.8307038587911
 20
435.8137436130678
 10
139.3232038587914
 20
435.3984776130679
 10
139.8697698587914
 20
435.0125616130677
 10
140.4662418587911
 20
434.6589356130676
 10
141.1080798587911
 20
434.3402916130677
 10
141.7903978587908
 20
434.0590496130677
 10
142.5080078587909
 20
433.8173556130677
 10
143.255443858791
 20
433.6170476130678
 10
144.027019858791
 20
433.4596476130678
 10
144.8168618587908
 20
433.3463556130678
 10
145.6189598587909
 20
433.2780356130674
 10
146.4272078587911
 20
433.2552036130675
 10
147.2354578587913
 20
433.2780356130674
 10
148.0375558587914
 20
433.3463556130678
 10
148.827397858791
 20
433.4596476130678
 10
149.5989718587914
 20
433.6170476130678
 10
150.346407858791
 20
433.8173556130677
 10
151.0640178587907
 20
434.0590496130677
 10
151.7463378587911
 20
434.3402916130677
 10
152.388175858791
 20
434.6589356130676
 10
152.984645858791
 20
435.0125616130677
 10
153.531211858791
 20
435.3984776130679
 10
154.0237118587908
 20
435.8137436130678
 10
154.4583978587909
 20
436.2552036130674
 10
154.8319598587911
 20
436.7194936130677
 10
155.1415598587911
 20
437.2030816130679
 10
155.3848358587913
 20
437.702289613068
 10
155.5599398587912
 20
438.2133136130678
 10
155.6655378587914
 20
438.7322676130676
 10
155.7008258587909
 20
439.2552036130673
  0
LINE
  5
5DDB
330
18
100
AcDbEntity
  8
BLKDRA
  6
Continuous
100
AcDbLine
 10
125.9272078587912
 20
433.2552036130675
 30
0.0
 11
146.4272078587911
 21
433.2552036130675
 31
0.0
  0
LINE
  5
5DDC
330
18
100
AcDbEntity
  8
BLKDRA
  6
Continuous
100
AcDbLine
 10
125.9272078587912
 20
445.2552036130675
 30
0.0
 11
146.4272078587911
 21
445.2552036130675
 31
0.0
  0
ARC
  5
5DDD
330
18
100
AcDbEntity
  8
BLKDRA
  6
Continuous
100
AcDbCircle
 10
172.4272078587912
 20
460.7665396130678
 30
0.0
 40
1.0
100
AcDbArc
 50
270.0
 51
329.9999999999994
  0
LINE
  5
5DDE
330
18
100
AcDbEntity
  8
BLKDRA
  6
Continuous
100
AcDbLine
 10
170.4272078587911
 20
454.7099136130678
 30
0.0
 11
170.4272078587911
 21
459.7665396130678
 31
0.0
  0
LINE
  5
5DDF
330
18
100
AcDbEntity
  8
BLKDRA
  6
Continuous
100
AcDbLine
 10
167.9272078587912
 20
453.2665396130678
 30
0.0
 11
170.4272078587911
 21
454.7099136130678
 31
0.0
  0
LINE
  5
5DE0
330
18
100
AcDbEntity
  8
BLKDRA
  6
Continuous
100
AcDbLine
 10
157.0925718587912
 20
454.7099136130678
 30
0.0
 11
157.0925718587912
 21
459.7665396130678
 31
0.0
  0
LINE
  5
5DE1
330
18
100
AcDbEntity
  8
BLKDRA
  6
Continuous
100
AcDbLine
 10
159.7140718587914
 20
454.7099136130678
 30
0.0
 11
159.7140718587914
 21
459.7665396130678
 31
0.0
  0
ARC
  5
5DE2
330
18
100
AcDbEntity
  8
BLKDRA
  6
Continuous
100
AcDbCircle
 10
165.0706398587911
 20
463.927711613068
 30
0.0
 40
10.661172
100
AcDbArc
 50
239.8386349999984
 51
300.1613650000017
  0
LINE
  5
5DE3
330
18
100
AcDbEntity
  8
BLKDRA
  6
Continuous
100
AcDbLine
 10
159.7140718587914
 20
454.7099136130678
 30
0.0
 11
157.0925718587912
 21
454.7099136130678
 31
0.0
  0
ARC
  5
5DE4
330
18
100
AcDbEntity
  8
BLKDRA
  6
Continuous
100
AcDbCircle
 10
146.4272078587911
 20
493.3923816130677
 30
0.0
 40
40.125844
100
AcDbArc
 50
270.0
 51
285.4143689999976
  0
LINE
  5
5DE5
330
18
100
AcDbEntity
  8
BLKDRA
  6
Continuous
100
AcDbLine
 10
167.9272078587912
 20
453.2665396130678
 30
0.0
 11
146.4272078587911
 21
453.2665396130678
 31
0.0
  0
LINE
  5
5DE6
330
18
100
AcDbEntity
  8
BLKDRA
  6
Continuous
100
AcDbLine
 10
172.4272078587912
 20
459.7665396130678
 30
0.0
 11
146.4272078587911
 21
459.7665396130678
 31
0.0
  0
LINE
  5
5DE7
330
18
100
AcDbEntity
  8
BLKDRA
  6
Continuous
100
AcDbLine
 10
133.140343858791
 20
454.7099136130678
 30
0.0
 11
135.7618438587913
 21
454.7099136130678
 31
0.0
  0
ARC
  5
5DE8
330
18
100
AcDbEntity
  8
BLKDRA
  6
Continuous
100
AcDbCircle
 10
127.7837758587909
 20
463.927711613068
 30
0.0
 40
10.661172
100
AcDbArc
 50
239.8386349999984
 51
300.1613650000017
  0
ARC
  5
5DE9
330
18
100
AcDbEntity
  8
BLKDRA
  6
Continuous
100
AcDbCircle
 10
146.4272078587911
 20
493.3923816130677
 30
0.0
 40
40.125844
100
AcDbArc
 50
254.5856310000024
 51
270.0
  0
LINE
  5
5DEA
330
18
100
AcDbEntity
  8
BLKDRA
  6
Continuous
100
AcDbLine
 10
133.140343858791
 20
454.7099136130678
 30
0.0
 11
133.140343858791
 21
459.7665396130678
 31
0.0
  0
LINE
  5
5DEB
330
18
100
AcDbEntity
  8
BLKDRA
  6
Continuous
100
AcDbLine
 10
135.7618438587913
 20
454.7099136130678
 30
0.0
 11
135.7618438587913
 21
459.7665396130678
 31
0.0
  0
LINE
  5
5DEC
330
18
100
AcDbEntity
  8
BLKDRA
  6
Continuous
100
AcDbLine
 10
124.9272078587912
 20
453.2665396130678
 30
0.0
 11
122.4272078587912
 21
454.7099136130678
 31
0.0
  0
LINE
  5
5DED
330
18
100
AcDbEntity
  8
BLKDRA
  6
Continuous
100
AcDbLine
 10
122.4272078587912
 20
454.7099136130678
 30
0.0
 11
122.4272078587912
 21
459.7665396130678
 31
0.0
  0
ARC
  5
5DEE
330
18
100
AcDbEntity
  8
BLKDRA
  6
Continuous
100
AcDbCircle
 10
120.4272078587912
 20
460.7665396130678
 30
0.0
 40
1.0
100
AcDbArc
 50
210.0000000000005
 51
270.0
  0
LINE
  5
5DEF
330
18
100
AcDbEntity
  8
BLKDRA
  6
Continuous
100
AcDbLine
 10
124.9272078587912
 20
453.2665396130678
 30
0.0
 11
146.4272078587911
 21
453.2665396130678
 31
0.0
  0
LINE
  5
5DF0
330
18
100
AcDbEntity
  8
BLKDRA
  6
Continuous
100
AcDbLine
 10
120.4272078587912
 20
459.7665396130678
 30
0.0
 11
146.4272078587911
 21
459.7665396130678
 31
0.0
  0
LINE
  5
5DF1
330
18
100
AcDbEntity
  8
BLKDRA
  6
Continuous
100
AcDbLine
 10
176.4272078587912
 20
465.2665396130678
 30
0.0
 11
176.4272078587912
 21
460.2665396130678
 31
0.0
  0
LINE
  5
5DF2
330
18
100
AcDbEntity
  8
BLKDRA
  6
Continuous
100
AcDbLine
 10
176.4272078587912
 20
460.2665396130678
 30
0.0
 11
146.4272078587911
 21
460.2665396130678
 31
0.0
  0
LINE
  5
5DF3
330
18
100
AcDbEntity
  8
BLKDRA
  6
Continuous
100
AcDbLine
 10
176.4272078587912
 20
465.2665396130678
 30
0.0
 11
146.4272078587911
 21
465.2665396130678
 31
0.0
  0
LINE
  5
5DF4
330
18
100
AcDbEntity
  8
BLKDRA
  6
Continuous
100
AcDbLine
 10
116.4272078587912
 20
465.2665396130678
 30
0.0
 11
116.4272078587912
 21
460.2665396130678
 31
0.0
  0
LINE
  5
5DF5
330
18
100
AcDbEntity
  8
BLKDRA
  6
Continuous
100
AcDbLine
 10
116.4272078587912
 20
460.2665396130678
 30
0.0
 11
146.4272078587911
 21
460.2665396130678
 31
0.0
  0
LINE
  5
5DF6
330
18
100
AcDbEntity
  8
BLKDRA
  6
Continuous
100
AcDbLine
 10
116.4272078587912
 20
465.2665396130678
 30
0.0
 11
146.4272078587911
 21
465.2665396130678
 31
0.0
  0
LINE
  5
5DF7
330
18
100
AcDbEntity
  8
BLKDRA
  6
Continuous
100
AcDbLine
 10
165.4272078587912
 20
453.2665396130678
 30
0.0
 11
165.4272078587912
 21
445.2552036130675
 31
0.0
  0
LINE
  5
5DF8
330
18
100
AcDbEntity
  8
BLKDRA
  6
Continuous
100
AcDbLine
 10
164.410731858791
 20
453.2665396130678
 30
0.0
 11
164.410731858791
 21
445.2552036130675
 31
0.0
  0
LINE
  5
5DF9
330
18
100
AcDbEntity
  8
BLKDRA
  6
Continuous
100
AcDbLine
 10
128.443683858791
 20
453.2665396130678
 30
0.0
 11
128.443683858791
 21
445.2552036130675
 31
0.0
  0
LINE
  5
5DFA
330
18
100
AcDbEntity
  8
BLKDRA
  6
Continuous
100
AcDbLine
 10
127.4272078587912
 20
453.2665396130678
 30
0.0
 11
127.4272078587912
 21
445.2552036130675
 31
0.0
  0
LINE
  5
5DFB
330
18
100
AcDbEntity
  8
BLKDRA
  6
Continuous
100
AcDbLine
 10
165.4272078587912
 20
473.5665396130682
 30
0.0
 11
173.0956858587913
 21
465.2665396130678
 31
0.0
  0
LINE
  5
5DFC
330
18
100
AcDbEntity
  8
BLKDRA
  6
Continuous
100
AcDbLine
 10
165.4272078587912
 20
473.5665396130682
 30
0.0
 11
146.4272078587911
 21
473.5665396130682
 31
0.0
  0
LINE
  5
5DFD
330
18
100
AcDbEntity
  8
BLKDRA
  6
Continuous
100
AcDbLine
 10
127.4272078587912
 20
473.5665396130682
 30
0.0
 11
119.7587298587912
 21
465.2665396130678
 31
0.0
  0
LINE
  5
5DFE
330
18
100
AcDbEntity
  8
BLKDRA
  6
Continuous
100
AcDbLine
 10
127.4272078587912
 20
473.5665396130682
 30
0.0
 11
146.4272078587911
 21
473.5665396130682
 31
0.0
  0
LINE
  5
5DFF
330
18
100
AcDbEntity
  8
BLKDRA
  6
Continuous
100
AcDbLine
 10
171.4272078587911
 20
505.7677816130676
 30
0.0
 11
171.4272078587911
 21
500.2677816130677
 31
0.0
  0
LINE
  5
5E00
330
18
100
AcDbEntity
  8
BLKDRA
  6
Continuous
100
AcDbLine
 10
171.4272078587911
 20
500.2677816130677
 30
0.0
 11
146.4272078587911
 21
500.2677816130677
 31
0.0
  0
LINE
  5
5E01
330
18
100
AcDbEntity
  8
BLKDRA
  6
Continuous
100
AcDbLine
 10
171.4272078587911
 20
505.7677816130676
 30
0.0
 11
146.4272078587911
 21
505.7677816130676
 31
0.0
  0
LINE
  5
5E02
330
18
100
AcDbEntity
  8
BLKDRA
  6
Continuous
100
AcDbLine
 10
121.4272078587912
 20
505.7677816130676
 30
0.0
 11
121.4272078587912
 21
500.2677816130677
 31
0.0
  0
LINE
  5
5E03
330
18
100
AcDbEntity
  8
BLKDRA
  6
Continuous
100
AcDbLine
 10
121.4272078587912
 20
500.2677816130677
 30
0.0
 11
146.4272078587911
 21
500.2677816130677
 31
0.0
  0
LINE
  5
5E04
330
18
100
AcDbEntity
  8
BLKDRA
  6
Continuous
100
AcDbLine
 10
121.4272078587912
 20
505.7677816130676
 30
0.0
 11
146.4272078587911
 21
505.7677816130676
 31
0.0
  0
ARC
  5
5E05
330
18
100
AcDbEntity
  8
BLKDRA
  6
Continuous
100
AcDbCircle
 10
172.4272078587912
 20
508.7552036130674
 30
0.0
 40
1.0
100
AcDbArc
 50
0.0
 51
90.0
  0
LINE
  5
5E06
330
18
100
AcDbEntity
  8
BLKDRA
  6
Continuous
100
AcDbLine
 10
173.4272078587912
 20
508.7552036130674
 30
0.0
 11
172.026793858791
 21
506.7552036130674
 31
0.0
  0
LINE
  5
5E07
330
18
100
AcDbEntity
  8
BLKDRA
  6
Continuous
100
AcDbLine
 10
163.9272078587912
 20
499.5552036130676
 30
0.0
 11
163.9272078587912
 21
476.2552036130673
 31
0.0
  0
LINE
  5
5E08
330
18
100
AcDbEntity
  8
BLKDRA
  6
Continuous
100
AcDbLine
 10
163.9272078587912
 20
499.5552036130676
 30
0.0
 11
164.0756618587909
 21
500.2677816130677
 31
0.0
  0
ARC
  5
5E09
330
18
100
AcDbEntity
  8
BLKDRA
  6
Continuous
100
AcDbCircle
 10
166.6469138587911
 20
505.2552036130673
 30
0.0
 40
1.5
100
AcDbArc
 50
90.0
 51
160.0183419999931
  0
LINE
  5
5E0A
330
18
100
AcDbEntity
  8
BLKDRA
  6
Continuous
100
AcDbLine
 10
157.9272078587911
 20
492.2552036130674
 30
0.0
 11
157.9272078587911
 21
477.2552036130674
 31
0.0
  0
ARC
  5
5E0B
330
18
100
AcDbEntity
  8
BLKDRA
  6
Continuous
100
AcDbCircle
 10
155.4272078587912
 20
492.2552036130674
 30
0.0
 40
2.5
100
AcDbArc
 50
0.0
 51
90.0
  0
ARC
  5
5E0C
330
18
100
AcDbEntity
  8
BLKDRA
  6
Continuous
100
AcDbCircle
 10
155.4272078587912
 20
477.2552036130674
 30
0.0
 40
2.5
100
AcDbArc
 50
270.0
 51
0.0
  0
LINE
  5
5E0D
330
18
100
AcDbEntity
  8
BLKDRA
  6
Continuous
100
AcDbLine
 10
165.4272078587912
 20
474.7552036130675
 30
0.0
 11
165.4272078587912
 21
473.5665396130682
 31
0.0
  0
LINE
  5
5E0E
330
18
100
AcDbEntity
  8
BLKDRA
  6
Continuous
100
AcDbLine
 10
164.410731858791
 20
475.152127613068
 30
0.0
 11
164.410731858791
 21
473.5665396130682
 31
0.0
  0
ARC
  5
5E0F
330
18
100
AcDbEntity
  8
BLKDRA
  6
Continuous
100
AcDbCircle
 10
165.4272078587912
 20
476.2552036130673
 30
0.0
 40
1.5
100
AcDbArc
 50
180.0
 51
270.0
  0
LINE
  5
5E10
330
18
100
AcDbEntity
  8
BLKDRA
  6
Continuous
100
AcDbLine
 10
165.4272078587912
 20
474.7552036130675
 30
0.0
 11
146.4272078587911
 21
474.7552036130675
 31
0.0
  0
LINE
  5
5E11
330
18
100
AcDbEntity
  8
BLKDRA
  6
Continuous
100
AcDbLine
 10
155.4272078587912
 20
494.7552036130674
 30
0.0
 11
146.4272078587911
 21
494.7552036130674
 31
0.0
  0
LINE
  5
5E12
330
18
100
AcDbEntity
  8
BLKDRA
  6
Continuous
100
AcDbLine
 10
163.9272078587912
 20
499.5552036130676
 30
0.0
 11
146.4272078587911
 21
499.5552036130676
 31
0.0
  0
LINE
  5
5E13
330
18
100
AcDbEntity
  8
BLKDRA
  6
Continuous
100
AcDbLine
 10
172.026793858791
 20
506.7552036130674
 30
0.0
 11
146.4272078587911
 21
506.7552036130674
 31
0.0
  0
LINE
  5
5E14
330
18
100
AcDbEntity
  8
BLKDRA
  6
Continuous
100
AcDbLine
 10
173.4272078587912
 20
508.7552036130674
 30
0.0
 11
146.4272078587911
 21
508.7552036130674
 31
0.0
  0
LINE
  5
5E15
330
18
100
AcDbEntity
  8
BLKDRA
  6
Continuous
100
AcDbLine
 10
172.4272078587912
 20
509.7552036130673
 30
0.0
 11
146.4272078587911
 21
509.7552036130673
 31
0.0
  0
ARC
  5
5E16
330
18
100
AcDbEntity
  8
BLKDRA
  6
Continuous
100
AcDbCircle
 10
127.4272078587912
 20
476.2552036130673
 30
0.0
 40
1.5
100
AcDbArc
 50
270.0
 51
0.0
  0
LINE
  5
5E17
330
18
100
AcDbEntity
  8
BLKDRA
  6
Continuous
100
AcDbLine
 10
128.443683858791
 20
475.152127613068
 30
0.0
 11
128.443683858791
 21
473.5665396130682
 31
0.0
  0
LINE
  5
5E18
330
18
100
AcDbEntity
  8
BLKDRA
  6
Continuous
100
AcDbLine
 10
127.4272078587912
 20
474.7552036130675
 30
0.0
 11
127.4272078587912
 21
473.5665396130682
 31
0.0
  0
ARC
  5
5E19
330
18
100
AcDbEntity
  8
BLKDRA
  6
Continuous
100
AcDbCircle
 10
137.4272078587912
 20
477.2552036130674
 30
0.0
 40
2.5
100
AcDbArc
 50
180.0
 51
270.0
  0
ARC
  5
5E1A
330
18
100
AcDbEntity
  8
BLKDRA
  6
Continuous
100
AcDbCircle
 10
137.4272078587912
 20
492.2552036130674
 30
0.0
 40
2.5
100
AcDbArc
 50
90.0
 51
180.0
  0
LINE
  5
5E1B
330
18
100
AcDbEntity
  8
BLKDRA
  6
Continuous
100
AcDbLine
 10
127.4272078587912
 20
474.7552036130675
 30
0.0
 11
146.4272078587911
 21
474.7552036130675
 31
0.0
  0
LINE
  5
5E1C
330
18
100
AcDbEntity
  8
BLKDRA
  6
Continuous
100
AcDbLine
 10
137.4272078587912
 20
494.7552036130674
 30
0.0
 11
146.4272078587911
 21
494.7552036130674
 31
0.0
  0
LINE
  5
5E1D
330
18
100
AcDbEntity
  8
BLKDRA
  6
Continuous
100
AcDbLine
 10
134.9272078587912
 20
492.2552036130674
 30
0.0
 11
134.9272078587912
 21
477.2552036130674
 31
0.0
  0
ARC
  5
5E1E
330
18
100
AcDbEntity
  8
BLKDRA
  6
Continuous
100
AcDbCircle
 10
126.2075018587909
 20
505.2552036130673
 30
0.0
 40
1.5
100
AcDbArc
 50
19.98165800000682
 51
90.0
  0
LINE
  5
5E1F
330
18
100
AcDbEntity
  8
BLKDRA
  6
Continuous
100
AcDbLine
 10
128.9272078587912
 20
499.5552036130676
 30
0.0
 11
128.778753858791
 21
500.2677816130677
 31
0.0
  0
LINE
  5
5E20
330
18
100
AcDbEntity
  8
BLKDRA
  6
Continuous
100
AcDbLine
 10
128.9272078587912
 20
499.5552036130676
 30
0.0
 11
128.9272078587912
 21
476.2552036130673
 31
0.0
  0
LINE
  5
5E21
330
18
100
AcDbEntity
  8
BLKDRA
  6
Continuous
100
AcDbLine
 10
128.9272078587912
 20
499.5552036130676
 30
0.0
 11
146.4272078587911
 21
499.5552036130676
 31
0.0
  0
LINE
  5
5E22
330
18
100
AcDbEntity
  8
BLKDRA
  6
Continuous
100
AcDbLine
 10
119.4272078587912
 20
508.7552036130674
 30
0.0
 11
120.8276238587911
 21
506.7552036130674
 31
0.0
  0
LINE
  5
5E23
330
18
100
AcDbEntity
  8
BLKDRA
  6
Continuous
100
AcDbLine
 10
120.8276238587911
 20
506.7552036130674
 30
0.0
 11
146.4272078587911
 21
506.7552036130674
 31
0.0
  0
ARC
  5
5E24
330
18
100
AcDbEntity
  8
BLKDRA
  6
Continuous
100
AcDbCircle
 10
120.4272078587912
 20
508.7552036130674
 30
0.0
 40
1.0
100
AcDbArc
 50
90.0
 51
180.0
  0
LINE
  5
5E25
330
18
100
AcDbEntity
  8
BLKDRA
  6
Continuous
100
AcDbLine
 10
119.4272078587912
 20
508.7552036130674
 30
0.0
 11
146.4272078587911
 21
508.7552036130674
 31
0.0
  0
LINE
  5
5E26
330
18
100
AcDbEntity
  8
BLKDRA
  6
Continuous
100
AcDbLine
 10
120.4272078587912
 20
509.7552036130673
 30
0.0
 11
146.4272078587911
 21
509.7552036130673
 31
0.0
  0
LINE
  5
5E27
330
18
100
AcDbEntity
  8
BLKDRA
  6
Continuous
100
AcDbLine
 10
142.1472658587911
 20
494.7552036130674
 30
0.0
 11
142.035679858791
 21
474.7552036130675
 31
0.0
  0
LINE
  5
5E28
330
18
100
AcDbEntity
  8
BLKDRA
  6
Continuous
100
AcDbLine
 10
145.6142498587908
 20
494.7552036130674
 30
0.0
 11
145.3909258587912
 21
474.7552036130675
 31
0.0
  0
LWPOLYLINE
  5
5E29
330
18
100
AcDbEntity
  8
BLKDRA
  6
Continuous
100
AcDbPolyline
 90
        5
 70
     0
 43
0.0
 10
146.4272078587911
 20
511.4060936130677
 10
142.2362498587911
 20
511.3220336130677
 10
138.0029158587911
 20
511.0677856130679
 10
133.769581858791
 20
510.6020096130678
 10
129.620653858791
 20
509.9667336130678
  0
LINE
  5
5E2A
330
18
100
AcDbEntity
  8
BLKDRA
  6
Continuous
100
AcDbLine
 10
146.4272078587911
 20
509.7979256130679
 30
0.0
 11
129.3033618587908
 21
509.7979256130679
 31
0.0
  0
LINE
  5
5E2B
330
18
100
AcDbEntity
  8
BLKDRA
  6
Continuous
100
AcDbLine
 10
129.620653858791
 20
509.9667336130678
 30
0.0
 11
129.4937018587909
 21
509.9247036130678
 31
0.0
  0
LINE
  5
5E2C
330
18
100
AcDbEntity
  8
BLKDRA
  6
Continuous
100
AcDbLine
 10
129.4937018587909
 20
509.9247036130678
 30
0.0
 11
129.3667498587908
 21
509.8826736130678
 31
0.0
  0
LINE
  5
5E2D
330
18
100
AcDbEntity
  8
BLKDRA
  6
Continuous
100
AcDbLine
 10
129.3667498587908
 20
509.8826736130678
 30
0.0
 11
129.2714078587912
 21
509.7552036130673
 31
0.0
  0
LWPOLYLINE
  5
5E2E
330
18
100
AcDbEntity
  8
BLKDRA
  6
Continuous
100
AcDbPolyline
 90
        5
 70
     0
 43
0.0
 10
146.4272078587911
 20
511.4060936130677
 10
150.6181658587909
 20
511.3220336130677
 10
154.8514998587909
 20
511.0677856130679
 10
159.0848338587909
 20
510.6020096130678
 10
163.233761858791
 20
509.9667336130678
  0
LINE
  5
5E2F
330
18
100
AcDbEntity
  8
BLKDRA
  6
Continuous
100
AcDbLine
 10
163.3607138587911
 20
509.9247036130678
 30
0.0
 11
163.4876658587911
 21
509.8826736130678
 31
0.0
  0
LINE
  5
5E30
330
18
100
AcDbEntity
  8
BLKDRA
  6
Continuous
100
AcDbLine
 10
163.233761858791
 20
509.9667336130678
 30
0.0
 11
163.3607138587911
 21
509.9247036130678
 31
0.0
  0
LINE
  5
5E31
330
18
100
AcDbEntity
  8
BLKDRA
  6
Continuous
100
AcDbLine
 10
146.4272078587911
 20
509.7979256130679
 30
0.0
 11
163.5510538587912
 21
509.7979256130679
 31
0.0
  0
LINE
  5
5E32
330
18
100
AcDbEntity
  8
BLKDRA
  6
Continuous
100
AcDbLine
 10
163.4876658587911
 20
509.8826736130678
 30
0.0
 11
163.5830078587912
 21
509.7552036130673
 31
0.0
  0
LINE
  5
5E33
330
18
100
AcDbEntity
  8
BLKDRA
  6
Continuous
100
AcDbLine
 10
150.7071498587909
 20
494.7552036130674
 30
0.0
 11
150.8187358587913
 21
474.7552036130675
 31
0.0
  0
LINE
  5
5E34
330
18
100
AcDbEntity
  8
BLKDRA
  6
Continuous
100
AcDbLine
 10
147.240167858791
 20
494.7552036130674
 30
0.0
 11
147.4634898587912
 21
474.7552036130675
 31
0.0
  0
LINE
  5
5E35
330
18
100
AcDbEntity
  8
0
100
AcDbLine
 10
303.3918844040445
 20
428.1765866552048
 30
0.0
 11
303.3918844040445
 21
426.2765866552048
 31
0.0
  0
ARC
  5
5E36
330
18
100
AcDbEntity
  8
0
100
AcDbCircle
 10
303.3918844040445
 20
428.7765866552048
 30
0.0
 40
0.6
100
AcDbArc
 50
270.0
 51
90.0
  0
LINE
  5
5E37
330
18
100
AcDbEntity
  8
0
100
AcDbLine
 10
317.8918844040445
 20
428.1765866552048
 30
0.0
 11
317.8918844040445
 21
426.2765866552048
 31
0.0
  0
ARC
  5
5E38
330
18
100
AcDbEntity
  8
0
100
AcDbCircle
 10
317.8918844040445
 20
428.7765866552048
 30
0.0
 40
0.6
100
AcDbArc
 50
90.0
 51
270.0
  0
LINE
  5
5E39
330
18
100
AcDbEntity
  8
0
100
AcDbLine
 10
306.6418844040445
 20
433.8765866552046
 30
0.0
 11
306.6418844040445
 21
435.3765866552047
 31
0.0
  0
LINE
  5
5E3A
330
18
100
AcDbEntity
  8
0
100
AcDbLine
 10
314.6418844040445
 20
433.8765866552046
 30
0.0
 11
314.6418844040445
 21
435.3765866552047
 31
0.0
  0
LINE
  5
5E3B
330
18
100
AcDbEntity
  8
0
100
AcDbLine
 10
303.3918844040445
 20
433.8765866552046
 30
0.0
 11
303.3918844040445
 21
429.3765866552046
 31
0.0
  0
LINE
  5
5E3C
330
18
100
AcDbEntity
  8
0
100
AcDbLine
 10
302.8918844040445
 20
425.7765866552047
 30
0.0
 11
302.1418844040445
 21
425.7765866552047
 31
0.0
  0
ARC
  5
5E3D
330
18
100
AcDbEntity
  8
0
100
AcDbCircle
 10
302.8918844040445
 20
426.2765866552048
 30
0.0
 40
0.5
100
AcDbArc
 50
270.0
 51
0.0
  0
ARC
  5
5E3E
330
18
100
AcDbEntity
  8
0
100
AcDbCircle
 10
302.1418844040445
 20
426.0265866552048
 30
0.0
 40
0.25
100
AcDbArc
 50
90.0
 51
270.0
  0
ARC
  5
5E3F
330
18
100
AcDbEntity
  8
0
100
AcDbCircle
 10
302.1418844040445
 20
426.9265866552048
 30
0.0
 40
0.25
100
AcDbArc
 50
90.0
 51
270.0
  0
ARC
  5
5E40
330
18
100
AcDbEntity
  8
0
100
AcDbCircle
 10
302.1418844040445
 20
427.8265866552045
 30
0.0
 40
0.25
100
AcDbArc
 50
90.0
 51
270.0
  0
ARC
  5
5E41
330
18
100
AcDbEntity
  8
0
100
AcDbCircle
 10
302.1418844040445
 20
428.7265866552046
 30
0.0
 40
0.25
100
AcDbArc
 50
90.0
 51
270.0
  0
ARC
  5
5E42
330
18
100
AcDbEntity
  8
0
100
AcDbCircle
 10
302.1418844040445
 20
429.6265866552047
 30
0.0
 40
0.25
100
AcDbArc
 50
90.0
 51
270.0
  0
ARC
  5
5E43
330
18
100
AcDbEntity
  8
0
100
AcDbCircle
 10
302.1418844040445
 20
430.5265866552048
 30
0.0
 40
0.25
100
AcDbArc
 50
90.0
 51
270.0
  0
ARC
  5
5E44
330
18
100
AcDbEntity
  8
0
100
AcDbCircle
 10
302.1418844040445
 20
431.4265866552048
 30
0.0
 40
0.25
100
AcDbArc
 50
90.0
 51
270.0
  0
ARC
  5
5E45
330
18
100
AcDbEntity
  8
0
100
AcDbCircle
 10
302.1418844040445
 20
432.3265866552045
 30
0.0
 40
0.25
100
AcDbArc
 50
90.0
 51
270.0
  0
LINE
  5
5E46
330
18
100
AcDbEntity
  8
0
100
AcDbLine
 10
302.1418844040445
 20
432.0765866552044
 30
0.0
 11
302.1418844040445
 21
431.6765866552048
 31
0.0
  0
LINE
  5
5E47
330
18
100
AcDbEntity
  8
0
100
AcDbLine
 10
302.1418844040445
 20
431.1765866552049
 30
0.0
 11
302.1418844040445
 21
430.7765866552048
 31
0.0
  0
LINE
  5
5E48
330
18
100
AcDbEntity
  8
0
100
AcDbLine
 10
302.1418844040445
 20
430.2765866552048
 30
0.0
 11
302.1418844040445
 21
429.8765866552046
 31
0.0
  0
LINE
  5
5E49
330
18
100
AcDbEntity
  8
0
100
AcDbLine
 10
302.1418844040445
 20
429.3765866552046
 30
0.0
 11
302.1418844040445
 21
428.9765866552046
 31
0.0
  0
LINE
  5
5E4A
330
18
100
AcDbEntity
  8
0
100
AcDbLine
 10
302.1418844040445
 20
428.4765866552046
 30
0.0
 11
302.1418844040445
 21
428.0765866552044
 31
0.0
  0
LINE
  5
5E4B
330
18
100
AcDbEntity
  8
0
100
AcDbLine
 10
302.1418844040445
 20
427.5765866552045
 30
0.0
 11
302.1418844040445
 21
427.1765866552049
 31
0.0
  0
LINE
  5
5E4C
330
18
100
AcDbEntity
  8
0
100
AcDbLine
 10
302.1418844040445
 20
426.6765866552048
 30
0.0
 11
302.1418844040445
 21
426.2765866552048
 31
0.0
  0
LINE
  5
5E4D
330
18
100
AcDbEntity
  8
0
100
AcDbLine
 10
302.1418844040445
 20
432.5765866552044
 30
0.0
 11
301.8918844040445
 21
435.5078186552048
 31
0.0
  0
LINE
  5
5E4E
330
18
100
AcDbEntity
  8
0
100
AcDbLine
 10
303.3918844040445
 20
433.8765866552046
 30
0.0
 11
306.6418844040445
 21
433.8765866552046
 31
0.0
  0
LINE
  5
5E4F
330
18
100
AcDbEntity
  8
0
100
AcDbLine
 10
307.1418844040445
 20
440.4765866552046
 30
0.0
 11
307.1418844040445
 21
439.4765866552046
 31
0.0
  0
LINE
  5
5E50
330
18
100
AcDbEntity
  8
0
100
AcDbLine
 10
306.1418844040445
 20
441.4765866552046
 30
0.0
 11
302.9443384040446
 21
441.4765866552046
 31
0.0
  0
LINE
  5
5E51
330
18
100
AcDbEntity
  8
0
100
AcDbLine
 10
301.8918844040445
 20
435.5078186552048
 30
0.0
 11
302.9443384040446
 21
441.4765866552046
 31
0.0
  0
LINE
  5
5E52
330
18
100
AcDbEntity
  8
0
100
AcDbLine
 10
307.1418844040445
 20
440.4765866552046
 30
0.0
 11
306.1418844040445
 21
441.4765866552046
 31
0.0
  0
LINE
  5
5E53
330
18
100
AcDbEntity
  8
0
100
AcDbLine
 10
307.1418844040445
 20
439.4765866552046
 30
0.0
 11
304.1148244040446
 21
439.4765866552046
 31
0.0
  0
LINE
  5
5E54
330
18
100
AcDbEntity
  8
0
100
AcDbLine
 10
303.3918844040445
 20
435.3765866552047
 30
0.0
 11
304.1148244040446
 21
439.4765866552046
 31
0.0
  0
LINE
  5
5E55
330
18
100
AcDbEntity
  8
0
100
AcDbLine
 10
319.1418844040445
 20
432.5765866552044
 30
0.0
 11
319.3918844040445
 21
435.5078186552048
 31
0.0
  0
LINE
  5
5E56
330
18
100
AcDbEntity
  8
0
100
AcDbLine
 10
319.1418844040445
 20
426.6765866552048
 30
0.0
 11
319.1418844040445
 21
426.2765866552048
 31
0.0
  0
LINE
  5
5E57
330
18
100
AcDbEntity
  8
0
100
AcDbLine
 10
319.1418844040445
 20
427.5765866552045
 30
0.0
 11
319.1418844040445
 21
427.1765866552049
 31
0.0
  0
LINE
  5
5E58
330
18
100
AcDbEntity
  8
0
100
AcDbLine
 10
319.1418844040445
 20
428.4765866552046
 30
0.0
 11
319.1418844040445
 21
428.0765866552044
 31
0.0
  0
LINE
  5
5E59
330
18
100
AcDbEntity
  8
0
100
AcDbLine
 10
319.1418844040445
 20
429.3765866552046
 30
0.0
 11
319.1418844040445
 21
428.9765866552046
 31
0.0
  0
LINE
  5
5E5A
330
18
100
AcDbEntity
  8
0
100
AcDbLine
 10
319.1418844040445
 20
430.2765866552048
 30
0.0
 11
319.1418844040445
 21
429.8765866552046
 31
0.0
  0
LINE
  5
5E5B
330
18
100
AcDbEntity
  8
0
100
AcDbLine
 10
319.1418844040445
 20
431.1765866552049
 30
0.0
 11
319.1418844040445
 21
430.7765866552048
 31
0.0
  0
LINE
  5
5E5C
330
18
100
AcDbEntity
  8
0
100
AcDbLine
 10
319.1418844040445
 20
432.0765866552044
 30
0.0
 11
319.1418844040445
 21
431.6765866552048
 31
0.0
  0
ARC
  5
5E5D
330
18
100
AcDbEntity
  8
0
100
AcDbCircle
 10
319.1418844040445
 20
432.3265866552045
 30
0.0
 40
0.25
100
AcDbArc
 50
270.0
 51
90.0
  0
ARC
  5
5E5E
330
18
100
AcDbEntity
  8
0
100
AcDbCircle
 10
319.1418844040445
 20
431.4265866552048
 30
0.0
 40
0.25
100
AcDbArc
 50
270.0
 51
90.0
  0
ARC
  5
5E5F
330
18
100
AcDbEntity
  8
0
100
AcDbCircle
 10
319.1418844040445
 20
430.5265866552048
 30
0.0
 40
0.25
100
AcDbArc
 50
270.0
 51
90.0
  0
ARC
  5
5E60
330
18
100
AcDbEntity
  8
0
100
AcDbCircle
 10
319.1418844040445
 20
429.6265866552047
 30
0.0
 40
0.25
100
AcDbArc
 50
270.0
 51
90.0
  0
ARC
  5
5E61
330
18
100
AcDbEntity
  8
0
100
AcDbCircle
 10
319.1418844040445
 20
428.7265866552046
 30
0.0
 40
0.25
100
AcDbArc
 50
270.0
 51
90.0
  0
ARC
  5
5E62
330
18
100
AcDbEntity
  8
0
100
AcDbCircle
 10
319.1418844040445
 20
427.8265866552045
 30
0.0
 40
0.25
100
AcDbArc
 50
270.0
 51
90.0
  0
ARC
  5
5E63
330
18
100
AcDbEntity
  8
0
100
AcDbCircle
 10
319.1418844040445
 20
426.9265866552048
 30
0.0
 40
0.25
100
AcDbArc
 50
270.0
 51
90.0
  0
ARC
  5
5E64
330
18
100
AcDbEntity
  8
0
100
AcDbCircle
 10
319.1418844040445
 20
426.0265866552048
 30
0.0
 40
0.25
100
AcDbArc
 50
270.0
 51
90.0
  0
ARC
  5
5E65
330
18
100
AcDbEntity
  8
0
100
AcDbCircle
 10
318.3918844040445
 20
426.2765866552048
 30
0.0
 40
0.5
100
AcDbArc
 50
180.0
 51
270.0
  0
LINE
  5
5E66
330
18
100
AcDbEntity
  8
0
100
AcDbLine
 10
318.3918844040445
 20
425.7765866552047
 30
0.0
 11
319.1418844040445
 21
425.7765866552047
 31
0.0
  0
LINE
  5
5E67
330
18
100
AcDbEntity
  8
0
100
AcDbLine
 10
319.3918844040445
 20
435.5078186552048
 30
0.0
 11
318.3394304040448
 21
441.4765866552046
 31
0.0
  0
LINE
  5
5E68
330
18
100
AcDbEntity
  8
0
100
AcDbLine
 10
314.1418844040445
 20
440.4765866552046
 30
0.0
 11
315.1418844040445
 21
441.4765866552046
 31
0.0
  0
LINE
  5
5E69
330
18
100
AcDbEntity
  8
0
100
AcDbLine
 10
314.1418844040445
 20
439.4765866552046
 30
0.0
 11
317.1689444040449
 21
439.4765866552046
 31
0.0
  0
LINE
  5
5E6A
330
18
100
AcDbEntity
  8
0
100
AcDbLine
 10
314.1418844040445
 20
440.4765866552046
 30
0.0
 11
314.1418844040445
 21
439.4765866552046
 31
0.0
  0
LINE
  5
5E6B
330
18
100
AcDbEntity
  8
0
100
AcDbLine
 10
315.1418844040445
 20
441.4765866552046
 30
0.0
 11
318.3394304040448
 21
441.4765866552046
 31
0.0
  0
LINE
  5
5E6C
330
18
100
AcDbEntity
  8
0
100
AcDbLine
 10
317.8918844040445
 20
435.3765866552047
 30
0.0
 11
317.1689444040449
 21
439.4765866552046
 31
0.0
  0
LINE
  5
5E6D
330
18
100
AcDbEntity
  8
0
100
AcDbLine
 10
317.8918844040445
 20
433.8765866552046
 30
0.0
 11
317.8918844040445
 21
429.3765866552046
 31
0.0
  0
ARC
  5
5E6E
330
18
100
AcDbEntity
  8
0
100
AcDbCircle
 10
316.1418844040445
 20
433.3765866552046
 30
0.0
 40
0.5
100
AcDbArc
 50
90.0
 51
180.0
  0
LINE
  5
5E6F
330
18
100
AcDbEntity
  8
0
100
AcDbLine
 10
317.8918844040445
 20
433.8765866552046
 30
0.0
 11
314.6418844040445
 21
433.8765866552046
 31
0.0
  0
ARC
  5
5E70
330
18
100
AcDbEntity
  8
0
100
AcDbCircle
 10
305.1418844040445
 20
433.3765866552046
 30
0.0
 40
0.5
100
AcDbArc
 50
0.0
 51
90.0
  0
LINE
  5
5E71
330
18
100
AcDbEntity
  8
0
100
AcDbLine
 10
310.6418844040445
 20
435.3765866552047
 30
0.0
 11
315.6418844040443
 21
435.3765866552047
 31
0.0
  0
LINE
  5
5E72
330
18
100
AcDbEntity
  8
0
100
AcDbLine
 10
309.3918844040445
 20
397.3765866552047
 30
0.0
 11
311.8918844040445
 21
397.3765866552047
 31
0.0
  0
ARC
  5
5E73
330
18
100
AcDbEntity
  8
0
100
AcDbCircle
 10
310.6418844040445
 20
398.8765866552047
 30
0.0
 40
0.5
100
AcDbArc
 50
0.0
 51
180.0
  0
LINE
  5
5E74
330
18
100
AcDbEntity
  8
0
100
AcDbLine
 10
311.3418844040448
 20
394.3765866552047
 30
0.0
 11
311.1418844040445
 21
394.5765866552045
 31
0.0
  0
LINE
  5
5E75
330
18
100
AcDbEntity
  8
0
100
AcDbLine
 10
309.9418844040447
 20
394.3765866552047
 30
0.0
 11
310.1418844040445
 21
394.5765866552045
 31
0.0
  0
LINE
  5
5E76
330
18
100
AcDbEntity
  8
0
100
AcDbLine
 10
310.1418844040445
 20
396.3765866552047
 30
0.0
 11
309.3918844040445
 21
396.3765866552047
 31
0.0
  0
LINE
  5
5E77
330
18
100
AcDbEntity
  8
0
100
AcDbLine
 10
309.3918844040445
 20
397.3765866552047
 30
0.0
 11
309.3918844040445
 21
396.3765866552047
 31
0.0
  0
LINE
  5
5E78
330
18
100
AcDbEntity
  8
0
100
AcDbLine
 10
309.3918844040445
 20
397.3765866552047
 30
0.0
 11
310.1418844040445
 21
398.6756246552048
 31
0.0
  0
LINE
  5
5E79
330
18
100
AcDbEntity
  8
0
100
AcDbLine
 10
310.1418844040445
 20
396.3765866552047
 30
0.0
 11
310.1418844040445
 21
394.3765866552047
 31
0.0
  0
LINE
  5
5E7A
330
18
100
AcDbEntity
  8
0
100
AcDbLine
 10
310.1418844040445
 20
399.8765866552048
 30
0.0
 11
310.1418844040445
 21
398.6756246552048
 31
0.0
  0
LINE
  5
5E7B
330
18
100
AcDbEntity
  8
0
100
AcDbLine
 10
311.1418844040445
 20
396.3765866552047
 30
0.0
 11
311.1418844040445
 21
394.3765866552047
 31
0.0
  0
LINE
  5
5E7C
330
18
100
AcDbEntity
  8
0
100
AcDbLine
 10
311.8918844040445
 20
397.3765866552047
 30
0.0
 11
311.1418844040445
 21
398.6756246552048
 31
0.0
  0
LINE
  5
5E7D
330
18
100
AcDbEntity
  8
0
100
AcDbLine
 10
311.8918844040445
 20
397.3765866552047
 30
0.0
 11
311.8918844040445
 21
396.3765866552047
 31
0.0
  0
LINE
  5
5E7E
330
18
100
AcDbEntity
  8
0
100
AcDbLine
 10
311.1418844040445
 20
396.3765866552047
 30
0.0
 11
311.8918844040445
 21
396.3765866552047
 31
0.0
  0
ARC
  5
5E7F
330
18
100
AcDbEntity
  8
0
100
AcDbCircle
 10
314.3918844040445
 20
386.8765866552047
 30
0.0
 40
0.5
100
AcDbArc
 50
270.0
 51
0.0
  0
ARC
  5
5E80
330
18
100
AcDbEntity
  8
0
100
AcDbCircle
 10
306.8918844040445
 20
386.8765866552047
 30
0.0
 40
0.5
100
AcDbArc
 50
180.0
 51
270.0
  0
ARC
  5
5E81
330
18
100
AcDbEntity
  8
0
100
AcDbCircle
 10
310.6418844040445
 20
399.8765866552048
 30
0.0
 40
0.5
100
AcDbArc
 50
0.0
 51
180.0
  0
LINE
  5
5E82
330
18
100
AcDbEntity
  8
0
100
AcDbLine
 10
311.1418844040445
 20
399.8765866552048
 30
0.0
 11
311.1418844040445
 21
398.6756246552048
 31
0.0
  0
LINE
  5
5E83
330
18
100
AcDbEntity
  8
0
100
AcDbLine
 10
308.8418844040448
 20
386.3765866552047
 30
0.0
 11
308.8418844040448
 21
385.4867223150874
 31
0.0
  0
LINE
  5
5E84
330
18
100
AcDbEntity
  8
0
100
AcDbLine
 10
312.4418844040447
 20
386.3765866552047
 30
0.0
 11
312.4418844040447
 21
385.4867223150874
 31
0.0
  0
LINE
  5
5E85
330
18
100
AcDbEntity
  8
0
100
AcDbLine
 10
308.6418844040445
 20
392.3765866552047
 30
0.0
 11
308.6418844040445
 21
389.3765866552048
 31
0.0
  0
LINE
  5
5E86
330
18
100
AcDbEntity
  8
0
100
AcDbLine
 10
308.6418844040445
 20
392.3765866552047
 30
0.0
 11
312.6418844040445
 21
392.3765866552047
 31
0.0
  0
LINE
  5
5E87
330
18
100
AcDbEntity
  8
0
100
AcDbLine
 10
312.6418844040445
 20
392.3765866552047
 30
0.0
 11
312.6418844040445
 21
389.3765866552048
 31
0.0
  0
LINE
  5
5E88
330
18
100
AcDbEntity
  8
0
100
AcDbLine
 10
305.6418844040445
 20
394.3765866552047
 30
0.0
 11
315.6418844040445
 21
394.3765866552047
 31
0.0
  0
ARC
  5
5E89
330
18
100
AcDbEntity
  8
0
100
AcDbCircle
 10
315.1418844040445
 20
389.8765866552047
 30
0.0
 40
0.5
100
AcDbArc
 50
270.0
 51
0.0
  0
ARC
  5
5E8A
330
18
100
AcDbEntity
  8
0
100
AcDbCircle
 10
306.1418844040445
 20
389.8765866552047
 30
0.0
 40
0.5
100
AcDbArc
 50
180.0
 51
270.0
  0
LINE
  5
5E8B
330
18
100
AcDbEntity
  8
0
100
AcDbLine
 10
305.6418844040445
 20
433.3765866552046
 30
0.0
 11
305.6418844040445
 21
389.8765866552047
 31
0.0
  0
LINE
  5
5E8C
330
18
100
AcDbEntity
  8
0
100
AcDbLine
 10
315.6418844040445
 20
433.3765866552046
 30
0.0
 11
315.6418844040445
 21
389.8765866552047
 31
0.0
  0
LINE
  5
5E8D
330
18
100
AcDbEntity
  8
0
100
AcDbLine
 10
306.3918844040445
 20
389.3765866552048
 30
0.0
 11
306.3918844040445
 21
386.8765866552047
 31
0.0
  0
LINE
  5
5E8E
330
18
100
AcDbEntity
  8
0
100
AcDbLine
 10
314.8918844040445
 20
389.3765866552048
 30
0.0
 11
314.8918844040445
 21
386.8765866552047
 31
0.0
  0
LINE
  5
5E8F
330
18
100
AcDbEntity
  8
0
100
AcDbLine
 10
306.1418844040445
 20
389.3765866552048
 30
0.0
 11
315.1418844040445
 21
389.3765866552048
 31
0.0
  0
LINE
  5
5E90
330
18
100
AcDbEntity
  8
0
100
AcDbLine
 10
306.8918844040445
 20
386.3765866552047
 30
0.0
 11
314.3918844040445
 21
386.3765866552047
 31
0.0
  0
LINE
  5
5E91
330
18
100
AcDbEntity
  8
0
100
AcDbLine
 10
283.8418844040448
 20
356.8867223150875
 30
0.0
 11
267.0741758161333
 21
356.8867223150875
 31
0.0
  0
LINE
  5
5E92
330
18
100
AcDbEntity
  8
0
100
AcDbLine
 10
283.8418844040448
 20
360.4867223150874
 30
0.0
 11
267.0741758161333
 21
360.4867223150874
 31
0.0
  0
LINE
  5
5E93
330
18
100
AcDbEntity
  8
BLKDRA
  6
Continuous
100
AcDbLine
 10
172.3024157508636
 20
388.0077036130678
 30
0.0
 11
172.3024157508636
 21
390.7577036130677
 31
0.0
  0
LINE
  5
5E94
330
18
100
AcDbEntity
  8
BLKDRA
  6
Continuous
100
AcDbLine
 10
172.3024157508636
 20
388.0077036130678
 30
0.0
 11
165.8024157508636
 21
388.0077036130678
 31
0.0
  0
LINE
  5
5E95
330
18
100
AcDbEntity
  8
BLKDRA
  6
Continuous
100
AcDbLine
 10
172.3024157508636
 20
393.5077036130678
 30
0.0
 11
172.3024157508636
 21
390.7577036130677
 31
0.0
  0
LINE
  5
5E96
330
18
100
AcDbEntity
  8
BLKDRA
  6
Continuous
100
AcDbLine
 10
172.3024157508636
 20
393.5077036130678
 30
0.0
 11
165.8024157508636
 21
393.5077036130678
 31
0.0
  0
LINE
  5
5E97
330
18
100
AcDbEntity
  8
BLKDRA
  6
Continuous
100
AcDbLine
 10
165.8024157508636
 20
397.0077036130677
 30
0.0
 11
165.8024157508636
 21
384.5077036130677
 31
0.0
  0
LINE
  5
5E98
330
18
100
AcDbEntity
  8
BLKDRA
  6
Continuous
100
AcDbLine
 10
165.8024157508636
 20
397.0077036130677
 30
0.0
 11
162.3024157508637
 21
397.0077036130677
 31
0.0
  0
LINE
  5
5E99
330
18
100
AcDbEntity
  8
BLKDRA
  6
Continuous
100
AcDbLine
 10
165.8024157508636
 20
384.5077036130677
 30
0.0
 11
162.3024157508637
 21
384.5077036130677
 31
0.0
  0
LINE
  5
5E9A
330
18
100
AcDbEntity
  8
CENTER
 62
     0
 48
0.5
100
AcDbLine
 10
283.8418844040448
 20
358.6867223150872
 30
0.0
 11
267.0741758161333
 21
358.6867223150872
 31
0.0
  0
LINE
  5
5E9B
330
18
100
AcDbEntity
  8
GAIKEI
  6
DASHED2
 62
     0
100
AcDbLine
 10
130.5524157508638
 20
294.7577036130677
 30
0.0
 11
162.3024157508637
 21
294.7577036130679
 31
0.0
  0
LINE
  5
5E9C
330
18
100
AcDbEntity
  8
0
100
AcDbLine
 10
316.1918844040447
 20
486.8765866552046
 30
0.0
 11
316.1918844040447
 21
473.6311826552048
 31
0.0
  0
LINE
  5
5E9D
330
18
100
AcDbEntity
  8
0
100
AcDbLine
 10
316.9918844040444
 20
490.3765866552046
 30
0.0
 11
316.9918844040444
 21
473.6311826552048
 31
0.0
  0
ARC
  5
5E9E
330
18
100
AcDbEntity
  8
0
100
AcDbCircle
 10
317.5700884040443
 20
469.7205006552048
 30
0.0
 40
4.089316
100
AcDbArc
 50
235.6157529999961
 51
295.6157529999998
  0
LINE
  5
5E9F
330
18
100
AcDbEntity
  8
0
100
AcDbLine
 10
318.6418844040445
 20
465.6311826552048
 30
0.0
 11
319.8794884040444
 21
466.3457146552048
 31
0.0
  0
ARC
  5
5EA0
330
18
100
AcDbEntity
  8
0
100
AcDbCircle
 10
303.7136824040445
 20
469.7205006552048
 30
0.0
 40
4.089316
100
AcDbArc
 50
244.3842470000002
 51
304.3842470000038
  0
ARC
  5
5EA1
330
18
100
AcDbEntity
  8
0
100
AcDbCircle
 10
310.6418844040445
 20
480.9166526552046
 30
0.0
 40
15.285468
100
AcDbArc
 50
252.412045999994
 51
287.587954000006
  0
LINE
  5
5EA2
330
18
100
AcDbEntity
  8
0
100
AcDbLine
 10
302.6418844040445
 20
465.6311826552048
 30
0.0
 11
301.4042804040446
 21
466.3457146552048
 31
0.0
  0
LINE
  5
5EA3
330
18
100
AcDbEntity
  8
0
100
AcDbLine
 10
315.2606864040444
 20
466.3457146552048
 30
0.0
 11
315.2606864040444
 21
472.6311826552048
 31
0.0
  0
LINE
  5
5EA4
330
18
100
AcDbEntity
  8
0
100
AcDbLine
 10
306.0230824040445
 20
466.3457146552048
 30
0.0
 11
306.0230824040445
 21
472.6311826552048
 31
0.0
  0
LINE
  5
5EA5
330
18
100
AcDbEntity
  8
0
100
AcDbLine
 10
319.8794884040444
 20
466.3457146552048
 30
0.0
 11
319.8794884040444
 21
472.6311826552048
 31
0.0
  0
LINE
  5
5EA6
330
18
100
AcDbEntity
  8
0
100
AcDbLine
 10
301.4042804040446
 20
466.3457146552048
 30
0.0
 11
301.4042804040446
 21
472.6311826552048
 31
0.0
  0
LINE
  5
5EA7
330
18
100
AcDbEntity
  8
0
100
AcDbLine
 10
302.6418844040445
 20
465.6311826552048
 30
0.0
 11
318.6418844040445
 21
465.6311826552048
 31
0.0
  0
LINE
  5
5EA8
330
18
100
AcDbEntity
  8
0
100
AcDbLine
 10
323.1418844040445
 20
473.6311826552048
 30
0.0
 11
323.1418844040445
 21
472.6311826552048
 31
0.0
  0
LINE
  5
5EA9
330
18
100
AcDbEntity
  8
0
100
AcDbLine
 10
323.1418844040445
 20
472.6311826552048
 30
0.0
 11
298.1418844040445
 21
472.6311826552048
 31
0.0
  0
LINE
  5
5EAA
330
18
100
AcDbEntity
  8
0
100
AcDbLine
 10
323.1418844040445
 20
473.6311826552048
 30
0.0
 11
298.1418844040445
 21
473.6311826552048
 31
0.0
  0
LINE
  5
5EAB
330
18
100
AcDbEntity
  8
0
100
AcDbLine
 10
305.0918844040448
 20
465.6311826552048
 30
0.0
 11
305.0918844040448
 21
446.3765866552048
 31
0.0
  0
LINE
  5
5EAC
330
18
100
AcDbEntity
  8
0
100
AcDbLine
 10
304.2918844040446
 20
465.6311826552048
 30
0.0
 11
304.2918844040446
 21
447.176586655205
 31
0.0
  0
LINE
  5
5EAD
330
18
100
AcDbEntity
  8
0
100
AcDbLine
 10
298.1418844040445
 20
473.6311826552048
 30
0.0
 11
298.1418844040445
 21
472.6311826552048
 31
0.0
  0
LINE
  5
5EAE
330
18
100
AcDbEntity
  8
0
100
AcDbLine
 10
324.6418844040445
 20
492.3765866552046
 30
0.0
 11
324.6418844040445
 21
490.3765866552046
 31
0.0
  0
LINE
  5
5EAF
330
18
100
AcDbEntity
  8
0
100
AcDbLine
 10
310.6418844040445
 20
490.3765866552046
 30
0.0
 11
324.6418844040445
 21
490.3765866552046
 31
0.0
  0
LINE
  5
5EB0
330
18
100
AcDbEntity
  8
0
100
AcDbLine
 10
310.6418844040445
 20
492.3765866552046
 30
0.0
 11
324.6418844040445
 21
492.3765866552046
 31
0.0
  0
LINE
  5
5EB1
330
18
100
AcDbEntity
  8
0
100
AcDbLine
 10
310.6418844040445
 20
490.3765866552046
 30
0.0
 11
296.6418844040445
 21
490.3765866552046
 31
0.0
  0
LINE
  5
5EB2
330
18
100
AcDbEntity
  8
0
100
AcDbLine
 10
310.6418844040445
 20
492.3765866552046
 30
0.0
 11
296.6418844040445
 21
492.3765866552046
 31
0.0
  0
LINE
  5
5EB3
330
18
100
AcDbEntity
  8
0
100
AcDbLine
 10
296.6418844040445
 20
492.3765866552046
 30
0.0
 11
296.6418844040445
 21
490.3765866552046
 31
0.0
  0
LINE
  5
5EB4
330
18
100
AcDbEntity
  8
0
100
AcDbLine
 10
313.3918844040445
 20
511.3765866552046
 30
0.0
 11
313.3918844040445
 21
496.3765866552046
 31
0.0
  0
LINE
  5
5EB5
330
18
100
AcDbEntity
  8
0
100
AcDbLine
 10
307.8918844040445
 20
511.3765866552046
 30
0.0
 11
307.8918844040445
 21
496.3765866552046
 31
0.0
  0
LINE
  5
5EB6
330
18
100
AcDbEntity
  8
0
100
AcDbLine
 10
325.5129484040444
 20
494.0402526552047
 30
0.0
 11
295.7708206686609
 21
494.0402526552047
 31
0.0
  0
LINE
  5
5EB7
330
18
100
AcDbEntity
  8
0
100
AcDbLine
 10
315.1418844040445
 20
439.4765866552046
 30
0.0
 11
315.1418844040445
 21
439.3765866552047
 31
0.0
  0
LINE
  5
5EB8
330
18
100
AcDbEntity
  8
0
100
AcDbLine
 10
315.7418844040444
 20
441.4765866552046
 30
0.0
 11
316.1918844040447
 21
441.9265866552049
 31
0.0
  0
LINE
  5
5EB9
330
18
100
AcDbEntity
  8
0
100
AcDbLine
 10
316.0418844040446
 20
439.0765866552045
 30
0.0
 11
315.6418844040445
 21
435.3765866552047
 31
0.0
  0
LINE
  5
5EBA
330
18
100
AcDbEntity
  8
0
100
AcDbLine
 10
316.1918844040447
 20
441.9265866552049
 30
0.0
 11
305.0918844040448
 21
441.9265866552049
 31
0.0
  0
LINE
  5
5EBB
330
18
100
AcDbEntity
  8
0
100
AcDbLine
 10
316.1918844040447
 20
446.3765866552048
 30
0.0
 11
316.1918844040447
 21
441.9265866552049
 31
0.0
  0
LINE
  5
5EBC
330
18
100
AcDbEntity
  8
0
100
AcDbLine
 10
315.6418844040445
 20
435.3765866552047
 30
0.0
 11
305.6418844040445
 21
435.3765866552047
 31
0.0
  0
LINE
  5
5EBD
330
18
100
AcDbEntity
  8
0
100
AcDbLine
 10
305.2418844040444
 20
439.0765866552045
 30
0.0
 11
316.0418844040446
 21
439.0765866552045
 31
0.0
  0
LINE
  5
5EBE
330
18
100
AcDbEntity
  8
0
100
AcDbLine
 10
305.2418844040444
 20
439.0765866552045
 30
0.0
 11
305.6418844040445
 21
435.3765866552047
 31
0.0
  0
LINE
  5
5EBF
330
18
100
AcDbEntity
  8
0
100
AcDbLine
 10
305.2418844040444
 20
439.0765866552045
 30
0.0
 11
305.5418844040446
 21
439.3765866552047
 31
0.0
  0
LINE
  5
5EC0
330
18
100
AcDbEntity
  8
0
100
AcDbLine
 10
305.5418844040446
 20
441.4765866552046
 30
0.0
 11
305.0918844040448
 21
441.9265866552049
 31
0.0
  0
LINE
  5
5EC1
330
18
100
AcDbEntity
  8
0
100
AcDbLine
 10
306.7418844040444
 20
440.8765866552046
 30
0.0
 11
314.5418844040446
 21
440.8765866552048
 31
0.0
  0
LINE
  5
5EC2
330
18
100
AcDbEntity
  8
0
100
AcDbLine
 10
306.1418844040445
 20
439.4765866552046
 30
0.0
 11
306.1418844040445
 21
439.3765866552047
 31
0.0
  0
LINE
  5
5EC3
330
18
100
AcDbEntity
  8
0
100
AcDbLine
 10
305.5418844040446
 20
439.3765866552047
 30
0.0
 11
315.7418844040444
 21
439.3765866552047
 31
0.0
  0
LINE
  5
5EC4
330
18
100
AcDbEntity
  8
0
100
AcDbLine
 10
325.6418844040445
 20
493.5490826552048
 30
0.0
 11
325.6418844040445
 21
493.0765866552045
 31
0.0
  0
ARC
  5
5EC5
330
18
100
AcDbEntity
  8
0
100
AcDbCircle
 10
325.4418844040447
 20
493.0765866552045
 30
0.0
 40
0.2
100
AcDbArc
 50
270.0
 51
0.0
  0
LINE
  5
5EC6
330
18
100
AcDbEntity
  8
0
100
AcDbLine
 10
315.1418844040445
 20
496.3765866552046
 30
0.0
 11
324.8289964040446
 21
494.5314226552048
 31
0.0
  0
ARC
  5
5EC7
330
18
100
AcDbEntity
  8
0
100
AcDbCircle
 10
324.6418844040445
 20
493.5490826552048
 30
0.0
 40
1.0
100
AcDbArc
 50
0.0
 51
79.21570200000402
  0
LINE
  5
5EC8
330
18
100
AcDbEntity
  8
0
100
AcDbLine
 10
316.9918844040444
 20
465.6311826552048
 30
0.0
 11
316.9918844040444
 21
447.176586655205
 31
0.0
  0
LINE
  5
5EC9
330
18
100
AcDbEntity
  8
0
100
AcDbLine
 10
316.1918844040447
 20
465.6311826552048
 30
0.0
 11
316.1918844040447
 21
446.3765866552048
 31
0.0
  0
ARC
  5
5ECA
330
18
100
AcDbEntity
  8
0
100
AcDbCircle
 10
317.4918844040444
 20
492.3765866552046
 30
0.0
 40
0.5
100
AcDbArc
 50
90.0
 51
180.0
  0
LINE
  5
5ECB
330
18
100
AcDbEntity
  8
0
100
AcDbLine
 10
316.1918844040447
 20
486.8765866552046
 30
0.0
 11
316.9918844040444
 21
487.6765866552048
 31
0.0
  0
LINE
  5
5ECC
330
18
100
AcDbEntity
  8
0
100
AcDbLine
 10
316.1918844040447
 20
446.3765866552048
 30
0.0
 11
316.9918844040444
 21
447.176586655205
 31
0.0
  0
LINE
  5
5ECD
330
18
100
AcDbEntity
  8
0
100
AcDbLine
 10
316.9918844040444
 20
486.8765866552046
 30
0.0
 11
310.6418844040445
 21
486.8765866552046
 31
0.0
  0
LINE
  5
5ECE
330
18
100
AcDbEntity
  8
0
100
AcDbLine
 10
325.4418844040447
 20
492.8765866552047
 30
0.0
 11
295.8418844040448
 21
492.8765866552047
 31
0.0
  0
LINE
  5
5ECF
330
18
100
AcDbEntity
  8
0
100
AcDbLine
 10
315.1418844040445
 20
496.3765866552046
 30
0.0
 11
306.1418844040443
 21
496.3765866552048
 31
0.0
  0
LINE
  5
5ED0
330
18
100
AcDbEntity
  8
0
100
AcDbLine
 10
305.0918844040448
 20
446.3765866552048
 30
0.0
 11
305.0918844040448
 21
441.9265866552049
 31
0.0
  0
LINE
  5
5ED1
330
18
100
AcDbEntity
  8
0
100
AcDbLine
 10
304.2918844040446
 20
447.176586655205
 30
0.0
 11
316.9918844040444
 21
447.1765866552051
 31
0.0
  0
LINE
  5
5ED2
330
18
100
AcDbEntity
  8
0
100
AcDbLine
 10
305.0918844040448
 20
446.3765866552048
 30
0.0
 11
304.2918844040446
 21
447.176586655205
 31
0.0
  0
LINE
  5
5ED3
330
18
100
AcDbEntity
  8
0
100
AcDbLine
 10
305.0918844040448
 20
446.3765866552048
 30
0.0
 11
316.1918844040447
 21
446.3765866552048
 31
0.0
  0
LINE
  5
5ED4
330
18
100
AcDbEntity
  8
0
100
AcDbLine
 10
305.0918844040448
 20
486.8765866552046
 30
0.0
 11
304.2918844040446
 21
487.6765866552048
 31
0.0
  0
ARC
  5
5ED5
330
18
100
AcDbEntity
  8
0
100
AcDbCircle
 10
303.7918844040446
 20
492.3765866552046
 30
0.0
 40
0.5
100
AcDbArc
 50
0.0
 51
90.0
  0
LINE
  5
5ED6
330
18
100
AcDbEntity
  8
0
100
AcDbLine
 10
304.2918844040446
 20
486.8765866552046
 30
0.0
 11
310.6418844040445
 21
486.8765866552046
 31
0.0
  0
LINE
  5
5ED7
330
18
100
AcDbEntity
  8
0
100
AcDbLine
 10
305.0918844040448
 20
486.8765866552046
 30
0.0
 11
305.0918844040448
 21
473.6311826552048
 31
0.0
  0
LINE
  5
5ED8
330
18
100
AcDbEntity
  8
0
100
AcDbLine
 10
304.2918844040446
 20
490.3765866552046
 30
0.0
 11
304.2918844040446
 21
473.6311826552048
 31
0.0
  0
ARC
  5
5ED9
330
18
100
AcDbEntity
  8
0
100
AcDbCircle
 10
296.6418844040445
 20
493.5490826552048
 30
0.0
 40
1.0
100
AcDbArc
 50
100.7842979999959
 51
180.0
  0
LINE
  5
5EDA
330
18
100
AcDbEntity
  8
0
100
AcDbLine
 10
306.1418844040445
 20
496.3765866552046
 30
0.0
 11
296.4547724040444
 21
494.5314226552048
 31
0.0
  0
ARC
  5
5EDB
330
18
100
AcDbEntity
  8
0
100
AcDbCircle
 10
295.8418844040448
 20
493.0765866552045
 30
0.0
 40
0.2
100
AcDbArc
 50
180.0
 51
270.0
  0
LINE
  5
5EDC
330
18
100
AcDbEntity
  8
0
100
AcDbLine
 10
295.6418844040445
 20
493.5490826552048
 30
0.0
 11
295.6418844040445
 21
493.0765866552045
 31
0.0
  0
LINE
  5
5EDD
330
18
100
AcDbEntity
  8
0
100
AcDbLine
 10
310.6418844040445
 20
511.3765866552046
 30
0.0
 11
315.1418844040445
 21
511.3765866552046
 31
0.0
  0
LINE
  5
5EDE
330
18
100
AcDbEntity
  8
0
100
AcDbLine
 10
315.1418844040445
 20
511.3765866552046
 30
0.0
 11
320.4994504040446
 21
522.7770606552049
 31
0.0
  0
ARC
  5
5EDF
330
18
100
AcDbEntity
  8
0
100
AcDbCircle
 10
319.1418844040445
 20
523.4150386552045
 30
0.0
 40
1.5
100
AcDbArc
 50
334.8291809999986
 51
83.78381100000245
  0
ARC
  5
5EE0
330
18
100
AcDbEntity
  8
0
100
AcDbCircle
 10
310.6418844040445
 20
445.3765866552046
 30
0.0
 40
80.0
100
AcDbArc
 50
83.78381100000245
 51
90.0
  0
LINE
  5
5EE1
330
18
100
AcDbEntity
  8
0
100
AcDbLine
 10
306.1418844040445
 20
511.3765866552046
 30
0.0
 11
300.7843184040444
 21
522.7770606552049
 31
0.0
  0
ARC
  5
5EE2
330
18
100
AcDbEntity
  8
0
100
AcDbCircle
 10
302.1418844040445
 20
523.4150386552045
 30
0.0
 40
1.5
100
AcDbArc
 50
96.21618899999752
 51
205.1708190000014
  0
LINE
  5
5EE3
330
18
100
AcDbEntity
  8
0
100
AcDbLine
 10
310.6418844040445
 20
511.3765866552046
 30
0.0
 11
306.1418844040445
 21
511.3765866552046
 31
0.0
  0
ARC
  5
5EE4
330
18
100
AcDbEntity
  8
0
100
AcDbCircle
 10
310.6418844040445
 20
445.3765866552046
 30
0.0
 40
80.0
100
AcDbArc
 50
90.0
 51
96.21618899999752
  0
LINE
  5
5EE5
330
18
100
AcDbEntity
  8
0
100
AcDbLine
 10
316.0418844040446
 20
439.0765866552045
 30
0.0
 11
315.7418844040444
 21
439.3765866552047
 31
0.0
  0
LINE
  5
5EE6
330
18
100
AcDbEntity
  8
0
100
AcDbLine
 10
315.6418844040443
 20
435.3765866552047
 30
0.0
 11
317.8918844040445
 21
435.3765866552047
 31
0.0
  0
LINE
  5
5EE7
330
18
100
AcDbEntity
  8
0
100
AcDbLine
 10
305.6418844040445
 20
435.3765866552047
 30
0.0
 11
303.3918844040443
 21
435.3765866552048
 31
0.0
  0
DIMENSION
  5
5EE8
330
18
100
AcDbEntity
  8
SCALE
100
AcDbDimension
  2
*D30
 10
208.4328342280554
 20
294.7577036130679
 30
0.0
 11
201.4328342280554
 21
342.7577036130679
 31
0.0
 70
    32
  1
（<>）
 71
     5
 42
96.0
 73
     0
 74
     0
 75
     0
  3
STANDARD
100
AcDbAlignedDimension
 13
207.9571453417015
 23
390.7577036130679
 33
0.0
 14
162.3024157508635
 24
294.7577036130679
 34
0.0
 50
90.0
100
AcDbRotatedDimension
1001
ACAD
1000
DSTYLE
1002
{
1070
    41
1040
6.0
1070
    42
1040
1.0
1070
    44
1040
0.0
1070
   140
1040
8.0
1070
   147
1040
3.0
1002
}
  0
DIMENSION
  5
5EEB
330
18
100
AcDbEntity
  8
SCALE
100
AcDbDimension
  2
*D29
 10
355.887999582252
 20
386.3765866552045
 30
0.0
 11
348.8879995822519
 21
439.6265866552044
 31
0.0
 70
    32
  1
（<>）
 71
     5
 42
106.5
 73
     0
 74
     0
 75
     0
  3
STANDARD
100
AcDbAlignedDimension
 13
325.4418844040444
 23
492.8765866552044
 33
0.0
 14
314.3918844040445
 24
386.3765866552045
 34
0.0
 50
90.0
100
AcDbRotatedDimension
1001
ACAD
1000
DSTYLE
1002
{
1070
    41
1040
6.0
1070
    42
1040
1.0
1070
    44
1040
0.0
1070
   140
1040
8.0
1070
   147
1040
3.0
1002
}
  0
DIMENSION
  5
5EEC
330
18
100
AcDbEntity
  8
SCALE
100
AcDbDimension
  2
*D28
 10
355.8879995822521
 20
492.8765866552044
 30
0.0
 11
355.8879995822521
 21
507.6871730974478
 31
0.0
 70
   160
  1
（<>）
 71
     5
 42
32.50000000000006
 73
     0
 74
     0
 75
     0
  3
STANDARD
100
AcDbAlignedDimension
 13
310.6418844040445
 23
525.3765866552043
 33
0.0
 14
325.4418844040444
 24
492.8765866552044
 34
0.0
 50
90.0
100
AcDbRotatedDimension
1001
ACAD
1000
DSTYLE
1002
{
1070
    41
1040
6.0
1070
    42
1040
1.0
1070
    44
1040
0.0
1070
   140
1040
8.0
1070
   147
1040
3.0
1002
}
  0
DIMENSION
  5
5EED
330
18
100
AcDbEntity
  8
SCALE
100
AcDbDimension
  2
*D27
 10
325.6418844040445
 20
539.2727614692903
 30
0.0
 11
310.6418844040445
 21
546.2727614692903
 31
0.0
 70
    32
 71
     5
 42
30.0
 73
     0
 74
     0
 75
     0
  3
STANDARD
100
AcDbAlignedDimension
 13
295.6418844040445
 23
493.5490826552045
 33
0.0
 14
325.6418844040445
 24
493.5490826552045
 34
0.0
100
AcDbRotatedDimension
1001
ACAD
1000
DSTYLE
1002
{
1070
     3
1000
%%c<>
1070
    41
1040
6.0
1070
    42
1040
1.0
1070
    44
1040
0.0
1070
   140
1040
8.0
1070
   147
1040
3.0
1002
}
  0
MTEXT
  5
5EEE
102
{ACAD_REACTORS
330
5EEF
102
}
330
18
100
AcDbEntity
  8
SCALE
100
AcDbMText
 10
275.4292180084835
 20
407.1632027383992
 30
0.0
 40
8.0
 41
0.0
 46
0.0
 71
     9
 72
     1
  1
カウンター穴径φ14
 73
     1
 44
1.0
  0
LEADER
  5
5EEF
330
18
100
AcDbEntity
  8
SCALE
100
AcDbLeader
  3
STANDARD
 73
     0
 75
     1
 40
8.0
 41
63.14666666666664
 76
     3
 10
304.2918844040446
 20
458.1039976616238
 30
0.0
 10
284.4292180084835
 20
404.1632027383992
 30
0.0
 10
278.4292180084835
 20
404.1632027383992
 30
0.0
340
5EEE
1001
ACAD
1000
DSTYLE
1002
{
1070
    41
1040
6.0
1070
    42
1040
1.0
1070
    44
1040
0.0
1070
   140
1040
8.0
1070
   147
1040
3.0
1002
}
  0
DIMENSION
  5
5EF0
330
18
100
AcDbEntity
  8
SCALE
100
AcDbDimension
  2
*D26
 10
301.4042804040443
 20
458.6109552824784
 30
0.0
 11
255.6309293132665
 21
458.6109552824784
 31
0.0
 70
   160
  1
六角対辺16
 71
     5
 42
18.47520800000006
 73
     0
 74
     0
 75
     0
  3
STANDARD
100
AcDbAlignedDimension
 13
319.8794884040444
 23
466.3457146552046
 33
0.0
 14
301.4042804040443
 24
466.3457146552046
 34
0.0
100
AcDbRotatedDimension
1001
ACAD
1000
DSTYLE
1002
{
1070
    41
1040
6.0
1070
    42
1040
1.0
1070
    44
1040
0.0
1070
   140
1040
8.0
1070
   147
1040
3.0
1002
}
  0
DIMENSION
  5
5EF1
330
18
100
AcDbEntity
  8
SCALE
100
AcDbDimension
  2
*D25
 10
279.1540150817301
 20
492.8765866552044
 30
0.0
 11
263.65401508173
 21
495.4442474667728
 31
0.0
 70
   160
  1
天板締付範囲6～40
 71
     5
 42
19.24540400000001
 73
     0
 74
     0
 75
     0
  3
STANDARD
100
AcDbAlignedDimension
 13
298.1418844040445
 23
473.6311826552044
 33
0.0
 14
295.8418844040443
 24
492.8765866552044
 34
0.0
 50
90.0
100
AcDbRotatedDimension
1001
ACAD
1000
DSTYLE
1002
{
1070
   279
1070
     1
1070
    41
1040
6.0
1070
    42
1040
1.0
1070
    44
1040
0.0
1070
   140
1040
8.0
1070
   147
1040
3.0
1002
}
  0
LINE
  5
5EF2
330
18
100
AcDbEntity
  8
GAIKEI
  6
DASHED2
 62
     0
100
AcDbLine
 10
130.5524157508637
 20
329.1952036130674
 30
0.0
 11
130.5524157508638
 21
294.7577036130677
 31
0.0
  0
LINE
  5
5EF3
330
18
100
AcDbEntity
  8
GAIKEI
  6
DASHED2
 62
     0
100
AcDbLine
 10
162.3024157508637
 20
329.1952036130674
 30
0.0
 11
162.3024157508637
 21
294.7577036130677
 31
0.0
  0
ARC
  5
5EF6
330
18
100
AcDbEntity
  8
CENTER
 62
     0
 48
0.5
100
AcDbCircle
 10
283.8418844040448
 20
385.4867223150874
 30
0.0
 40
26.8
100
AcDbArc
 50
270.0
 51
0.0
  0
ARC
  5
5EF7
330
18
100
AcDbEntity
  8
0
100
AcDbCircle
 10
283.8418844040448
 20
385.4867223150874
 30
0.0
 40
28.6
100
AcDbArc
 50
270.0
 51
0.0
  0
ARC
  5
5EFA
330
18
100
AcDbEntity
  8
0
100
AcDbCircle
 10
283.8418844040448
 20
385.4867223150874
 30
0.0
 40
25.0
100
AcDbArc
 50
269.9999999999999
 51
0.0
  0
LINE
  5
5EFB
330
18
100
AcDbEntity
  8
0
100
AcDbLine
 10
162.3021084456397
 20
234.9573056130676
 30
0.0
 11
162.3021084456397
 21
234.8684796130675
 31
0.0
  0
LINE
  5
5EFC
330
18
100
AcDbEntity
  8
0
100
AcDbLine
 10
130.5522078587912
 20
329.1952036130674
 30
0.0
 11
162.3022078587912
 21
329.1952036130674
 31
0.0
  0
LINE
  5
5EFD
330
18
100
AcDbEntity
  8
BLKDRA
  6
Continuous
100
AcDbLine
 10
146.4273163377124
 20
269.0574436130674
 30
0.0
 11
162.2434863377125
 21
269.0574436130674
 31
0.0
  0
LWPOLYLINE
  5
5EFE
330
18
100
AcDbEntity
  8
BLKDRA
  6
Continuous
100
AcDbPolyline
 90
       69
 70
     0
 43
0.0
 10
170.3344641469791
 20
324.4105280645647
 10
170.2676483377127
 20
324.7481176130673
 10
170.1271283377127
 20
325.2473236130672
 10
169.9483003377127
 20
325.730913613067
 10
169.7325263377124
 20
326.1952036130673
 10
169.4814443377127
 20
326.6366616130672
 10
169.1969703377126
 20
327.0519296130674
 10
168.8812663377125
 20
327.4378436130673
 10
168.5367363377127
 20
327.7914696130673
 10
168.1660023377126
 20
328.1101156130671
 10
167.7718863377126
 20
328.3913556130674
 10
167.3573843377125
 20
328.6330496130672
 10
166.9256563377125
 20
328.8333596130674
 10
166.4799843377127
 20
328.9907596130674
 10
166.0237603377127
 20
329.1040496130672
 10
165.5604563377123
 20
329.1723716130673
 10
165.0936023377125
 20
329.1952036130674
 10
164.6267463377125
 20
329.1723716130673
 10
164.1634423377127
 20
329.1040496130672
 10
163.7072203377124
 20
328.9907596130674
 10
163.2615483377126
 20
328.8333596130674
 10
162.8298183377123
 20
328.6330496130672
 10
162.4153183377125
 20
328.3913556130674
 10
162.0212003377123
 20
328.1101156130671
 10
161.6504663377127
 20
327.7914696130673
 10
161.3059363377124
 20
327.4378436130673
 10
160.9902323377123
 20
327.0519296130674
 10
160.7057583377127
 20
326.6366616130672
 10
160.4546783377127
 20
326.1952036130673
 10
160.2389023377127
 20
325.730913613067
 10
160.0600743377126
 20
325.2473236130672
 10
159.9195543377127
 20
324.7481176130673
 10
159.8184123377127
 20
324.2370936130674
 10
159.7574163377126
 20
323.718137613067
 10
159.7370343377124
 20
323.1952036130674
 10
159.7574163377126
 20
322.6722696130673
 10
159.8184123377127
 20
322.1533156130671
 10
159.9195543377127
 20
321.6422896130672
 10
160.0600743377126
 20
321.1430836130671
 10
160.2389023377127
 20
320.6594936130673
 10
160.4546783377127
 20
320.1952036130673
 10
160.7057583377127
 20
319.7537456130671
 10
160.9902323377123
 20
319.3384776130674
 10
161.3059363377124
 20
318.952563613067
 10
161.6504663377127
 20
318.5989376130673
 10
162.0212003377123
 20
318.2802916130672
 10
162.4153183377125
 20
317.9990516130674
 10
162.8298183377123
 20
317.7573576130671
 10
163.2615483377126
 20
317.5570476130674
 10
163.7072203377124
 20
317.3996496130671
 10
164.1634423377127
 20
317.2863576130672
 10
164.6267463377125
 20
317.2180356130671
 10
165.0936023377125
 20
317.1952036130674
 10
165.5604563377123
 20
317.2180356130671
 10
166.0237603377127
 20
317.2863576130672
 10
166.4799843377127
 20
317.3996496130671
 10
166.9256563377125
 20
317.5570476130674
 10
167.3573843377125
 20
317.7573576130671
 10
167.7718863377126
 20
317.9990516130674
 10
168.1660023377126
 20
318.2802916130672
 10
168.5367363377127
 20
318.5989376130673
 10
168.8812663377125
 20
318.952563613067
 10
169.1969703377126
 20
319.3384776130674
 10
169.4814443377127
 20
319.7537456130671
 10
169.7325263377124
 20
320.1952036130673
 10
169.9483003377127
 20
320.6594936130673
 10
170.1271283377127
 20
321.1430836130671
 10
170.2676483377127
 20
321.6422896130672
 10
170.3344650558766
 20
321.979885075056
  0
LINE
  5
5EFF
330
18
100
AcDbEntity
  8
BLKDRA
  6
Continuous
100
AcDbLine
 10
165.6262423377125
 20
317.1952036130674
 30
0.0
 11
163.8292403377127
 21
316.157703613067
 31
0.0
  0
ARC
  5
5F00
330
18
100
AcDbEntity
  8
BLKDRA
  6
Continuous
100
AcDbCircle
 10
162.4273163377124
 20
323.1952036130674
 30
0.0
 40
8.0
100
AcDbArc
 50
311.4096219999948
 51
48.59037800000521
  0
LINE
  5
5F01
330
18
100
AcDbEntity
  8
BLKDRA
  6
Continuous
100
AcDbLine
 10
125.1358137155832
 20
329.1952036130674
 30
0.0
 11
167.7188183377125
 21
329.1952036130674
 31
0.0
  0
LINE
  5
5F02
330
18
100
AcDbEntity
  8
BLKDRA
  6
Continuous
100
AcDbLine
 10
167.7188183377125
 20
317.1952036130674
 30
0.0
 11
125.1358137155832
 21
317.1952036130674
 31
0.0
  0
LWPOLYLINE
  5
5F03
330
18
100
AcDbEntity
  8
0
100
AcDbPolyline
 90
       23
 70
     0
 43
0.0
 10
146.4273163377124
 20
329.1952076130673
 10
147.9451563377124
 20
329.1341356130674
 10
149.4320963377125
 20
328.9521656130673
 10
150.8578683377127
 20
328.6529996130671
 10
152.1934483377126
 20
328.242727613067
 10
153.4116443377124
 20
327.7297036130672
 10
154.4876603377124
 20
327.1243696130673
 10
155.3995923377124
 20
326.4390496130673
 10
156.1288723377124
 20
325.6876956130672
 10
156.6606583377124
 20
324.8855996130674
 10
156.9841223377125
 20
324.0490936130673
 10
157.0926803377124
 20
323.1952036130674
 10
156.9841223377125
 20
322.3413136130671
 10
156.6606583377124
 20
321.5048076130675
 10
156.1288723377124
 20
320.7027116130671
 10
155.3995923377124
 20
319.9513576130671
 10
154.4876603377124
 20
319.2660376130671
 10
153.4116443377124
 20
318.6607036130671
 10
152.1934483377126
 20
318.1476796130673
 10
150.8578683377127
 20
317.7374076130673
 10
149.4320963377125
 20
317.438241613067
 10
147.9451563377124
 20
317.2562716130674
 10
146.4273163377124
 20
317.1951996130673
  0
LINE
  5
5F04
330
18
100
AcDbEntity
  8
BLKDRA
  6
Continuous
100
AcDbLine
 10
163.8292403377127
 20
316.157703613067
 30
0.0
 11
129.0253923377125
 21
316.1577036130672
 31
0.0
  0
LINE
  5
5F05
330
18
100
AcDbEntity
  8
BLKDRA
  6
Continuous
100
AcDbLine
 10
163.2273163377126
 20
271.1577036130669
 30
0.0
 11
163.2273163377126
 21
316.157703613067
 31
0.0
  0
ARC
  5
5F06
330
18
100
AcDbEntity
  8
BLKDRA
  6
Continuous
100
AcDbCircle
 10
130.4273163377124
 20
323.1952036130674
 30
0.0
 40
8.0
100
AcDbArc
 50
131.4096219999937
 51
228.5903780000052
  0
LWPOLYLINE
  5
5F07
330
18
100
AcDbEntity
  8
0
100
AcDbPolyline
 90
       26
 70
     0
 43
0.0
 10
146.4273163377124
 20
329.1952076130673
 10
145.0352063377127
 20
329.1438756130673
 10
143.6669163377123
 20
328.9907616130672
 10
142.3458583377123
 20
328.7384836130673
 10
141.0946343377126
 20
328.3913596130674
 10
139.9346543377123
 20
327.9553256130672
 10
138.8857643377123
 20
327.4378476130674
 10
137.9659143377125
 20
326.8477736130671
 10
137.1908403377124
 20
326.1952056130672
 10
136.5738043377123
 20
325.4913056130672
 10
136.1253643377126
 20
324.748119613067
 10
135.8531963377127
 20
323.9783616130671
 10
135.7619523377125
 20
323.1952036130674
 10
135.8531963377127
 20
322.4120456130671
 10
136.1253643377126
 20
321.6422876130673
 10
136.5738043377123
 20
320.8991016130672
 10
137.1908403377124
 20
320.1952016130672
 10
137.9659143377125
 20
319.5426336130672
 10
138.8857643377123
 20
318.952559613067
 10
139.9346543377123
 20
318.4350816130673
 10
141.0946343377126
 20
317.9990476130674
 10
142.3458583377123
 20
317.6519236130671
 10
143.6669163377123
 20
317.3996456130672
 10
145.0352063377127
 20
317.2465316130673
 10
146.4273163377124
 20
317.1951996130673
 10
146.4273163377124
 20
317.1951996130673
  0
LINE
  5
5F08
330
18
100
AcDbEntity
  8
BLKDRA
  6
Continuous
100
AcDbLine
 10
162.3023163377124
 20
231.157703613067
 30
0.0
 11
162.3023163377124
 21
266.9571836130671
 31
0.0
  0
LINE
  5
5F09
330
18
100
AcDbEntity
  8
BLKDRA
  6
Continuous
100
AcDbLine
 10
130.5523163377124
 20
231.157703613067
 30
0.0
 11
130.5523163377124
 21
266.9571836130671
 31
0.0
  0
LINE
  5
5F0A
330
18
100
AcDbEntity
  8
BLKDRA
  6
Continuous
100
AcDbLine
 10
127.2283903377124
 20
317.1952036130674
 30
0.0
 11
129.0253923377127
 21
316.157703613067
 31
0.0
  0
LINE
  5
5F0B
330
18
100
AcDbEntity
  8
BLKDRA
  6
Continuous
100
AcDbLine
 10
129.6273163377127
 20
271.1577036130669
 30
0.0
 11
129.6273163377127
 21
316.157703613067
 31
0.0
  0
ARC
  5
5F0C
330
18
100
AcDbEntity
  8
BLKDRA
  6
Continuous
100
AcDbCircle
 10
158.2273163377126
 20
271.1577036130669
 30
0.0
 40
5.0
100
AcDbArc
 50
335.1621240000051
 51
0.0
  0
ARC
  5
5F0D
330
18
100
AcDbEntity
  8
BLKDRA
  6
Continuous
100
AcDbCircle
 10
167.3023163377124
 20
266.9571836130671
 30
0.0
 40
5.0
100
AcDbArc
 50
155.1621240000051
 51
180.0
  0
ARC
  5
5F0E
330
18
100
AcDbEntity
  8
BLKDRA
  6
Continuous
100
AcDbCircle
 10
134.6273163377127
 20
271.1577036130669
 30
0.0
 40
5.0
100
AcDbArc
 50
180.0
 51
204.8378759999949
  0
ARC
  5
5F0F
330
18
100
AcDbEntity
  8
BLKDRA
  6
Continuous
100
AcDbCircle
 10
125.5523163377124
 20
266.9571836130671
 30
0.0
 40
5.0
100
AcDbArc
 50
0.0
 51
24.83787599999492
  0
LINE
  5
5F10
330
18
100
AcDbEntity
  8
0
100
AcDbLine
 10
146.4273163377124
 20
269.0574436130674
 30
0.0
 11
130.6111463377124
 21
269.0574436130674
 31
0.0
  0
LWPOLYLINE
  5
5F11
330
18
100
AcDbEntity
  8
BLKDRA
  6
Continuous
100
AcDbPolyline
 90
       69
 70
     0
 43
0.0
 10
122.5201722116701
 20
321.9798551980048
 10
122.5869843377127
 20
321.6422896130672
 10
122.7275043377126
 20
321.1430836130671
 10
122.9063323377127
 20
320.6594936130673
 10
123.1221063377125
 20
320.1952036130673
 10
123.3731883377127
 20
319.7537456130671
 10
123.6576623377127
 20
319.3384776130674
 10
123.9733663377124
 20
318.952563613067
 10
124.3178963377127
 20
318.5989376130673
 10
124.6886303377123
 20
318.2802916130672
 10
125.0827463377127
 20
317.9990516130674
 10
125.4972483377123
 20
317.7573576130671
 10
125.9289763377123
 20
317.5570476130674
 10
126.3746483377126
 20
317.3996496130671
 10
126.8308723377126
 20
317.2863576130672
 10
127.2941763377125
 20
317.2180356130671
 10
127.7610303377123
 20
317.1952036130674
 10
128.2278863377122
 20
317.2180356130671
 10
128.6911883377124
 20
317.2863576130672
 10
129.1474123377124
 20
317.3996496130671
 10
129.5930843377123
 20
317.5570476130674
 10
130.0248143377125
 20
317.7573576130671
 10
130.4393143377124
 20
317.9990516130674
 10
130.8334323377125
 20
318.2802916130672
 10
131.2041663377126
 20
318.5989376130673
 10
131.5486963377125
 20
318.952563613067
 10
131.8644003377126
 20
319.3384776130674
 10
132.1488743377126
 20
319.7537456130671
 10
132.3999543377126
 20
320.1952036130673
 10
132.6157303377126
 20
320.6594936130673
 10
132.7945583377127
 20
321.1430836130671
 10
132.9350783377126
 20
321.6422896130672
 10
133.0362203377126
 20
322.1533156130671
 10
133.0972163377123
 20
322.6722696130673
 10
133.1175983377125
 20
323.1952036130674
 10
133.0972163377123
 20
323.718137613067
 10
133.0362203377126
 20
324.2370936130674
 10
132.9350783377126
 20
324.7481176130673
 10
132.7945583377127
 20
325.2473236130672
 10
132.6157303377126
 20
325.730913613067
 10
132.3999543377126
 20
326.1952036130673
 10
132.1488743377126
 20
326.6366616130672
 10
131.8644003377126
 20
327.0519296130674
 10
131.5486963377125
 20
327.4378436130673
 10
131.2041663377126
 20
327.7914696130673
 10
130.8334323377125
 20
328.1101156130671
 10
130.4393143377124
 20
328.3913556130674
 10
130.0248143377125
 20
328.6330496130672
 10
129.5930843377123
 20
328.8333596130674
 10
129.1474123377124
 20
328.9907596130674
 10
128.6911883377124
 20
329.1040496130672
 10
128.2278863377122
 20
329.1723716130673
 10
127.7610303377123
 20
329.1952036130674
 10
127.2941763377125
 20
329.1723716130673
 10
126.8308723377126
 20
329.1040496130672
 10
126.3746483377126
 20
328.9907596130674
 10
125.9289763377123
 20
328.8333596130674
 10
125.4972483377123
 20
328.6330496130672
 10
125.0827463377127
 20
328.3913556130674
 10
124.6886303377123
 20
328.1101156130671
 10
124.3178963377127
 20
327.7914696130673
 10
123.9733663377124
 20
327.4378436130673
 10
123.6576623377127
 20
327.0519296130674
 10
123.3731883377127
 20
326.6366616130672
 10
123.1221063377125
 20
326.1952036130673
 10
122.9063323377127
 20
325.730913613067
 10
122.7275043377126
 20
325.2473236130672
 10
122.5869843377127
 20
324.7481176130673
 10
122.520173120527
 20
324.4105579412035
  0
DIMENSION
  5
5F12
330
18
100
AcDbEntity
  8
SCALE
100
AcDbDimension
  2
*D24
 10
115.762583931285
 20
271.1577036130667
 30
0.0
 11
115.7625839312849
 21
305.8107616374657
 31
0.0
 70
   160
  1
（<>）
 71
     5
 42
51.99999999999993
 73
     0
 74
     0
 75
     0
  3
STANDARD
100
AcDbAlignedDimension
 13
125.746907622606
 23
323.1577036130667
 33
0.0
 14
129.6273163377127
 24
271.1577036130666
 34
0.0
 50
90.0
100
AcDbRotatedDimension
1001
ACAD
1000
DSTYLE
1002
{
1070
    41
1040
6.0
1070
    42
1040
1.0
1070
    44
1040
0.0
1070
   140
1040
8.0
1070
   147
1040
3.0
1070
   271
1070
     0
1002
}
  0
LINE
  5
5F13
330
18
100
AcDbEntity
  8
BLKDRA
  6
Continuous
100
AcDbLine
 10
314.3251703377127
 20
98.15849627805972
 30
0.0
 11
282.5751703377127
 21
98.15849627805972
 31
0.0
  0
LINE
  5
5F14
330
18
100
AcDbEntity
  8
BLKDRA
  6
Continuous
100
AcDbLine
 10
331.4501703377128
 20
137.15550427806
 30
0.0
 11
331.4501703377128
 21
128.1584962780597
 31
0.0
  0
ARC
  5
5F15
330
18
100
AcDbEntity
  8
BLKDRA
  6
Continuous
100
AcDbCircle
 10
320.4471783377126
 20
137.15550427806
 30
0.0
 40
11.002992
100
AcDbArc
 50
0.0
 51
90.0
  0
LINE
  5
5F16
330
18
100
AcDbEntity
  8
BLKDRA
  6
Continuous
100
AcDbLine
 10
331.4501703377128
 20
128.1584962780597
 30
0.0
 11
265.4501703377127
 21
128.1584962780597
 31
0.0
  0
ARC
  5
5F17
330
18
100
AcDbEntity
  8
BLKDRA
  6
Continuous
100
AcDbCircle
 10
276.4531603377127
 20
137.15550427806
 30
0.0
 40
11.002992
100
AcDbArc
 50
90.0
 51
180.0
  0
LINE
  5
5F18
330
18
100
AcDbEntity
  8
BLKDRA
  6
Continuous
100
AcDbLine
 10
265.4501703377127
 20
137.15550427806
 30
0.0
 11
265.4501703377127
 21
128.1584962780597
 31
0.0
  0
LINE
  5
5F19
330
18
100
AcDbEntity
  8
BLKDRA
  6
Continuous
100
AcDbLine
 10
320.4471783377126
 20
148.1584962780599
 30
0.0
 11
276.4531603377127
 21
148.1584962780599
 31
0.0
  0
LINE
  5
5F1A
330
18
100
AcDbEntity
  8
BLKDRA
  6
Continuous
100
AcDbLine
 10
314.3251703377127
 20
128.1584962780597
 30
0.0
 11
314.3251703377127
 21
98.15849627805972
 31
0.0
  0
LINE
  5
5F1B
330
18
100
AcDbEntity
  8
BLKDRA
  6
Continuous
100
AcDbLine
 10
282.5751703377127
 20
128.1584962780597
 30
0.0
 11
282.5751703377127
 21
98.15849627805972
 31
0.0
  0
DIMENSION
  5
5F1C
330
18
100
AcDbEntity
  8
SCALE
100
AcDbDimension
  2
*D23
 10
331.4501703377124
 20
81.86117835363097
 30
0.0
 11
298.3355363089998
 21
81.86117835363097
 31
0.0
 70
   160
 71
     5
 42
66.0
 73
     0
 74
     0
 75
     0
  3
STANDARD
100
AcDbAlignedDimension
 13
265.4501703377123
 23
128.1584962780595
 33
0.0
 14
331.4501703377124
 24
128.1584962780595
 34
0.0
100
AcDbRotatedDimension
1001
ACAD
1000
DSTYLE
1002
{
1070
     3
1000
%%c<>
1070
    41
1040
6.0
1070
    42
1040
1.0
1070
    44
1040
0.0
1070
   140
1040
8.0
1070
   147
1040
3.0
1070
   271
1070
     1
1002
}
  0
DIMENSION
  5
5F1D
330
18
100
AcDbEntity
  8
SCALE
100
AcDbDimension
  2
*D22
 10
246.4273163377172
 20
312.672443335084
 30
0.0
 11
237.4750870004316
 21
312.672443335084
 31
0.0
 70
   160
  1
六角対辺43
 71
     5
 42
47.97714599999993
 73
     0
 74
     0
 75
     0
  3
STANDARD
100
AcDbAlignedDimension
 13
198.4501703377173
 23
239.8577036130675
 33
0.0
 14
246.4273163377172
 24
239.8577036130675
 34
0.0
100
AcDbRotatedDimension
1001
ACAD
1000
DSTYLE
1002
{
1070
    41
1040
6.0
1070
    42
1040
1.0
1070
    44
1040
0.0
1070
   140
1040
8.0
1070
   147
1040
3.0
1002
}
  0
LINE
  5
5F1E
330
18
100
AcDbEntity
  8
BLKDRA
  6
Continuous
100
AcDbLine
 10
238.3251703377127
 20
245.8577036130673
 30
0.0
 11
238.3251703377127
 21
247.157703613067
 31
0.0
  0
LWPOLYLINE
  5
5F1F
330
18
100
AcDbEntity
  8
BLKDRA
  6
Continuous
100
AcDbPolyline
 90
       15
 70
     0
 43
0.0
 10
211.7848043377125
 20
239.8577036130673
 10
211.8667083377127
 20
239.115547613067
 10
212.1111623377124
 20
238.3847896130673
 10
212.5144103377124
 20
237.6766556130673
 10
213.0702623377124
 20
237.0020176130674
 10
213.7701763377127
 20
236.3712416130669
 10
214.6034063377124
 20
235.7940116130671
 10
215.5571523377125
 20
235.279197613067
 10
216.6167683377125
 20
234.8347016130674
 10
217.7659783377126
 20
234.4673556130674
 10
218.9871323377124
 20
234.1827976130671
 10
220.2614723377124
 20
233.9853996130673
 10
221.5694303377127
 20
233.8781936130672
 10
222.0094243377125
 20
233.8628256130673
 10
222.4501703377127
 20
233.8576996130673
  0
ARC
  5
5F20
330
18
100
AcDbEntity
  8
BLKDRA
  6
Continuous
100
AcDbCircle
 10
206.4501703377128
 20
239.8577036130673
 30
0.0
 40
8.0
100
AcDbArc
 50
131.4096219999937
 51
228.5903780000052
  0
LINE
  5
5F21
330
18
100
AcDbEntity
  8
BLKDRA
  6
Continuous
100
AcDbLine
 10
243.7188189598415
 20
245.8577036130673
 30
0.0
 11
201.1586663377125
 21
245.8577036130673
 31
0.0
  0
LINE
  5
5F22
330
18
100
AcDbEntity
  8
BLKDRA
  6
Continuous
100
AcDbLine
 10
201.1586663377125
 20
233.8577036130673
 30
0.0
 11
243.7188189598415
 21
233.8577036130673
 31
0.0
  0
LWPOLYLINE
  5
5F23
330
18
100
AcDbEntity
  8
BLKDRA
  6
Continuous
100
AcDbPolyline
 90
       11
 70
     0
 43
0.0
 10
211.7848043377125
 20
239.8577036130673
 10
211.9161143377123
 20
240.7963116130672
 10
212.3068043377125
 20
241.7118076130673
 10
212.9472603377126
 20
242.5816476130671
 10
213.8217083377126
 20
243.3844176130673
 10
214.9086183377126
 20
244.1003476130672
 10
216.1812263377123
 20
244.7118076130673
 10
217.6081963377123
 20
245.2037456130674
 10
219.1543903377124
 20
245.5640456130672
 10
220.7817383377123
 20
245.7838376130671
 10
222.4501703377127
 20
245.8577076130672
  0
ARC
  5
5F24
330
18
100
AcDbEntity
  8
CENTER
 62
     0
100
AcDbCircle
 10
184.4273163377124
 20
231.157703613067
 30
0.0
 40
38.0
100
AcDbArc
 50
179.868940699137
 51
0.0
  0
LINE
  5
5F25
330
18
100
AcDbEntity
  8
CENTER
 62
     0
100
AcDbLine
 10
222.4387423377125
 20
231.157703613067
 30
0.0
 11
222.4387423377125
 21
247.157703613067
 31
0.0
  0
LINE
  5
5F26
330
18
100
AcDbEntity
  8
BLKDRA
  6
Continuous
100
AcDbLine
 10
238.3023163377124
 20
231.157703613067
 30
0.0
 11
238.3023163377124
 21
233.8577036130673
 31
0.0
  0
LINE
  5
5F27
330
18
100
AcDbEntity
  8
BLKDRA
  6
Continuous
100
AcDbLine
 10
206.5523163377124
 20
231.157703613067
 30
0.0
 11
206.5523163377124
 21
233.8577036130673
 31
0.0
  0
ARC
  5
5F28
330
18
100
AcDbEntity
  8
BLKDRA
  6
Continuous
100
AcDbCircle
 10
184.4273163377124
 20
231.157703613067
 30
0.0
 40
22.125
100
AcDbArc
 50
180.0
 51
0.0
  0
LWPOLYLINE
  5
5F29
330
18
100
AcDbEntity
  8
BLKDRA
  6
Continuous
100
AcDbPolyline
 90
       67
 70
     0
 43
0.0
 10
198.6498684191961
 20
238.0813900202617
 10
198.7275043377126
 20
237.805583613067
 10
198.9063323377127
 20
237.3219936130671
 10
199.1221063377125
 20
236.8577036130673
 10
199.3731883377126
 20
236.416245613067
 10
199.6576623377127
 20
236.0009776130673
 10
199.9733663377124
 20
235.6150636130673
 10
200.3178963377127
 20
235.2614376130671
 10
200.6886303377124
 20
234.9427916130671
 10
201.0827463377127
 20
234.6615516130673
 10
201.4972483377123
 20
234.419857613067
 10
201.9289763377123
 20
234.2195476130673
 10
202.3746483377126
 20
234.062149613067
 10
202.8308723377127
 20
233.948857613067
 10
203.2941763377126
 20
233.8805356130674
 10
203.7610303377123
 20
233.8577036130673
 10
204.2278863377123
 20
233.8805356130674
 10
204.6911883377124
 20
233.948857613067
 10
205.1474123377125
 20
234.062149613067
 10
205.5930843377123
 20
234.2195476130673
 10
206.0248143377125
 20
234.419857613067
 10
206.4393143377124
 20
234.6615516130673
 10
206.8334323377126
 20
234.9427916130671
 10
207.2041663377127
 20
235.2614376130671
 10
207.5486963377125
 20
235.6150636130673
 10
207.8644003377126
 20
236.0009776130673
 10
208.1488743377126
 20
236.416245613067
 10
208.3999543377126
 20
236.8577036130673
 10
208.6157303377127
 20
237.3219936130671
 10
208.7945583377126
 20
237.805583613067
 10
208.9350783377126
 20
238.3047896130674
 10
209.0362203377126
 20
238.8158156130671
 10
209.0972163377123
 20
239.3347696130672
 10
209.1175983377125
 20
239.8577036130673
 10
209.0972163377123
 20
240.3806376130674
 10
209.0362203377126
 20
240.8995936130672
 10
208.9350783377126
 20
241.4106176130671
 10
208.7945583377126
 20
241.9098236130671
 10
208.6157303377127
 20
242.3934136130674
 10
208.3999543377126
 20
242.8577036130672
 10
208.1488743377126
 20
243.299161613067
 10
207.8644003377126
 20
243.7144296130672
 10
207.5486963377125
 20
244.1003436130672
 10
207.2041663377127
 20
244.4539696130673
 10
206.8334323377126
 20
244.772615613067
 10
206.4393143377124
 20
245.0538556130672
 10
206.0248143377125
 20
245.295549613067
 10
205.5930843377123
 20
245.4958596130672
 10
205.1474123377125
 20
245.6532596130673
 10
204.6911883377124
 20
245.7665496130671
 10
204.2278863377123
 20
245.8348716130672
 10
203.7610303377123
 20
245.8577036130673
 10
203.2941763377126
 20
245.8348716130672
 10
202.8308723377127
 20
245.7665496130671
 10
202.3746483377126
 20
245.6532596130673
 10
201.9289763377123
 20
245.4958596130672
 10
201.4972483377123
 20
245.295549613067
 10
201.0827463377127
 20
245.0538556130672
 10
200.6886303377124
 20
244.772615613067
 10
200.3178963377127
 20
244.4539696130673
 10
199.9733663377124
 20
244.1003436130672
 10
199.6576623377127
 20
243.7144296130672
 10
199.3731883377126
 20
243.299161613067
 10
199.1221063377125
 20
242.8577036130672
 10
198.9063323377127
 20
242.3934136130674
 10
198.7275043377126
 20
241.9098236130671
 10
198.6498684191958
 20
241.6340172058716
  0
ARC
  5
5F2A
330
18
100
AcDbEntity
  8
BLKDRA
  6
Continuous
100
AcDbCircle
 10
184.4273163377124
 20
231.157703613067
 30
0.0
 40
53.875
100
AcDbArc
 50
180.0
 51
0.0
  0
LWPOLYLINE
  5
5F2B
330
18
100
AcDbEntity
  8
BLKDRA
  6
Continuous
100
AcDbPolyline
 90
       11
 70
     0
 43
0.0
 10
233.0926803377124
 20
239.8577036130673
 10
232.9613723377124
 20
238.9190956130673
 10
232.5706803377125
 20
238.003601613067
 10
231.9302263377126
 20
237.133759613067
 10
231.0557783377126
 20
236.3309896130672
 10
229.9688683377126
 20
235.6150596130673
 10
228.6962603377124
 20
235.0035996130673
 10
227.2692903377124
 20
234.5116616130671
 10
225.7230943377126
 20
234.1513616130673
 10
224.0957463377126
 20
233.931569613067
 10
222.4273163377124
 20
233.8576996130673
  0
ARC
  5
5F2C
330
18
100
AcDbEntity
  8
BLKDRA
  6
Continuous
100
AcDbCircle
 10
238.4273163377125
 20
239.8577036130673
 30
0.0
 40
8.0
100
AcDbArc
 50
311.4096219999948
 51
48.59037800000521
  0
LWPOLYLINE
  5
5F2D
330
18
100
AcDbEntity
  8
BLKDRA
  6
Continuous
100
AcDbPolyline
 90
       15
 70
     0
 43
0.0
 10
233.0926803377124
 20
239.8577036130673
 10
233.0107763377128
 20
240.599859613067
 10
232.7663243377124
 20
241.3306176130672
 10
232.3630743377125
 20
242.0387536130669
 10
231.8072243377123
 20
242.7133896130671
 10
231.1073103377125
 20
243.3441656130671
 10
230.2740803377123
 20
243.921395613067
 10
229.3203323377124
 20
244.4362116130673
 10
228.2607183377127
 20
244.8807056130672
 10
227.1115083377126
 20
245.2480536130674
 10
225.8903543377123
 20
245.532609613067
 10
224.6160123377126
 20
245.7300076130672
 10
223.3080543377127
 20
245.8372136130674
 10
222.8680623377127
 20
245.8525816130672
 10
222.4273163377124
 20
245.8577076130672
  0
LWPOLYLINE
  5
5F2E
330
18
100
AcDbEntity
  8
BLKDRA
  6
Continuous
100
AcDbPolyline
 90
       67
 70
     0
 43
0.0
 10
246.2276182562293
 20
241.6340172058716
 10
246.1499823377126
 20
241.9098236130671
 10
245.9711543377125
 20
242.3934136130674
 10
245.7553783377125
 20
242.8577036130672
 10
245.5042983377125
 20
243.299161613067
 10
245.2198243377125
 20
243.7144296130672
 10
244.9041203377124
 20
244.1003436130672
 10
244.5595903377125
 20
244.4539696130673
 10
244.1888563377124
 20
244.772615613067
 10
243.7947383377127
 20
245.0538556130672
 10
243.3802383377124
 20
245.295549613067
 10
242.9485083377126
 20
245.4958596130672
 10
242.5028363377123
 20
245.6532596130673
 10
242.0466123377123
 20
245.7665496130671
 10
241.5833103377126
 20
245.8348716130672
 10
241.1164543377126
 20
245.8577036130673
 10
240.6495983377126
 20
245.8348716130672
 10
240.1862963377125
 20
245.7665496130671
 10
239.7300723377125
 20
245.6532596130673
 10
239.2844003377127
 20
245.4958596130672
 10
238.8526723377126
 20
245.295549613067
 10
238.4381703377126
 20
245.0538556130672
 10
238.0440543377126
 20
244.772615613067
 10
237.6733183377123
 20
244.4539696130673
 10
237.3287883377125
 20
244.1003436130672
 10
237.0130863377126
 20
243.7144296130672
 10
236.7286103377123
 20
243.299161613067
 10
236.4775303377123
 20
242.8577036130672
 10
236.2617563377126
 20
242.3934136130674
 10
236.0829283377125
 20
241.9098236130671
 10
235.9424083377125
 20
241.4106176130671
 10
235.8412643377123
 20
240.8995936130672
 10
235.7802703377124
 20
240.3806376130674
 10
235.7598863377125
 20
239.8577036130673
 10
235.7802703377124
 20
239.3347696130672
 10
235.8412643377123
 20
238.8158156130671
 10
235.9424083377125
 20
238.3047896130674
 10
236.0829283377125
 20
237.805583613067
 10
236.2617563377126
 20
237.3219936130671
 10
236.4775303377123
 20
236.8577036130673
 10
236.7286103377123
 20
236.416245613067
 10
237.0130863377126
 20
236.0009776130673
 10
237.3287883377125
 20
235.6150636130673
 10
237.6733183377123
 20
235.2614376130671
 10
238.0440543377126
 20
234.9427916130671
 10
238.4381703377126
 20
234.6615516130673
 10
238.8526723377126
 20
234.419857613067
 10
239.2844003377127
 20
234.2195476130673
 10
239.7300723377125
 20
234.062149613067
 10
240.1862963377125
 20
233.948857613067
 10
240.6495983377126
 20
233.8805356130674
 10
241.1164543377126
 20
233.8577036130673
 10
241.5833103377126
 20
233.8805356130674
 10
242.0466123377123
 20
233.948857613067
 10
242.5028363377123
 20
234.062149613067
 10
242.9485083377126
 20
234.2195476130673
 10
243.3802383377124
 20
234.419857613067
 10
243.7947383377127
 20
234.6615516130673
 10
244.1888563377124
 20
234.9427916130671
 10
244.5595903377125
 20
235.2614376130671
 10
244.9041203377124
 20
235.6150636130673
 10
245.2198243377125
 20
236.0009776130673
 10
245.5042983377125
 20
236.416245613067
 10
245.7553783377125
 20
236.8577036130673
 10
245.9711543377125
 20
237.3219936130671
 10
246.1499823377126
 20
237.805583613067
 10
246.2276182562291
 20
238.0813900202617
  0
LINE
  5
5F2F
330
18
100
AcDbEntity
  8
BLKDRA
  6
Continuous
100
AcDbLine
 10
206.5751703377127
 20
247.157703613067
 30
0.0
 11
206.5751703377127
 21
245.8577036130673
 31
0.0
  0
ARC
  5
5F30
330
18
100
AcDbEntity
  8
BLKDRA
  6
Continuous
100
AcDbCircle
 10
260.4501703377128
 20
247.157703613067
 30
0.0
 40
22.125
100
AcDbArc
 50
0.0
 51
180.0
  0
ARC
  5
5F31
330
18
100
AcDbEntity
  8
BLKDRA
  6
Continuous
100
AcDbCircle
 10
260.4501703377128
 20
247.157703613067
 30
0.0
 40
53.875
100
AcDbArc
 50
0.0
 51
180.0
  0
ARC
  5
5F32
330
18
100
AcDbEntity
  8
CENTER
 62
     0
100
AcDbCircle
 10
260.4501703377128
 20
247.157703613067
 30
0.0
 40
38.0
100
AcDbArc
 50
0.0
 51
180.0
  0
LINE
  5
5F33
330
18
100
AcDbEntity
  8
CENTER
 62
     0
100
AcDbLine
 10
298.4501703377128
 20
95.5819090273609
 30
0.0
 11
298.4501703377127
 21
247.157703613067
 31
0.0
  0
LINE
  5
5F34
330
18
100
AcDbEntity
  8
BLKDRA
  6
Continuous
100
AcDbLine
 10
314.3251703377127
 20
247.157703613067
 30
0.0
 11
314.3251703377127
 21
212.4350444478801
 31
0.0
  0
LINE
  5
5F35
330
18
100
AcDbEntity
  8
BLKDRA
  6
Continuous
100
AcDbLine
 10
282.5751703377127
 20
247.157703613067
 30
0.0
 11
282.5751703377127
 21
212.4350439476862
 31
0.0
  0
ARC
  5
5F36
330
18
100
AcDbEntity
  8
0
100
AcDbCircle
 10
306.3876699800691
 20
191.0842623629701
 30
0.0
 40
13.850782
100
AcDbArc
 50
55.03525000000482
 51
124.9647499999952
  0
ARC
  5
5F37
330
18
100
AcDbEntity
  8
0
100
AcDbCircle
 10
306.3876699800691
 20
223.78582636297
 30
0.0
 40
13.850782
100
AcDbArc
 50
235.0352500000048
 51
304.9647499999952
  0
ARC
  5
5F38
330
18
100
AcDbEntity
  8
0
100
AcDbCircle
 10
306.3876699800691
 20
201.0842623629701
 30
0.0
 40
13.850782
100
AcDbArc
 50
55.03525000000482
 51
124.9647499999952
  0
ARC
  5
5F39
330
18
100
AcDbEntity
  8
0
100
AcDbCircle
 10
290.5126699800691
 20
191.0842623629701
 30
0.0
 40
13.850782
100
AcDbArc
 50
55.03525000000482
 51
124.9647499999952
  0
ARC
  5
5F3A
330
18
100
AcDbEntity
  8
0
100
AcDbCircle
 10
290.5126699800691
 20
213.7858263629701
 30
0.0
 40
13.850782
100
AcDbArc
 50
235.0352500000048
 51
304.9647499999952
  0
ARC
  5
5F3B
330
18
100
AcDbEntity
  8
0
100
AcDbCircle
 10
290.5126699800691
 20
223.78582636297
 30
0.0
 40
13.850782
100
AcDbArc
 50
235.0352500000048
 51
304.9647499999952
  0
LINE
  5
5F3C
330
18
100
AcDbEntity
  8
BLKDRA
  6
Continuous
100
AcDbLine
 10
314.3251703377127
 20
202.4350442780599
 30
0.0
 11
314.3251703377127
 21
148.1584962780597
 31
0.0
  0
LINE
  5
5F3D
330
18
100
AcDbEntity
  8
BLKDRA
  6
Continuous
100
AcDbLine
 10
282.5751703377127
 20
202.4350442780599
 30
0.0
 11
282.5751703377127
 21
148.1584962780597
 31
0.0
  0
DIMENSION
  5
5F3E
330
18
100
AcDbEntity
  8
SCALE
100
AcDbDimension
  2
*D21
 10
222.4387423377123
 20
156.0346067529923
 30
0.0
 11
184.4330293377122
 21
156.0346067529923
 31
0.0
 70
   160
  1
（<>）
 71
     5
 42
76.01142600000001
 73
     0
 74
     0
 75
     0
  3
STANDARD
100
AcDbAlignedDimension
 13
146.4273163377122
 23
231.1577036130665
 33
0.0
 14
222.4387423377123
 24
231.1577036130665
 34
0.0
100
AcDbRotatedDimension
1001
ACAD
1000
DSTYLE
1002
{
1070
   271
1070
     0
1070
    41
1040
6.0
1070
    42
1040
1.0
1070
    44
1040
0.0
1070
   140
1040
8.0
1070
   147
1040
3.0
1002
}
  0
DIMENSION
  5
5F3F
330
18
100
AcDbEntity
  8
SCALE
100
AcDbDimension
  2
*D20
 10
298.4501703377123
 20
156.0346067529923
 30
0.0
 11
260.4444563377123
 21
156.0346067529923
 31
0.0
 70
   160
  1
（<>）
 71
     5
 42
76.01142800000002
 73
     0
 74
     0
 75
     0
  3
STANDARD
100
AcDbAlignedDimension
 13
222.4387423377123
 23
231.1577036130665
 33
0.0
 14
298.4501703377123
 24
161.1731971795615
 34
0.0
100
AcDbRotatedDimension
1001
ACAD
1000
DSTYLE
1002
{
1070
   271
1070
     0
1070
    41
1040
6.0
1070
    42
1040
1.0
1070
    44
1040
0.0
1070
   140
1040
8.0
1070
   147
1040
3.0
1002
}
  0
DIMENSION
  5
5F40
330
18
100
AcDbEntity
  8
SCALE
100
AcDbDimension
  2
*D19
 10
337.424786179356
 20
193.1577036130665
 30
0.0
 11
337.4247861793559
 21
238.5234416893347
 31
0.0
 70
   160
  1
（<>）
 71
     5
 42
92.00000000000008
 73
     0
 74
     0
 75
     0
  3
STANDARD
100
AcDbAlignedDimension
 13
260.4501703377124
 23
285.1577036130667
 33
0.0
 14
184.4273163377121
 24
193.1577036130665
 34
0.0
 50
90.0
100
AcDbRotatedDimension
1001
ACAD
1000
DSTYLE
1002
{
1070
    41
1040
6.0
1070
    42
1040
1.0
1070
    44
1040
0.0
1070
   140
1040
8.0
1070
   147
1040
3.0
1070
   271
1070
     0
1002
}
  0
DIMENSION
  5
5F41
330
18
100
AcDbEntity
  8
SCALE
100
AcDbDimension
  2
*D18
 10
357.8725280887671
 20
98.15849627805972
 30
0.0
 11
357.8725280887671
 21
191.732963273777
 31
0.0
 70
   160
  1
（550）
 71
     5
 42
186.9992073350072
 73
     0
 74
     0
 75
     0
  3
STANDARD
100
AcDbAlignedDimension
 13
260.4501703377128
 23
285.157703613067
 33
0.0
 14
314.3251703377127
 24
98.15849627805972
 34
0.0
 50
90.0
100
AcDbRotatedDimension
1001
ACAD
1000
DSTYLE
1002
{
1070
    41
1040
6.0
1070
    42
1040
1.0
1070
    44
1040
0.0
1070
   140
1040
8.0
1070
   147
1040
3.0
1070
   271
1070
     0
1002
}
  0
DIMENSION
  5
5F42
330
18
100
AcDbEntity
  8
SCALE
100
AcDbDimension
  2
*D17
 10
99.40092876304213
 20
193.1577036130665
 30
0.0
 11
99.40092876304209
 21
257.9476390266858
 31
0.0
 70
   160
  1
（<>）
 71
     5
 42
130.0
 73
     0
 74
     0
 75
     0
  3
STANDARD
100
AcDbAlignedDimension
 13
125.746907622606
 23
323.1577036130667
 33
0.0
 14
184.4273163377121
 24
193.1577036130665
 34
0.0
 50
90.0
100
AcDbRotatedDimension
1001
ACAD
1000
DSTYLE
1002
{
1070
    41
1040
6.0
1070
    42
1040
1.0
1070
    44
1040
0.0
1070
   140
1040
8.0
1070
   147
1040
3.0
1070
   271
1070
     0
1002
}
  0
DIMENSION
  5
5F43
330
18
100
AcDbEntity
  8
SCALE
100
AcDbDimension
  2
*D16
 10
282.575170695356
 20
113.3378265707714
 30
0.0
 11
247.3956382104175
 21
113.3378265707714
 31
0.0
 70
   160
 71
     5
 42
31.75
 73
     0
 74
     0
 75
     0
  3
STANDARD
100
AcDbAlignedDimension
 13
314.3251706953559
 23
128.1584962780597
 33
0.0
 14
282.575170695356
 24
128.1584962780597
 34
0.0
100
AcDbRotatedDimension
1001
ACAD
1000
DSTYLE
1002
{
1070
   271
1070
     0
1070
     3
1000
%%c<>
1070
    41
1040
6.0
1070
    42
1040
1.0
1070
    44
1040
0.0
1070
   140
1040
8.0
1070
   147
1040
3.0
1002
}
  0
DIMENSION
  5
6180
330
18
100
AcDbEntity
  8
SCALE
100
AcDbDimension
  2
*D36
 10
184.4973864705666
 20
294.7577036130679
 30
0.0
 11
178.4973864705666
 21
311.9764536130677
 31
0.0
 70
    32
  1
15～50
 71
     5
 42
34.43749999999955
 73
     0
 74
     0
 75
     0
  3
STANDARD
100
AcDbAlignedDimension
 13
162.3022078587912
 23
329.1952036130674
 33
0.0
 14
162.3022078587913
 24
294.7577036130679
 34
0.0
 50
90.0
100
AcDbRotatedDimension
1001
ACAD
1000
DSTYLE
1002
{
1070
    40
1040
2.0
1002
}
  0
LINE
  5
62F5
330
18
100
AcDbEntity
  8
0
100
AcDbLine
 10
211.8368799547648
 20
392.557703613068
 30
0.0
 11
172.3024157508636
 21
392.5577036130679
 31
0.0
  0
LINE
  5
62F8
330
18
100
AcDbEntity
  8
CENTER
 62
     0
 48
0.5
100
AcDbLine
 10
211.8368799547649
 20
390.7577036130677
 30
0.0
 11
143.4274157508638
 21
390.7577036130677
 31
0.0
  0
LINE
  5
62F9
330
18
100
AcDbEntity
  8
0
100
AcDbLine
 10
211.8368799547649
 20
388.9577036130681
 30
0.0
 11
172.3024157508636
 21
388.957703613068
 31
0.0
  0
LINE
  5
6331
330
18
100
AcDbEntity
  8
CENTER
 62
     0
 48
0.5
100
AcDbLine
 10
221.9176361584586
 20
388.0313353783247
 30
0.0
 11
231.7843683479409
 21
382.273187753031
 31
0.0
  0
LINE
  5
6332
330
18
100
AcDbEntity
  8
0
100
AcDbLine
 10
241.3028856612168
 20
368.9830817636432
 30
0.0
 11
241.5837743589255
 21
367.6010863344767
 31
0.0
  0
LINE
  5
6333
330
18
100
AcDbEntity
  8
CENTER
 62
     0
 48
0.5
100
AcDbLine
 10
250.8068810707925
 20
359.6094824002741
 30
0.0
 11
266.4976457695155
 21
358.7033554929501
 31
0.0
  0
ARC
  5
6335
330
18
100
AcDbEntity
  8
CENTER
 62
     0
 48
0.5
100
AcDbCircle
 10
221.7036121442472
 20
364.9995559877742
 30
0.0
 40
20.0
100
AcDbArc
 50
11.48879478497108
 51
59.73249913090967
  0
ARC
  5
6336
330
18
100
AcDbEntity
  8
CENTER
 62
     0
 48
0.5
100
AcDbCircle
 10
211.8368799547649
 20
370.7577036130678
 30
0.0
 40
20.0
100
AcDbArc
 50
59.73249913090964
 51
90.0
  0
ARC
  5
633E
330
18
100
AcDbEntity
  8
CENTER
 62
     0
 48
0.5
100
AcDbCircle
 10
251.3834111174103
 20
369.5928492224112
 30
0.0
 40
10.0
100
AcDbArc
 50
191.4887947849706
 51
266.6948934725273
  0
ARC
  5
633F
330
18
100
AcDbEntity
  8
0
100
AcDbCircle
 10
267.0741758161333
 20
368.6867223150872
 30
0.0
 40
10.0
100
AcDbArc
 50
266.6948934725271
 51
270.0
  0
ARC
  5
6340
330
18
100
AcDbEntity
  8
0
100
AcDbCircle
 10
221.7036121442472
 20
364.9995559877742
 30
0.0
 40
21.8
100
AcDbArc
 50
11.48879478497108
 51
36.87649450488186
  0
ARC
  5
6341
330
18
100
AcDbEntity
  8
0
100
AcDbCircle
 10
251.3834111174103
 20
369.5928492224112
 30
0.0
 40
8.199999999999999
100
AcDbArc
 50
191.4887947849706
 51
266.6948934725273
  0
LINE
  5
6342
330
18
100
AcDbEntity
  8
0
100
AcDbLine
 10
243.0668202777441
 20
369.3415990834714
 30
0.0
 11
243.3477089754528
 21
367.959603654305
 31
0.0
  0
LINE
  5
6343
330
18
100
AcDbEntity
  8
0
100
AcDbLine
 10
239.5389510446896
 20
368.6245644438149
 30
0.0
 11
239.8198397423982
 21
367.2425690146486
 31
0.0
  0
ARC
  5
6344
330
18
100
AcDbEntity
  8
0
100
AcDbCircle
 10
251.3834111174103
 20
369.5928492224112
 30
0.0
 40
11.8
100
AcDbArc
 50
191.4887947849706
 51
266.6948934725273
  0
ARC
  5
6345
330
18
100
AcDbEntity
  8
0
100
AcDbCircle
 10
221.7036121442472
 20
364.9995559877742
 30
0.0
 40
18.2
100
AcDbArc
 50
11.48879478497108
 51
36.3213063207503
  0
LINE
  5
6346
330
18
100
AcDbEntity
  8
0
100
AcDbLine
 10
221.0103681001262
 20
386.4767085194515
 30
0.0
 11
230.8771002896085
 21
380.7185608941578
 31
0.0
  0
LINE
  5
6347
330
18
100
AcDbEntity
  8
0
100
AcDbLine
 10
222.824904216791
 20
389.5859622371978
 30
0.0
 11
232.6916364062734
 21
383.8278146119042
 31
0.0
  0
LINE
  5
6348
330
18
100
AcDbEntity
  8
0
100
AcDbLine
 10
250.7031056624013
 20
357.8124763722895
 30
0.0
 11
266.3938703611243
 21
356.9063494649655
 31
0.0
  0
LINE
  5
6349
330
18
100
AcDbEntity
  8
0
100
AcDbLine
 10
250.9106564791837
 20
361.4064884282588
 30
0.0
 11
266.6014211779067
 21
360.5003615209348
 31
0.0
  0
ARC
  5
634A
330
18
100
AcDbEntity
  8
0
100
AcDbCircle
 10
267.0741758161333
 20
368.6867223150872
 30
0.0
 40
8.199999999999999
100
AcDbArc
 50
266.6948934725271
 51
270.0
  0
ARC
  5
634B
330
18
100
AcDbEntity
  8
0
100
AcDbCircle
 10
267.0741758161333
 20
368.6867223150872
 30
0.0
 40
11.8
100
AcDbArc
 50
266.6948934725271
 51
270.0
  0
ARC
  5
634C
330
18
100
AcDbEntity
  8
0
100
AcDbCircle
 10
211.8368799547649
 20
370.7577036130678
 30
0.0
 40
21.8
100
AcDbArc
 50
59.73249913090964
 51
90.0
  0
ARC
  5
634D
330
18
100
AcDbEntity
  8
0
100
AcDbCircle
 10
211.8368799547649
 20
370.7577036130678
 30
0.0
 40
18.2
100
AcDbArc
 50
59.73249913090964
 51
90.0
  0
SPLINE
  5
634E
330
18
100
AcDbEntity
  8
0
100
AcDbSpline
210
0.0
220
0.0
230
1.0
 70
    40
 71
     3
 72
    10
 73
     6
 74
     4
 42
0.0000000001
 43
0.0000000001
 44
0.0000000001
 40
0.0
 40
0.0
 40
0.0
 40
0.0
 40
1.898304691327798
 40
3.686784469865902
 40
5.157759285988287
 40
5.157759285988287
 40
5.157759285988287
 40
5.157759285988287
 10
237.6097988243064
 20
380.6434967726905
 30
0.0
 10
237.5440706355119
 20
379.8914313476285
 30
0.0
 10
237.4164169101713
 20
378.4308106463741
 30
0.0
 10
235.1089229030593
 20
378.7905970603978
 30
0.0
 10
234.6708823817409
 20
377.6776109683516
 30
0.0
 10
234.4731969848171
 20
377.1753261643918
 30
0.0
 11
237.6097988243064
 21
380.6434967726905
 31
0.0
 11
237.0091733166241
 21
378.8427164694224
 31
0.0
 11
235.27403099506
 21
378.4091947950428
 31
0.0
 11
234.4731969848171
 21
377.1753261643918
 31
0.0
  0
SPLINE
  5
634F
330
18
100
AcDbEntity
  8
0
100
AcDbSpline
210
0.0
220
0.0
230
1.0
 70
    40
 71
     3
 72
    10
 73
     6
 74
     4
 42
0.0000000001
 43
0.0000000001
 44
0.0000000001
 40
0.0
 40
0.0
 40
0.0
 40
0.0
 40
1.898304691327807
 40
3.68678446986587
 40
5.157759285988255
 40
5.157759285988255
 40
5.157759285988255
 40
5.157759285988255
 10
239.1854502675915
 20
378.5352347719637
 30
0.0
 10
239.1197220787971
 20
377.7831693469015
 30
0.0
 10
238.9920683534563
 20
376.322548645647
 30
0.0
 10
236.6845743463445
 20
376.682335059671
 30
0.0
 10
236.246533825026
 20
375.5693489676247
 30
0.0
 10
236.0488484281022
 20
375.067064163665
 30
0.0
 11
239.1854502675915
 21
378.5352347719637
 31
0.0
 11
238.5848247599092
 21
376.7344544686955
 31
0.0
 11
236.8496824383451
 21
376.300932794316
 31
0.0
 11
236.0488484281022
 21
375.067064163665
 31
0.0
  0
ARC
  5
6350
330
18
100
AcDbEntity
  8
0
100
AcDbCircle
 10
221.7036121442472
 20
364.9995559877742
 30
0.0
 40
21.8
100
AcDbArc
 50
43.41100821507164
 51
59.73249913090967
  0
ARC
  5
6351
330
18
100
AcDbEntity
  8
0
100
AcDbCircle
 10
221.7036121442472
 20
364.9995559877742
 30
0.0
 40
18.2
100
AcDbArc
 50
44.39047578214156
 51
59.73249913090967
  0
LEADER
  5
6352
330
18
100
AcDbEntity
  8
SCALE
100
AcDbLeader
  3
STANDARD
 73
     0
 74
     0
 75
     1
 40
8.0
 41
25.6
 76
     3
 10
273.0939948489681
 20
356.8867223150875
 30
0.0
 10
282.9887388727393
 20
325.2950982868322
 30
0.0
 10
285.9887388727393
 20
325.2950982868322
 30
0.0
340
6353
1001
ACAD
1000
DSTYLE
1002
{
1070
    40
1040
2.0
1002
}
  0
MTEXT
  5
6353
102
{ACAD_REACTORS
330
6352
102
}
330
18
100
AcDbEntity
  8
SCALE
100
AcDbMText
 10
287.9887388727393
 20
327.2950982868322
 30
0.0
 40
8.0
 41
0.0
 46
0.0
 71
     7
 72
     1
  1
\A1;L=600
 73
     1
 44
1.0
  0
VIEWPORT
  5
19BD
330
15
100
AcDbEntity
 67
     1
  8
0
100
AcDbViewport
 10
133.3499908447265
 20
101.5999970436096
 30
0.0
 40
370.1484805183667
 41
228.4221935424805
 68
     1
 69
     1
 12
133.3499908447265
 22
101.5999970436096
 13
0.0
 23
0.0
 14
10.0
 24
10.0
 15
10.0
 25
10.0
 16
0.0
 26
0.0
 36
1.0
 17
0.0
 27
0.0
 37
0.0
 42
50.0
 43
0.0
 44
0.0
 45
228.4221935424805
 50
0.0
 51
0.0
 72
  1000
 90
    32800
  1

281
     0
 71
     1
 74
     0
110
0.0
120
0.0
130
0.0
111
1.0
121
0.0
131
0.0
112
0.0
122
1.0
132
0.0
 79
     0
146
0.0
170
     0
 61
     5
348
614D
292
     1
282
     1
141
0.0
142
0.0
 63
   250
421
  3355443
  0
VIEWPORT
  5
19BF
330
15
100
AcDbEntity
 67
     1
  8
0
100
AcDbViewport
 10
133.3499939441681
 20
101.5999939441681
 30
0.0
 40
213.3599903106689
 41
162.5599903106689
 68
     2
 69
     2
 12
210.0
 22
297.0
 13
0.0
 23
0.0
 14
1.0
 24
1.0
 15
0.0
 25
0.0
 16
0.0
 26
0.0
 36
1.0
 17
0.0
 27
0.0
 37
0.0
 42
50.0
 43
0.0
 44
0.0
 45
600.75
 50
0.0
 51
0.0
 72
  1000
 90
    34848
  1

281
     0
 71
     1
 74
     0
110
0.0
120
0.0
130
0.0
111
1.0
121
0.0
131
0.0
112
0.0
122
1.0
132
0.0
 79
     0
146
0.0
170
     2
 61
     5
348
614D
292
     1
282
     1
141
0.0
142
0.0
 63
   250
421
  3355443
  0
ENDSEC
  0
SECTION
  2
OBJECTS
  0
DICTIONARY
  5
C
330
0
100
AcDbDictionary
281
     1
  3
ACAD_COLOR
350
29
  3
ACAD_GROUP
350
D
  3
ACAD_LAYOUT
350
2A
  3
ACAD_MATERIAL
350
28
  3
ACAD_MLEADERSTYLE
350
6174
  3
ACAD_MLINESTYLE
350
E
  3
ACAD_PLOTSETTINGS
350
2B
  3
ACAD_PLOTSTYLENAME
350
26
  3
ACAD_SCALELIST
350
6162
  3
ACAD_TABLESTYLE
350
6160
  3
ACAD_VISUALSTYLE
350
6147
  3
AcadDim
350
6D
  3
ACDB_RECOMPOSE_DATA
350
6529
  3
AcDbVariableDictionary
350
170D
  0
DICTIONARY
  5
B1D
330
2
100
AcDbDictionary
280
     1
281
     1
  3
ACAD_LAYERFILTERS
360
1757
  3
ACAD_LAYERSTATES
360
B1E
  0
DICTIONARY
  5
6196
330
F
100
AcDbDictionary
280
     1
281
     1
  3
ADSK_XREC_LAYER_RECONCILED
360
6197
  0
DICTIONARY
  5
6198
330
7F9
100
AcDbDictionary
280
     1
281
     1
  3
ADSK_XREC_LAYER_RECONCILED
360
6199
  0
DICTIONARY
  5
619A
330
7FB
100
AcDbDictionary
280
     1
281
     1
  3
ADSK_XREC_LAYER_RECONCILED
360
619B
  0
DICTIONARY
  5
619C
330
7FC
100
AcDbDictionary
280
     1
281
     1
  3
ADSK_XREC_LAYER_RECONCILED
360
619D
  0
DICTIONARY
  5
619E
330
7FD
100
AcDbDictionary
280
     1
281
     1
  3
ADSK_XREC_LAYER_RECONCILED
360
619F
  0
DICTIONARY
  5
61A0
330
7FF
100
AcDbDictionary
280
     1
281
     1
  3
ADSK_XREC_LAYER_RECONCILED
360
61A1
  0
DICTIONARY
  5
61A2
330
800
100
AcDbDictionary
280
     1
281
     1
  3
ADSK_XREC_LAYER_RECONCILED
360
61A3
  0
DICTIONARY
  5
61A4
330
801
100
AcDbDictionary
280
     1
281
     1
  3
ADSK_XREC_LAYER_RECONCILED
360
61A5
  0
DICTIONARY
  5
61A6
330
802
100
AcDbDictionary
280
     1
281
     1
  3
ADSK_XREC_LAYER_RECONCILED
360
61A7
  0
DICTIONARY
  5
61A8
330
803
100
AcDbDictionary
280
     1
281
     1
  3
ADSK_XREC_LAYER_RECONCILED
360
61A9
  0
DICTIONARY
  5
61AA
330
804
100
AcDbDictionary
280
     1
281
     1
  3
ADSK_XREC_LAYER_RECONCILED
360
61AB
  0
DICTIONARY
  5
61AC
330
B1B
100
AcDbDictionary
280
     1
281
     1
  3
ADSK_XREC_LAYER_RECONCILED
360
61AD
  0
DICTIONARY
  5
61AE
330
DD8
100
AcDbDictionary
280
     1
281
     1
  3
ADSK_XREC_LAYER_RECONCILED
360
61AF
  0
DICTIONARY
  5
61B0
330
1758
100
AcDbDictionary
280
     1
281
     1
  3
ADSK_XREC_LAYER_RECONCILED
360
61B1
  0
DICTIONARY
  5
61B2
330
1A51
100
AcDbDictionary
280
     1
281
     1
  3
ADSK_XREC_LAYER_RECONCILED
360
61B3
  0
DICTIONARY
  5
62F6
330
18
100
AcDbDictionary
280
     1
281
     1
  3
ACAD_SORTENTS
360
62F7
  0
DICTIONARY
  5
64F0
330
AF2
100
AcDbDictionary
280
     1
281
     1
  0
DICTIONARY
  5
29
102
{ACAD_REACTORS
330
C
102
}
330
C
100
AcDbDictionary
281
     1
  0
DICTIONARY
  5
D
102
{ACAD_REACTORS
330
C
102
}
330
C
100
AcDbDictionary
281
     1
  0
DICTIONARY
  5
2A
102
{ACAD_REACTORS
330
C
102
}
330
C
100
AcDbDictionary
281
     1
  3
Model
350
2C
  3
レイアウト1
350
2D
  0
DICTIONARY
  5
28
102
{ACAD_REACTORS
330
C
102
}
330
C
100
AcDbDictionary
281
     1
  3
ByBlock
350
6137
  3
ByLayer
350
612F
  3
Global
350
613F
  0
DICTIONARY
  5
6174
102
{ACAD_REACTORS
330
C
102
}
330
C
100
AcDbDictionary
281
     1
  3
Standard
350
6175
  0
DICTIONARY
  5
E
102
{ACAD_REACTORS
330
C
102
}
330
C
100
AcDbDictionary
281
     1
  3
STANDARD
350
1B
  0
DICTIONARY
  5
2B
102
{ACAD_REACTORS
330
C
102
}
330
C
100
AcDbDictionary
281
     1
  0
ACDBDICTIONARYWDFLT
  5
26
102
{ACAD_REACTORS
330
C
102
}
330
C
100
AcDbDictionary
281
     1
  3
Normal
350
27
100
AcDbDictionaryWithDefault
340
27
  0
DICTIONARY
  5
6162
102
{ACAD_REACTORS
330
C
102
}
330
C
100
AcDbDictionary
281
     1
  3
A0
350
6163
  3
A1
350
6164
  3
A2
350
6165
  3
A3
350
6166
  3
A4
350
6167
  3
A5
350
6168
  3
A6
350
6169
  3
A7
350
616A
  3
A8
350
616B
  3
A9
350
616C
  3
B0
350
616D
  3
B1
350
616E
  3
B2
350
616F
  3
B3
350
6170
  3
B4
350
6171
  3
B5
350
6172
  3
B6
350
6173
  0
DICTIONARY
  5
6160
102
{ACAD_REACTORS
330
C
102
}
330
C
100
AcDbDictionary
281
     1
  3
Standard
350
6161
  0
DICTIONARY
  5
6147
102
{ACAD_REACTORS
330
C
102
}
330
C
100
AcDbDictionary
281
     1
  3
2dWireframe
350
614D
  3
Basic
350
614C
  3
Brighten
350
6153
  3
ColorChange
350
6157
  3
Conceptual
350
6150
  3
Dim
350
6152
  3
EdgeColorOff
350
615F
  3
Facepattern
350
6156
  3
Flat
350
6148
  3
FlatWithEdges
350
6149
  3
Gouraud
350
614A
  3
GouraudWithEdges
350
614B
  3
Hidden
350
614F
  3
JitterOff
350
615D
  3
Linepattern
350
6155
  3
OverhangOff
350
615E
  3
Realistic
350
6151
  3
Shaded
350
615C
  3
Shaded with edges
350
615B
  3
Shades of Gray
350
6158
  3
Sketchy
350
6159
  3
Thicken
350
6154
  3
Wireframe
350
614E
  3
X-Ray
350
615A
  0
XRECORD
  5
6D
102
{ACAD_REACTORS
330
C
102
}
330
C
100
AcDbXrecord
280
     1
 90
   990106
  3
YAZ1
 60
     0
 61
     0
 62
     4
 63
     4
 64
     1
 65
     0
 66
     0
 67
     3
 68
     1
 69
     0
 70
     0
 71
     0
 72
     0
 40
0.0
170
     2
  0
XRECORD
  5
6529
102
{ACAD_REACTORS
330
C
102
}
330
C
100
AcDbXrecord
280
     1
 90
        1
330
6161
  0
DICTIONARY
  5
170D
102
{ACAD_REACTORS
330
C
102
}
330
C
100
AcDbDictionary
281
     1
  3
CANNOSCALE
350
61C8
  3
CMLEADERSTYLE
350
61C6
  3
CTABLESTYLE
350
61C5
  3
DIMASSOC
350
170E
  3
LAYEREVAL
350
61CA
  3
LAYERNOTIFY
350
61CB
  3
LIGHTINGUNITS
350
61C9
  3
MSLTSCALE
350
61C7
  3
PROJECTNAME
350
170F
  0
DICTIONARY
  5
1757
102
{ACAD_REACTORS
330
B1D
102
}
330
B1D
100
AcDbDictionary
281
     1
  0
DICTIONARY
  5
B1E
102
{ACAD_REACTORS
330
B1D
102
}
330
B1D
100
AcDbDictionary
281
     1
  0
XRECORD
  5
6197
102
{ACAD_REACTORS
330
6196
102
}
330
6196
100
AcDbXrecord
280
     1
290
     1
  0
XRECORD
  5
6199
102
{ACAD_REACTORS
330
6198
102
}
330
6198
100
AcDbXrecord
280
     1
290
     1
  0
XRECORD
  5
619B
102
{ACAD_REACTORS
330
619A
102
}
330
619A
100
AcDbXrecord
280
     1
290
     1
  0
XRECORD
  5
619D
102
{ACAD_REACTORS
330
619C
102
}
330
619C
100
AcDbXrecord
280
     1
290
     1
  0
XRECORD
  5
619F
102
{ACAD_REACTORS
330
619E
102
}
330
619E
100
AcDbXrecord
280
     1
290
     1
  0
XRECORD
  5
61A1
102
{ACAD_REACTORS
330
61A0
102
}
330
61A0
100
AcDbXrecord
280
     1
290
     1
  0
XRECORD
  5
61A3
102
{ACAD_REACTORS
330
61A2
102
}
330
61A2
100
AcDbXrecord
280
     1
290
     1
  0
XRECORD
  5
61A5
102
{ACAD_REACTORS
330
61A4
102
}
330
61A4
100
AcDbXrecord
280
     1
290
     1
  0
XRECORD
  5
61A7
102
{ACAD_REACTORS
330
61A6
102
}
330
61A6
100
AcDbXrecord
280
     1
290
     1
  0
XRECORD
  5
61A9
102
{ACAD_REACTORS
330
61A8
102
}
330
61A8
100
AcDbXrecord
280
     1
290
     1
  0
XRECORD
  5
61AB
102
{ACAD_REACTORS
330
61AA
102
}
330
61AA
100
AcDbXrecord
280
     1
290
     1
  0
XRECORD
  5
61AD
102
{ACAD_REACTORS
330
61AC
102
}
330
61AC
100
AcDbXrecord
280
     1
290
     1
  0
XRECORD
  5
61AF
102
{ACAD_REACTORS
330
61AE
102
}
330
61AE
100
AcDbXrecord
280
     1
290
     1
  0
XRECORD
  5
61B1
102
{ACAD_REACTORS
330
61B0
102
}
330
61B0
100
AcDbXrecord
280
     1
290
     1
  0
XRECORD
  5
61B3
102
{ACAD_REACTORS
330
61B2
102
}
330
61B2
100
AcDbXrecord
280
     1
290
     1
  0
SORTENTSTABLE
  5
62F7
102
{ACAD_REACTORS
330
62F6
102
}
330
62F6
100
AcDbSortentsTable
330
18
331
5DDC
  5
5DDC
331
AEA
  5
AEA
331
5E86
  5
5E86
331
5DD8
  5
5DD8
331
5E17
  5
5E17
331
5E82
  5
5E82
331
5DD5
  5
5DD5
331
5DD1
  5
5DD1
331
5E7E
  5
5E7E
331
5F0C
  5
5F15
331
5EBD
  5
5EC6
331
4D4C
  5
4D4C
331
5E13
  5
5E13
331
5E7A
  5
5E7A
331
5EB9
  5
5EC2
331
5F08
  5
5F11
331
6347
  5
6340
331
4D48
  5
4D48
331
6343
  5
6343
331
5F04
  5
5F0D
331
5F00
  5
5F09
331
5E45
  5
5E45
331
4D2F
  5
4D2F
331
5E41
  5
5E41
331
5E0F
  5
5E0F
331
5EED
  5
5EF6
331
4D44
  5
4D44
331
5E0B
  5
5E0B
331
5E76
  5
5E76
331
5EB5
  5
5EBE
331
5EB1
  5
5EBA
331
4D40
  5
4D40
331
5E07
  5
5E07
331
633F
  5
5E9D
331
5E72
  5
5E72
331
5EF1
  5
5EFE
331
5E6E
  5
5E6E
331
5EFC
  5
5F05
331
5EAD
  5
5EB6
331
4D3C
  5
4D3C
331
5E03
  5
5E03
331
5E6A
  5
5E6A
331
5EA9
  5
5EB2
331
4D38
  5
4D38
331
6333
  5
634A
331
5EE4
  5
5EED
331
5E3D
  5
5E3D
331
5EE0
  5
5EE9
331
5E39
  5
5E39
331
A54
  5
A54
331
5E35
  5
5E35
331
5E31
  5
5E31
331
5DFF
  5
5DFF
331
5F15
  5
5F1E
331
4D34
  5
4D34
331
5DFB
  5
5DFB
331
5F11
  5
5F1A
331
5E66
  5
5E66
331
5EA5
  5
5EAE
331
5EA1
  5
5EAA
331
4D30
  5
4D30
331
5DF7
  5
5DF7
331
5E62
  5
5E62
331
5F1D
  5
5F26
331
5F19
  5
5F22
331
5E9D
  5
5EA6
331
5DF3
  5
5DF3
331
5EDC
  5
5EE5
331
5E5E
  5
5E5E
331
5E5A
  5
5E5A
331
5E99
  5
5E9B
331
B2F
  5
B2F
331
5ED8
  5
5EE1
331
5F37
  5
5F40
331
5ED4
  5
5EDD
331
5F33
  5
5F3C
331
5E2D
  5
5E2D
331
5ED0
  5
5ED9
331
5E29
  5
5E29
331
5E25
  5
5E25
331
6350
  5
6349
331
5E21
  5
5E21
331
5DEF
  5
5DEF
331
5F3D
  5
62F3
331
5DEB
  5
5DEB
331
5F39
  5
5F42
331
5E56
  5
5E56
331
5E95
  5
5E97
331
5DE7
  5
5DE7
331
5F2F
  5
5F38
331
5E52
  5
5E52
331
5E91
  5
5E91
331
5F41
  5
6332
331
5E8D
  5
5E8D
331
5DE3
  5
5DE3
331
5ECC
  5
5ED5
331
5F2B
  5
5F34
331
5E4E
  5
5E4E
331
5E4A
  5
5E4A
331
5E89
  5
5E89
331
5EC8
  5
5ED1
331
5F27
  5
5F30
331
634E
  5
6350
331
5EC4
  5
5ECD
331
5F23
  5
5F2C
331
634A
  5
5E9F
331
5E1D
  5
5E1D
331
5EC0
  5
5EC9
331
5E19
  5
5E19
331
5DCE
  5
5DCE
331
5DCA
  5
5DCA
331
5DDF
  5
5DDF
331
5DDB
  5
5DDB
331
5E85
  5
5E85
331
5DD4
  5
5DD4
331
5E16
  5
5E16
331
5F0F
  5
5F18
331
5E81
  5
5E81
331
5E12
  5
5E12
331
5DD0
  5
5DD0
331
5E7D
  5
5E7D
331
5F0B
  5
5F14
331
5EBC
  5
5EC5
331
4D4B
  5
4D4B
331
5E79
  5
5E79
331
5EB8
  5
5EC1
331
5F07
  5
5F10
331
6346
  5
6341
331
6342
  5
6344
331
5F03
  5
5F0C
331
5E44
  5
5E44
331
4D2E
  5
4D2E
331
5E40
  5
5E40
331
5E0E
  5
5E0E
331
5EEC
  5
5EF5
331
4D47
  5
4D47
331
4D43
  5
4D43
331
5E0A
  5
5E0A
331
5EE8
  5
5EF1
331
5E75
  5
5E75
331
5EB4
  5
5EBD
331
5EB0
  5
5EB9
331
4D3F
  5
4D3F
331
5E06
  5
5E06
331
5EFF
  5
5F08
331
633E
  5
634D
331
5E71
  5
5E71
331
5EF0
  5
5EFD
331
5E6D
  5
5E6D
331
5EFB
  5
5F04
331
5EAC
  5
5EB5
331
4D3B
  5
4D3B
331
5E02
  5
5E02
331
5E69
  5
5E69
331
5EA8
  5
5EB1
331
5EE7
  5
5EF0
331
6336
  5
5EA1
331
6332
  5
6342
331
5EE3
  5
5EEC
331
5E3C
  5
5E3C
331
A57
  5
A57
331
5E38
  5
5E38
331
A53
  5
A53
331
5E34
  5
5E34
331
5E30
  5
5E30
331
5DFE
  5
5DFE
331
5F14
  5
5F1D
331
4D37
  5
4D37
331
4D33
  5
4D33
331
5DFA
  5
5DFA
331
5F10
  5
5F19
331
5E65
  5
5E65
331
5EA4
  5
5EAD
331
5EA0
  5
5EA9
331
5DF6
  5
5DF6
331
5EDF
  5
5EE8
331
5E61
  5
5E61
331
5F1C
  5
5F25
331
5F18
  5
5F21
331
5E5D
  5
5E5D
331
5EDB
  5
5EE4
331
5E9C
  5
5EA5
331
5DF2
  5
5DF2
331
5E59
  5
5E59
331
5E98
  5
5E9A
331
5ED7
  5
5EE0
331
5F36
  5
5F3F
331
5F32
  5
5F3B
331
5ED3
  5
5EDC
331
5E2C
  5
5E2C
331
5E28
  5
5E28
331
A92
  5
A92
331
5E24
  5
5E24
331
5E20
  5
5E20
331
5DEE
  5
5DEE
331
5F3C
  5
62F2
331
5DEA
  5
5DEA
331
5F38
  5
5F41
331
5E55
  5
5E55
331
5E94
  5
5E96
331
5E90
  5
5E90
331
5DE6
  5
5DE6
331
5F2E
  5
5F37
331
5E51
  5
5E51
331
5ECF
  5
5ED8
331
5F40
  5
6331
331
5E8C
  5
5E8C
331
5DE2
  5
5DE2
331
5ECB
  5
5ED4
331
5F2A
  5
5F33
331
5E4D
  5
5E4D
331
5E49
  5
5E49
331
5E88
  5
5E88
331
5EC7
  5
5ED0
331
5F26
  5
5F2F
331
634D
  5
5EA2
331
5EC3
  5
5ECC
331
5F22
  5
5F2B
331
6349
  5
634B
331
5E1C
  5
5E1C
331
5E18
  5
5E18
331
5DCD
  5
5DCD
331
5DC9
  5
5DC9
331
5DDE
  5
5DDE
331
5DDA
  5
5DDA
331
5E84
  5
5E84
331
5DD7
  5
5DD7
331
5DD3
  5
5DD3
331
5EBF
  5
5EC8
331
4D4E
  5
4D4E
331
5E15
  5
5E15
331
5F0E
  5
5F17
331
5E80
  5
5E80
331
5E11
  5
5E11
331
5E7C
  5
5E7C
331
5F0A
  5
5F13
331
5EBB
  5
5EC4
331
4D4A
  5
4D4A
331
5E78
  5
5E78
331
5F06
  5
5F0F
331
6345
  5
6346
331
6341
  5
634F
331
5F02
  5
5F0B
331
5E47
  5
5E47
331
5E43
  5
5E43
331
5EEF
  5
5EFA
331
4D46
  5
4D46
331
5E0D
  5
5E0D
331
5EEB
  5
5EF4
331
5EB7
  5
5EC0
331
4D42
  5
4D42
331
5E09
  5
5E09
331
5EF7
  5
5F02
331
5E74
  5
5E74
331
5EB3
  5
5EBC
331
5EF3
  5
5F00
331
5EAF
  5
5EB8
331
4D3E
  5
4D3E
331
5E05
  5
5E05
331
5EFE
  5
5F07
331
5E70
  5
5E70
331
5E01
  5
5E01
331
5E6C
  5
5E6C
331
5EFA
  5
5F03
331
5EAB
  5
5EB4
331
4D3A
  5
4D3A
331
5E68
  5
5E68
331
5EE6
  5
5EEF
331
6335
  5
6345
331
6331
  5
633F
331
5E3F
  5
5E3F
331
5EE2
  5
5EEB
331
A56
  5
A56
331
5E3B
  5
5E3B
331
5E37
  5
5E37
331
B31
  5
B31
331
5E33
  5
5E33
331
5F17
  5
5F20
331
5DFD
  5
5DFD
331
5F13
  5
5F1C
331
5EA7
  5
5EB0
331
4D36
  5
4D36
331
4D32
  5
4D32
331
5DF9
  5
5DF9
331
5F1F
  5
5F28
331
5E64
  5
5E64
331
5EA3
  5
5EAC
331
5E9F
  5
5EA8
331
5DF5
  5
5DF5
331
5EDE
  5
5EE7
331
5E60
  5
5E60
331
5F1B
  5
5F24
331
5E5C
  5
5E5C
331
5E9B
  5
5EA4
331
5EDA
  5
5EE3
331
62F9
  5
5E92
331
5DF1
  5
5DF1
331
5E58
  5
5E58
331
B2D
  5
B2D
331
5ED6
  5
5EDF
331
5F35
  5
5F3E
331
5F31
  5
5F3A
331
5E2F
  5
5E2F
331
5ED2
  5
5EDB
331
5E2B
  5
5E2B
331
5E27
  5
5E27
331
5E23
  5
5E23
331
5F3F
  5
62F5
331
5DED
  5
5DED
331
5F3B
  5
6180
331
5E97
  5
5E99
331
5DE9
  5
5DE9
331
5E54
  5
5E54
331
5E93
  5
5E95
331
5E8F
  5
5E8F
331
5DE5
  5
5DE5
331
5ECE
  5
5ED7
331
5F2D
  5
5F36
331
5E50
  5
5E50
331
5F43
  5
6335
331
5E4C
  5
5E4C
331
5E8B
  5
5E8B
331
5ECA
  5
5ED3
331
5F29
  5
5F32
331
5DE1
  5
5DE1
331
5E48
  5
5E48
331
5EC6
  5
5ECF
331
5F25
  5
5F2E
331
5F21
  5
5F2A
331
634C
  5
5EA3
331
5E1F
  5
5E1F
331
5EC2
  5
5ECB
331
6348
  5
634C
331
5E1B
  5
5E1B
331
6180
  5
6337
331
5DCC
  5
5DCC
331
5DDD
  5
5DDD
331
5E87
  5
5E87
331
5DD9
  5
5DD9
331
5E83
  5
5E83
331
5DD6
  5
5DD6
331
5DD2
  5
5DD2
331
5E7F
  5
5E7F
331
5F0D
  5
5F16
331
5EBE
  5
5EC7
331
4D4D
  5
4D4D
331
5E14
  5
5E14
331
5E10
  5
5E10
331
5E7B
  5
5E7B
331
5F09
  5
5F12
331
5EBA
  5
5EC3
331
4D49
  5
4D49
331
6344
  5
634E
331
5F05
  5
5F0E
331
6340
  5
6348
331
5F01
  5
5F0A
331
5E46
  5
5E46
331
5E42
  5
5E42
331
5EEE
  5
5EF9
331
4D45
  5
4D45
331
5E0C
  5
5E0C
331
5E77
  5
5E77
331
5EB6
  5
5EBF
331
5EB2
  5
5EBB
331
4D41
  5
4D41
331
5E08
  5
5E08
331
5E73
  5
5E73
331
5EF6
  5
5F01
331
5EF2
  5
5EFF
331
5EAE
  5
5EB7
331
4D3D
  5
4D3D
331
5E04
  5
5E04
331
5EFD
  5
5F06
331
5E6F
  5
5E6F
331
5E00
  5
5E00
331
5E6B
  5
5E6B
331
5EAA
  5
5EB3
331
4D39
  5
4D39
331
5EE5
  5
5EEE
331
5E3E
  5
5E3E
331
5EE1
  5
5EEA
331
A55
  5
A55
331
5E3A
  5
5E3A
331
5E36
  5
5E36
331
5E32
  5
5E32
331
5F16
  5
5F1F
331
4D35
  5
4D35
331
5DFC
  5
5DFC
331
5F12
  5
5F1B
331
5E67
  5
5E67
331
5EA6
  5
5EAF
331
4D31
  5
4D31
331
5DF8
  5
5DF8
331
5F1E
  5
5F27
331
5E63
  5
5E63
331
5EA2
  5
5EAB
331
5F1A
  5
5F23
331
5E9E
  5
5EA7
331
5DF4
  5
5DF4
331
5EDD
  5
5EE6
331
5E5F
  5
5E5F
331
5DF0
  5
5DF0
331
5E5B
  5
5E5B
331
5E9A
  5
5E9C
331
5ED9
  5
5EE2
331
62F8
  5
5EA0
331
B2C
  5
B2C
331
5ED5
  5
5EDE
331
5F34
  5
5F3D
331
5F30
  5
5F39
331
5E2E
  5
5E2E
331
5ED1
  5
5EDA
331
5E2A
  5
5E2A
331
5E26
  5
5E26
331
6351
  5
6347
331
5E22
  5
5E22
331
5F3E
  5
62F4
331
5DEC
  5
5DEC
331
5F3A
  5
5F43
331
5E57
  5
5E57
331
5E96
  5
5E98
331
5DE8
  5
5DE8
331
5E53
  5
5E53
331
5E92
  5
5E93
331
5E8E
  5
5E8E
331
5DE4
  5
5DE4
331
5ECD
  5
5ED6
331
5F2C
  5
5F35
331
5E4F
  5
5E4F
331
5F42
  5
6333
331
5E4B
  5
5E4B
331
5E8A
  5
5E8A
331
5EC9
  5
5ED2
331
5F28
  5
5F31
331
5DE0
  5
5DE0
331
5EC5
  5
5ECE
331
5F24
  5
5F2D
331
1B4B
  5
1B4B
331
634F
  5
6351
331
5F20
  5
5F29
331
634B
  5
5E9E
331
5E1E
  5
5E1E
331
5EC1
  5
5ECA
331
5E1A
  5
5E1A
331
62F5
  5
5E94
331
5DCF
  5
5DCF
331
5DCB
  5
5DCB
  0
LAYOUT
  5
2C
102
{ACAD_XDICTIONARY
360
61C3
102
}
102
{ACAD_REACTORS
330
2A
102
}
330
2A
100
AcDbPlotSettings
  1

  2
Justsystem PDF Creator
  4
A4
  6

 40
3.174999952316283
 41
3.174999952316283
 42
3.175003051757812
 43
3.17498779296875
 44
209.8886566162109
 45
297.0530090332031
 46
8.983451400235367
 47
2.322267732064857
 48
24.08586636876589
 49
9.914988591527386
140
395.2293679920982
141
582.0319602391041
142
1.0
143
2.0
 70
 11940
 72
     1
 73
     0
 74
     4
  7
R16.ctb
 75
     0
147
0.4727516155936339
 76
     0
 77
     2
 78
   300
148
-24.08586636876589
149
-9.914988591527386
100
AcDbLayout
  1
Model
 70
     1
 71
     0
 10
0.0
 20
0.0
 11
12.0
 21
9.0
 12
0.0
 22
0.0
 32
0.0
 14
0.0
 24
0.0
 34
0.0
 15
0.0
 25
0.0
 35
0.0
146
0.0
 13
0.0
 23
0.0
 33
0.0
 16
1.0
 26
0.0
 36
0.0
 17
0.0
 27
1.0
 37
0.0
 76
     0
330
18
331
612D
1001
ACAD_PSEXT
1000
Justsystem PDF Creator
1000
Justsystem PDF Creator
1000
JustsystemPDFCreatorPort
1000
Justsystem PDF Creator
1070
     0
  0
LAYOUT
  5
2D
102
{ACAD_REACTORS
330
2A
102
}
330
2A
100
AcDbPlotSettings
  1

  2
none_device
  4
Letter_(8.50_x_11.00_Inches)
  6

 40
6.349999904632567
 41
6.349999904632567
 42
6.350006103515625
 43
6.350006103515625
 44
215.8999938964844
 45
279.3999938964844
 46
0.0
 47
0.0
 48
0.0
 49
0.0
140
0.0
141
0.0
142
1.0
143
1.0
 70
   688
 72
     1
 73
     1
 74
     5
  7
R16.ctb
 75
    16
147
1.0
 76
     1
 77
     2
 78
   300
148
0.0
149
0.0
100
AcDbLayout
  1
レイアウト1
 70
     1
 71
     1
 10
-6.350006103515625
 20
-6.349999904632567
 11
273.0499877929688
 21
209.5499939918518
 12
0.0
 22
0.0
 32
0.0
 14
26.66999878883363
 24
20.31999878883363
 34
0.0
 15
240.0299890995026
 25
182.8799890995025
 35
0.0
146
0.0
 13
0.0
 23
0.0
 33
0.0
 16
1.0
 26
0.0
 36
0.0
 17
0.0
 27
1.0
 37
0.0
 76
     0
330
15
331
19BD
  0
MATERIAL
  5
6137
102
{ACAD_XDICTIONARY
360
6138
102
}
102
{ACAD_REACTORS
330
28
102
}
330
28
100
AcDbMaterial
  1
ByBlock
 72
     0
 43
0.0208333333333333
 43
0.0
 43
0.0
 43
0.0
 43
0.0
 43
0.0208333333333333
 43
0.0
 43
0.0
 43
0.0
 43
0.0
 43
1.0
 43
0.0
 43
0.0
 43
0.0
 43
0.0
 43
1.0
 77
     0
 47
0.0208333333333333
 47
0.0
 47
0.0
 47
0.0
 47
0.0
 47
0.0208333333333333
 47
0.0
 47
0.0
 47
0.0
 47
0.0
 47
1.0
 47
0.0
 47
0.0
 47
0.0
 47
0.0
 47
1.0
171
     0
 49
0.0208333333333333
 49
0.0
 49
0.0
 49
0.0
 49
0.0
 49
0.0208333333333333
 49
0.0
 49
0.0
 49
0.0
 49
0.0
 49
1.0
 49
0.0
 49
0.0
 49
0.0
 49
0.0
 49
1.0
175
     0
142
0.0208333333333333
142
0.0
142
0.0
142
0.0
142
0.0
142
0.0208333333333333
142
0.0
142
0.0
142
0.0
142
0.0
142
1.0
142
0.0
142
0.0
142
0.0
142
0.0
142
1.0
179
     0
144
0.0208333333333333
144
0.0
144
0.0
144
0.0
144
0.0
144
0.0208333333333333
144
0.0
144
0.0
144
0.0
144
0.0
144
1.0
144
0.0
144
0.0
144
0.0
144
0.0
144
1.0
147
0.0208333333333333
147
0.0
147
0.0
147
0.0
147
0.0
147
0.0208333333333333
147
0.0
147
0.0
147
0.0
147
0.0
147
1.0
147
0.0
147
0.0
147
0.0
147
0.0
147
1.0
  0
MATERIAL
  5
612F
102
{ACAD_XDICTIONARY
360
6130
102
}
102
{ACAD_REACTORS
330
28
102
}
330
28
100
AcDbMaterial
  1
ByLayer
 72
     0
 43
0.0208333333333333
 43
0.0
 43
0.0
 43
0.0
 43
0.0
 43
0.0208333333333333
 43
0.0
 43
0.0
 43
0.0
 43
0.0
 43
1.0
 43
0.0
 43
0.0
 43
0.0
 43
0.0
 43
1.0
 77
     0
 47
0.0208333333333333
 47
0.0
 47
0.0
 47
0.0
 47
0.0
 47
0.0208333333333333
 47
0.0
 47
0.0
 47
0.0
 47
0.0
 47
1.0
 47
0.0
 47
0.0
 47
0.0
 47
0.0
 47
1.0
171
     0
 49
0.0208333333333333
 49
0.0
 49
0.0
 49
0.0
 49
0.0
 49
0.0208333333333333
 49
0.0
 49
0.0
 49
0.0
 49
0.0
 49
1.0
 49
0.0
 49
0.0
 49
0.0
 49
0.0
 49
1.0
175
     0
142
0.0208333333333333
142
0.0
142
0.0
142
0.0
142
0.0
142
0.0208333333333333
142
0.0
142
0.0
142
0.0
142
0.0
142
1.0
142
0.0
142
0.0
142
0.0
142
0.0
142
1.0
179
     0
144
0.0208333333333333
144
0.0
144
0.0
144
0.0
144
0.0
144
0.0208333333333333
144
0.0
144
0.0
144
0.0
144
0.0
144
1.0
144
0.0
144
0.0
144
0.0
144
0.0
144
1.0
147
0.0208333333333333
147
0.0
147
0.0
147
0.0
147
0.0
147
0.0208333333333333
147
0.0
147
0.0
147
0.0
147
0.0
147
1.0
147
0.0
147
0.0
147
0.0
147
0.0
147
1.0
  0
MATERIAL
  5
613F
102
{ACAD_XDICTIONARY
360
6140
102
}
102
{ACAD_REACTORS
330
28
102
}
330
28
100
AcDbMaterial
  1
Global
 72
     0
 43
0.0208333333333333
 43
0.0
 43
0.0
 43
0.0
 43
0.0
 43
0.0208333333333333
 43
0.0
 43
0.0
 43
0.0
 43
0.0
 43
1.0
 43
0.0
 43
0.0
 43
0.0
 43
0.0
 43
1.0
 77
     0
 47
0.0208333333333333
 47
0.0
 47
0.0
 47
0.0
 47
0.0
 47
0.0208333333333333
 47
0.0
 47
0.0
 47
0.0
 47
0.0
 47
1.0
 47
0.0
 47
0.0
 47
0.0
 47
0.0
 47
1.0
171
     0
 49
0.0208333333333333
 49
0.0
 49
0.0
 49
0.0
 49
0.0
 49
0.0208333333333333
 49
0.0
 49
0.0
 49
0.0
 49
0.0
 49
1.0
 49
0.0
 49
0.0
 49
0.0
 49
0.0
 49
1.0
175
     0
142
0.0208333333333333
142
0.0
142
0.0
142
0.0
142
0.0
142
0.0208333333333333
142
0.0
142
0.0
142
0.0
142
0.0
142
1.0
142
0.0
142
0.0
142
0.0
142
0.0
142
1.0
179
     0
144
0.0208333333333333
144
0.0
144
0.0
144
0.0
144
0.0
144
0.0208333333333333
144
0.0
144
0.0
144
0.0
144
0.0
144
1.0
144
0.0
144
0.0
144
0.0
144
0.0
144
1.0
147
0.0208333333333333
147
0.0
147
0.0
147
0.0
147
0.0
147
0.0208333333333333
147
0.0
147
0.0
147
0.0
147
0.0
147
1.0
147
0.0
147
0.0
147
0.0
147
0.0
147
1.0
  0
MLEADERSTYLE
  5
6175
102
{ACAD_REACTORS
330
6174
102
}
330
6174
100
AcDbMLeaderStyle
170
     2
171
     1
172
     0
 90
        2
 40
0.0
 41
0.0
173
     1
 91
-1056964608
340
12
 92
       -2
290
     1
 42
2.0
291
     1
 43
0.36
  3
Standard
 44
4.0
300

342
10
174
     1
178
     6
175
     1
176
     0
 93
-1056964608
 45
4.0
292
     0
297
     0
 46
4.0
 94
-1056964608
 47
1.0
 49
1.0
140
1.0
293
     1
141
0.0
294
     1
177
     0
142
1.0
295
     0
296
     0
143
0.125
1001
ACAD_MLEADERVER
1070
     2
  0
MLINESTYLE
  5
1B
102
{ACAD_REACTORS
330
E
102
}
330
E
100
AcDbMlineStyle
  2
STANDARD
 70
     0
  3

 62
     0
 51
90.0
 52
90.0
 71
     2
 49
0.5
 62
   256
  6
BYLAYER
 49
-0.5
 62
   256
  6
BYLAYER
  0
ACDBPLACEHOLDER
  5
27
102
{ACAD_REACTORS
330
26
102
}
330
26
  0
SCALE
  5
6163
102
{ACAD_REACTORS
330
6162
102
}
330
6162
100
AcDbScale
 70
     0
300
1:1
140
1.0
141
1.0
290
     1
  0
SCALE
  5
6164
102
{ACAD_REACTORS
330
6162
102
}
330
6162
100
AcDbScale
 70
     0
300
1:2
140
1.0
141
2.0
290
     0
  0
SCALE
  5
6165
102
{ACAD_REACTORS
330
6162
102
}
330
6162
100
AcDbScale
 70
     0
300
1:4
140
1.0
141
4.0
290
     0
  0
SCALE
  5
6166
102
{ACAD_REACTORS
330
6162
102
}
330
6162
100
AcDbScale
 70
     0
300
1:5
140
1.0
141
5.0
290
     0
  0
SCALE
  5
6167
102
{ACAD_REACTORS
330
6162
102
}
330
6162
100
AcDbScale
 70
     0
300
1:8
140
1.0
141
8.0
290
     0
  0
SCALE
  5
6168
102
{ACAD_REACTORS
330
6162
102
}
330
6162
100
AcDbScale
 70
     0
300
1:10
140
1.0
141
10.0
290
     0
  0
SCALE
  5
6169
102
{ACAD_REACTORS
330
6162
102
}
330
6162
100
AcDbScale
 70
     0
300
1:16
140
1.0
141
16.0
290
     0
  0
SCALE
  5
616A
102
{ACAD_REACTORS
330
6162
102
}
330
6162
100
AcDbScale
 70
     0
300
1:20
140
1.0
141
20.0
290
     0
  0
SCALE
  5
616B
102
{ACAD_REACTORS
330
6162
102
}
330
6162
100
AcDbScale
 70
     0
300
1:30
140
1.0
141
30.0
290
     0
  0
SCALE
  5
616C
102
{ACAD_REACTORS
330
6162
102
}
330
6162
100
AcDbScale
 70
     0
300
1:40
140
1.0
141
40.0
290
     0
  0
SCALE
  5
616D
102
{ACAD_REACTORS
330
6162
102
}
330
6162
100
AcDbScale
 70
     0
300
1:50
140
1.0
141
50.0
290
     0
  0
SCALE
  5
616E
102
{ACAD_REACTORS
330
6162
102
}
330
6162
100
AcDbScale
 70
     0
300
1:100
140
1.0
141
100.0
290
     0
  0
SCALE
  5
616F
102
{ACAD_REACTORS
330
6162
102
}
330
6162
100
AcDbScale
 70
     0
300
2:1
140
2.0
141
1.0
290
     0
  0
SCALE
  5
6170
102
{ACAD_REACTORS
330
6162
102
}
330
6162
100
AcDbScale
 70
     0
300
4:1
140
4.0
141
1.0
290
     0
  0
SCALE
  5
6171
102
{ACAD_REACTORS
330
6162
102
}
330
6162
100
AcDbScale
 70
     0
300
8:1
140
8.0
141
1.0
290
     0
  0
SCALE
  5
6172
102
{ACAD_REACTORS
330
6162
102
}
330
6162
100
AcDbScale
 70
     0
300
10:1
140
10.0
141
1.0
290
     0
  0
SCALE
  5
6173
102
{ACAD_REACTORS
330
6162
102
}
330
6162
100
AcDbScale
 70
     0
300
100:1
140
100.0
141
1.0
290
     0
  0
TABLESTYLE
  5
6161
102
{ACAD_XDICTIONARY
360
64A9
102
}
102
{ACAD_REACTORS
330
6160
102
}
330
6160
100
AcDbTableStyle
  3
Standard
 70
     0
 71
     0
 40
1.5
 41
1.5
280
     0
281
     0
  7
STANDARD
140
4.5
170
     2
 62
     0
 63
     7
283
     0
 90
      512
 91
        0
  1

274
    -2
284
     1
 64
     0
275
    -2
285
     1
 65
     0
276
    -2
286
     1
 66
     0
277
    -2
287
     1
 67
     0
278
    -2
288
     1
 68
     0
279
    -2
289
     1
 69
     0
  7
STANDARD
140
6.0
170
     5
 62
     0
 63
     7
283
     0
 90
      512
 91
        0
  1

274
    -2
284
     1
 64
     0
275
    -2
285
     1
 65
     0
276
    -2
286
     1
 66
     0
277
    -2
287
     1
 67
     0
278
    -2
288
     1
 68
     0
279
    -2
289
     1
 69
     0
  7
STANDARD
140
4.5
170
     5
 62
     0
 63
     7
283
     0
 90
      512
 91
        0
  1

274
    -2
284
     1
 64
     0
275
    -2
285
     1
 65
     0
276
    -2
286
     1
 66
     0
277
    -2
287
     1
 67
     0
278
    -2
288
     1
 68
     0
279
    -2
289
     1
 69
     0
  0
VISUALSTYLE
  5
614D
102
{ACAD_XDICTIONARY
360
6534
102
}
102
{ACAD_REACTORS
330
6147
102
}
330
6147
100
AcDbVisualStyle
  2

 70
     4
 71
     0
 72
     2
 73
     0
 90
        0
 40
-0.6
 41
-30.0
 62
     5
 63
     7
421
 16777215
 74
     1
 91
        4
 64
     7
 65
   257
 75
     1
175
     1
 42
1.0
 92
        0
 66
   257
 43
1.0
 76
     1
 77
     6
 78
     2
 67
     7
 79
     5
170
     0
171
     0
290
     0
174
     0
 93
        1
 44
0.0
173
     0
291
     0
 45
0.0
1001
ACAD
1000
AcDbSavedByObjectVersion
1070
     0
  0
VISUALSTYLE
  5
614C
102
{ACAD_XDICTIONARY
360
6532
102
}
102
{ACAD_REACTORS
330
6147
102
}
330
6147
100
AcDbVisualStyle
  2

 70
     7
 71
     1
 72
     0
 73
     1
 90
        0
 40
-0.6
 41
-30.0
 62
     5
 63
     7
421
 16777215
 74
     0
 91
        4
 64
     7
 65
   257
 75
     1
175
     1
 42
1.0
 92
        8
 66
     7
 43
1.0
 76
     1
 77
     6
 78
     2
 67
     7
 79
     5
170
     0
171
     0
290
     0
174
     0
 93
        1
 44
0.0
173
     0
291
     1
 45
0.0
1001
ACAD
1000
AcDbSavedByObjectVersion
1070
     0
  0
VISUALSTYLE
  5
6153
102
{ACAD_XDICTIONARY
360
6540
102
}
102
{ACAD_REACTORS
330
6147
102
}
330
6147
100
AcDbVisualStyle
  2

 70
    12
 71
     2
 72
     2
 73
     0
 90
        0
 40
-0.6
 41
-30.0
 62
     5
 63
     7
421
 16777215
 74
     1
 91
        4
 64
     7
 65
   257
 75
     1
175
     1
 42
1.0
 92
        8
 66
     7
 43
1.0
 76
     1
 77
     6
 78
     2
 67
     7
 79
     5
170
     0
171
     0
290
     0
174
     0
 93
        1
 44
50.0
173
     0
291
     1
 45
0.0
1001
ACAD
1000
AcDbSavedByObjectVersion
1070
     0
  0
VISUALSTYLE
  5
6157
102
{ACAD_XDICTIONARY
360
6548
102
}
102
{ACAD_REACTORS
330
6147
102
}
330
6147
100
AcDbVisualStyle
  2

 70
    16
 71
     2
 72
     2
 73
     3
 90
        0
 40
-0.6
 41
-30.0
 62
     5
 63
     8
421
  8421504
 74
     1
 91
        4
 64
     7
 65
   257
 75
     1
175
     1
 42
1.0
 92
        8
 66
     8
424
  8421504
 43
1.0
 76
     1
 77
     6
 78
     2
 67
     7
 79
     5
170
     0
171
     0
290
     0
174
     0
 93
        1
 44
0.0
173
     0
291
     1
 45
0.0
1001
ACAD
1000
AcDbSavedByObjectVersion
1070
     0
  0
VISUALSTYLE
  5
6150
102
{ACAD_XDICTIONARY
360
653A
102
}
102
{ACAD_REACTORS
330
6147
102
}
330
6147
100
AcDbVisualStyle
  2

 70
     9
 71
     3
 72
     2
 73
     0
 90
        0
 40
-0.6
 41
-30.0
 62
     5
 63
     7
421
 16777215
 74
     2
 91
        2
 64
     7
 65
   257
 75
     1
175
     1
 42
179.0
 92
        8
 66
     7
 43
1.0
 76
     1
 77
     6
 78
     2
 67
     7
 79
     3
170
     0
171
     0
290
     0
174
     0
 93
        1
 44
0.0
173
     0
291
     0
 45
0.0
1001
ACAD
1000
AcDbSavedByObjectVersion
1070
     0
  0
VISUALSTYLE
  5
6152
102
{ACAD_XDICTIONARY
360
653E
102
}
102
{ACAD_REACTORS
330
6147
102
}
330
6147
100
AcDbVisualStyle
  2

 70
    11
 71
     2
 72
     2
 73
     0
 90
        0
 40
-0.6
 41
-30.0
 62
     5
 63
     7
421
 16777215
 74
     1
 91
        4
 64
     7
 65
   257
 75
     1
175
     1
 42
1.0
 92
        8
 66
     7
 43
1.0
 76
     1
 77
     6
 78
     2
 67
     7
 79
     5
170
     0
171
     0
290
     0
174
     0
 93
        1
 44
-50.0
173
     0
291
     1
 45
0.0
1001
ACAD
1000
AcDbSavedByObjectVersion
1070
     0
  0
VISUALSTYLE
  5
615F
102
{ACAD_XDICTIONARY
360
6558
102
}
102
{ACAD_REACTORS
330
6147
102
}
330
6147
100
AcDbVisualStyle
  2

 70
    22
 71
     2
 72
     2
 73
     0
 90
        0
 40
-0.6
 41
-30.0
 62
     5
 63
     7
421
 16777215
 74
     1
 91
        4
 64
     7
 65
   257
 75
     1
175
     1
 42
1.0
 92
        8
 66
     7
 43
1.0
 76
     1
 77
     6
 78
     2
 67
     7
 79
     5
170
     0
171
     0
290
     0
174
     0
 93
        1
 44
0.0
173
     0
291
     1
 45
0.0
1001
ACAD
1000
AcDbSavedByObjectVersion
1070
     0
  0
VISUALSTYLE
  5
6156
102
{ACAD_XDICTIONARY
360
6546
102
}
102
{ACAD_REACTORS
330
6147
102
}
330
6147
100
AcDbVisualStyle
  2

 70
    15
 71
     2
 72
     2
 73
     0
 90
        0
 40
-0.6
 41
-30.0
 62
     5
 63
     7
421
 16777215
 74
     1
 91
        4
 64
     7
 65
   257
 75
     1
175
     1
 42
1.0
 92
        8
 66
     7
 43
1.0
 76
     1
 77
     6
 78
     2
 67
     7
 79
     5
170
     0
171
     0
290
     0
174
     0
 93
        1
 44
0.0
173
     0
291
     1
 45
0.0
1001
ACAD
1000
AcDbSavedByObjectVersion
1070
     0
  0
VISUALSTYLE
  5
6148
102
{ACAD_XDICTIONARY
360
652A
102
}
102
{ACAD_REACTORS
330
6147
102
}
330
6147
100
AcDbVisualStyle
  2

 70
     0
 71
     2
 72
     1
 73
     1
 90
        2
 40
-0.6
 41
30.0
 62
     5
 63
     7
421
 16777215
 74
     0
 91
        0
 64
     7
 65
   257
 75
     1
175
     1
 42
1.0
 92
        8
 66
     7
 43
1.0
 76
     1
 77
     6
 78
     2
 67
     7
 79
     5
170
     0
171
     0
290
     0
174
     0
 93
       13
 44
0.0
173
     0
291
     1
 45
0.0
1001
ACAD
1000
AcDbSavedByObjectVersion
1070
     0
  0
VISUALSTYLE
  5
6149
102
{ACAD_XDICTIONARY
360
652C
102
}
102
{ACAD_REACTORS
330
6147
102
}
330
6147
100
AcDbVisualStyle
  2

 70
     1
 71
     2
 72
     1
 73
     1
 90
        2
 40
-0.6
 41
30.0
 62
     5
 63
     7
421
 16777215
 74
     1
 91
        0
 64
     7
 65
   257
 75
     1
175
     1
 42
1.0
 92
        0
 66
   257
 43
1.0
 76
     1
 77
     6
 78
     2
 67
     7
 79
     5
170
     0
171
     0
290
     0
174
     0
 93
       13
 44
0.0
173
     0
291
     1
 45
0.0
1001
ACAD
1000
AcDbSavedByObjectVersion
1070
     0
  0
VISUALSTYLE
  5
614A
102
{ACAD_XDICTIONARY
360
652E
102
}
102
{ACAD_REACTORS
330
6147
102
}
330
6147
100
AcDbVisualStyle
  2

 70
     2
 71
     2
 72
     2
 73
     1
 90
        2
 40
-0.6
 41
30.0
 62
     5
 63
     7
421
 16777215
 74
     0
 91
        0
 64
     7
 65
   257
 75
     1
175
     1
 42
1.0
 92
        0
 66
     7
 43
1.0
 76
     1
 77
     6
 78
     2
 67
     7
 79
     5
170
     0
171
     0
290
     0
174
     0
 93
       13
 44
0.0
173
     0
291
     1
 45
0.0
1001
ACAD
1000
AcDbSavedByObjectVersion
1070
     0
  0
VISUALSTYLE
  5
614B
102
{ACAD_XDICTIONARY
360
6530
102
}
102
{ACAD_REACTORS
330
6147
102
}
330
6147
100
AcDbVisualStyle
  2

 70
     3
 71
     2
 72
     2
 73
     1
 90
        2
 40
-0.6
 41
30.0
 62
     5
 63
     7
421
 16777215
 74
     1
 91
        0
 64
     7
 65
   257
 75
     1
175
     1
 42
1.0
 92
        0
 66
   257
 43
1.0
 76
     1
 77
     6
 78
     2
 67
     7
 79
     5
170
     0
171
     0
290
     0
174
     0
 93
       13
 44
0.0
173
     0
291
     1
 45
0.0
1001
ACAD
1000
AcDbSavedByObjectVersion
1070
     0
  0
VISUALSTYLE
  5
614F
102
{ACAD_XDICTIONARY
360
6538
102
}
102
{ACAD_REACTORS
330
6147
102
}
330
6147
100
AcDbVisualStyle
  2

 70
     6
 71
     1
 72
     2
 73
     2
 90
        0
 40
-0.6
 41
-30.0
 62
     5
 63
     7
421
 16777215
 74
     2
 91
        2
 64
     7
 65
   257
 75
     2
175
     1
 42
40.0
 92
        0
 66
   257
 43
1.0
 76
     1
 77
     6
 78
     2
 67
     7
 79
     3
170
     0
171
     0
290
     0
174
     0
 93
        1
 44
0.0
173
     0
291
     0
 45
0.0
1001
ACAD
1000
AcDbSavedByObjectVersion
1070
     0
  0
VISUALSTYLE
  5
615D
102
{ACAD_XDICTIONARY
360
6554
102
}
102
{ACAD_REACTORS
330
6147
102
}
330
6147
100
AcDbVisualStyle
  2

 70
    20
 71
     2
 72
     2
 73
     0
 90
        0
 40
-0.6
 41
-30.0
 62
     5
 63
     7
421
 16777215
 74
     1
 91
        4
 64
     7
 65
   257
 75
     1
175
     1
 42
1.0
 92
       10
 66
     7
 43
1.0
 76
     1
 77
     6
 78
     2
 67
     7
 79
     5
170
     0
171
     0
290
     0
174
     0
 93
        1
 44
0.0
173
     0
291
     1
 45
0.0
1001
ACAD
1000
AcDbSavedByObjectVersion
1070
     0
  0
VISUALSTYLE
  5
6155
102
{ACAD_XDICTIONARY
360
6544
102
}
102
{ACAD_REACTORS
330
6147
102
}
330
6147
100
AcDbVisualStyle
  2

 70
    14
 71
     2
 72
     2
 73
     0
 90
        0
 40
-0.6
 41
-30.0
 62
     5
 63
     7
421
 16777215
 74
     1
 91
        4
 64
     7
 65
   257
 75
     7
175
     7
 42
1.0
 92
        8
 66
     7
 43
1.0
 76
     1
 77
     6
 78
     2
 67
     7
 79
     5
170
     0
171
     0
290
     0
174
     0
 93
        1
 44
0.0
173
     0
291
     1
 45
0.0
1001
ACAD
1000
AcDbSavedByObjectVersion
1070
     0
  0
VISUALSTYLE
  5
615E
102
{ACAD_XDICTIONARY
360
6556
102
}
102
{ACAD_REACTORS
330
6147
102
}
330
6147
100
AcDbVisualStyle
  2

 70
    21
 71
     2
 72
     2
 73
     0
 90
        0
 40
-0.6
 41
-30.0
 62
     5
 63
     7
421
 16777215
 74
     1
 91
        4
 64
     7
 65
   257
 75
     1
175
     1
 42
1.0
 92
        9
 66
     7
 43
1.0
 76
     1
 77
     6
 78
     2
 67
     7
 79
     5
170
     0
171
     0
290
     0
174
     0
 93
        1
 44
0.0
173
     0
291
     1
 45
0.0
1001
ACAD
1000
AcDbSavedByObjectVersion
1070
     0
  0
VISUALSTYLE
  5
6151
102
{ACAD_XDICTIONARY
360
653C
102
}
102
{ACAD_REACTORS
330
6147
102
}
330
6147
100
AcDbVisualStyle
  2

 70
     8
 71
     2
 72
     3
 73
     0
 90
        2
 40
-0.6
 41
30.0
 62
     5
 63
     7
421
 16777215
 74
     0
 91
        0
 64
     7
 65
   257
 75
     1
175
     1
 42
1.0
 92
        8
 66
   257
 43
1.0
 76
     1
 77
     6
 78
     2
 67
     7
 79
     3
170
     0
171
     0
290
     0
174
     0
 93
       13
 44
0.0
173
     0
291
     0
 45
0.0
1001
ACAD
1000
AcDbSavedByObjectVersion
1070
     0
  0
VISUALSTYLE
  5
615C
102
{ACAD_XDICTIONARY
360
6552
102
}
102
{ACAD_REACTORS
330
6147
102
}
330
6147
100
AcDbVisualStyle
  2

 70
    27
 71
     2
 72
     2
 73
     1
 90
        2
 40
-0.6
 41
30.0
 62
     5
 63
     7
421
 16777215
 74
     0
 91
        4
 64
     7
 65
   257
 75
     1
175
     1
 42
1.0
 92
        8
 66
   257
 43
1.0
 76
     1
 77
     6
 78
     2
 67
     8
425
  7895160
 79
     3
170
     0
171
     0
290
     0
174
     0
 93
        5
 44
0.0
173
     0
291
     0
 45
0.0
1001
ACAD
1000
AcDbSavedByObjectVersion
1070
     0
  0
VISUALSTYLE
  5
615B
102
{ACAD_XDICTIONARY
360
6550
102
}
102
{ACAD_REACTORS
330
6147
102
}
330
6147
100
AcDbVisualStyle
  2

 70
    26
 71
     2
 72
     2
 73
     1
 90
        2
 40
-0.6
 41
30.0
 62
     5
 63
     7
421
 16777215
 74
     1
 91
       10
 64
     7
 65
   257
 75
     2
175
     1
 42
1.0
 92
        8
 66
   257
 43
1.0
 76
     1
 77
     6
 78
     2
 67
     7
 79
     3
170
     0
171
     0
290
     0
174
     0
 93
        5
 44
0.0
173
     0
291
     0
 45
0.0
1001
ACAD
1000
AcDbSavedByObjectVersion
1070
     0
  0
VISUALSTYLE
  5
6158
102
{ACAD_XDICTIONARY
360
654A
102
}
102
{ACAD_REACTORS
330
6147
102
}
330
6147
100
AcDbVisualStyle
  2

 70
    23
 71
     2
 72
     2
 73
     3
 90
        0
 40
-0.6
 41
-30.0
 62
     5
 63
     7
421
 16777215
 74
     2
 91
        2
 64
     7
 65
     7
 75
     1
175
     1
 42
40.0
 92
        8
 66
     7
 43
1.0
 76
     1
 77
     6
 78
     2
 67
     7
 79
     3
170
     0
171
     0
290
     0
174
     0
 93
        1
 44
0.0
173
     0
291
     0
 45
0.0
1001
ACAD
1000
AcDbSavedByObjectVersion
1070
     0
  0
VISUALSTYLE
  5
6159
102
{ACAD_XDICTIONARY
360
654C
102
}
102
{ACAD_REACTORS
330
6147
102
}
330
6147
100
AcDbVisualStyle
  2

 70
    24
 71
     1
 72
     2
 73
     2
 90
        0
 40
-0.6
 41
-30.0
 62
     5
 63
     7
421
 16777215
 74
     2
 91
        2
 64
     7
 65
     7
 75
     1
175
     1
 42
40.0
 92
       11
 66
     7
 43
1.0
 76
     1
 77
     6
 78
     2
 67
     7
 79
     6
170
     0
171
     0
290
     0
174
     0
 93
        1
 44
0.0
173
     0
291
     0
 45
0.0
1001
ACAD
1000
AcDbSavedByObjectVersion
1070
     0
  0
VISUALSTYLE
  5
6154
102
{ACAD_XDICTIONARY
360
6542
102
}
102
{ACAD_REACTORS
330
6147
102
}
330
6147
100
AcDbVisualStyle
  2

 70
    13
 71
     2
 72
     2
 73
     0
 90
        0
 40
-0.6
 41
-30.0
 62
     5
 63
     7
421
 16777215
 74
     1
 91
        4
 64
     7
 65
   257
 75
     1
175
     1
 42
1.0
 92
       12
 66
     7
 43
1.0
 76
     1
 77
     6
 78
     2
 67
     7
 79
     5
170
     0
171
     0
290
     0
174
     0
 93
        1
 44
0.0
173
     0
291
     1
 45
0.0
1001
ACAD
1000
AcDbSavedByObjectVersion
1070
     0
  0
VISUALSTYLE
  5
614E
102
{ACAD_XDICTIONARY
360
6536
102
}
102
{ACAD_REACTORS
330
6147
102
}
330
6147
100
AcDbVisualStyle
  2

 70
     5
 71
     0
 72
     2
 73
     0
 90
        0
 40
-0.6
 41
-30.0
 62
     5
 63
     7
421
 16777215
 74
     1
 91
        4
 64
     7
 65
   257
 75
     1
175
     1
 42
1.0
 92
        0
 66
   257
 43
1.0
 76
     1
 77
     6
 78
     2
 67
     7
 79
     3
170
     0
171
     0
290
     0
174
     0
 93
        1
 44
0.0
173
     0
291
     0
 45
0.0
1001
ACAD
1000
AcDbSavedByObjectVersion
1070
     0
  0
VISUALSTYLE
  5
615A
102
{ACAD_XDICTIONARY
360
654E
102
}
102
{ACAD_REACTORS
330
6147
102
}
330
6147
100
AcDbVisualStyle
  2

 70
    25
 71
     2
 72
     2
 73
     1
 90
        1
 40
0.5
 41
-30.0
 62
     5
 63
     7
421
 16777215
 74
     1
 91
        0
 64
     7
 65
   257
 75
     1
175
     1
 42
1.0
 92
        8
 66
     7
 43
1.0
 76
     1
 77
     6
 78
     2
 67
     7
 79
     3
170
     0
171
     0
290
     0
174
     0
 93
       13
 44
0.0
173
     0
291
     0
 45
0.0
1001
ACAD
1000
AcDbSavedByObjectVersion
1070
     0
  0
DICTIONARYVAR
  5
61C8
102
{ACAD_REACTORS
330
170D
102
}
330
170D
100
DictionaryVariables
280
     0
  1
1:1
  0
DICTIONARYVAR
  5
61C6
102
{ACAD_REACTORS
330
170D
102
}
330
170D
100
DictionaryVariables
280
     0
  1
STANDARD
  0
DICTIONARYVAR
  5
61C5
102
{ACAD_REACTORS
330
170D
102
}
330
170D
100
DictionaryVariables
280
     0
  1
STANDARD
  0
DICTIONARYVAR
  5
170E
102
{ACAD_REACTORS
330
170D
102
}
330
170D
100
DictionaryVariables
280
     0
  1
1
  0
DICTIONARYVAR
  5
61CA
102
{ACAD_REACTORS
330
170D
102
}
330
170D
100
DictionaryVariables
280
     0
  1
1
  0
DICTIONARYVAR
  5
61CB
102
{ACAD_REACTORS
330
170D
102
}
330
170D
100
DictionaryVariables
280
     0
  1
15
  0
DICTIONARYVAR
  5
61C9
102
{ACAD_REACTORS
330
170D
102
}
330
170D
100
DictionaryVariables
280
     0
  1
0
  0
DICTIONARYVAR
  5
61C7
102
{ACAD_REACTORS
330
170D
102
}
330
170D
100
DictionaryVariables
280
     0
  1
0
  0
DICTIONARYVAR
  5
170F
102
{ACAD_REACTORS
330
170D
102
}
330
170D
100
DictionaryVariables
280
     0
  1

  0
DICTIONARY
  5
61C3
330
2C
100
AcDbDictionary
280
     1
281
     1
  3
ADSK_XREC_LAYOUTTHUMBNAIL
360
61C4
  0
DICTIONARY
  5
6138
330
6137
100
AcDbDictionary
280
     1
281
     1
  3
ACAD_XREC_ROUNDTRIP
360
64AD
  3
BUMPTILE
360
613A
  3
DIFFUSETILE
360
6139
  3
OPACITYTILE
360
613D
  3
REFLECTIONTILE
360
613C
  3
REFRACTIONTILE
360
613E
  3
SPECULARTILE
360
613B
  0
DICTIONARY
  5
6130
330
612F
100
AcDbDictionary
280
     1
281
     1
  3
ACAD_XREC_ROUNDTRIP
360
64AC
  3
BUMPTILE
360
6132
  3
DIFFUSETILE
360
6131
  3
OPACITYTILE
360
6135
  3
REFLECTIONTILE
360
6134
  3
REFRACTIONTILE
360
6136
  3
SPECULARTILE
360
6133
  0
DICTIONARY
  5
6140
330
613F
100
AcDbDictionary
280
     1
281
     1
  3
ACAD_XREC_ROUNDTRIP
360
64AE
  3
BUMPTILE
360
6142
  3
DIFFUSETILE
360
6141
  3
OPACITYTILE
360
6145
  3
REFLECTIONTILE
360
6144
  3
REFRACTIONTILE
360
6146
  3
SPECULARTILE
360
6143
  0
DICTIONARY
  5
64A9
330
6161
100
AcDbDictionary
280
     1
281
     1
  3
ACAD_ROUNDTRIP_2008_TABLESTYLE_CELLSTYLEMAP
360
6528
  0
DICTIONARY
  5
6534
330
614D
100
AcDbDictionary
280
     1
281
     1
  3
ACAD_XREC_ROUNDTRIP
360
6535
  0
DICTIONARY
  5
6532
330
614C
100
AcDbDictionary
280
     1
281
     1
  3
ACAD_XREC_ROUNDTRIP
360
6533
  0
DICTIONARY
  5
6540
330
6153
100
AcDbDictionary
280
     1
281
     1
  3
ACAD_XREC_ROUNDTRIP
360
6541
  0
DICTIONARY
  5
6548
330
6157
100
AcDbDictionary
280
     1
281
     1
  3
ACAD_XREC_ROUNDTRIP
360
6549
  0
DICTIONARY
  5
653A
330
6150
100
AcDbDictionary
280
     1
281
     1
  3
ACAD_XREC_ROUNDTRIP
360
653B
  0
DICTIONARY
  5
653E
330
6152
100
AcDbDictionary
280
     1
281
     1
  3
ACAD_XREC_ROUNDTRIP
360
653F
  0
DICTIONARY
  5
6558
330
615F
100
AcDbDictionary
280
     1
281
     1
  3
ACAD_XREC_ROUNDTRIP
360
6559
  0
DICTIONARY
  5
6546
330
6156
100
AcDbDictionary
280
     1
281
     1
  3
ACAD_XREC_ROUNDTRIP
360
6547
  0
DICTIONARY
  5
652A
330
6148
100
AcDbDictionary
280
     1
281
     1
  3
ACAD_XREC_ROUNDTRIP
360
652B
  0
DICTIONARY
  5
652C
330
6149
100
AcDbDictionary
280
     1
281
     1
  3
ACAD_XREC_ROUNDTRIP
360
652D
  0
DICTIONARY
  5
652E
330
614A
100
AcDbDictionary
280
     1
281
     1
  3
ACAD_XREC_ROUNDTRIP
360
652F
  0
DICTIONARY
  5
6530
330
614B
100
AcDbDictionary
280
     1
281
     1
  3
ACAD_XREC_ROUNDTRIP
360
6531
  0
DICTIONARY
  5
6538
330
614F
100
AcDbDictionary
280
     1
281
     1
  3
ACAD_XREC_ROUNDTRIP
360
6539
  0
DICTIONARY
  5
6554
330
615D
100
AcDbDictionary
280
     1
281
     1
  3
ACAD_XREC_ROUNDTRIP
360
6555
  0
DICTIONARY
  5
6544
330
6155
100
AcDbDictionary
280
     1
281
     1
  3
ACAD_XREC_ROUNDTRIP
360
6545
  0
DICTIONARY
  5
6556
330
615E
100
AcDbDictionary
280
     1
281
     1
  3
ACAD_XREC_ROUNDTRIP
360
6557
  0
DICTIONARY
  5
653C
330
6151
100
AcDbDictionary
280
     1
281
     1
  3
ACAD_XREC_ROUNDTRIP
360
653D
  0
DICTIONARY
  5
6552
330
615C
100
AcDbDictionary
280
     1
281
     1
  3
ACAD_XREC_ROUNDTRIP
360
6553
  0
DICTIONARY
  5
6550
330
615B
100
AcDbDictionary
280
     1
281
     1
  3
ACAD_XREC_ROUNDTRIP
360
6551
  0
DICTIONARY
  5
654A
330
6158
100
AcDbDictionary
280
     1
281
     1
  3
ACAD_XREC_ROUNDTRIP
360
654B
  0
DICTIONARY
  5
654C
330
6159
100
AcDbDictionary
280
     1
281
     1
  3
ACAD_XREC_ROUNDTRIP
360
654D
  0
DICTIONARY
  5
6542
330
6154
100
AcDbDictionary
280
     1
281
     1
  3
ACAD_XREC_ROUNDTRIP
360
6543
  0
DICTIONARY
  5
6536
330
614E
100
AcDbDictionary
280
     1
281
     1
  3
ACAD_XREC_ROUNDTRIP
360
6537
  0
DICTIONARY
  5
654E
330
615A
100
AcDbDictionary
280
     1
281
     1
  3
ACAD_XREC_ROUNDTRIP
360
654F
  0
XRECORD
  5
61C4
102
{ACAD_REACTORS
330
61C3
102
}
330
61C3
100
AcDbXrecord
280
     1
310
280000000001000079000000010008000000000000790000000000000000000000010000000000000000000000000000FFFFFF000000000000000000000000000000000000000000000000000000000000000000330000006600000099000000CC000000FF00000000330000333300006633000099330000CC330000FF3300
310
0000660000336600006666000099660000CC660000FF66000000990000339900006699000099990000CC990000FF99000000CC000033CC000066CC000099CC0000CCCC0000FFCC000000FF000033FF000066FF000099FF0000CCFF0000FFFF000000003300330033006600330099003300CC003300FF003300003333003333
310
33006633330099333300CC333300FF33330000663300336633006666330099663300CC663300FF66330000993300339933006699330099993300CC993300FF99330000CC330033CC330066CC330099CC3300CCCC3300FFCC330000FF330033FF330066FF330099FF3300CCFF3300FFFF330000006600330066006600660099
310
006600CC006600FF00660000336600333366006633660099336600CC336600FF33660000666600336666006666660099666600CC666600FF66660000996600339966006699660099996600CC996600FF99660000CC660033CC660066CC660099CC6600CCCC6600FFCC660000FF660033FF660066FF660099FF6600CCFF6600
310
FFFF660000009900330099006600990099009900CC009900FF00990000339900333399006633990099339900CC339900FF33990000669900336699006666990099669900CC669900FF66990000999900339999006699990099999900CC999900FF99990000CC990033CC990066CC990099CC9900CCCC9900FFCC990000FF99
310
0033FF990066FF990099FF9900CCFF9900FFFF99000000CC003300CC006600CC009900CC00CC00CC00FF00CC000033CC003333CC006633CC009933CC00CC33CC00FF33CC000066CC003366CC006666CC009966CC00CC66CC00FF66CC000099CC003399CC006699CC009999CC00CC99CC00FF99CC0000CCCC0033CCCC0066CC
310
CC0099CCCC00CCCCCC00FFCCCC0000FFCC0033FFCC0066FFCC0099FFCC00CCFFCC00FFFFCC000000FF003300FF006600FF009900FF00CC00FF00FF00FF000033FF003333FF006633FF009933FF00CC33FF00FF33FF000066FF003366FF006666FF009966FF00CC66FF00FF66FF000099FF003399FF006699FF009999FF00CC
310
99FF00FF99FF0000CCFF0033CCFF0066CCFF0099CCFF00CCCCFF00FFCCFF0000FFFF0033FFFF0066FFFF0099FFFF00CCFFFF00FFFFFF00000000000D0D0D001A1A1A00282828003535350043434300505050005D5D5D006B6B6B00787878008686860093939300A1A1A100AEAEAE00BBBBBB00C9C9C900D6D6D600E4E4E400
310
F1F1F100FFFFFF000000000000000000000000000000000000000000000000000000000000000000000000000000000000000000000000000000000000000000000000000000000000000000000000000000000000000000000000000000000000000000000000000000000000000000000000000000000000000000000000
310
00000000000000000000000000000000000000000000000000000000000000000000000000000000000000000000000000000000000000000000000000000000000000000000000000000000000000000000000000000000000000000000000000000000000000000000000000000000000000000000000000000000000000
310
00000000000000000000000000000000000000000000000000000000000000000000000000000000000000000000000000000000000000000000000000000000000000000000000000000000000000000000000000000000000000000000000000000000000000000000000000000000000000000000000000000000000000
310
00000000000000000000000000000000000000000000000000000000000000000000000000000000000000000000000000000000000000000000000000000000000000000000000000000000000000000000000000000000000000000000000000000000000000000000000000000000000000000000000000000000000000
310
00000000000000000000000000000000000000000000000000000000000000000000000000000000000000000000000000000000000000000000000000000000000000000000000000000000000000000000000000000000000000000000000000000000000000000000000000000000000000000000000000000000000000
310
00000000000000000000000000000000F5F5F5000000000000000000000000000000000000000000000000000000000000000000000000000000000000000000000000000000000000000000000000000000000000000000000000000000000000000000000000000000000000000000000000000000000000000000000000
310
00000000000000000000000000000000000000000000000000000000000000000000000000000000000000000000000000000000000000000000000000000000000000000000000000000000000000000000000000000000000000000000000000000000000000000000000000000000000000000000000000000000000000
310
000000000000000000000000000000000000F5F5F5F5F5F5F5F5F5F5F5F5F5F5F5F5F5F5F5F5F5F5F5F5F5F5F5F5F5F5F5F5F5F5F5F5F5F5F5F5F5F5F5F5F5F5F5F5F5F5F5F5F5F5F5F5F5F5F5F5F5F5F5F5F5F5F5F5F5F5F5F5F5F50000000000000000000000000000000000000000000000000000000000000000000000
310
00000000000000000000000000000000000000000000000000000000000000000000000000000000000000000000000000000000000000000000000000000000000000000000000000000000000000000000000000000000000000000000000000000000000000000000000000000000000000000000000000000000000000
310
0000000000000000000000000000000000000000F5F5F5000000000000000000000000000000000000000000000000000000000000000000F5000000000000F5F5F5F5F5F5F5F5F5F5F5F5F5F5F5F5F5F5F5F5F5F5F5F5000000000000F5000000000000000000000000000000000000000000000000000000000000000000
310
00000000000000000000000000000000000000000000000000000000000000000000000000000000000000000000000000000000000000000000000000000000000000000000000000000000000000000000000000000000000000000000000000000000000000000000000000000000000000000000000000000000000000
310
00000000000000000000000000000000000000000000F5F5F5000000000000000000000000000000000000000000000000000000000000000000F5000000000000F5F5F5F5F5F5F5F5F5F5F5F5F5F5F5F5F5F5F5F5F5F5F5F5000000000000F500000000000000000000000000000000000000000000000000000000000000
310
00000000000000000000000000000000000000000000000000000000000000000000000000000000000000000000000000000000000000000000000000000000000000000000000000000000000000000000000000000000000000000000000000000000000000000000000000000000000000000000000000000000000000
310
000000000000000000000000000000000000000000000000F5F5F5000000000000000000000000000000000000000000000000000000000000000000F5F5F50000000000000000F5F5F5F5F5F5F5F5F5F5F5F5F5F5F5F5F5F5F5F5000000000000F50000000000000000000000000000000000000000000000000000000000
310
00000000000000000000000000000000000000000000000000000000000000000000000000000000000000000000000000000000000000000000000000000000000000000000000000000000000000000000000000000000000000000000000000000000000000000000000000000000000000000000000000000000000000
310
0000000000000000000000000000000000000000000000000000F5F5F5F5F5F5F5F5F5F5F5F5F5F5F5F5F5F5F5F5F5F5F5F5F5F5F5F5F5F5F5F5F5F5F5F5F5F5F5F5F5F5F5F5F5F5F5F5F5F5F5F5F5F5F5F5F5F5F5F5F5F5F5F5F5F5F5F5F5F5F5F5F5F5000000000000000000000000000000000000000000000000000000
310
00000000000000000000000000000000000000000000000000000000000000000000000000000000000000000000000000000000000000000000000000000000000000000000000000000000000000000000000000000000000000000000000000000000000000000000000000000000000000000000000000000000000000
310
00000000000000000000000000000000000000000000000000000000F5F5F5000000000000000000000000000000000000000000000000000000000000000000F5F5F5F5F5F5F5F5F5F5F5F5F5F5F5F5F5F5F5F5F5F5F5F5F5F5F5F5F5F5F5000000000000F500000000000000000000000000000000000000000000000000
310
00000000000000000000000000000000000000000000000000000000000000000000000000000000000000000000000000000000000000000000000000000000000000000000000000000000000000000000000000000000000000000000000000000000000000000000000000000000000000000000000000000000000000
310
000000000000000000000000000000000000000000000000000000000000F5F5F5000000000000000000000000000000000000000000000000000000000000000000F5F5F5F5F5F5F5F5F5F5F5F5F5F5F5F5F5F5F5F5F5F5F5F5F5F5F5F5F5F5F5000000000000F50000000000000000000000000000000000000000000000
310
00000000000000000000000000000000000000000000000000000000000000000000000000000000000000000000000000000000000000000000000000000000000000000000000000000000000000000000000000000000000000000000000000000000000000000000000000000000000000000000000000000000000000
310
0000000000000000000000000000000000000000000000000000000000000000F5F5F5000000000000000000F5F5F5000000000000F5F5000000000000F5F50000000000F5F5F5F5000000000000000000000000000000000000000000000000000000000000000000F5000000000000000000000000000000000000000000
310
00000000000000000000000000000000000000000000000000000000000000000000000000000000000000000000000000000000000000000000000000000000000000000000000000000000000000000000000000000000000000000000000000000000000000000000000000000000000000000000000000000000000000
310
00000000000000000000000000000000000000000000000000000000000000000000F5F5F5F5F5F5F5F5F5F5F5F5F5F5F5F5F5F5F5F5F5F5F5F5F5F5F5F5F5F5F5F5F5F5F5F5F5F5F5F5F5F5F5F5F5F5F5F5F5F5F5F5F5F5F5F5F5F5F5F5F5F5F5F5F5F5F5F5F5F5F5F5F5F500000000000000000000000000000000000000
310
00000000000000000000000000000000000000000000000000000000000000000000000000000000000000000000000000000000000000000000000000000000000000000000000000000000000000000000000000000000000000000000000000000000000000000000000000000000000000000000000000000000000000
310
000000000000000000000000000000000000000000000000000000000000000000000000F5F5F5F5F5F5F5F5F5F5F500F5F5F500F5F50000F5F5F500F5F5F500F5F5F500F5F5F500F5F5F5F5F5F5F5F5F5F5F5F5F5F5F5F5F5F5F5000000000000000000000000000000000000F50000000000000000000000000000000000
310
00000000000000000000000000000000000000000000000000000000000000000000000000000000000000000000000000000000000000000000000000000000000000000000000000000000000000000000000000000000000000000000000000000000000000000000000000000000000000000000000000000000000000
310
0000000000000000000000000000000000000000000000000000000000000000000000000000F5F5F5F5F5F5F5F5F5F5F500F5F5F500F5F50000F5F5F500F5F5F500F5F5F500F5F5F500F5F5F5F5F5F5F5F5F5F5F5F5F5F5F5F5F5F5F5000000000000000000000000000000000000F5000000000000000000000000000000
310
00000000000000000000000000000000000000000000000000000000000000000000000000000000000000000000000000000000000000000000000000000000000000000000000000000000000000000000000000000000000000000000000000000000000000000000000000000000000000000000000000000000000000
310
00000000000000000000000000000000000000000000000000000000000000000000000000000000F5F5F5000000000000000000F5F5F50000000000F5F5F50000000000F5F5F50000000000F5F5F5F5000000000000000000000000000000000000000000000000000000000000000000F500000000000000000000000000
310
00000000000000000000000000000000000000000000000000000000000000000000000000000000000000000000000000000000000000000000000000000000000000000000000000000000000000000000000000000000000000000000000000000000000000000000000000000000000000000000000000000000000000
310
000000000000000000000000000000000000000000000000000000000000000000000000000000000000F5F5F5F5F5F5F5F5F5F5F5F5F5F5F5F5F5F5F5F5F5F5F5F5F5F5F5F5F5F5F5F5F5F5F5F5F5F5F5F5F5F5F5F5F5F5F5F5F5F5F5F5F5F5F5F5F5F5F5F5F5F5F5F5F5F5F5F5F5F5F5F5F5F50000000000000000000000
310
00000000000000000000000000000000000000000000000000000000000000000000000000000000000000000000000000000000000000000000000000000000000000000000000000000000000000000000000000000000000000000000000000000000000000000000000000000000000000000000000000000000000000
310
0000000000000000000000000000000000000000000000000000000000000000000000000000000000000000F50028282800282828282828282828282828282828282828282828000000000000000000000000000000000000000000002D000000000000000000002D000000000000000000000000F5000000000000000000
310
00000000000000000000000000000000000000000000000000000000000000000000000000000000000000000000000000000000000000000000000000000000000000000000000000000000000000000000000000000000000000000000000000000000000000000000000000000000000000000000000000000000000000
310
00000000000000000000000000000000000000000000000000000000000000000000000000000000000000000000F500282828002800282828282828282828282828282828282828280000000000000000000000000000000000000000002D2D2D2D2D2D2D2D2D2D2D2D2D2D0000000000000000000000F500000000000000
310
00000000000000000000000000000000000000000000000000000000000000000000000000000000000000000000000000000000000000000000000000000000000000000000000000000000000000000000000000000000000000000000000000000000000000000000000000000000000000000000000000000000000000
310
000000000000000000000000000000000000000000000000000000000000000000000000000000000000000000000000F500282828002800282828282828282828282828280028280028000000000000000000000000000000000000000000002D000000002D2D2D2D000000002D0000000000000000000000F50000000000
310
00000000000000000000000000000000000000000000000000000000000000000000000000000000000000000000000000000000000000000000000000000000000000000000000000000000000000000000000000000000000000000000000000000000000000000000000000000000000000000000000000000000000000
310
0000000000000000000000000000000000000000000000000000000000000000000000000000000000000000000000000000F500000000002828282828282828282828282828280028282828282828282828282828282828280000000000000000002D0000000000F52D2D000000002D0000000000000000000000F5000000
310
00000000000000000000000000000000000000000000000000000000000000000000000000000000000000000000000000000000000000000000000000000000000000000000000000000000000000000000000000000000000000000000000000000000000000000000000000000000000000000000000000000000000000
310
00000000000000000000000000000000000000000000000000000000000000000000000000000000000000000000000000000000F500000000002828280000282828282828282828002828282828282828282828282828282828000000000000000000002D0000F5F5F5F5F5F5F52D2D2D2D2D2D2D2D2D000000000000F500
310
00000000000000000000000000000000000000000000000000000000000000000000000000000000000000000000000000000000000000000000000000000000000000000000000000000000000000000000000000000000000000000000000000000000000000000000000000000000000000000000000000000000000000
310
000000000000000000000000000000000000000000000000000000000000000000000000000000000000000000000000000000000000F500000000002828282828282828282828282828280028282828282828282828282828282828280000000000000000002D0000F50000F5000000F500002D000000002D2D0000000000
310
F5000000000000000000000000000000000000000000000000000000000000000000000000000000000000000000000000000000000000000000000000000000000000000000000000000000000000000000000000000000000000000000000000000000000000000000000000000000000000000000000000000000000000
310
0000000000000000000000000000000000000000000000000000000000000000000000000000000000000000000000000000000000000000F500000000002828282828282828282828282828002828282828282828282828282828282828000000000000000000002D0000F50000F5000000F500002D000000002D00000000
310
0000F500000000000000000000000000000000000000000000000000000000000000000000000000000000000000000000000000000000000000000000000000000000000000000000000000000000000000000000000000000000000000000000000000000000000000000000000000000000000000000000000000000000
310
00000000000000000000000000000000000000000000000000000000000000000000000000000000000000000000000000000000000000000000F500000000002828282828282800002828282828000028280000002828282828282800002800000000002D2D2D2D2D2D2D2D2D2D2D2D2D2D2D2D2D2D2D2D000000002D0000
310
00000000F50000000000000000000000000000000000000000000000000000000000000000000000000000000000000000000000000000000000000000000000000000000000000000000000000000000000000000000000000000000000000000000000000000000000000000000000000000000000000000000000000000
310
000000000000000000000000000000000000000000000000000000000000000000000000000000000000000000000000000000000000000000000000F50000000000000000000000000000000000000000000000000000000000000000000000000000000000002D2D2D2D002D00002D0000F50000002D00002D000000002D
310
000000000000F5000000000000000000000000000000000000000000000000000000000000000000000000000000000000000000000000000000000000000000000000000000000000000000000000000000000000000000000000000000000000000000000000000000000000000000000000000000000000000000000000
310
0000000000000000000000000000000000000000000000000000000000000000000000000000000000000000000000000000000000000000000000000000F50000000000000000BEBEBEBE0000000000000000000000000000000000000000000000000000000000002D2D2D00002D00002D0000F50000002D00002D000000
310
002D000000000000F500000000000000000000000000000000000000000000000000000000000000000000000000000000000000000000000000000000000000000000000000000000000000000000000000000000000000000000000000000000000000000000000000000000000000000000000000000000000000000000
310
00000000000000000000000000000000000000000000000000000000000000000000000000000000000000000000000000000000000000000000000000000000F5000000000000BEBE00000000BEBE0000000000000000000000000000000000000000000000000000000000000000002DF5F52DF5F5F5F5F5F52DF5F52D00
310
0000002D000000000000F50000000000000000000000000000000000000000000000000000000000000000000000000000000000000000000000000000000000000000000000000000000000000000000000000000000000000000000000000000000000000000000000000000000000000000000000000000000000000000
310
000000000000000000000000000000000000000000000000000000000000000000000000000000000000000000000000000000000000000000000000000000000000F50000000000BE0000000000000000BE0000000000000000000000000000000000000000000000000000000000000000F50000000000F5000000000000
310
F5000000002D000000000000F5000000000000000000000000000000000000000000000000000000000000000000000000000000000000000000000000000000000000000000000000000000000000000000000000000000000000000000000000000000000000000000000000000000000000000000000000000000000000
310
0000000000000000000000000000000000000000000000000000000000000000000000000000000000000000000000000000000000000000000000000000000000000000F500000000BEBEBEBEBEBEBEBEBEBEBEBE00000000000000000000000000000000000000000000000000000000000000F50000000000F500000000
310
0000F5000000002D000000000000F500000000000000000000000000000000000000000000000000000000000000000000000000000000000000000000000000000000000000000000000000000000000000000000000000000000000000000000000000000000000000000000000000000000000000000000000000000000
310
00000000000000000000000000000000000000000000000000000000000000000000000000000000000000000000000000000000000000000000000000000000000000000000F500000000BEBEBEBEBEBEBEBEBEBE00BE00000000000000000000000000000000000000000000000000000000000000F50000000000F50000
310
000000F5F5000000002D000000000000F50000000000000000000000000000000000000000000000000000000000000000000000000000000000000000000000000000000000000000000000000000000000000000000000000000000000000000000000000000000000000000000000000000000000000000000000000000
310
000000000000000000000000000000000000000000000000000000000000000000000000000000000000000000000000000000000000000000000000000000000000000000000000F5000000BEBEBEBEBEBEBEBEBEBEBEBEBE0000000000000000000000000000000000000000000000000000000000000000F5F5F5F5F5F5
310
F5F5F5F5F5F500000000002D000000000000F5000000000000000000000000000000000000000000000000000000000000000000000000000000000000000000000000000000000000000000000000000000000000000000000000000000000000000000000000000000000000000000000000000000000000000000000000
310
0000000000000000000000000000000000000000000000000000000000000000000000000000000000000000000000000000000000000000000000000000000000000000000000000000F5000000BE0000BEBEBEBEBEBEBE0000BEBE000000000000002D0000000000000000000000002D002D00000000000000000000F500
310
2DF5000000F5000000000000002D000000000000F500000000000000000000000000000000000000000000000000000000000000000000000000000000000000000000000000000000000000000000000000000000000000000000000000000000000000000000000000000000000000000000000000000000000000000000
310
00000000000000000000000000000000000000000000000000000000000000000000000000000000000000000000000000000000000000000000000000000000000000000000000000000000F5000000BEBEBEBEBEBEBEBEBEBEBEBEBE000000000000002D2D2D2D2D2D2D2D2D2D2D2D2D2D2D2D2D2D2D2D2D2D2D2D2D2D2D
310
2D2D2D2D000000F5000000000000002D000000000000F50000000000000000000000000000000000000000000000000000000000000000000000000000000000000000000000000000000000000000000000000000000000000000000000000000000000000000000000000000000000000000000000000000000000000000
310
000000000000000000000000000000000000000000000000000000000000000000000000000000000000000000000000000000000000000000000000000000000000000000000000000000000000F500000000BE00BEBEBEBEBEBEBE0000BE000000000000002D00000000002D2D2D2D00000000002D00000000002D002D2D
310
0000F500002D000000F5000000000000002D000000000000F5000000000000000000000000000000000000000000000000000000000000000000000000000000000000000000000000000000000000000000000000000000000000000000000000000000000000000000000000000000000000000000000000000000000000
310
0000000000000000000000000000000000000000000000000000000000000000000000000000000000000000000000000000000000000000000000000000000000000000000000000000000000000000F500000000BE00BEBEBEBEBEBEBE0000BE000000000000002D00000000002D2D2D2D00000000002D00000000002D2D
310
2D2D0000F50000F5000000F5000000000000002D000000000000F500000000000000000000000000000000000000000000000000000000000000000000000000000000000000000000000000000000000000000000000000000000000000000000000000000000000000000000000000000000000000000000000000000000
310
00000000000000000000000000000000000000000000000000000000000000000000000000000000000000000000000000000000000000000000000000000000000000000000000000000000000000000000F50000000000BEBEBEBEBEBEBEBE00BE00000000000000002D00000000000000000000000000002D0000000000
310
000000000000F50000F5000000F5000000000000002D000000000000F50000000000000000000000000000000000000000000000000000000000000000000000000000000000000000000000000000000000000000000000000000000000000000000000000000000000000000000000000000000000000000000000000000
310
000000000000000000000000000000000000000000000000000000000000000000000000000000000000000000000000000000000000000000000000000000000000000000000000000000000000000000000000F50000000000BEBE000000000000BEBE00000000000000002D000000F5F5F5F5F5F5F5000000002D000000
310
0000000000000000F50000F5000000F5000000000000002D000000000000F5000000000000000000000000000000000000000000000000000000000000000000000000000000000000000000000000000000000000000000000000000000000000000000000000000000000000000000000000000000000000000000000000
310
0000000000000000000000000000000000000000000000000000000000000000000000000000000000000000000000000000000000000000000000000000000000000000000000000000000000000000000000000000F500000000000000BEBEBEBEBEBE000000000000000000002D00F5F500000000000000F5F5F5002D00
310
00000000000000000000F50000F5000000F500000000002D2D2D000000000000F500000000000000000000000000000000000000000000000000000000000000000000000000000000000000000000000000000000000000000000000000000000000000000000000000000000000000000000000000000000000000000000
310
00000000000000000000000000000000000000000000000000000000000000000000000000000000000000000000000000000000000000000000000000000000000000000000000000000000000000000000000000000000F500000000000000000000000000000000000000000000002DF50000000000000000000000F5F5
310
2D0000000000000000000000F50000F5000000F500000000002D2D2D000000000000F50000000000000000000000000000000000000000000000000000000000000000000000000000000000000000000000000000000000000000000000000000000000000000000000000000000000000000000000000000000000000000
310
000000000000000000000000000000000000000000000000000000000000000000000000000000000000000000000000000000000000000000000000000000000000000000000000000000000000000000000000000000000000F5000000000000000000000000002D2D2D2D2D2D2D2D2D2D2D2D2D2D2D2D2D2D2D2D2D2D2D
310
2D2D2D2D2D2D2D2D2D2D2D2D2D2D2D2D2D2D2D2D2D2D2D2D2D2D002D2D2D000000000000F5000000000000000000000000000000000000000000000000000000000000000000000000000000000000000000000000000000000000000000000000000000000000000000000000000000000000000000000000000000000000
310
0000000000000000000000000000000000000000000000000000000000000000000000000000000000000000000000000000000000000000000000000000000000000000000000000000000000000000000000000000000000000000F5000000000000000000000000002D0000000000000000F52D0000F5F50000000000F5
310
F5F500002DF500000000000000000000F5F5F5F5000000F50000002D2D2D2D2D000000000000F500000000000000000000000000000000000000000000000000000000000000000000000000000000000000000000000000000000000000000000000000000000000000000000000000000000000000000000000000000000
310
00000000000000000000000000000000000000000000000000000000000000000000000000000000000000000000000000000000000000000000000000000000000000000000000000000000000000000000000000000000000000000000F5000000000000000000000000002D00000000000000F5002D00F5F50000000000
310
000000F5F5002D00F5000000000000000000F5F5F5F5F5F5F5F50000002D002D2D2D000000000000F50000000000000000000000000000000000000000000000000000000000000000000000000000000000000000000000000000000000000000000000000000000000000000000000000000000000000000000000000000
310
000000000000000000000000000000000000000000000000000000000000000000000000000000000000000000000000000000000000000000000000000000000000000000000000000000000000000000000000000000000000000000000000F5000000000000000000000000002D000000000000F500002DF5F5000000F5
310
F5F5F5000000F5F52D00F500000000000000000000F5F5F5F5F5F5000000002D0000002D000000000000F5000000000000000000000000000000000000000000000000000000000000000000000000000000000000000000000000000000000000000000000000000000000000000000000000000000000000000000000000
310
0000000000000000000000000000000000000000000000000000000000000000000000000000000000000000000000000000000000000000000000000000000000000000000000000000000000000000000000000000000000000000000000000000F5000000000000000000000000002D000000000000F500002DF5000000
310
F5000000F5F5000000F52D0000F50000000000000000F5F500F5F5F5F5F50000002D0000002D000000000000F500000000000000000000000000000000000000000000000000000000000000000000000000000000000000000000000000000000000000000000000000000000000000000000000000000000000000000000
310
00000000000000000000000000000000000000000000000000000000000000000000000000000000000000000000000000000000000000000000000000000000000000000000000000000000000000000000000000000000000000000000000000000000F5000000000000000000000000002D000000000000F500002D0000
310
00F50000000000F5F50000F52D0000F50000000000000000F50000F5000000F50000002D0000002D000000000000F50000000000000000000000000000000000000000000000000000000000000000000000000000000000000000000000000000000000000000000000000000000000000000000000000000000000000000
310
000000000000000000000000000000000000000000000000000000000000000000000000000000000000000000000000000000000000000000000000000000000000000000000000000000000000000000000000000000000000000000000000000000000000F5000000000000000000000000002D0000000000F50000002D
310
0000F500000000000000F5F500002D0000F50000000000000000F50000F5000000F50000002D0000002D000000000000F5000000000000000000000000000000000000000000000000000000000000000000000000000000000000000000000000000000000000000000000000000000000000000000000000000000000000
310
0000000000000000000000000000000000000000000000000000000000000000000000000000000000000000000000000000000000000000000000000000000000000000000000000000000000000000000000000000000000000000000000000000000000000000F5000000000000000000000000002D0000000000F50000
310
002D0000F50000000000000000F500002D0000F50000000000000000F50000F5000000F50000002D0000002D000000000000F500000000000000000000000000000000000000000000000000000000000000000000000000000000000000000000000000000000000000000000000000000000000000000000000000000000
310
00000000000000000000000000000000000000000000000000000000000000000000000000000000000000000000000000000000000000000000000000000000000000000000000000000000000000000000000000000000000000000000000000000000000000000000F5000000000000000000000000002D0000000000F5
310
0000002D0000F500000000000000F5F5F5F52DF5F5F5F5F5000000000000F50000F5000000F5002D2D2D0000002D000000000000F50000000000000000000000000000000000000000000000000000000000000000000000000000000000000000000000000000000000000000000000000000000000000000000000000000
310
000000000000000000000000000000000000000000000000000000000000000000000000000000000000000000000000000000000000000000000000000000000000000000000000000000000000000000000000000000000000000000000000000000000000000000000000F5000000000000000000000000002D00000000
310
00F5000000F50000F5000000000000F5F5F5F5F5F500F5F500F5000000000000F50000F5000000F5002D2D2D0000002D000000000000F5000000000000000000000000000000000000000000000000000000000000000000000000000000000000000000000000000000000000000000000000000000000000000000000000
310
0000000000000000000000000000000000000000000000000000000000000000000000000000000000000000000000000000000000000000000000000000000000000000000000000000000000000000000000000000000000000000000000000000000000000000000000000000F5000000000000000000000000002D0000
310
000000F5000000F50000F5000000000000F5F5F5F5F5F5F5F5F5F5F5000000000000F50000F5000000F5002D2D2D0000002D000000000000F500000000000000000000000000000000000000000000000000000000000000000000000000000000000000000000000000000000000000000000000000000000000000000000
310
00000000000000000000000000000000000000000000000000000000000000000000000000000000000000000000000000000000000000000000000000000000000000000000000000000000000000000000000000000000000000000000000000000000000000000000000000000000F500000000000000000000002D2D2D
310
0000000000F5000000F50000F50000000000002DF5F5F5F5F5F5F5F5F52D000000000000F50000F5000000F5002D2D2D0000002D000000000000F50000000000000000000000000000000000000000000000000000000000000000000000000000000000000000000000000000000000000000000000000000000000000000
310
000000000000000000000000000000000000000000000000000000000000000000000000000000000000000000000000000000000000000000000000000000000000000000000000000000000000000000000000000000000000000000000000000000000000000000000000000000000000F500000000000000000000002D
310
2D2D0000000000F5000000F50000F50000000000002D00F50000F50000F5002D000000000000F50000F5000000F50000002D0000002D000000000000F5000000000000000000000000000000000000000000000000000000000000000000000000000000000000000000000000000000000000000000000000000000000000
310
0000000000000000000000000000000000000000000000000000000000000000000000000000000000000000000000000000000000000000000000000000000000000000000000000000000000000000000000000000000000000000000000000000000000000000000000000000000000000000F500000000000000000000
310
002D2D2D0000000000F5000000F50000F50000000000002D00F50000F5000000F52D000000000000F50000F50000F5000000002D0000002D000000000000F500000000000000000000000000000000000000000000000000000000000000000000000000000000000000000000000000000000000000000000000000000000
310
00000000000000000000000000000000000000000000000000000000000000000000000000000000000000000000000000000000000000000000000000000000000000000000000000000000000000000000000000000000000000000000000000000000000000000000000000000000000000000000F50000000000000000
310
0000002D2D2D0000000000F5000000F50000F50000000000002D00F5000000F50000F5F50000000000F5000000F50000F5000000002D0000002D000000000000F50000000000000000000000000000000000000000000000000000000000000000000000000000000000000000000000000000000000000000000000000000
310
000000000000000000000000000000000000000000000000000000000000000000000000000000000000000000000000000000000000000000000000000000000000000000000000000000000000000000000000000000000000000000000000000000000000000000000000000000000000000000000000F5000000000000
310
00000000002D2D2D0000000000F5F5F5F5F5F5F5F50000000000002D00F5F50000F5000000F5F5F5F5F5F5000000F5F50000F5000000002D0000002D000000000000F5000000000000000000000000000000000000000000000000000000000000000000000000000000000000000000000000000000000000000000000000
310
0000000000000000000000000000000000000000000000000000000000000000000000000000000000000000000000000000000000000000000000000000000000000000000000000000000000000000000000000000000000000000000000000000000000000000000000000000000000000000000000000000F500000000
310
0000000000000000002D00002D2D2D2D000000F50000F50000000000002D0000F5000000F500002D00000000000000F5F50000F500000000002D0000002D000000000000F500000000000000000000000000000000000000000000000000000000000000000000000000000000000000000000000000000000000000000000
310
00000000000000000000000000000000000000000000000000000000000000000000000000000000000000000000000000000000000000000000000000000000000000000000000000000000000000000000000000000000000000000000000000000000000000000000000000000000000000000000000000000000F50000
310
00000000000000000000002D00002D2D00F5000000F50000F50000000000002D000000F5000000F5F52D000000000000F5F50000F5F500000000002D2D00002D2D0000000000F50000000000000000000000000000000000000000000000000000000000000000000000000000000000000000000000000000000000000000
310
000000000000000000000000000000000000000000000000000000000000000000000000000000000000000000000000000000000000000000000000000000000000000000000000000000000000000000000000000000000000000000000000000000000000000000000000000000000000000000000000000000000000F5
310
000000000000000000000000002D00002D0000F5000000F50000F50000000000002D000000F500000000F5F5F50000F5F5F500000000F50000000000002D2D00002D2D0000000000F5000000000000000000000000000000000000000000000000000000000000000000000000000000000000000000000000000000000000
310
00000000000000000000000000000000000000000000000000000000000000000000000000000000000000000000000000000000000000000000000000000000000000000000000000000000000000000000000000000000000000000000000000000000000000000000000000000000000000000000000000000000000000
310
00F5000000000000000000000000002D00002D0000F5000000F50000F50000000000002D00000000F5F50000002D00F52D2D2D2D2D2D2D2D2D2D2D2D2D2D2D2D2D2D2D2D000000000000F500000000000000000000000000000000000000000000000000000000000000000000000000000000000000000000000000000000
310
00000000000000000000000000000000000000000000000000000000000000000000000000000000000000000000000000000000000000000000000000000000000000000000000000000000000000000000000000000000000000000000000000000000000000000000000000000000000000000000000000000000000000
310
000000F5000000000000000000000000002D00002D0000F5000000F50000F50000000000002D0000000000F5F500002D00000000000000F5F500000000000000000000000000000000000000F50000000000000000000000000000000000000000000000000000000000000000000000000000000000000000000000000000
310
00000000000000000000000000000000000000000000000000000000000000000000000000000000000000000000000000000000000000000000000000000000000000000000000000000000000000000000000000000000000000000000000000000000000000000000000000000000000000000000000000000000000000
310
0000000000F500000000000000000000002D2D2D2D2D2D2D2DF5F5F5F5F5F5F52D2D2D2D2D2D2D2D2D2D0000000000F5F5F50000000000F5F5000000000000000000000000000000000000000000F5000000000000000000000000000000000000000000000000000000000000000000000000000000000000000000000000
310
00000000000000000000000000000000000000000000000000000000000000000000000000000000000000000000000000000000000000000000000000000000000000000000000000000000000000000000000000000000000000000000000000000000000000000000000000000000000000000000000000000000000000
310
00000000000000F5000000000000000000002D2D002D2D2D2D0000F5000000F50000F5002D2D2D00002D002D2D000000000000F5F5F5F5F5F50000000000000000000000000000000000000000000000F500000000000000000000000000000000000000000000000000000000000000000000000000000000000000000000
310
00000000000000000000000000000000000000000000000000000000000000000000000000000000000000000000000000000000000000000000000000000000000000000000000000000000000000000000000000000000000000000000000000000000000000000000000000000000000000000000000000000000000000
310
000000000000000000F500000000000000000000002D002D2D2D2D0000F5000000F50000F5002D2D2D00002D002D000000000000002D00000000000000000000000000000000000000000000000000000000F50000000000000000000000000000000000000000000000000000000000000000000000000000000000000000
310
00000000000000000000000000000000000000000000000000000000000000000000000000000000000000000000000000000000000000000000000000000000000000000000000000000000000000000000000000000000000000000000000000000000000000000000000000000000000000000000000000000000000000
310
0000000000000000000000F500000000000000000000002D002D2D2D2D0000F5000000F50000F500002D2D00002D2D2D2D2D2D2D2D2D2D2D00000000000000000000000000000000000000000000000000000000F5000000000000000000000000000000000000000000000000000000000000000000000000000000000000
310
00000000000000000000000000000000000000000000000000000000000000000000000000000000000000000000000000000000000000000000000000000000000000000000000000000000000000000000000000000000000000000000000000000000000000000000000000000000000000000000000000000000000000
310
00000000000000000000000000F500000000000000000000002D002D00002D2DF5F5F5F5F5F5F5F5F5F52D2D2D000000002D002D2D2D2D2D2D2D2D2D0000000000000000000000000000000000000000000000000000F500000000000000000000000000000000000000000000000000000000000000000000000000000000
310
00000000000000000000000000000000000000000000000000000000000000000000000000000000000000000000000000000000000000000000000000000000000000000000000000000000000000000000000000000000000000000000000000000000000000000000000000000000000000000000000000000000000000
310
000000000000000000000000000000F500000000000000000000002D002D2D2D2D2D2DF5F5F500F5F5F5F5F52D2D2D000000002D002D2D2D2D2D2D002D2D0000000000000000000000000000000000000000000000000000F50000000000000000000000000000000000000000000000000000000000000000000000000000
310
00000000000000000000000000000000000000000000000000000000000000000000000000000000000000000000000000000000000000000000000000000000000000000000000000000000000000000000000000000000000000000000000000000000000000000000000000000000000000000000000000000000000000
310
0000000000000000000000000000000000F500000000000000000000002D000000000000F5F5F5F5F5F5F5F5F5F5002D2D000000002D00000000000000000000000000002D2D2D2D2D2D2D2D0000000000000000000000000000F5000000000000000000000000000000000000000000000000000000000000000000000000
310
00000000000000000000000000000000000000000000000000000000000000000000000000000000000000000000000000000000000000000000000000000000000000000000000000000000000000000000000000000000000000000000000000000000000000000000000000000000000000000000000000000000000000
310
00000000000000000000000000000000000000F500000000000000000000002D000000000000F5F5F5F5F5F5F5F52D2D2D2D2D2D0000002D00000000000000000000000000002D2D2D2D2D2D2D2D0000000000000000000000000000F500000000000000000000000000000000000000000000000000000000000000000000
310
00000000000000000000000000000000000000000000000000000000000000000000000000000000000000000000000000000000000000000000000000000000000000000000000000000000000000000000000000000000000000000000000000000000000000000000000000000000000000000000000000000000000000
310
000000000000000000000000000000000000000000F500000000000000000000002D00000000000000F5000000F50000F50000000000002D2D2D000000000000000000000000002D002D00002D2D2D000000000000000000000000000000F50000000000000000000000000000000000000000000000000000000000000000
310
00000000000000000000000000000000000000000000000000000000000000000000000000000000000000000000000000000000000000000000000000000000000000000000000000000000000000000000000000000000000000000000000000000000000000000000000000000000000000000000000000000000000000
310
0000000000000000000000000000000000000000000000F500000000000000000000002D00000000000000F5000000F50000F50000000000002D2D2D000000000000000000000000002D00000000000000000000000000000000000000000000F5000000000000000000000000000000000000000000000000000000000000
310
00000000000000000000000000000000000000000000000000000000000000000000000000000000000000000000000000000000000000000000000000000000000000000000000000000000000000000000000000000000000000000000000000000000000000000000000000000000000000000000000000000000000000
310
00000000000000000000000000000000000000000000000000F500000000000000000000002D00000000000000F5000000F50000F50000000000002D2D2D000000000000000000000000002D00000000000000000000000000000000000000000000F500000000000000000000000000000000000000000000000000000000
310
00000000000000000000000000000000000000000000000000000000000000000000000000000000000000000000000000000000000000000000000000000000000000000000000000000000000000000000000000000000000000000000000000000000000000000000000000000000000000000000000000000000000000
310
000000000000000000000000000000000000000000000000000000F500000000000000000000002D00000000000000F5000000F50000F50000000000002D2D2D0000000000000000000000002D0000000000000000000000000000000000000000000000F50000000000000000000000000000000000000000000000000000
310
00000000000000000000000000000000000000000000000000000000000000000000000000000000000000000000000000000000000000000000000000000000000000000000000000000000000000000000000000000000000000000000000000000000000000000000000000000000000000000000000000000000000000
310
0000000000000000000000000000000000000000000000000000000000F500000000000000000000002D00000000000000F5000000F50000F500000000000000002D00000000000000F5F5F5F5F52D2DF5F5F500000000000000000000000000000000000000F5000000000000000000000000000000000000000000000000
310
00000000000000000000000000000000000000000000000000000000000000000000000000000000000000000000000000000000000000000000000000000000000000000000000000000000000000000000000000000000000000000000000000000000000000000000000000000000000000000000000000000000000000
310
00000000000000000000000000000000000000000000000000000000000000F500000000000000000000002D00000000000000F5000000F50000F500000000000000002D000000000000F5F5F5F5F5F5F5F5F5F5F5F5F50000000000000000000000000000000000F500000000000000000000000000000000000000000000
310
00000000000000000000000000000000000000000000000000000000000000000000000000000000000000000000000000000000000000000000000000000000000000000000000000000000000000000000000000000000000000000000000000000000000000000000000000000000000000000000000000000000000000
310
000000000000000000000000000000000000000000000000000000000000000000F500000000000000000000002D00000000000000F5000000F50000F500000000000000002D0000000000F5F5F5000000000000000000F5F5F500000000000000000000000000000000F50000000000000000000000000000000000000000
310
00000000000000000000000000000000000000000000000000000000000000000000000000000000000000000000000000000000000000000000000000000000000000000000000000000000000000000000000000000000000000000000000000000000000000000000000000000000000000000000000000000000000000
310
0000000000000000000000000000000000000000000000000000000000000000000000F500000000000000000000002D00000000000000F5000000F50000F500000000000000002D0000000000F5F5000000000000000000000000F5F5000000000000000000000000000000F5000000000000000000000000000000000000
310
00000000000000000000000000000000000000000000000000000000000000000000000000000000000000000000000000000000000000000000000000000000000000000000000000000000000000000000000000000000000000000000000000000000000000000000000000000000000000000000000000000000000000
310
00000000000000000000000000000000000000000000000000000000000000000000000000F500000000000000000000002D00000000000000F5000000F50000F500000000000000002D00000000F5F5F5000000000000000000000000F5F5000000000000000000000000000000F500000000000000000000000000000000
310
00000000000000000000000000000000000000000000000000000000000000000000000000000000000000000000000000000000000000000000000000000000000000000000000000000000000000000000000000000000000000000000000000000000000000000000000000000000000000000000000000000000000000
310
000000000000000000000000000000000000000000000000000000000000000000000000000000F500000000000000000000002D00000000000000F5000000F50000F500000000000000002D00000000F5F500000000000000000000000000F5F5000000000000000000000000000000F50000000000000000000000000000
310
00000000000000000000000000000000000000000000000000000000000000000000000000000000000000000000000000000000000000000000000000000000000000000000000000000000000000000000000000000000000000000000000000000000000000000000000000000000000000000000000000000000000000
310
0000000000000000000000000000000000000000000000000000000000000000000000000000000000F500000000000000000000002D00000000000000F5000000F50000F5F5F50000000000002D2DF5F5F5F50000000000000000000000000000F5F52D2D2D2D2D2D2D2D2D000000000000F5000000000000000000000000
310
00000000000000000000000000000000000000000000000000000000000000000000000000000000000000000000000000000000000000000000000000000000000000000000000000000000000000000000000000000000000000000000000000000000000000000000000000000000000000000000000000000000000000
310
00000000000000000000000000000000000000000000000000000000000000000000000000000000000000F5000000000000002D2D2D2D2D00000000000000F50000F5F5F5F5F5F5F5F5F5F5F5F5F52DF5F5F5F5000000000000000000000000000000F5F5F5000000000000002D000000000000F500000000000000000000
310
00000000000000000000000000000000000000000000000000000000000000000000000000000000000000000000000000000000000000000000000000000000000000000000000000000000000000000000000000000000000000000000000000000000000000000000000000000000000000000000000000000000000000
310
000000000000000000000000000000000000000000000000000000000000000000000000000000000000000000F500000000000000002D2D002D00000000000000F5000000F50000F5F5000000000000000000000000000000000000000000000000000000F5F5F5000000000000002D000000000000F50000000000000000
310
00000000000000000000000000000000000000000000000000000000000000000000000000000000000000000000000000000000000000000000000000000000000000000000000000000000000000000000000000000000000000000000000000000000000000000000000000000000000000000000000000000000000000
310
0000000000000000000000000000000000000000000000000000000000000000000000000000000000000000000000F500000000000000002D2D002D00000000000000F5000000F50000F500000000000000000000000000000000000000000000000000000000F5F5F5000000000000002D000000000000F5000000000000
310
00000000000000000000000000000000000000000000000000000000000000000000000000000000000000000000000000000000000000000000000000000000000000000000000000000000000000000000000000000000000000000000000000000000000000000000000000000000000000000000000000000000000000
310
00000000000000000000000000000000000000000000000000000000000000000000000000000000000000000000000000F500000000000000002D2D002D00000000000000F5000000F50000F50000000000000000002D2D2D2D2D2D2D2D2D2D2D2D2D2D2D2D000000F500F5000000000000002D000000000000F500000000
310
00000000000000000000000000000000000000000000000000000000000000000000000000000000000000000000000000000000000000000000000000000000000000000000000000000000000000000000000000000000000000000000000000000000000000000000000000000000000000000000000000000000000000
310
000000000000000000000000000000000000000000000000000000000000000000000000000000000000000000000000000000F5000000000000002D2D2D2D2D00000000000000F5000000F50000F50000000000000000002D2D2D2D2D2D2D2D2D2D2D2D2D2D002D000000F500F5000000000000002D000000000000F50000
310
00000000000000000000000000000000000000000000000000000000000000000000000000000000000000000000000000000000000000000000000000000000000000000000000000000000000000000000000000000000000000000000000000000000000000000000000000000000000000000000000000000000000000
310
0000000000000000000000000000000000000000000000000000000000000000000000000000000000000000000000000000000000F500000000000000000000002D00000000000000F5000000F50000F50000000000000000002D002D2D2D00002D2D2D2D2D002D00002D0000F500F5000000000000002D000000000000F5
310
00000000000000000000000000000000000000000000000000000000000000000000000000000000000000000000000000000000000000000000000000000000000000000000000000000000000000000000000000000000000000000000000000000000000000000000000000000000000000000000000000000000000000
310
00000000000000000000000000000000000000000000000000000000000000000000000000000000000000000000000000000000000000F500000000000000000000002D000000002D2D2D2D2D2D2D2D2D2D2D2D2D2D2D2D2D2D2D2D2D2D2D2D0000000000000000000000002D0000F500F5000000000000002D0000000000
310
00F50000000000000000000000000000000000000000000000000000000000000000000000000000000000000000000000000000000000000000000000000000000000000000000000000000000000000000000000000000000000000000000000000000000000000000000000000000000000000000000000000000000000
310
000000000000000000000000000000000000000000000000000000000000000000000000000000000000000000000000000000000000000000F500000000000000000000002D0000000000002DF5000000F50000F52D0000002D2D2D2D2D2D2D2D000000000000000000000000002D00F5F500F5F5000000002D2D2D000000
310
000000F5000000000000000000000000000000000000000000000000000000000000000000000000000000000000000000000000000000000000000000000000000000000000000000000000000000000000000000000000000000000000000000000000000000000000000000000000000000000000000000000000000000
310
0000000000000000000000000000000000000000000000000000000000000000000000000000000000000000000000000000000000000000000000F500000000000000000000002D0000000000002DF5000000F50000F52D0000002D2D2D2D2D2D2D2D00000000000000000000000000002DF5F500F5F5000000002D2D2D00
310
0000000000F500000000000000000000000000000000000000000000000000000000000000000000000000000000000000000000000000000000000000000000000000000000000000000000000000000000000000000000000000000000000000000000000000000000000000000000000000000000000000000000000000
310
00000000000000000000000000000000000000000000000000000000000000000000000000000000000000000000000000000000000000000000000000F500000000000000000000002D000000000000F5F5F5F5F5F5F5F5F5F5000000000000000000000000000000000000000000000000002DF5F5F5F5F5000000002D2D
310
2D000000000000F50000000000000000000000000000000000000000000000000000000000000000000000000000000000000000000000000000000000000000000000000000000000000000000000000000000000000000000000000000000000000000000000000000000000000000000000000000000000000000000000
310
000000000000000000000000000000000000000000000000000000000000000000000000000000000000000000000000000000000000000000000000000000F500000000000000000000002D00000000002DF500F5F500F5F5F500F5002D00000000000000000000000000000000000000000000002DF5F5F5F50000000000
310
2D2D2D000000000000F5000000000000000000000000000000000000000000000000000000000000000000000000000000000000000000000000000000000000000000000000000000000000000000000000000000000000000000000000000000000000000000000000000000000000000000000000000000000000000000
310
0000000000000000000000000000000000000000000000000000000000000000000000000000000000000000000000000000000000000000000000000000000000F500000000000000000000002D0000002D2D2DF5F5F5F5F5F5F5F5F5F52D2D2D2D2D2D2D2D2D2D2D2D00000000000000000000000000002DF5F5F5000000
310
00002D2D2D000000000000F500000000000000000000000000000000000000000000000000000000000000000000000000000000000000000000000000000000000000000000000000000000000000000000000000000000000000000000000000000000000000000000000000000000000000000000000000000000000000
310
00000000000000000000000000000000000000000000000000000000000000000000000000000000000000000000000000000000000000000000000000000000000000F500000000000000000000002D0000000000002DF5000000F50000F52D0000002D2D2D2D2D2D2D2D2D00000000000000000000000000002D2D00F500
310
000000002D2D2D000000000000F50000000000000000000000000000000000000000000000000000000000000000000000000000000000000000000000000000000000000000000000000000000000000000000000000000000000000000000000000000000000000000000000000000000000000000000000000000000000
310
000000000000000000000000000000000000000000000000000000000000000000000000000000000000000000000000000000000000000000000000000000000000000000F500000000000000000000002D000000000000F5F5F5F5F5F5F5F5F5F5000000002D2D2D2D2D2D2D2D000000000000000000000000002D2D2D00
310
F5002D0000002D2D2D000000000000F5000000000000000000000000000000000000000000000000000000000000000000000000000000000000000000000000000000000000000000000000000000000000000000000000000000000000000000000000000000000000000000000000000000000000000000000000000000
310
0000000000000000000000000000000000000000000000000000000000000000000000000000000000000000000000000000000000000000000000000000000000000000000000F500000000000000000000002D0000000000F5F5F5F5F5F5F5F5F5F5F5F5F5000000002D00000000002D2D2D2D2D2D2D2D2D2D2D2D2D2D2D
310
2D2D2D2D2D2D000000002D000000000000F500000000000000000000000000000000000000000000000000000000000000000000000000000000000000000000000000000000000000000000000000000000000000000000000000000000000000000000000000000000000000000000000000000000000000000000000000
310
00000000000000000000000000000000000000000000000000000000000000000000000000000000000000000000000000000000000000000000000000000000000000000000000000F500000000000000000000002D0000000000F5F5F5F5F5F5F5F5F5F5F5F5F50000002D2D0000000000002D2D2D2D2D2D2D2D2D2D0000
310
002DF5F5F52D0000000000002D000000000000F50000000000000000000000000000000000000000000000000000000000000000000000000000000000000000000000000000000000000000000000000000000000000000000000000000000000000000000000000000000000000000000000000000000000000000000000
310
000000000000000000000000000000000000000000000000000000000000000000000000000000000000000000000000000000000000000000000000000000000000000000000000000000F500000000000000000000002D000000000000F500000000F5000000F50000000000002D000000000000002D2D2D2D2D2D2D002D
310
0000F5F5F5F5F5F50000000000002D000000000000F5000000000000000000000000000000000000000000000000000000000000000000000000000000000000000000000000000000000000000000000000000000000000000000000000000000000000000000000000000000000000000000000000000000000000000000
310
0000000000000000000000000000000000000000000000000000000000000000000000000000000000000000000000000000000000000000000000000000000000000000000000000000000000F500000000000000000000002D00000000000000F5F5F5F5F5F5F5F52D2D2D2D2D2D2D2D0000000000000000000000000000
310
002D2D2D2DF5F5F5F5F50000000000002D000000000000F500000000000000000000000000000000000000000000000000000000000000000000000000000000000000000000000000000000000000000000000000000000000000000000000000000000000000000000000000000000000000000000000000000000000000
310
00000000000000000000000000000000000000000000000000000000000000000000000000000000000000000000000000000000000000000000000000000000000000000000000000000000000000F500000000000000000000002D00000000000000F5F500F5F500F5F5000000000000002D000000000000000000000000
310
0000002D00000000F500F5000000000000002D000000000000F50000000000000000000000000000000000000000000000000000000000000000000000000000000000000000000000000000000000000000000000000000000000000000000000000000000000000000000000000000000000000000000000000000000000
310
000000000000000000000000000000000000000000000000000000000000000000000000000000000000000000000000000000000000000000000000000000000000000000000000000000000000000000F500000000000000000000002D00000000000000F5F500F5F500F5F5000000000000002D00000000000000000000
310
000000002D2D00000000F5F5F5000000000000002D000000000000F5000000000000000000000000000000000000000000000000000000000000000000000000000000000000000000000000000000000000000000000000000000000000000000000000000000000000000000000000000000000000000000000000000000
310
0000000000000000000000000000000000000000000000000000000000000000000000000000000000000000000000000000000000000000000000000000000000000000000000000000000000000000000000F500000000000000000000002D00000000000000F5F500F5F500F5F5000000000000002D0000000000000000
310
0000002D2D2D002D0000F5F5F5F5F5F5F500000000002D000000000000F500000000000000000000000000000000000000000000000000000000000000000000000000000000000000000000000000000000000000000000000000000000000000000000000000000000000000000000000000000000000000000000000000
310
00000000000000000000000000000000000000000000000000000000000000000000000000000000000000000000000000000000000000000000000000000000000000000000000000000000000000000000000000F500000000000000000000002D00000000000000F5F5F5F5F5F5F5F5000000000000002D000000000000
310
0000002D2D2D0000002D2D2D2DF5F5F5F5F52D2D2D2D2D2D2D000000000000F50000000000000000000000000000000000000000000000000000000000000000000000000000000000000000000000000000000000000000000000000000000000000000000000000000000000000000000000000000000000000000000000
310
000000000000000000000000000000000000000000000000000000000000000000000000000000000000000000000000000000000000000000000000000000000000000000000000000000000000000000000000000000F500000000000000000000002D000000000000F5F5F5F5F5F5F5F5F5F5F500000000002D00000000
310
00000000002D2D2D00002D2D00002D00F5F500002D0000002D2D2D000000000000F5000000000000000000000000000000000000000000000000000000000000000000000000000000000000000000000000000000000000000000000000000000000000000000000000000000000000000000000000000000000000000000
310
0000000000000000000000000000000000000000000000000000000000000000000000000000000000000000000000000000000000000000000000000000000000000000000000000000000000000000000000000000000000F5000000000000000000002D2D0000000000F5F5F5F5F5F5F5F5F5F5F5F500000000002D0000
310
000000000000002D2D2D0000002D00002D00F5F500002D0000002D2D2D000000000000F500000000000000000000000000000000000000000000000000000000000000000000000000000000000000000000000000000000000000000000000000000000000000000000000000000000000000000000000000000000000000
310
00000000000000000000000000000000000000000000000000000000000000000000000000000000000000000000000000000000000000000000000000000000000000000000000000000000000000000000000000000000000000F500000000000000000000002D2D2D2D2D2DF5F5F5F5F5F5F5F5F5F5F5F52D2D2D2D2D2D
310
0000000000000000002D2D2D0000000000002D00F5F5F5002D0000002D2D2D000000000000F50000000000000000000000000000000000000000000000000000000000000000000000000000000000000000000000000000000000000000000000000000000000000000000000000000000000000000000000000000000000
310
000000000000000000000000000000000000000000000000000000000000000000000000000000000000000000000000000000000000000000000000000000000000000000000000000000000000000000000000000000000000000000F500000000000000000000000000000000002D0000000000F5000000002D00000000
310
2D2D0000000000000000002D2D2D0000000000002D00F500F5002D0000002D2D2D000000000000F5000000000000000000000000000000000000000000000000000000000000000000000000000000000000000000000000000000000000000000000000000000000000000000000000000000000000000000000000000000
310
0000000000000000000000000000000000000000000000000000000000000000000000000000000000000000000000000000000000000000000000000000000000000000000000000000000000000000000000000000000000000000000000F500000000000000000000000000000000002D000000000000000000002D0000
310
0000002D0000000000000000002D2D2D0000000000002DF5000000F52D0000002D2D2D000000000000F500000000000000000000000000000000000000000000000000000000000000000000000000000000000000000000000000000000000000000000000000000000000000000000000000000000000000000000000000
310
00000000000000000000000000000000000000000000000000000000000000000000000000000000000000000000000000000000000000000000000000000000000000000000000000000000000000000000000000000000000000000000000000F500000000000000000000000000000000002D000000000000000000002D
310
00000000002D0000000000000000002D2D2D0000000000002DF5F52D2D2D2D2D2D2D2D2D2D000000000000F50000000000000000000000000000000000000000000000000000000000000000000000000000000000000000000000000000000000000000000000000000000000000000000000000000000000000000000000
310
000000000000000000000000000000000000000000000000000000000000000000000000000000000000000000000000000000000000000000000000000000000000000000000000000000000000000000000000000000000000000000000000000000F500000000000000000000000000000000002D000000000000000000
310
002D002D2D2D2D2D0000000000000000002D2D2D0000000000002D00000000002D000000000000000000000000F5000000000000000000000000000000000000000000000000000000000000000000000000000000000000000000000000000000000000000000000000000000000000000000000000000000000000000000
310
0000000000000000000000000000000000000000000000000000000000000000000000000000000000000000000000000000000000000000000000000000000000000000000000000000000000000000000000000000000000000000000000000000000000F500000000000000000000000000000000002D2D2D2D2D2D2D2D
310
2D2D2D2D00002D2D002D0000000000000000002D2D2D0000000000002D00000000002D000000000000000000000000F500000000000000000000000000000000000000000000000000000000000000000000000000000000000000000000000000000000000000000000000000000000000000000000000000000000000000
310
00000000000000000000000000000000000000000000000000000000000000000000000000000000000000000000000000000000000000000000000000000000000000000000000000000000000000000000000000000000000000000000000000000000000000F50000000000000000000000000000000000000000002D2D
310
2D2D0000000000002D2D002D0000000000000000002D2D2D0000000000002D2D2D2D2D2D2D000000000000000000000000F50000000000000000000000000000000000000000000000000000000000000000000000000000000000000000000000000000000000000000000000000000000000000000000000000000000000
310
000000000000000000000000000000000000000000000000000000000000000000000000000000000000000000000000000000000000000000000000000000000000000000000000000000000000000000000000000000000000000000000000000000000000000000F5000000000000000000000000000000000000000000
310
2D2D2D2D0000000000002D2D002D000000000000000000002D2D000000000000002D2D2D2D0000000000000000000000000000F5000000000000000000000000000000000000000000000000000000000000000000000000000000000000000000000000000000000000000000000000000000000000000000000000000000
310
0000000000000000000000000000000000000000000000000000000000000000000000000000000000000000000000000000000000000000000000000000000000000000000000000000000000000000000000000000000000000000000000000000000000000000000000F500000000000000000000000000000000000000
310
0000000000000000000000002D2D002D0000000000000000002D2D2D00000000000000002D2D2D0000000000000000000000000000F500000000000000000000000000000000000000000000000000000000000000000000000000000000000000000000000000000000000000000000000000000000000000000000000000
310
00000000000000000000000000000000000000000000000000000000000000000000000000000000000000000000000000000000000000000000000000000000000000000000000000000000000000000000000000000000000000000000000000000000000000000000000000F50000000000000000000000000000000000
310
000000000000000000000000002D2D2D2D2D0000000000000000002D2D2D00000000000000000000000000000000000000000000000000F50000000000000000000000000000000000000000000000000000000000000000000000000000000000000000000000000000000000000000000000000000000000000000000000
310
000000000000000000000000000000000000000000000000000000000000000000000000000000000000000000000000000000000000000000000000000000000000000000000000000000000000000000000000000000000000000000000000000000000000000000000000000000F5000000000000000000000000000000
310
000000000000000000000000000000002D2D002D0000000000000000002D2D2D00000000000000000000000000000000000000000000000000F5000000000000000000000000000000000000000000000000000000000000000000000000000000000000000000000000000000000000000000000000000000000000000000
310
0000000000000000000000000000000000000000000000000000000000000000000000000000000000000000000000000000000000000000000000000000000000000000000000000000000000000000000000000000000000000000000000000000000000000000000000000000000000F500000000000000000000000000
310
0000000000000000000000000000000000000000000000000000000000000000000000000000000000000000000000000000000000000000000000F500000000000000000000000000000000000000000000000000000000000000000000000000000000000000000000000000000000000000000000000000000000000000
310
00000000000000000000000000000000000000000000000000000000000000000000000000000000000000000000000000000000000000000000000000000000000000000000000000000000000000000000000000000000000000000000000000000000000000000000000000000000000000F50000000000000000000000
310
00000000000000000000000000000000000000000000000000000000000000000000000000000000000000000000000000000000000000000000000000F50000000000000000000000000000000000000000000000000000000000000000000000000000000000000000000000000000000000000000000000000000000000
310
000000000000000000000000000000000000000000000000000000000000000000000000000000000000000000000000000000000000000000000000000000000000000000000000000000000000000000000000000000000000000000000000000000000000000000000000000000000000000000F5000000000000000000
310
000000000000000000000000000000000000000000000000000000000000000000000000000000000000000000000000000000000000000000000000000000F5000000000000000000000000000000000000000000000000000000000000000000000000000000000000000000000000000000000000000000000000000000
310
0000000000000000000000000000000000000000000000000000000000000000000000000000000000000000000000000000000000000000000000000000000000000000000000000000000000000000000000000000000000000000000000000000000000000000000000000000000000000000000000F5F5F5F5F5F5F5F5
310
F5F5F5F5F5F5F5F5F5F5F5F5F5F5F5F5F5F5F5F5F5F5F5F5F5F5F5F5F5F5F5F5F5F5F5F5F5F5F5F5F5F5F5F5F5F5F5F5F5F5F5F5F5F5F5F5F5F5F5F5F5F5F5F5F5F500000000000000000000000000000000000000000000000000000000000000000000000000000000000000000000000000000000000000000000000000
310
00000000000000000000000000000000000000000000000000000000000000000000000000000000000000000000000000000000000000000000000000000000000000000000000000000000000000000000000000000000000000000000000000000000000000000000000000000000000000000000000000000000000000
310
00000000000000000000000000000000000000000000000000000000000000000000000000000000000000000000000000000000000000000000000000000000000000000000000000000000000000000000000000000000000000000000000000000000000000000000000000000000000000000000000000000000000000
310
00000000000000000000000000000000000000000000000000000000000000000000000000000000000000000000000000000000000000000000000000000000000000000000000000000000000000000000000000000000000000000000000000000000000000000000000000000000000000000000000000000000000000
310
00000000000000000000000000000000000000000000000000000000000000000000000000000000000000000000000000000000000000000000000000000000000000000000000000000000000000000000000000000000000000000000000000000000000000000000000000000000000000000000000000000000000000
310
00000000000000000000000000000000000000000000000000000000000000000000000000000000000000000000000000000000000000000000000000000000000000000000000000000000000000000000000000000000000000000000000000000000000000000000000000000000000000000000000000000000000000
310
00000000000000000000000000000000000000000000000000000000000000000000000000000000000000000000000000000000000000000000000000000000000000000000000000000000000000000000000000000000000000000000000000000000000000000000000000000000000000000000000000000000000000
310
000000000000000000000000000000000000000000000000000000000000000000000000
  0
XRECORD
  5
64AD
102
{ACAD_REACTORS
330
6138
102
}
330
6138
100
AcDbXrecord
280
     1
102
MATERIAL
148
0.0
149
0.0
149
0.0
 93
        0
 94
      127
282
     0
 72
     0
 77
     0
171
     0
175
     0
179
     0
273
     0
  0
XRECORD
  5
613A
102
{ACAD_REACTORS
330
6138
102
}
330
6138
100
AcDbXrecord
280
     1
270
     1
271
     1
  0
XRECORD
  5
6139
102
{ACAD_REACTORS
330
6138
102
}
330
6138
100
AcDbXrecord
280
     1
270
     1
271
     1
  0
XRECORD
  5
613D
102
{ACAD_REACTORS
330
6138
102
}
330
6138
100
AcDbXrecord
280
     1
270
     1
271
     1
  0
XRECORD
  5
613C
102
{ACAD_REACTORS
330
6138
102
}
330
6138
100
AcDbXrecord
280
     1
270
     1
271
     1
  0
XRECORD
  5
613E
102
{ACAD_REACTORS
330
6138
102
}
330
6138
100
AcDbXrecord
280
     1
270
     1
271
     1
  0
XRECORD
  5
613B
102
{ACAD_REACTORS
330
6138
102
}
330
6138
100
AcDbXrecord
280
     1
270
     1
271
     1
  0
XRECORD
  5
64AC
102
{ACAD_REACTORS
330
6130
102
}
330
6130
100
AcDbXrecord
280
     1
102
MATERIAL
148
0.0
149
0.0
149
0.0
 93
        0
 94
      127
282
     0
 72
     0
 77
     0
171
     0
175
     0
179
     0
273
     0
  0
XRECORD
  5
6132
102
{ACAD_REACTORS
330
6130
102
}
330
6130
100
AcDbXrecord
280
     1
270
     1
271
     1
  0
XRECORD
  5
6131
102
{ACAD_REACTORS
330
6130
102
}
330
6130
100
AcDbXrecord
280
     1
270
     1
271
     1
  0
XRECORD
  5
6135
102
{ACAD_REACTORS
330
6130
102
}
330
6130
100
AcDbXrecord
280
     1
270
     1
271
     1
  0
XRECORD
  5
6134
102
{ACAD_REACTORS
330
6130
102
}
330
6130
100
AcDbXrecord
280
     1
270
     1
271
     1
  0
XRECORD
  5
6136
102
{ACAD_REACTORS
330
6130
102
}
330
6130
100
AcDbXrecord
280
     1
270
     1
271
     1
  0
XRECORD
  5
6133
102
{ACAD_REACTORS
330
6130
102
}
330
6130
100
AcDbXrecord
280
     1
270
     1
271
     1
  0
XRECORD
  5
64AE
102
{ACAD_REACTORS
330
6140
102
}
330
6140
100
AcDbXrecord
280
     1
102
MATERIAL
148
0.0
149
0.0
149
0.0
 93
        0
 94
      127
282
     0
 72
     0
 77
     0
171
     0
175
     0
179
     0
273
     0
  0
XRECORD
  5
6142
102
{ACAD_REACTORS
330
6140
102
}
330
6140
100
AcDbXrecord
280
     1
270
     1
271
     1
  0
XRECORD
  5
6141
102
{ACAD_REACTORS
330
6140
102
}
330
6140
100
AcDbXrecord
280
     1
270
     1
271
     1
  0
XRECORD
  5
6145
102
{ACAD_REACTORS
330
6140
102
}
330
6140
100
AcDbXrecord
280
     1
270
     1
271
     1
  0
XRECORD
  5
6144
102
{ACAD_REACTORS
330
6140
102
}
330
6140
100
AcDbXrecord
280
     1
270
     1
271
     1
  0
XRECORD
  5
6146
102
{ACAD_REACTORS
330
6140
102
}
330
6140
100
AcDbXrecord
280
     1
270
     1
271
     1
  0
XRECORD
  5
6143
102
{ACAD_REACTORS
330
6140
102
}
330
6140
100
AcDbXrecord
280
     1
270
     1
271
     1
  0
CELLSTYLEMAP
  5
6528
102
{ACAD_REACTORS
330
64A9
102
}
330
64A9
100
AcDbCellStyleMap
 90
        3
300
CELLSTYLE
  1
TABLEFORMAT_BEGIN
 90
        5
170
     1
 91
        0
 92
    32768
 62
   257
 93
        1
300
CONTENTFORMAT
  1
CONTENTFORMAT_BEGIN
 90
        0
 91
        0
 92
      512
 93
        0
300

 40
0.0
140
1.0
 94
        5
 62
     0
340
10
144
6.0
309
CONTENTFORMAT_END
171
     1
301
MARGIN
  1
CELLMARGIN_BEGIN
 40
1.5
 40
1.5
 40
1.5
 40
1.5
 40
0.18
 40
0.18
309
CELLMARGIN_END
 94
        6
 95
        1
302
GRIDFORMAT
  1
GRIDFORMAT_BEGIN
 90
        0
 91
        1
 62
     0
 92
       -2
340
0
 93
        0
 40
1.125
309
GRIDFORMAT_END
 95
        2
302
GRIDFORMAT
  1
GRIDFORMAT_BEGIN
 90
        0
 91
        1
 62
     0
 92
       -2
340
0
 93
        0
 40
1.125
309
GRIDFORMAT_END
 95
        4
302
GRIDFORMAT
  1
GRIDFORMAT_BEGIN
 90
        0
 91
        1
 62
     0
 92
       -2
340
0
 93
        0
 40
1.125
309
GRIDFORMAT_END
 95
        8
302
GRIDFORMAT
  1
GRIDFORMAT_BEGIN
 90
        0
 91
        1
 62
     0
 92
       -2
340
0
 93
        0
 40
1.125
309
GRIDFORMAT_END
 95
       16
302
GRIDFORMAT
  1
GRIDFORMAT_BEGIN
 90
        0
 91
        1
 62
     0
 92
       -2
340
0
 93
        0
 40
1.125
309
GRIDFORMAT_END
 95
       32
302
GRIDFORMAT
  1
GRIDFORMAT_BEGIN
 90
        0
 91
        1
 62
     0
 92
       -2
340
0
 93
        0
 40
1.125
309
GRIDFORMAT_END
309
TABLEFORMAT_END
  1
CELLSTYLE_BEGIN
 90
        1
 91
        1
300
_TITLE
309
CELLSTYLE_END
300
CELLSTYLE
  1
TABLEFORMAT_BEGIN
 90
        5
170
     1
 91
        0
 92
        0
 62
   257
 93
        1
300
CONTENTFORMAT
  1
CONTENTFORMAT_BEGIN
 90
        0
 91
        0
 92
      512
 93
        0
300

 40
0.0
140
1.0
 94
        5
 62
     0
340
10
144
4.5
309
CONTENTFORMAT_END
171
     1
301
MARGIN
  1
CELLMARGIN_BEGIN
 40
1.5
 40
1.5
 40
1.5
 40
1.5
 40
0.18
 40
0.18
309
CELLMARGIN_END
 94
        6
 95
        1
302
GRIDFORMAT
  1
GRIDFORMAT_BEGIN
 90
        0
 91
        1
 62
     0
 92
       -2
340
0
 93
        0
 40
1.125
309
GRIDFORMAT_END
 95
        2
302
GRIDFORMAT
  1
GRIDFORMAT_BEGIN
 90
        0
 91
        1
 62
     0
 92
       -2
340
0
 93
        0
 40
1.125
309
GRIDFORMAT_END
 95
        4
302
GRIDFORMAT
  1
GRIDFORMAT_BEGIN
 90
        0
 91
        1
 62
     0
 92
       -2
340
0
 93
        0
 40
1.125
309
GRIDFORMAT_END
 95
        8
302
GRIDFORMAT
  1
GRIDFORMAT_BEGIN
 90
        0
 91
        1
 62
     0
 92
       -2
340
0
 93
        0
 40
1.125
309
GRIDFORMAT_END
 95
       16
302
GRIDFORMAT
  1
GRIDFORMAT_BEGIN
 90
        0
 91
        1
 62
     0
 92
       -2
340
0
 93
        0
 40
1.125
309
GRIDFORMAT_END
 95
       32
302
GRIDFORMAT
  1
GRIDFORMAT_BEGIN
 90
        0
 91
        1
 62
     0
 92
       -2
340
0
 93
        0
 40
1.125
309
GRIDFORMAT_END
309
TABLEFORMAT_END
  1
CELLSTYLE_BEGIN
 90
        2
 91
        1
300
_HEADER
309
CELLSTYLE_END
300
CELLSTYLE
  1
TABLEFORMAT_BEGIN
 90
        5
170
     1
 91
        0
 92
        0
 62
   257
 93
        1
300
CONTENTFORMAT
  1
CONTENTFORMAT_BEGIN
 90
        0
 91
        0
 92
      512
 93
        0
300

 40
0.0
140
1.0
 94
        2
 62
     0
340
10
144
4.5
309
CONTENTFORMAT_END
171
     1
301
MARGIN
  1
CELLMARGIN_BEGIN
 40
1.5
 40
1.5
 40
1.5
 40
1.5
 40
0.18
 40
0.18
309
CELLMARGIN_END
 94
        6
 95
        1
302
GRIDFORMAT
  1
GRIDFORMAT_BEGIN
 90
        0
 91
        1
 62
     0
 92
       -2
340
0
 93
        0
 40
1.125
309
GRIDFORMAT_END
 95
        2
302
GRIDFORMAT
  1
GRIDFORMAT_BEGIN
 90
        0
 91
        1
 62
     0
 92
       -2
340
0
 93
        0
 40
1.125
309
GRIDFORMAT_END
 95
        4
302
GRIDFORMAT
  1
GRIDFORMAT_BEGIN
 90
        0
 91
        1
 62
     0
 92
       -2
340
0
 93
        0
 40
1.125
309
GRIDFORMAT_END
 95
        8
302
GRIDFORMAT
  1
GRIDFORMAT_BEGIN
 90
        0
 91
        1
 62
     0
 92
       -2
340
0
 93
        0
 40
1.125
309
GRIDFORMAT_END
 95
       16
302
GRIDFORMAT
  1
GRIDFORMAT_BEGIN
 90
        0
 91
        1
 62
     0
 92
       -2
340
0
 93
        0
 40
1.125
309
GRIDFORMAT_END
 95
       32
302
GRIDFORMAT
  1
GRIDFORMAT_BEGIN
 90
        0
 91
        1
 62
     0
 92
       -2
340
0
 93
        0
 40
1.125
309
GRIDFORMAT_END
309
TABLEFORMAT_END
  1
CELLSTYLE_BEGIN
 90
        3
 91
        2
300
_DATA
309
CELLSTYLE_END
  0
XRECORD
  5
6535
102
{ACAD_REACTORS
330
6534
102
}
330
6534
100
AcDbXrecord
280
     1
102
RTVSPropertyOp0
 70
     1
102
RTVSPropertyOp1
 70
     1
102
RTVSPropertyOp2
 70
     1
102
RTVSPropertyOp3
 70
     1
102
RTVSPropertyOp4
 70
     1
102
RTVSPropertyOp5
 70
     1
102
RTVSPropertyOp6
 70
     1
102
RTVSPropertyOp7
 70
     1
102
RTVSPropertyOp8
 70
     1
102
RTVSPropertyOp9
 70
     1
102
RTVSPropertyOp10
 70
     1
102
RTVSPropertyOp11
 70
     1
102
RTVSPropertyOp12
 70
     1
102
RTVSPropertyOp13
 70
     1
102
RTVSPropertyOp14
 70
     1
102
RTVSPropertyOp15
 70
     1
102
RTVSPropertyOp16
 70
     1
102
RTVSPropertyOp17
 70
     1
102
RTVSPropertyOp18
 70
     1
102
RTVSPropertyOp19
 70
     1
102
RTVSPropertyOp20
 70
     1
102
RTVSPropertyOp21
 70
     1
102
RTVSPropertyOp22
 70
     1
102
RTVSPropertyOp23
 70
     1
102
RTVSPropertyOp24
 70
     1
102
RTVSPropertyOp25
 70
     1
102
RTVSPropertyOp26
 70
     1
102
RTVSPropertyOp27
 70
     1
102
RTVSPropertyOp28
 70
     1
102
RTVSPropertyOp29
 70
     1
102
RTVSPropertyOp30
 70
     1
102
RTVSPropertyOp31
 70
     1
102
RTVSPropertyOp32
 70
     1
  0
XRECORD
  5
6533
102
{ACAD_REACTORS
330
6532
102
}
330
6532
100
AcDbXrecord
280
     1
102
RTVSPropertyOp0
 70
     1
102
RTVSPropertyOp1
 70
     1
102
RTVSPropertyOp2
 70
     1
102
RTVSPropertyOp3
 70
     1
102
RTVSPropertyOp4
 70
     1
102
RTVSPropertyOp5
 70
     1
102
RTVSPropertyOp6
 70
     1
102
RTVSPropertyOp7
 70
     1
102
RTVSPropertyOp8
 70
     1
102
RTVSPropertyOp9
 70
     1
102
RTVSPropertyOp10
 70
     1
102
RTVSPropertyOp11
 70
     1
102
RTVSPropertyOp12
 70
     1
102
RTVSPropertyOp13
 70
     1
102
RTVSPropertyOp14
 70
     1
102
RTVSPropertyOp15
 70
     1
102
RTVSPropertyOp16
 70
     1
102
RTVSPropertyOp17
 70
     1
102
RTVSPropertyOp18
 70
     1
102
RTVSPropertyOp19
 70
     1
102
RTVSPropertyOp20
 70
     1
102
RTVSPropertyOp21
 70
     1
102
RTVSPropertyOp22
 70
     1
102
RTVSPropertyOp23
 70
     1
102
RTVSPropertyOp24
 70
     1
102
RTVSPropertyOp25
 70
     1
102
RTVSPropertyOp26
 70
     1
102
RTVSPropertyOp27
 70
     1
102
RTVSPropertyOp28
 70
     1
102
RTVSPropertyOp29
 70
     1
102
RTVSPropertyOp30
 70
     1
102
RTVSPropertyOp31
 70
     1
102
RTVSPropertyOp32
 70
     1
  0
XRECORD
  5
6541
102
{ACAD_REACTORS
330
6540
102
}
330
6540
100
AcDbXrecord
280
     1
102
RTVSPropertyOp0
 70
     1
102
RTVSPropertyOp1
 70
     1
102
RTVSPropertyOp2
 70
     1
102
RTVSPropertyOp3
 70
     1
102
RTVSPropertyOp4
 70
     1
102
RTVSPropertyOp5
 70
     1
102
RTVSPropertyOp6
 70
     1
102
RTVSPropertyOp7
 70
     1
102
RTVSPropertyOp8
 70
     1
102
RTVSPropertyOp9
 70
     1
102
RTVSPropertyOp10
 70
     1
102
RTVSPropertyOp11
 70
     1
102
RTVSPropertyOp12
 70
     1
102
RTVSPropertyOp13
 70
     1
102
RTVSPropertyOp14
 70
     1
102
RTVSPropertyOp15
 70
     1
102
RTVSPropertyOp16
 70
     1
102
RTVSPropertyOp17
 70
     1
102
RTVSPropertyOp18
 70
     1
102
RTVSPropertyOp19
 70
     1
102
RTVSPropertyOp20
 70
     1
102
RTVSPropertyOp21
 70
     1
102
RTVSPropertyOp22
 70
     1
102
RTVSPropertyOp23
 70
     1
102
RTVSPropertyOp24
 70
     1
102
RTVSPropertyOp25
 70
     1
102
RTVSPropertyOp26
 70
     1
102
RTVSPropertyOp27
 70
     1
102
RTVSPropertyOp28
 70
     1
102
RTVSPropertyOp29
 70
     1
102
RTVSPropertyOp30
 70
     1
102
RTVSPropertyOp31
 70
     1
102
RTVSPropertyOp32
 70
     1
  0
XRECORD
  5
6549
102
{ACAD_REACTORS
330
6548
102
}
330
6548
100
AcDbXrecord
280
     1
102
RTVSPropertyOp0
 70
     1
102
RTVSPropertyOp1
 70
     1
102
RTVSPropertyOp2
 70
     1
102
RTVSPropertyOp3
 70
     1
102
RTVSPropertyOp4
 70
     1
102
RTVSPropertyOp5
 70
     1
102
RTVSPropertyOp6
 70
     1
102
RTVSPropertyOp7
 70
     1
102
RTVSPropertyOp8
 70
     1
102
RTVSPropertyOp9
 70
     1
102
RTVSPropertyOp10
 70
     1
102
RTVSPropertyOp11
 70
     1
102
RTVSPropertyOp12
 70
     1
102
RTVSPropertyOp13
 70
     1
102
RTVSPropertyOp14
 70
     1
102
RTVSPropertyOp15
 70
     1
102
RTVSPropertyOp16
 70
     1
102
RTVSPropertyOp17
 70
     1
102
RTVSPropertyOp18
 70
     1
102
RTVSPropertyOp19
 70
     1
102
RTVSPropertyOp20
 70
     1
102
RTVSPropertyOp21
 70
     1
102
RTVSPropertyOp22
 70
     1
102
RTVSPropertyOp23
 70
     1
102
RTVSPropertyOp24
 70
     1
102
RTVSPropertyOp25
 70
     1
102
RTVSPropertyOp26
 70
     1
102
RTVSPropertyOp27
 70
     1
102
RTVSPropertyOp28
 70
     1
102
RTVSPropertyOp29
 70
     1
102
RTVSPropertyOp30
 70
     1
102
RTVSPropertyOp31
 70
     1
102
RTVSPropertyOp32
 70
     1
  0
XRECORD
  5
653B
102
{ACAD_REACTORS
330
653A
102
}
330
653A
100
AcDbXrecord
280
     1
102
RTVSPropertyOp0
 70
     1
102
RTVSPropertyOp1
 70
     1
102
RTVSPropertyOp2
 70
     1
102
RTVSPropertyOp3
 70
     1
102
RTVSPropertyOp4
 70
     1
102
RTVSPropertyOp5
 70
     1
102
RTVSPropertyOp6
 70
     1
102
RTVSPropertyOp7
 70
     1
102
RTVSPropertyOp8
 70
     1
102
RTVSPropertyOp9
 70
     1
102
RTVSPropertyOp10
 70
     1
102
RTVSPropertyOp11
 70
     1
102
RTVSPropertyOp12
 70
     1
102
RTVSPropertyOp13
 70
     1
102
RTVSPropertyOp14
 70
     1
102
RTVSPropertyOp15
 70
     1
102
RTVSPropertyOp16
 70
     1
102
RTVSPropertyOp17
 70
     1
102
RTVSPropertyOp18
 70
     1
102
RTVSPropertyOp19
 70
     1
102
RTVSPropertyOp20
 70
     1
102
RTVSPropertyOp21
 70
     1
102
RTVSPropertyOp22
 70
     1
102
RTVSPropertyOp23
 70
     1
102
RTVSPropertyOp24
 70
     1
102
RTVSPropertyOp25
 70
     1
102
RTVSPropertyOp26
 70
     1
102
RTVSPropertyOp27
 70
     1
102
RTVSPropertyOp28
 70
     1
102
RTVSPropertyOp29
 70
     1
102
RTVSPropertyOp30
 70
     1
102
RTVSPropertyOp31
 70
     1
102
RTVSPropertyOp32
 70
     1
  0
XRECORD
  5
653F
102
{ACAD_REACTORS
330
653E
102
}
330
653E
100
AcDbXrecord
280
     1
102
RTVSPropertyOp0
 70
     1
102
RTVSPropertyOp1
 70
     1
102
RTVSPropertyOp2
 70
     1
102
RTVSPropertyOp3
 70
     1
102
RTVSPropertyOp4
 70
     1
102
RTVSPropertyOp5
 70
     1
102
RTVSPropertyOp6
 70
     1
102
RTVSPropertyOp7
 70
     1
102
RTVSPropertyOp8
 70
     1
102
RTVSPropertyOp9
 70
     1
102
RTVSPropertyOp10
 70
     1
102
RTVSPropertyOp11
 70
     1
102
RTVSPropertyOp12
 70
     1
102
RTVSPropertyOp13
 70
     1
102
RTVSPropertyOp14
 70
     1
102
RTVSPropertyOp15
 70
     1
102
RTVSPropertyOp16
 70
     1
102
RTVSPropertyOp17
 70
     1
102
RTVSPropertyOp18
 70
     1
102
RTVSPropertyOp19
 70
     1
102
RTVSPropertyOp20
 70
     1
102
RTVSPropertyOp21
 70
     1
102
RTVSPropertyOp22
 70
     1
102
RTVSPropertyOp23
 70
     1
102
RTVSPropertyOp24
 70
     1
102
RTVSPropertyOp25
 70
     1
102
RTVSPropertyOp26
 70
     1
102
RTVSPropertyOp27
 70
     1
102
RTVSPropertyOp28
 70
     1
102
RTVSPropertyOp29
 70
     1
102
RTVSPropertyOp30
 70
     1
102
RTVSPropertyOp31
 70
     1
102
RTVSPropertyOp32
 70
     1
  0
XRECORD
  5
6559
102
{ACAD_REACTORS
330
6558
102
}
330
6558
100
AcDbXrecord
280
     1
102
RTVSPropertyOp0
 70
     0
102
RTVSPropertyOp1
 70
     0
102
RTVSPropertyOp2
 70
     0
102
RTVSPropertyOp3
 70
     0
102
RTVSPropertyOp4
 70
     0
102
RTVSPropertyOp5
 70
     0
102
RTVSPropertyOp6
 70
     0
102
RTVSPropertyOp7
 70
     0
102
RTVSPropertyOp8
 70
     0
102
RTVSPropertyOp9
 70
     0
102
RTVSPropertyOp10
 70
     0
102
RTVSPropertyOp11
 70
     0
102
RTVSPropertyOp12
 70
     0
102
RTVSPropertyOp13
 70
     0
102
RTVSPropertyOp14
 70
     2
102
RTVSPropertyOp15
 70
     0
102
RTVSPropertyOp16
 70
     0
102
RTVSPropertyOp17
 70
     0
102
RTVSPropertyOp18
 70
     0
102
RTVSPropertyOp19
 70
     0
102
RTVSPropertyOp20
 70
     0
102
RTVSPropertyOp21
 70
     0
102
RTVSPropertyOp22
 70
     0
102
RTVSPropertyOp23
 70
     0
102
RTVSPropertyOp24
 70
     0
102
RTVSPropertyOp25
 70
     0
102
RTVSPropertyOp26
 70
     0
102
RTVSPropertyOp27
 70
     0
102
RTVSPropertyOp28
 70
     1
102
RTVSPropertyOp29
 70
     1
102
RTVSPropertyOp30
 70
     1
102
RTVSPropertyOp31
 70
     1
102
RTVSPropertyOp32
 70
     1
  0
XRECORD
  5
6547
102
{ACAD_REACTORS
330
6546
102
}
330
6546
100
AcDbXrecord
280
     1
102
RTVSPropertyOp0
 70
     1
102
RTVSPropertyOp1
 70
     1
102
RTVSPropertyOp2
 70
     1
102
RTVSPropertyOp3
 70
     1
102
RTVSPropertyOp4
 70
     1
102
RTVSPropertyOp5
 70
     1
102
RTVSPropertyOp6
 70
     1
102
RTVSPropertyOp7
 70
     1
102
RTVSPropertyOp8
 70
     1
102
RTVSPropertyOp9
 70
     1
102
RTVSPropertyOp10
 70
     1
102
RTVSPropertyOp11
 70
     1
102
RTVSPropertyOp12
 70
     1
102
RTVSPropertyOp13
 70
     1
102
RTVSPropertyOp14
 70
     1
102
RTVSPropertyOp15
 70
     1
102
RTVSPropertyOp16
 70
     1
102
RTVSPropertyOp17
 70
     1
102
RTVSPropertyOp18
 70
     1
102
RTVSPropertyOp19
 70
     1
102
RTVSPropertyOp20
 70
     1
102
RTVSPropertyOp21
 70
     1
102
RTVSPropertyOp22
 70
     1
102
RTVSPropertyOp23
 70
     1
102
RTVSPropertyOp24
 70
     1
102
RTVSPropertyOp25
 70
     1
102
RTVSPropertyOp26
 70
     1
102
RTVSPropertyOp27
 70
     1
102
RTVSPropertyOp28
 70
     1
102
RTVSPropertyOp29
 70
     1
102
RTVSPropertyOp30
 70
     1
102
RTVSPropertyOp31
 70
     1
102
RTVSPropertyOp32
 70
     1
  0
XRECORD
  5
652B
102
{ACAD_REACTORS
330
652A
102
}
330
652A
100
AcDbXrecord
280
     1
102
RTVSPropertyOp0
 70
     1
102
RTVSPropertyOp1
 70
     1
102
RTVSPropertyOp2
 70
     1
102
RTVSPropertyOp3
 70
     1
102
RTVSPropertyOp4
 70
     1
102
RTVSPropertyOp5
 70
     1
102
RTVSPropertyOp6
 70
     1
102
RTVSPropertyOp7
 70
     1
102
RTVSPropertyOp8
 70
     1
102
RTVSPropertyOp9
 70
     1
102
RTVSPropertyOp10
 70
     1
102
RTVSPropertyOp11
 70
     1
102
RTVSPropertyOp12
 70
     1
102
RTVSPropertyOp13
 70
     1
102
RTVSPropertyOp14
 70
     1
102
RTVSPropertyOp15
 70
     1
102
RTVSPropertyOp16
 70
     1
102
RTVSPropertyOp17
 70
     1
102
RTVSPropertyOp18
 70
     1
102
RTVSPropertyOp19
 70
     1
102
RTVSPropertyOp20
 70
     1
102
RTVSPropertyOp21
 70
     1
102
RTVSPropertyOp22
 70
     1
102
RTVSPropertyOp23
 70
     1
102
RTVSPropertyOp24
 70
     1
102
RTVSPropertyOp25
 70
     1
102
RTVSPropertyOp26
 70
     1
102
RTVSPropertyOp27
 70
     1
102
RTVSPropertyOp28
 70
     1
102
RTVSPropertyOp29
 70
     1
102
RTVSPropertyOp30
 70
     1
102
RTVSPropertyOp31
 70
     1
102
RTVSPropertyOp32
 70
     1
  0
XRECORD
  5
652D
102
{ACAD_REACTORS
330
652C
102
}
330
652C
100
AcDbXrecord
280
     1
102
RTVSPropertyOp0
 70
     1
102
RTVSPropertyOp1
 70
     1
102
RTVSPropertyOp2
 70
     1
102
RTVSPropertyOp3
 70
     1
102
RTVSPropertyOp4
 70
     1
102
RTVSPropertyOp5
 70
     1
102
RTVSPropertyOp6
 70
     1
102
RTVSPropertyOp7
 70
     1
102
RTVSPropertyOp8
 70
     1
102
RTVSPropertyOp9
 70
     1
102
RTVSPropertyOp10
 70
     1
102
RTVSPropertyOp11
 70
     1
102
RTVSPropertyOp12
 70
     1
102
RTVSPropertyOp13
 70
     1
102
RTVSPropertyOp14
 70
     1
102
RTVSPropertyOp15
 70
     1
102
RTVSPropertyOp16
 70
     1
102
RTVSPropertyOp17
 70
     1
102
RTVSPropertyOp18
 70
     1
102
RTVSPropertyOp19
 70
     1
102
RTVSPropertyOp20
 70
     1
102
RTVSPropertyOp21
 70
     1
102
RTVSPropertyOp22
 70
     1
102
RTVSPropertyOp23
 70
     1
102
RTVSPropertyOp24
 70
     1
102
RTVSPropertyOp25
 70
     1
102
RTVSPropertyOp26
 70
     1
102
RTVSPropertyOp27
 70
     1
102
RTVSPropertyOp28
 70
     1
102
RTVSPropertyOp29
 70
     1
102
RTVSPropertyOp30
 70
     1
102
RTVSPropertyOp31
 70
     1
102
RTVSPropertyOp32
 70
     1
  0
XRECORD
  5
652F
102
{ACAD_REACTORS
330
652E
102
}
330
652E
100
AcDbXrecord
280
     1
102
RTVSPropertyOp0
 70
     1
102
RTVSPropertyOp1
 70
     1
102
RTVSPropertyOp2
 70
     1
102
RTVSPropertyOp3
 70
     1
102
RTVSPropertyOp4
 70
     1
102
RTVSPropertyOp5
 70
     1
102
RTVSPropertyOp6
 70
     1
102
RTVSPropertyOp7
 70
     1
102
RTVSPropertyOp8
 70
     1
102
RTVSPropertyOp9
 70
     1
102
RTVSPropertyOp10
 70
     1
102
RTVSPropertyOp11
 70
     1
102
RTVSPropertyOp12
 70
     1
102
RTVSPropertyOp13
 70
     1
102
RTVSPropertyOp14
 70
     1
102
RTVSPropertyOp15
 70
     1
102
RTVSPropertyOp16
 70
     1
102
RTVSPropertyOp17
 70
     1
102
RTVSPropertyOp18
 70
     1
102
RTVSPropertyOp19
 70
     1
102
RTVSPropertyOp20
 70
     1
102
RTVSPropertyOp21
 70
     1
102
RTVSPropertyOp22
 70
     1
102
RTVSPropertyOp23
 70
     1
102
RTVSPropertyOp24
 70
     1
102
RTVSPropertyOp25
 70
     1
102
RTVSPropertyOp26
 70
     1
102
RTVSPropertyOp27
 70
     1
102
RTVSPropertyOp28
 70
     1
102
RTVSPropertyOp29
 70
     1
102
RTVSPropertyOp30
 70
     1
102
RTVSPropertyOp31
 70
     1
102
RTVSPropertyOp32
 70
     1
  0
XRECORD
  5
6531
102
{ACAD_REACTORS
330
6530
102
}
330
6530
100
AcDbXrecord
280
     1
102
RTVSPropertyOp0
 70
     1
102
RTVSPropertyOp1
 70
     1
102
RTVSPropertyOp2
 70
     1
102
RTVSPropertyOp3
 70
     1
102
RTVSPropertyOp4
 70
     1
102
RTVSPropertyOp5
 70
     1
102
RTVSPropertyOp6
 70
     1
102
RTVSPropertyOp7
 70
     1
102
RTVSPropertyOp8
 70
     1
102
RTVSPropertyOp9
 70
     1
102
RTVSPropertyOp10
 70
     1
102
RTVSPropertyOp11
 70
     1
102
RTVSPropertyOp12
 70
     1
102
RTVSPropertyOp13
 70
     1
102
RTVSPropertyOp14
 70
     1
102
RTVSPropertyOp15
 70
     1
102
RTVSPropertyOp16
 70
     1
102
RTVSPropertyOp17
 70
     1
102
RTVSPropertyOp18
 70
     1
102
RTVSPropertyOp19
 70
     1
102
RTVSPropertyOp20
 70
     1
102
RTVSPropertyOp21
 70
     1
102
RTVSPropertyOp22
 70
     1
102
RTVSPropertyOp23
 70
     1
102
RTVSPropertyOp24
 70
     1
102
RTVSPropertyOp25
 70
     1
102
RTVSPropertyOp26
 70
     1
102
RTVSPropertyOp27
 70
     1
102
RTVSPropertyOp28
 70
     1
102
RTVSPropertyOp29
 70
     1
102
RTVSPropertyOp30
 70
     1
102
RTVSPropertyOp31
 70
     1
102
RTVSPropertyOp32
 70
     1
  0
XRECORD
  5
6539
102
{ACAD_REACTORS
330
6538
102
}
330
6538
100
AcDbXrecord
280
     1
102
RTVSPropertyOp0
 70
     1
102
RTVSPropertyOp1
 70
     1
102
RTVSPropertyOp2
 70
     1
102
RTVSPropertyOp3
 70
     1
102
RTVSPropertyOp4
 70
     1
102
RTVSPropertyOp5
 70
     1
102
RTVSPropertyOp6
 70
     1
102
RTVSPropertyOp7
 70
     1
102
RTVSPropertyOp8
 70
     1
102
RTVSPropertyOp9
 70
     1
102
RTVSPropertyOp10
 70
     1
102
RTVSPropertyOp11
 70
     1
102
RTVSPropertyOp12
 70
     1
102
RTVSPropertyOp13
 70
     1
102
RTVSPropertyOp14
 70
     1
102
RTVSPropertyOp15
 70
     1
102
RTVSPropertyOp16
 70
     1
102
RTVSPropertyOp17
 70
     1
102
RTVSPropertyOp18
 70
     1
102
RTVSPropertyOp19
 70
     1
102
RTVSPropertyOp20
 70
     1
102
RTVSPropertyOp21
 70
     1
102
RTVSPropertyOp22
 70
     1
102
RTVSPropertyOp23
 70
     1
102
RTVSPropertyOp24
 70
     1
102
RTVSPropertyOp25
 70
     1
102
RTVSPropertyOp26
 70
     1
102
RTVSPropertyOp27
 70
     1
102
RTVSPropertyOp28
 70
     1
102
RTVSPropertyOp29
 70
     1
102
RTVSPropertyOp30
 70
     1
102
RTVSPropertyOp31
 70
     1
102
RTVSPropertyOp32
 70
     1
  0
XRECORD
  5
6555
102
{ACAD_REACTORS
330
6554
102
}
330
6554
100
AcDbXrecord
280
     1
102
RTVSPropertyOp0
 70
     0
102
RTVSPropertyOp1
 70
     0
102
RTVSPropertyOp2
 70
     0
102
RTVSPropertyOp3
 70
     0
102
RTVSPropertyOp4
 70
     0
102
RTVSPropertyOp5
 70
     0
102
RTVSPropertyOp6
 70
     0
102
RTVSPropertyOp7
 70
     0
102
RTVSPropertyOp8
 70
     0
102
RTVSPropertyOp9
 70
     0
102
RTVSPropertyOp10
 70
     0
102
RTVSPropertyOp11
 70
     0
102
RTVSPropertyOp12
 70
     0
102
RTVSPropertyOp13
 70
     0
102
RTVSPropertyOp14
 70
     2
102
RTVSPropertyOp15
 70
     0
102
RTVSPropertyOp16
 70
     0
102
RTVSPropertyOp17
 70
     0
102
RTVSPropertyOp18
 70
     0
102
RTVSPropertyOp19
 70
     0
102
RTVSPropertyOp20
 70
     0
102
RTVSPropertyOp21
 70
     0
102
RTVSPropertyOp22
 70
     0
102
RTVSPropertyOp23
 70
     0
102
RTVSPropertyOp24
 70
     0
102
RTVSPropertyOp25
 70
     0
102
RTVSPropertyOp26
 70
     0
102
RTVSPropertyOp27
 70
     0
102
RTVSPropertyOp28
 70
     1
102
RTVSPropertyOp29
 70
     1
102
RTVSPropertyOp30
 70
     1
102
RTVSPropertyOp31
 70
     1
102
RTVSPropertyOp32
 70
     1
  0
XRECORD
  5
6545
102
{ACAD_REACTORS
330
6544
102
}
330
6544
100
AcDbXrecord
280
     1
102
RTVSPropertyOp0
 70
     1
102
RTVSPropertyOp1
 70
     1
102
RTVSPropertyOp2
 70
     1
102
RTVSPropertyOp3
 70
     1
102
RTVSPropertyOp4
 70
     1
102
RTVSPropertyOp5
 70
     1
102
RTVSPropertyOp6
 70
     1
102
RTVSPropertyOp7
 70
     1
102
RTVSPropertyOp8
 70
     1
102
RTVSPropertyOp9
 70
     1
102
RTVSPropertyOp10
 70
     1
102
RTVSPropertyOp11
 70
     1
102
RTVSPropertyOp12
 70
     1
102
RTVSPropertyOp13
 70
     1
102
RTVSPropertyOp14
 70
     1
102
RTVSPropertyOp15
 70
     1
102
RTVSPropertyOp16
 70
     1
102
RTVSPropertyOp17
 70
     1
102
RTVSPropertyOp18
 70
     1
102
RTVSPropertyOp19
 70
     1
102
RTVSPropertyOp20
 70
     1
102
RTVSPropertyOp21
 70
     1
102
RTVSPropertyOp22
 70
     1
102
RTVSPropertyOp23
 70
     1
102
RTVSPropertyOp24
 70
     1
102
RTVSPropertyOp25
 70
     1
102
RTVSPropertyOp26
 70
     1
102
RTVSPropertyOp27
 70
     1
102
RTVSPropertyOp28
 70
     1
102
RTVSPropertyOp29
 70
     1
102
RTVSPropertyOp30
 70
     1
102
RTVSPropertyOp31
 70
     1
102
RTVSPropertyOp32
 70
     1
  0
XRECORD
  5
6557
102
{ACAD_REACTORS
330
6556
102
}
330
6556
100
AcDbXrecord
280
     1
102
RTVSPropertyOp0
 70
     0
102
RTVSPropertyOp1
 70
     0
102
RTVSPropertyOp2
 70
     0
102
RTVSPropertyOp3
 70
     0
102
RTVSPropertyOp4
 70
     0
102
RTVSPropertyOp5
 70
     0
102
RTVSPropertyOp6
 70
     0
102
RTVSPropertyOp7
 70
     0
102
RTVSPropertyOp8
 70
     0
102
RTVSPropertyOp9
 70
     0
102
RTVSPropertyOp10
 70
     0
102
RTVSPropertyOp11
 70
     0
102
RTVSPropertyOp12
 70
     0
102
RTVSPropertyOp13
 70
     0
102
RTVSPropertyOp14
 70
     2
102
RTVSPropertyOp15
 70
     0
102
RTVSPropertyOp16
 70
     0
102
RTVSPropertyOp17
 70
     0
102
RTVSPropertyOp18
 70
     0
102
RTVSPropertyOp19
 70
     0
102
RTVSPropertyOp20
 70
     0
102
RTVSPropertyOp21
 70
     0
102
RTVSPropertyOp22
 70
     0
102
RTVSPropertyOp23
 70
     0
102
RTVSPropertyOp24
 70
     0
102
RTVSPropertyOp25
 70
     0
102
RTVSPropertyOp26
 70
     0
102
RTVSPropertyOp27
 70
     0
102
RTVSPropertyOp28
 70
     1
102
RTVSPropertyOp29
 70
     1
102
RTVSPropertyOp30
 70
     1
102
RTVSPropertyOp31
 70
     1
102
RTVSPropertyOp32
 70
     1
  0
XRECORD
  5
653D
102
{ACAD_REACTORS
330
653C
102
}
330
653C
100
AcDbXrecord
280
     1
102
RTVSPropertyOp0
 70
     1
102
RTVSPropertyOp1
 70
     1
102
RTVSPropertyOp2
 70
     1
102
RTVSPropertyOp3
 70
     1
102
RTVSPropertyOp4
 70
     1
102
RTVSPropertyOp5
 70
     1
102
RTVSPropertyOp6
 70
     1
102
RTVSPropertyOp7
 70
     1
102
RTVSPropertyOp8
 70
     1
102
RTVSPropertyOp9
 70
     1
102
RTVSPropertyOp10
 70
     1
102
RTVSPropertyOp11
 70
     1
102
RTVSPropertyOp12
 70
     1
102
RTVSPropertyOp13
 70
     1
102
RTVSPropertyOp14
 70
     1
102
RTVSPropertyOp15
 70
     1
102
RTVSPropertyOp16
 70
     1
102
RTVSPropertyOp17
 70
     1
102
RTVSPropertyOp18
 70
     1
102
RTVSPropertyOp19
 70
     1
102
RTVSPropertyOp20
 70
     1
102
RTVSPropertyOp21
 70
     1
102
RTVSPropertyOp22
 70
     1
102
RTVSPropertyOp23
 70
     1
102
RTVSPropertyOp24
 70
     1
102
RTVSPropertyOp25
 70
     1
102
RTVSPropertyOp26
 70
     1
102
RTVSPropertyOp27
 70
     1
102
RTVSPropertyOp28
 70
     1
102
RTVSPropertyOp29
 70
     1
102
RTVSPropertyOp30
 70
     1
102
RTVSPropertyOp31
 70
     1
102
RTVSPropertyOp32
 70
     1
  0
XRECORD
  5
6553
102
{ACAD_REACTORS
330
6552
102
}
330
6552
100
AcDbXrecord
280
     1
102
RTVSPropertyOp0
 70
     1
102
RTVSPropertyOp1
 70
     1
102
RTVSPropertyOp2
 70
     1
102
RTVSPropertyOp3
 70
     1
102
RTVSPropertyOp4
 70
     1
102
RTVSPropertyOp5
 70
     1
102
RTVSPropertyOp6
 70
     1
102
RTVSPropertyOp7
 70
     1
102
RTVSPropertyOp8
 70
     1
102
RTVSPropertyOp9
 70
     1
102
RTVSPropertyOp10
 70
     1
102
RTVSPropertyOp11
 70
     1
102
RTVSPropertyOp12
 70
     1
102
RTVSPropertyOp13
 70
     1
102
RTVSPropertyOp14
 70
     1
102
RTVSPropertyOp15
 70
     1
102
RTVSPropertyOp16
 70
     1
102
RTVSPropertyOp17
 70
     1
102
RTVSPropertyOp18
 70
     1
102
RTVSPropertyOp19
 70
     1
102
RTVSPropertyOp20
 70
     1
102
RTVSPropertyOp21
 70
     1
102
RTVSPropertyOp22
 70
     1
102
RTVSPropertyOp23
 70
     1
102
RTVSPropertyOp24
 70
     1
102
RTVSPropertyOp25
 70
     1
102
RTVSPropertyOp26
 70
     1
102
RTVSPropertyOp27
 70
     1
102
RTVSPropertyOp28
 70
     1
102
RTVSPropertyOp29
 70
     1
102
RTVSPropertyOp30
 70
     1
102
RTVSPropertyOp31
 70
     1
102
RTVSPropertyOp32
 70
     1
  0
XRECORD
  5
6551
102
{ACAD_REACTORS
330
6550
102
}
330
6550
100
AcDbXrecord
280
     1
102
RTVSPropertyOp0
 70
     1
102
RTVSPropertyOp1
 70
     1
102
RTVSPropertyOp2
 70
     1
102
RTVSPropertyOp3
 70
     1
102
RTVSPropertyOp4
 70
     1
102
RTVSPropertyOp5
 70
     1
102
RTVSPropertyOp6
 70
     1
102
RTVSPropertyOp7
 70
     1
102
RTVSPropertyOp8
 70
     1
102
RTVSPropertyOp9
 70
     1
102
RTVSPropertyOp10
 70
     1
102
RTVSPropertyOp11
 70
     1
102
RTVSPropertyOp12
 70
     1
102
RTVSPropertyOp13
 70
     1
102
RTVSPropertyOp14
 70
     1
102
RTVSPropertyOp15
 70
     1
102
RTVSPropertyOp16
 70
     1
102
RTVSPropertyOp17
 70
     1
102
RTVSPropertyOp18
 70
     1
102
RTVSPropertyOp19
 70
     1
102
RTVSPropertyOp20
 70
     1
102
RTVSPropertyOp21
 70
     1
102
RTVSPropertyOp22
 70
     1
102
RTVSPropertyOp23
 70
     1
102
RTVSPropertyOp24
 70
     1
102
RTVSPropertyOp25
 70
     1
102
RTVSPropertyOp26
 70
     1
102
RTVSPropertyOp27
 70
     1
102
RTVSPropertyOp28
 70
     1
102
RTVSPropertyOp29
 70
     1
102
RTVSPropertyOp30
 70
     1
102
RTVSPropertyOp31
 70
     1
102
RTVSPropertyOp32
 70
     1
  0
XRECORD
  5
654B
102
{ACAD_REACTORS
330
654A
102
}
330
654A
100
AcDbXrecord
280
     1
102
RTVSPropertyOp0
 70
     1
102
RTVSPropertyOp1
 70
     1
102
RTVSPropertyOp2
 70
     1
102
RTVSPropertyOp3
 70
     1
102
RTVSPropertyOp4
 70
     1
102
RTVSPropertyOp5
 70
     1
102
RTVSPropertyOp6
 70
     1
102
RTVSPropertyOp7
 70
     1
102
RTVSPropertyOp8
 70
     1
102
RTVSPropertyOp9
 70
     1
102
RTVSPropertyOp10
 70
     1
102
RTVSPropertyOp11
 70
     1
102
RTVSPropertyOp12
 70
     1
102
RTVSPropertyOp13
 70
     1
102
RTVSPropertyOp14
 70
     1
102
RTVSPropertyOp15
 70
     1
102
RTVSPropertyOp16
 70
     1
102
RTVSPropertyOp17
 70
     1
102
RTVSPropertyOp18
 70
     1
102
RTVSPropertyOp19
 70
     1
102
RTVSPropertyOp20
 70
     1
102
RTVSPropertyOp21
 70
     1
102
RTVSPropertyOp22
 70
     1
102
RTVSPropertyOp23
 70
     1
102
RTVSPropertyOp24
 70
     1
102
RTVSPropertyOp25
 70
     1
102
RTVSPropertyOp26
 70
     1
102
RTVSPropertyOp27
 70
     1
102
RTVSPropertyOp28
 70
     1
102
RTVSPropertyOp29
 70
     1
102
RTVSPropertyOp30
 70
     1
102
RTVSPropertyOp31
 70
     1
102
RTVSPropertyOp32
 70
     1
  0
XRECORD
  5
654D
102
{ACAD_REACTORS
330
654C
102
}
330
654C
100
AcDbXrecord
280
     1
102
RTVSPropertyOp0
 70
     1
102
RTVSPropertyOp1
 70
     1
102
RTVSPropertyOp2
 70
     1
102
RTVSPropertyOp3
 70
     1
102
RTVSPropertyOp4
 70
     1
102
RTVSPropertyOp5
 70
     1
102
RTVSPropertyOp6
 70
     1
102
RTVSPropertyOp7
 70
     1
102
RTVSPropertyOp8
 70
     1
102
RTVSPropertyOp9
 70
     1
102
RTVSPropertyOp10
 70
     1
102
RTVSPropertyOp11
 70
     1
102
RTVSPropertyOp12
 70
     1
102
RTVSPropertyOp13
 70
     1
102
RTVSPropertyOp14
 70
     1
102
RTVSPropertyOp15
 70
     1
102
RTVSPropertyOp16
 70
     1
102
RTVSPropertyOp17
 70
     1
102
RTVSPropertyOp18
 70
     1
102
RTVSPropertyOp19
 70
     1
102
RTVSPropertyOp20
 70
     1
102
RTVSPropertyOp21
 70
     1
102
RTVSPropertyOp22
 70
     1
102
RTVSPropertyOp23
 70
     1
102
RTVSPropertyOp24
 70
     1
102
RTVSPropertyOp25
 70
     1
102
RTVSPropertyOp26
 70
     1
102
RTVSPropertyOp27
 70
     1
102
RTVSPropertyOp28
 70
     1
102
RTVSPropertyOp29
 70
     1
102
RTVSPropertyOp30
 70
     1
102
RTVSPropertyOp31
 70
     1
102
RTVSPropertyOp32
 70
     1
  0
XRECORD
  5
6543
102
{ACAD_REACTORS
330
6542
102
}
330
6542
100
AcDbXrecord
280
     1
102
RTVSPropertyOp0
 70
     1
102
RTVSPropertyOp1
 70
     1
102
RTVSPropertyOp2
 70
     1
102
RTVSPropertyOp3
 70
     1
102
RTVSPropertyOp4
 70
     1
102
RTVSPropertyOp5
 70
     1
102
RTVSPropertyOp6
 70
     1
102
RTVSPropertyOp7
 70
     1
102
RTVSPropertyOp8
 70
     1
102
RTVSPropertyOp9
 70
     1
102
RTVSPropertyOp10
 70
     1
102
RTVSPropertyOp11
 70
     1
102
RTVSPropertyOp12
 70
     1
102
RTVSPropertyOp13
 70
     1
102
RTVSPropertyOp14
 70
     1
102
RTVSPropertyOp15
 70
     1
102
RTVSPropertyOp16
 70
     1
102
RTVSPropertyOp17
 70
     1
102
RTVSPropertyOp18
 70
     1
102
RTVSPropertyOp19
 70
     1
102
RTVSPropertyOp20
 70
     1
102
RTVSPropertyOp21
 70
     1
102
RTVSPropertyOp22
 70
     1
102
RTVSPropertyOp23
 70
     1
102
RTVSPropertyOp24
 70
     1
102
RTVSPropertyOp25
 70
     1
102
RTVSPropertyOp26
 70
     1
102
RTVSPropertyOp27
 70
     1
102
RTVSPropertyOp28
 70
     1
102
RTVSPropertyOp29
 70
     1
102
RTVSPropertyOp30
 70
     1
102
RTVSPropertyOp31
 70
     1
102
RTVSPropertyOp32
 70
     1
  0
XRECORD
  5
6537
102
{ACAD_REACTORS
330
6536
102
}
330
6536
100
AcDbXrecord
280
     1
102
RTVSPropertyOp0
 70
     1
102
RTVSPropertyOp1
 70
     1
102
RTVSPropertyOp2
 70
     1
102
RTVSPropertyOp3
 70
     1
102
RTVSPropertyOp4
 70
     1
102
RTVSPropertyOp5
 70
     1
102
RTVSPropertyOp6
 70
     1
102
RTVSPropertyOp7
 70
     1
102
RTVSPropertyOp8
 70
     1
102
RTVSPropertyOp9
 70
     1
102
RTVSPropertyOp10
 70
     1
102
RTVSPropertyOp11
 70
     1
102
RTVSPropertyOp12
 70
     1
102
RTVSPropertyOp13
 70
     1
102
RTVSPropertyOp14
 70
     1
102
RTVSPropertyOp15
 70
     1
102
RTVSPropertyOp16
 70
     1
102
RTVSPropertyOp17
 70
     1
102
RTVSPropertyOp18
 70
     1
102
RTVSPropertyOp19
 70
     1
102
RTVSPropertyOp20
 70
     1
102
RTVSPropertyOp21
 70
     1
102
RTVSPropertyOp22
 70
     1
102
RTVSPropertyOp23
 70
     1
102
RTVSPropertyOp24
 70
     1
102
RTVSPropertyOp25
 70
     1
102
RTVSPropertyOp26
 70
     1
102
RTVSPropertyOp27
 70
     1
102
RTVSPropertyOp28
 70
     1
102
RTVSPropertyOp29
 70
     1
102
RTVSPropertyOp30
 70
     1
102
RTVSPropertyOp31
 70
     1
102
RTVSPropertyOp32
 70
     1
  0
XRECORD
  5
654F
102
{ACAD_REACTORS
330
654E
102
}
330
654E
100
AcDbXrecord
280
     1
102
RTVSPropertyOp0
 70
     1
102
RTVSPropertyOp1
 70
     1
102
RTVSPropertyOp2
 70
     1
102
RTVSPropertyOp3
 70
     1
102
RTVSPropertyOp4
 70
     1
102
RTVSPropertyOp5
 70
     1
102
RTVSPropertyOp6
 70
     1
102
RTVSPropertyOp7
 70
     1
102
RTVSPropertyOp8
 70
     1
102
RTVSPropertyOp9
 70
     1
102
RTVSPropertyOp10
 70
     1
102
RTVSPropertyOp11
 70
     1
102
RTVSPropertyOp12
 70
     1
102
RTVSPropertyOp13
 70
     1
102
RTVSPropertyOp14
 70
     1
102
RTVSPropertyOp15
 70
     1
102
RTVSPropertyOp16
 70
     1
102
RTVSPropertyOp17
 70
     1
102
RTVSPropertyOp18
 70
     1
102
RTVSPropertyOp19
 70
     1
102
RTVSPropertyOp20
 70
     1
102
RTVSPropertyOp21
 70
     1
102
RTVSPropertyOp22
 70
     1
102
RTVSPropertyOp23
 70
     1
102
RTVSPropertyOp24
 70
     1
102
RTVSPropertyOp25
 70
     1
102
RTVSPropertyOp26
 70
     1
102
RTVSPropertyOp27
 70
     1
102
RTVSPropertyOp28
 70
     1
102
RTVSPropertyOp29
 70
     1
102
RTVSPropertyOp30
 70
     1
102
RTVSPropertyOp31
 70
     1
102
RTVSPropertyOp32
 70
     1
  0
ENDSEC
  0
EOF
