  0
SECTION
  2
HEADER
  9
$ACADVER
  1
AC1021
  9
$ACADMAINTVER
 70
    50
  9
$DWGCODEPAGE
  3
ANSI_932
  9
$SUBJECT
  1
排水金具
  9
$AUTHOR
  1
寺澤智広
  9
$COMMENTS
  1
2012.07.05 作成^M^J2013.07.30　ﾎﾟｯﾌﾟｱｯﾌﾟ締付長さ変更^M^J
  9
$LASTSAVEDBY
  1
yamadak36
  9
$INSBASE
 10
0.0
 20
0.0
 30
0.0
  9
$EXTMIN
 10
0.0
 20
0.0
 30
0.0
  9
$EXTMAX
 10
420.0000000000001
 20
594.0
 30
0.0
  9
$LIMMIN
 10
0.0
 20
0.0
  9
$LIMMAX
 10
420.0
 20
594.0
  9
$ORTHOMODE
 70
     1
  9
$REGENMODE
 70
     0
  9
$FILLMODE
 70
     1
  9
$QTEXTMODE
 70
     0
  9
$MIRRTEXT
 70
     0
  9
$LTSCALE
 40
16.0
  9
$ATTMODE
 70
     1
  9
$TEXTSIZE
 40
4.0
  9
$TRACEWID
 40
0.05
  9
$TEXTSTYLE
  7
MSP明朝
  9
$CLAYER
  8
0
  9
$CELTYPE
  6
BYLAYER
  9
$CECOLOR
 62
   256
  9
$CELTSCALE
 40
1.0
  9
$DISPSILH
 70
     0
  9
$DIMSCALE
 40
2.0
  9
$DIMASZ
 40
1.5
  9
$DIMEXO
 40
0.5
  9
$DIMDLI
 40
10.0
  9
$DIMRND
 40
0.0
  9
$DIMDLE
 40
0.0
  9
$DIMEXE
 40
2.0
  9
$DIMTP
 40
0.0
  9
$DIMTM
 40
0.000000001
  9
$DIMTXT
 40
4.0
  9
$DIMCEN
 40
0.0
  9
$DIMTSZ
 40
0.0
  9
$DIMTOL
 70
     0
  9
$DIMLIM
 70
     0
  9
$DIMTIH
 70
     0
  9
$DIMTOH
 70
     0
  9
$DIMSE1
 70
     0
  9
$DIMSE2
 70
     0
  9
$DIMTAD
 70
     3
  9
$DIMZIN
 70
     8
  9
$DIMBLK
  1
YAZ1
  9
$DIMASO
 70
     1
  9
$DIMSHO
 70
     1
  9
$DIMPOST
  1

  9
$DIMAPOST
  1

  9
$DIMALT
 70
     0
  9
$DIMALTD
 70
     2
  9
$DIMALTF
 40
25.4
  9
$DIMLFAC
 40
1.0
  9
$DIMTOFL
 70
     1
  9
$DIMTVP
 40
0.0
  9
$DIMTIX
 70
     0
  9
$DIMSOXD
 70
     0
  9
$DIMSAH
 70
     0
  9
$DIMBLK1
  1

  9
$DIMBLK2
  1

  9
$DIMSTYLE
  2
STANDARD
  9
$DIMCLRD
 70
     0
  9
$DIMCLRE
 70
     0
  9
$DIMCLRT
 70
     0
  9
$DIMTFAC
 40
1.0
  9
$DIMGAP
 40
1.0
  9
$DIMJUST
 70
     0
  9
$DIMSD1
 70
     0
  9
$DIMSD2
 70
     0
  9
$DIMTOLJ
 70
     1
  9
$DIMTZIN
 70
     8
  9
$DIMALTZ
 70
     0
  9
$DIMALTTZ
 70
     0
  9
$DIMUPT
 70
     0
  9
$DIMDEC
 70
     2
  9
$DIMTDEC
 70
     2
  9
$DIMALTU
 70
     2
  9
$DIMALTTD
 70
     2
  9
$DIMTXSTY
  7
STANDARD
  9
$DIMAUNIT
 70
     0
  9
$DIMADEC
 70
     2
  9
$DIMALTRND
 40
0.0
  9
$DIMAZIN
 70
     2
  9
$DIMDSEP
 70
    46
  9
$DIMATFIT
 70
     1
  9
$DIMFRAC
 70
     0
  9
$DIMLDRBLK
  1
YAZ1
  9
$DIMLUNIT
 70
     2
  9
$DIMLWD
 70
    -2
  9
$DIMLWE
 70
    -2
  9
$DIMTMOVE
 70
     0
  9
$DIMFXL
 40
1.0
  9
$DIMFXLON
 70
     0
  9
$DIMJOGANG
 40
0.7853981633974483
  9
$DIMTFILL
 70
     0
  9
$DIMTFILLCLR
 70
     0
  9
$DIMARCSYM
 70
     0
  9
$DIMLTYPE
  6

  9
$DIMLTEX1
  6

  9
$DIMLTEX2
  6

  9
$LUNITS
 70
     2
  9
$LUPREC
 70
     2
  9
$SKETCHINC
 40
0.1
  9
$FILLETRAD
 40
0.0
  9
$AUNITS
 70
     0
  9
$AUPREC
 70
     2
  9
$MENU
  1
amecex
  9
$ELEVATION
 40
0.0
  9
$PELEVATION
 40
0.0
  9
$THICKNESS
 40
0.0
  9
$LIMCHECK
 70
     0
  9
$CHAMFERA
 40
0.5
  9
$CHAMFERB
 40
0.5
  9
$CHAMFERC
 40
0.0
  9
$CHAMFERD
 40
0.0
  9
$SKPOLY
 70
     0
  9
$TDCREATE
 40
2455266.571175023
  9
$TDUCREATE
 40
2455266.196175023
  9
$TDUPDATE
 40
2457367.565905312
  9
$TDUUPDATE
 40
2457367.190905312
  9
$TDINDWG
 40
0.2323150579
  9
$TDUSRTIMER
 40
0.2323150231
  9
$USRTIMER
 70
     1
  9
$ANGBASE
 50
0.0
  9
$ANGDIR
 70
     0
  9
$PDMODE
 70
     2
  9
$PDSIZE
 40
2.0
  9
$PLINEWID
 40
0.0
  9
$SPLFRAME
 70
     0
  9
$SPLINETYPE
 70
     6
  9
$SPLINESEGS
 70
     8
  9
$HANDSEED
  5
67F9
  9
$SURFTAB1
 70
     6
  9
$SURFTAB2
 70
     6
  9
$SURFTYPE
 70
     6
  9
$SURFU
 70
     6
  9
$SURFV
 70
     6
  9
$UCSBASE
  2

  9
$UCSNAME
  2

  9
$UCSORG
 10
0.0
 20
0.0
 30
0.0
  9
$UCSXDIR
 10
1.0
 20
0.0
 30
0.0
  9
$UCSYDIR
 10
0.0
 20
1.0
 30
0.0
  9
$UCSORTHOREF
  2

  9
$UCSORTHOVIEW
 70
     0
  9
$UCSORGTOP
 10
0.0
 20
0.0
 30
0.0
  9
$UCSORGBOTTOM
 10
0.0
 20
0.0
 30
0.0
  9
$UCSORGLEFT
 10
0.0
 20
0.0
 30
0.0
  9
$UCSORGRIGHT
 10
0.0
 20
0.0
 30
0.0
  9
$UCSORGFRONT
 10
0.0
 20
0.0
 30
0.0
  9
$UCSORGBACK
 10
0.0
 20
0.0
 30
0.0
  9
$PUCSBASE
  2

  9
$PUCSNAME
  2

  9
$PUCSORG
 10
0.0
 20
0.0
 30
0.0
  9
$PUCSXDIR
 10
1.0
 20
0.0
 30
0.0
  9
$PUCSYDIR
 10
0.0
 20
1.0
 30
0.0
  9
$PUCSORTHOREF
  2

  9
$PUCSORTHOVIEW
 70
     0
  9
$PUCSORGTOP
 10
0.0
 20
0.0
 30
0.0
  9
$PUCSORGBOTTOM
 10
0.0
 20
0.0
 30
0.0
  9
$PUCSORGLEFT
 10
0.0
 20
0.0
 30
0.0
  9
$PUCSORGRIGHT
 10
0.0
 20
0.0
 30
0.0
  9
$PUCSORGFRONT
 10
0.0
 20
0.0
 30
0.0
  9
$PUCSORGBACK
 10
0.0
 20
0.0
 30
0.0
  9
$USERI1
 70
     1
  9
$USERI2
 70
     2
  9
$USERI3
 70
     0
  9
$USERI4
 70
     0
  9
$USERI5
 70
     0
  9
$USERR1
 40
2004.01
  9
$USERR2
 40
0.0
  9
$USERR3
 40
0.0
  9
$USERR4
 40
0.0
  9
$USERR5
 40
0.0
  9
$WORLDVIEW
 70
     1
  9
$SHADEDGE
 70
     3
  9
$SHADEDIF
 70
    70
  9
$TILEMODE
 70
     1
  9
$MAXACTVP
 70
    16
  9
$PINSBASE
 10
0.0
 20
0.0
 30
0.0
  9
$PLIMCHECK
 70
     0
  9
$PEXTMIN
 10
26.66999878883363
 20
20.31999878883363
 30
0.0
  9
$PEXTMAX
 10
240.0299890995026
 20
182.8799890995025
 30
0.0
  9
$PLIMMIN
 10
-6.350006103515625
 20
-6.349999904632567
  9
$PLIMMAX
 10
273.0499877929688
 20
209.5499939918518
  9
$UNITMODE
 70
     0
  9
$VISRETAIN
 70
     0
  9
$PLINEGEN
 70
     0
  9
$PSLTSCALE
 70
     1
  9
$TREEDEPTH
 70
  3020
  9
$CMLSTYLE
  2
STANDARD
  9
$CMLJUST
 70
     0
  9
$CMLSCALE
 40
1.0
  9
$PROXYGRAPHICS
 70
     1
  9
$MEASUREMENT
 70
     1
  9
$CELWEIGHT
370
    -1
  9
$ENDCAPS
280
     0
  9
$JOINSTYLE
280
     0
  9
$LWDISPLAY
290
     0
  9
$INSUNITS
 70
     0
  9
$HYPERLINKBASE
  1

  9
$STYLESHEET
  1
R16.CTB
  9
$XEDIT
290
     1
  9
$CEPSNTYPE
380
     0
  9
$PSTYLEMODE
290
     1
  9
$FINGERPRINTGUID
  2
{28C3145F-7154-4FEB-8A20-1D8C33D1AA00}
  9
$VERSIONGUID
  2
{867A1447-EB6D-487B-9AC0-D2365C15C184}
  9
$EXTNAMES
290
     1
  9
$PSVPSCALE
 40
0.0
  9
$OLESTARTUP
290
     0
  9
$SORTENTS
280
   127
  9
$INDEXCTL
280
     0
  9
$HIDETEXT
280
     0
  9
$XCLIPFRAME
290
     0
  9
$HALOGAP
280
     0
  9
$OBSCOLOR
 70
   257
  9
$OBSLTYPE
280
     0
  9
$INTERSECTIONDISPLAY
280
     0
  9
$INTERSECTIONCOLOR
 70
   257
  9
$DIMASSOC
280
     1
  9
$PROJECTNAME
  1

  9
$CAMERADISPLAY
290
     0
  9
$LENSLENGTH
 40
50.0
  9
$CAMERAHEIGHT
 40
0.0
  9
$STEPSPERSEC
 40
2.0
  9
$STEPSIZE
 40
6.0
  9
$3DDWFPREC
 40
2.0
  9
$PSOLWIDTH
 40
0.25
  9
$PSOLHEIGHT
 40
4.0
  9
$LOFTANG1
 40
1.570796326794896
  9
$LOFTANG2
 40
1.570796326794896
  9
$LOFTMAG1
 40
0.0
  9
$LOFTMAG2
 40
0.0
  9
$LOFTPARAM
 70
     7
  9
$LOFTNORMALS
280
     1
  9
$LATITUDE
 40
37.795
  9
$LONGITUDE
 40
-122.394
  9
$NORTHDIRECTION
 40
0.0
  9
$TIMEZONE
 70
 -8000
  9
$LIGHTGLYPHDISPLAY
280
     1
  9
$TILEMODELIGHTSYNCH
280
     1
  9
$CMATERIAL
347
6455
  9
$SOLIDHIST
280
     1
  9
$SHOWHIST
280
     1
  9
$DWFFRAME
280
     2
  9
$DGNFRAME
280
     0
  9
$REALWORLDSCALE
290
     1
  9
$INTERFERECOLOR
 62
     1
  9
$INTERFEREOBJVS
345
6477
  9
$INTERFEREVPVS
346
6474
  9
$CSHADOW
280
     0
  9
$SHADOWPLANELOCATION
 40
0.0
  0
ENDSEC
  0
SECTION
  2
CLASSES
  0
CLASS
  1
ACDBDICTIONARYWDFLT
  2
AcDbDictionaryWithDefault
  3
ObjectDBX Classes
 90
        0
 91
        1
280
     0
281
     0
  0
CLASS
  1
DIMASSOC
  2
AcDbDimAssoc
  3
"AcDbDimAssoc|Product Desc:     AcDim ARX App For Dimension|Company:          Autodesk, Inc.|WEB Address:      www.autodesk.com"
 90
        0
 91
        0
280
     0
281
     0
  0
CLASS
  1
DICTIONARYVAR
  2
AcDbDictionaryVar
  3
ObjectDBX Classes
 90
        0
 91
        9
280
     0
281
     0
  0
CLASS
  1
MATERIAL
  2
AcDbMaterial
  3
ObjectDBX Classes
 90
     1153
 91
        3
280
     0
281
     0
  0
CLASS
  1
VISUALSTYLE
  2
AcDbVisualStyle
  3
ObjectDBX Classes
 90
     4095
 91
       24
280
     0
281
     0
  0
CLASS
  1
TABLESTYLE
  2
AcDbTableStyle
  3
ObjectDBX Classes
 90
     4095
 91
        1
280
     0
281
     0
  0
CLASS
  1
SCALE
  2
AcDbScale
  3
ObjectDBX Classes
 90
     1153
 91
       17
280
     0
281
     0
  0
CLASS
  1
MLEADERSTYLE
  2
AcDbMLeaderStyle
  3
ACDB_MLEADERSTYLE_CLASS
 90
     4095
 91
        1
280
     0
281
     0
  0
CLASS
  1
CELLSTYLEMAP
  2
AcDbCellStyleMap
  3
ObjectDBX Classes
 90
     1152
 91
        6
280
     0
281
     0
  0
CLASS
  1
ACAD_EVALUATION_GRAPH
  2
AcDbEvalGraph
  3
ObjectDBX Classes
 90
     1153
 91
        1
280
     0
281
     0
  0
CLASS
  1
ACAECUSTOBJ
  2
AcAeEditorObj
  3
AcAeEditorObj
 90
     1024
 91
        1
280
     0
281
     0
  0
CLASS
  1
ACDB_DYNAMICBLOCKPURGEPREVENTER_VERSION
  2
AcDbDynamicBlockPurgePreventer
  3
ObjectDBX Classes
 90
     1153
 91
        1
280
     0
281
     0
  0
ENDSEC
  0
SECTION
  2
TABLES
  0
TABLE
  2
VPORT
  5
8
330
0
100
AcDbSymbolTable
 70
     1
  0
VPORT
  5
6453
330
8
100
AcDbSymbolTableRecord
100
AcDbViewportTableRecord
  2
*Active
 70
     0
 10
0.0
 20
0.0
 11
1.0
 21
1.0
 12
427.2912935064903
 22
127.1626196325257
 13
0.0
 23
0.0
 14
1.0
 24
1.0
 15
0.0
 25
0.0
 16
0.0
 26
0.0
 36
1.0
 17
0.0
 27
0.0
 37
0.0
 40
531.6236007452394
 41
2.079530638852672
 42
50.0
 43
0.0
 44
0.0
 50
0.0
 51
0.0
 71
     0
 72
  1000
 73
     1
 74
     1
 75
     0
 76
     0
 77
     0
 78
     0
281
     0
 65
     1
110
0.0
120
0.0
130
0.0
111
1.0
121
0.0
131
0.0
112
0.0
122
1.0
132
0.0
 79
     0
146
0.0
348
6473
 60
     3
 61
     5
292
     1
282
     1
141
0.0
142
0.0
 63
   250
421
  3355443
  0
ENDTAB
  0
TABLE
  2
LTYPE
  5
5
330
0
100
AcDbSymbolTable
 70
     5
  0
LTYPE
  5
12
330
5
100
AcDbSymbolTableRecord
100
AcDbLinetypeTableRecord
  2
BYBLOCK
 70
     0
  3

 72
    65
 73
     0
 40
0.0
  0
LTYPE
  5
13
330
5
100
AcDbSymbolTableRecord
100
AcDbLinetypeTableRecord
  2
BYLAYER
 70
     0
  3

 72
    65
 73
     0
 40
0.0
  0
LTYPE
  5
14
330
5
100
AcDbSymbolTableRecord
100
AcDbLinetypeTableRecord
  2
CONTINUOUS
 70
     0
  3
Solid line
 72
    65
 73
     0
 40
0.0
  0
LTYPE
  5
7F6
330
5
100
AcDbSymbolTableRecord
100
AcDbLinetypeTableRecord
  2
CENTER2
 70
     0
  3
___ _ ___ _ ___ _ ___ _ ___ _ ___ _ ___ _ ___ _
 72
    65
 73
     4
 40
1.125
 49
0.75
 74
     0
 49
-0.125
 74
     0
 49
0.125
 74
     0
 49
-0.125
 74
     0
  0
LTYPE
  5
7F7
330
5
100
AcDbSymbolTableRecord
100
AcDbLinetypeTableRecord
  2
DASHED2
 70
     0
  3
_ _ _ _ _ _ _ _ _ _ _ _ _ _ _ _ _ _ _ _ _ _ _ _
 72
    65
 73
     2
 40
0.375
 49
0.25
 74
     0
 49
-0.125
 74
     0
  0
LTYPE
  5
7F8
330
5
100
AcDbSymbolTableRecord
100
AcDbLinetypeTableRecord
  2
PHANTOM2
 70
     0
  3
___ _ _ ___ _ _ ___ _ _ ___ _ _ ___ _ _ ___ _ _
 72
    65
 73
     6
 40
1.25
 49
0.625
 74
     0
 49
-0.125
 74
     0
 49
0.125
 74
     0
 49
-0.125
 74
     0
 49
0.125
 74
     0
 49
-0.125
 74
     0
  0
ENDTAB
  0
TABLE
  2
LAYER
  5
2
102
{ACAD_XDICTIONARY
360
B1D
102
}
330
0
100
AcDbSymbolTable
 70
    16
  0
LAYER
  5
F
102
{ACAD_XDICTIONARY
360
64BB
102
}
330
2
100
AcDbSymbolTableRecord
100
AcDbLayerTableRecord
  2
0
 70
     0
 62
     7
  6
CONTINUOUS
370
    -3
390
27
347
6465
  0
LAYER
  5
99
330
2
100
AcDbSymbolTableRecord
100
AcDbLayerTableRecord
  2
Defpoints
 70
     0
 62
     7
  6
CONTINUOUS
290
     0
370
    -3
390
27
347
6465
  0
LAYER
  5
7F9
102
{ACAD_XDICTIONARY
360
64BD
102
}
330
2
100
AcDbSymbolTableRecord
100
AcDbLayerTableRecord
  2
CENTER
 70
     0
 62
     1
  6
CENTER2
370
    -3
390
27
347
6465
  0
LAYER
  5
7FB
102
{ACAD_XDICTIONARY
360
64BF
102
}
330
2
100
AcDbSymbolTableRecord
100
AcDbLayerTableRecord
  2
HOJYO
 70
     0
 62
    -6
  6
CONTINUOUS
370
    -3
390
27
347
6465
  0
LAYER
  5
7FC
102
{ACAD_XDICTIONARY
360
64C1
102
}
330
2
100
AcDbSymbolTableRecord
100
AcDbLayerTableRecord
  2
SCALE
 70
     0
 62
     4
  6
CONTINUOUS
370
    -3
390
27
347
6465
  0
LAYER
  5
7FD
102
{ACAD_XDICTIONARY
360
64C3
102
}
330
2
100
AcDbSymbolTableRecord
100
AcDbLayerTableRecord
  2
TXT1
 70
     0
 62
     3
  6
CONTINUOUS
370
    -3
390
27
347
6465
  0
LAYER
  5
7FF
102
{ACAD_XDICTIONARY
360
64C5
102
}
330
2
100
AcDbSymbolTableRecord
100
AcDbLayerTableRecord
  2
DRAHAT
 70
     0
 62
     1
  6
CONTINUOUS
370
    -3
390
27
347
6465
  0
LAYER
  5
800
102
{ACAD_XDICTIONARY
360
64C7
102
}
330
2
100
AcDbSymbolTableRecord
100
AcDbLayerTableRecord
  2
GAIKEI
 70
     0
 62
     2
  6
CONTINUOUS
370
    -3
390
27
347
6465
  0
LAYER
  5
801
102
{ACAD_XDICTIONARY
360
64C9
102
}
330
2
100
AcDbSymbolTableRecord
100
AcDbLayerTableRecord
  2
ZOKUSEI
 70
     0
 62
     3
  6
CONTINUOUS
370
    -3
390
27
347
6465
  0
LAYER
  5
802
102
{ACAD_XDICTIONARY
360
64CB
102
}
330
2
100
AcDbSymbolTableRecord
100
AcDbLayerTableRecord
  2
WBLK
 70
     5
 62
    -6
  6
CONTINUOUS
370
    -3
390
27
347
6465
  0
LAYER
  5
803
102
{ACAD_XDICTIONARY
360
64CD
102
}
330
2
100
AcDbSymbolTableRecord
100
AcDbLayerTableRecord
  2
HASEN
 70
     0
 62
     7
  6
DASHED2
370
    -3
390
27
347
6465
  0
LAYER
  5
804
102
{ACAD_XDICTIONARY
360
64CF
102
}
330
2
100
AcDbSymbolTableRecord
100
AcDbLayerTableRecord
  2
NITENSASEN
 70
     0
 62
     7
  6
PHANTOM2
370
    -3
390
27
347
6465
  0
LAYER
  5
B1B
102
{ACAD_XDICTIONARY
360
64D1
102
}
330
2
100
AcDbSymbolTableRecord
100
AcDbLayerTableRecord
  2
図枠
 70
     0
 62
     7
  6
CONTINUOUS
370
    -3
390
27
347
6465
  0
LAYER
  5
DD8
102
{ACAD_XDICTIONARY
360
64D3
102
}
330
2
100
AcDbSymbolTableRecord
100
AcDbLayerTableRecord
  2
BLKDRA
 70
     0
 62
     7
  6
CONTINUOUS
370
    -3
390
27
347
6465
  0
LAYER
  5
1758
102
{ACAD_XDICTIONARY
360
64D5
102
}
330
2
100
AcDbSymbolTableRecord
100
AcDbLayerTableRecord
  2
印
 70
     0
 62
     1
  6
CONTINUOUS
370
    -3
390
27
347
6465
  0
LAYER
  5
1A51
102
{ACAD_XDICTIONARY
360
64D7
102
}
330
2
100
AcDbSymbolTableRecord
100
AcDbLayerTableRecord
  2
DRADOT
 70
     0
 62
    -6
  6
CONTINUOUS
370
    -3
390
27
347
6465
  0
ENDTAB
  0
TABLE
  2
STYLE
  5
3
330
0
100
AcDbSymbolTable
 70
     2
  0
STYLE
  5
10
330
3
100
AcDbSymbolTableRecord
100
AcDbTextStyleTableRecord
  2
STANDARD
 70
     0
 40
0.0
 41
0.7
 50
0.0
 71
     0
 42
8.0
  3
romans.shx
  4
extfont.shx
  0
STYLE
  5
B1C
330
3
100
AcDbSymbolTableRecord
100
AcDbTextStyleTableRecord
  2
MSP明朝
 70
     0
 40
0.0
 41
1.0
 50
0.0
 71
     0
 42
4.0
  3
MS Mincho.ttf
  4

1001
ACAD
1000
MS Mincho
1071
    32785
  0
ENDTAB
  0
TABLE
  2
VIEW
  5
6
330
0
100
AcDbSymbolTable
 70
     4
  0
VIEW
  5
AEC
330
6
100
AcDbSymbolTableRecord
100
AcDbViewTableRecord
  2
zoom_all
 70
     0
 40
597.6437625036007
 10
210.0000009778888
 20
297.000001383014
 41
922.8055664189341
 11
0.0
 21
0.0
 31
1.0
 12
0.0
 22
0.0
 32
0.0
 42
50.0
 43
0.0
 44
0.0
 50
0.0
 71
     0
281
     0
 72
     1
110
0.0
120
0.0
130
0.0
111
1.0
121
0.0
131
0.0
112
0.0
122
1.0
132
0.0
 79
     0
146
0.0
 73
     0
348
6473
  0
ENDTAB
  0
TABLE
  2
UCS
  5
7
330
0
100
AcDbSymbolTable
 70
     0
  0
ENDTAB
  0
TABLE
  2
APPID
  5
9
330
0
100
AcDbSymbolTable
 70
    18
  0
APPID
  5
11
330
9
100
AcDbSymbolTableRecord
100
AcDbRegAppTableRecord
  2
ACAD
 70
     0
  0
APPID
  5
805
330
9
100
AcDbSymbolTableRecord
100
AcDbRegAppTableRecord
  2
EX_DIM
 70
     0
  0
APPID
  5
806
330
9
100
AcDbSymbolTableRecord
100
AcDbRegAppTableRecord
  2
EX_ETC
 70
     0
  0
APPID
  5
807
330
9
100
AcDbSymbolTableRecord
100
AcDbRegAppTableRecord
  2
EX_TSTY
 70
     0
  0
APPID
  5
808
330
9
100
AcDbSymbolTableRecord
100
AcDbRegAppTableRecord
  2
EX_TSTYL
 70
     0
  0
APPID
  5
809
330
9
100
AcDbSymbolTableRecord
100
AcDbRegAppTableRecord
  2
EX_TCON
 70
     0
  0
APPID
  5
80A
330
9
100
AcDbSymbolTableRecord
100
AcDbRegAppTableRecord
  2
EX_TCONL
 70
     0
  0
APPID
  5
80B
330
9
100
AcDbSymbolTableRecord
100
AcDbRegAppTableRecord
  2
DCO15
 70
     0
  0
APPID
  5
DDE
330
9
100
AcDbSymbolTableRecord
100
AcDbRegAppTableRecord
  2
AB_PARTS
 70
     0
  0
APPID
  5
DDF
330
9
100
AcDbSymbolTableRecord
100
AcDbRegAppTableRecord
  2
SW_PARTS
 70
     0
  0
APPID
  5
1A54
330
9
100
AcDbSymbolTableRecord
100
AcDbRegAppTableRecord
  2
AB_TABLE
 70
     0
  0
APPID
  5
1EF6
330
9
100
AcDbSymbolTableRecord
100
AcDbRegAppTableRecord
  2
ACAD_PSEXT
 70
     0
  0
APPID
  5
6567
330
9
100
AcDbSymbolTableRecord
100
AcDbRegAppTableRecord
  2
ACAD_EXEMPT_FROM_CAD_STANDARDS
 70
     0
  0
APPID
  5
65FC
330
9
100
AcDbSymbolTableRecord
100
AcDbRegAppTableRecord
  2
CIR2ARC
 70
     0
  0
APPID
  5
66D2
330
9
100
AcDbSymbolTableRecord
100
AcDbRegAppTableRecord
  2
ACAD_MLEADERVER
 70
     0
  0
APPID
  5
66E1
330
9
100
AcDbSymbolTableRecord
100
AcDbRegAppTableRecord
  2
ACAUTHENVIRON
 70
     0
  0
APPID
  5
66E5
330
9
100
AcDbSymbolTableRecord
100
AcDbRegAppTableRecord
  2
AcDbDynamicBlockTrueName
 70
     0
  0
APPID
  5
66E6
330
9
100
AcDbSymbolTableRecord
100
AcDbRegAppTableRecord
  2
AcDbDynamicBlockGUID
 70
     0
  0
ENDTAB
  0
TABLE
  2
DIMSTYLE
  5
A
330
0
100
AcDbSymbolTable
 70
     1
100
AcDbDimStyleTable
 71
     1
340
22
  0
DIMSTYLE
105
22
102
{ACAD_REACTORS
330
5F82
330
5F7F
330
5F7E
330
5F7D
330
5F7A
330
5F79
330
5F2F
330
5F2E
330
5F2D
330
5F2C
330
5F2B
330
5F2A
330
5F29
330
5F28
330
5F27
330
62CF
330
626B
330
626A
330
6269
330
6268
330
6265
330
64A5
330
6C6
102
}
330
A
100
AcDbSymbolTableRecord
100
AcDbDimStyleTableRecord
  2
STANDARD
 70
     0
 41
1.5
 42
0.5
 43
10.0
 44
2.0
 48
0.000000001
 73
     0
 74
     0
 77
     3
 78
     8
 79
     2
140
4.0
141
0.0
147
1.0
172
     1
179
     2
271
     2
272
     2
284
     8
289
     1
340
10
341
45
342
45
  0
ENDTAB
  0
TABLE
  2
BLOCK_RECORD
  5
1
330
0
100
AcDbSymbolTable
 70
    39
  0
BLOCK_RECORD
  5
18
330
1
100
AcDbSymbolTableRecord
100
AcDbBlockTableRecord
  2
*MODEL_SPACE
340
2C
 70
     0
280
     1
281
     0
  0
BLOCK_RECORD
  5
15
330
1
100
AcDbSymbolTableRecord
100
AcDbBlockTableRecord
  2
*PAPER_SPACE
340
2D
 70
     0
280
     1
281
     0
  0
BLOCK_RECORD
  5
45
330
1
100
AcDbSymbolTableRecord
100
AcDbBlockTableRecord
  2
YAZ1
340
0
102
{BLKREFS
331
6F3
331
6F4
331
6DF
331
6360
331
6361
331
6369
331
636A
331
637F
331
6380
331
638A
331
638B
331
639C
331
639D
331
63D6
331
63D7
331
63DF
331
63E0
331
63E8
331
63E9
331
63F1
331
63F2
331
63FA
331
63FB
331
6405
331
6406
331
640E
331
640F
331
6417
331
6418
331
6422
331
6423
331
6442
331
6443
331
64B5
331
64B6
331
6502
331
6503
331
661F
331
6620
331
6631
331
6632
331
6666
331
6667
331
667B
331
667C
331
668E
331
668F
102
}
 70
     0
280
     1
281
     0
  0
BLOCK_RECORD
  5
CB
330
1
100
AcDbSymbolTableRecord
100
AcDbBlockTableRecord
  2
YAZ3
340
0
102
{BLKREFS
331
6DE
102
}
 70
     0
280
     1
281
     0
  0
BLOCK_RECORD
  5
D2
330
1
100
AcDbSymbolTableRecord
100
AcDbBlockTableRecord
  2
DOT1
340
0
102
{BLKREFS
331
6D4
102
}
 70
     0
280
     1
281
     0
  0
BLOCK_RECORD
  5
D7
330
1
100
AcDbSymbolTableRecord
100
AcDbBlockTableRecord
  2
TICK
340
0
102
{BLKREFS
331
6E1
102
}
 70
     0
280
     1
281
     0
  0
BLOCK_RECORD
  5
DC
330
1
100
AcDbSymbolTableRecord
100
AcDbBlockTableRecord
  2
YAZ0
340
0
102
{BLKREFS
331
6E0
102
}
 70
     0
280
     1
281
     0
  0
BLOCK_RECORD
  5
E0
330
1
100
AcDbSymbolTableRecord
100
AcDbBlockTableRecord
  2
YAZ6
340
0
102
{BLKREFS
331
6D5
102
}
 70
     0
280
     1
281
     0
  0
BLOCK_RECORD
  5
E7
330
1
100
AcDbSymbolTableRecord
100
AcDbBlockTableRecord
  2
YAZ8
340
0
102
{BLKREFS
331
6DD
102
}
 70
     0
280
     1
281
     0
  0
BLOCK_RECORD
  5
EE
330
1
100
AcDbSymbolTableRecord
100
AcDbBlockTableRecord
  2
HYBASE
340
0
102
{BLKREFS
331
A53
102
}
 70
     0
280
     1
281
     0
  0
BLOCK_RECORD
  5
F1
330
1
100
AcDbSymbolTableRecord
100
AcDbBlockTableRecord
  2
HYW1
340
0
102
{BLKREFS
331
6CE
102
}
 70
     0
280
     1
281
     0
  0
BLOCK_RECORD
  5
FC
330
1
100
AcDbSymbolTableRecord
100
AcDbBlockTableRecord
  2
HYW2
340
0
102
{BLKREFS
331
6CD
102
}
 70
     0
280
     1
281
     0
  0
BLOCK_RECORD
  5
100
330
1
100
AcDbSymbolTableRecord
100
AcDbBlockTableRecord
  2
HYW3
340
0
102
{BLKREFS
331
6CC
102
}
 70
     0
280
     1
281
     0
  0
BLOCK_RECORD
  5
104
330
1
100
AcDbSymbolTableRecord
100
AcDbBlockTableRecord
  2
INSLYTXT
340
0
102
{BLKREFS
331
AEA
102
}
 70
     0
280
     1
281
     0
  0
BLOCK_RECORD
  5
6C3
330
1
100
AcDbSymbolTableRecord
100
AcDbBlockTableRecord
  2
MTWBLK
340
0
102
{BLKREFS
331
A92
102
}
 70
     0
280
     1
281
     0
  0
BLOCK_RECORD
  5
6EE
330
1
100
AcDbSymbolTableRecord
100
AcDbBlockTableRecord
  2
*D13
340
0
 70
     0
280
     1
281
     0
  0
BLOCK_RECORD
  5
AF2
102
{ACAD_XDICTIONARY
360
66E2
102
}
330
1
100
AcDbSymbolTableRecord
100
AcDbBlockTableRecord
  2
NITTO CERA社名
340
0
310
2800000020000000200000000100080000000000000400000000000000000000000000000000000000000000000080000080000000808000800000008000800080800000C0C0C000C0DCC000F0CAA6000020400000206000002080000020A0000020C0000020E00000400000004020000040400000406000004080000040A0
310
000040C0000040E00000600000006020000060400000606000006080000060A0000060C0000060E00000800000008020000080400000806000008080000080A0000080C0000080E00000A0000000A0200000A0400000A0600000A0800000A0A00000A0C00000A0E00000C0000000C0200000C0400000C0600000C0800000C0
310
A00000C0C00000C0E00000E0000000E0200000E0400000E0600000E0800000E0A00000E0C00000E0E00040000000400020004000400040006000400080004000A0004000C0004000E00040200000402020004020400040206000402080004020A0004020C0004020E000404000004040200040404000404060004040800040
310
40A0004040C0004040E00040600000406020004060400040606000406080004060A0004060C0004060E00040800000408020004080400040806000408080004080A0004080C0004080E00040A0000040A0200040A0400040A0600040A0800040A0A00040A0C00040A0E00040C0000040C0200040C0400040C0600040C08000
310
40C0A00040C0C00040C0E00040E0000040E0200040E0400040E0600040E0800040E0A00040E0C00040E0E00080000000800020008000400080006000800080008000A0008000C0008000E00080200000802020008020400080206000802080008020A0008020C0008020E00080400000804020008040400080406000804080
310
008040A0008040C0008040E00080600000806020008060400080606000806080008060A0008060C0008060E00080800000808020008080400080806000808080008080A0008080C0008080E00080A0000080A0200080A0400080A0600080A0800080A0A00080A0C00080A0E00080C0000080C0200080C0400080C0600080C0
310
800080C0A00080C0C00080C0E00080E0000080E0200080E0400080E0600080E0800080E0A00080E0C00080E0E000C0000000C0002000C0004000C0006000C0008000C000A000C000C000C000E000C0200000C0202000C0204000C0206000C0208000C020A000C020C000C020E000C0400000C0402000C0404000C0406000C0
310
408000C040A000C040C000C040E000C0600000C0602000C0604000C0606000C0608000C060A000C060C000C060E000C0800000C0802000C0804000C0806000C0808000C080A000C080C000C080E000C0A00000C0A02000C0A04000C0A06000C0A08000C0A0A000C0A0C000C0A0E000C0C00000C0C02000C0C04000C0C06000
310
C0C08000C0C0A000F0FBFF00A4A0A000808080000000FF0000FF000000FFFF00FF000000FF00FF00FFFF0000FFFFFF0000000000000000000000000000000000000000000000000000000000000000000000000000000000000000000000000000000000000000000000000000000000000000000000000000000000000000
310
00000000000000000000000000000000000000000000000000000000000000000000000000000000000000000000000000000000000000000000000000000000000000000000000000000000000000000000000000000000000000000000000000000000000000000000000000000000000000000000000000000000000000
310
00000000000000000000000000000000000000000000000000000000000000000000000000000000000000000000000000000000000000000000000000000000000000000000000000000000000000000000000000000000000000000000000000000000000000000000000000000000000000000000000000000000000000
310
000000000000000000000000000000000000000000000000000000000000000000000000000000000000000000000000000000000000000000000000000000000000000000000000000000000000000000000000000000000000000000000000000000000000000000000000000000000000000000FFFFFFFFFF00FFFFFFFF
310
FF00FF00FFFF0000FFFFFFFFFFFFFFFFFFFF00000000FFFFFFFFFFFFFFFF00FFFF00FFFFFFFF0000FFFFFFFFFFFFFFFFFFFF00000000FFFFFFFFFFFFFFFF00FFFFFFFFFFFFFF0000FFFFFFFFFFFFFFFFFFFF00000000FFFFFFFFFFFFFFFFFFFFFFFFFFFFFFFF000000FFFFFFFFFFFFFFFFFF00000000000000000000000000
310
00000000000000000000000000000000000000000000000000000000000000000000000000000000000000000000000000000000000000000000000000000000000000000000000000000000000000000000000000000000000000000000000000000000000000000000000000000000000000000000000000000000000000
310
00000000000000000000000000000000000000000000000000000000000000000000000000000000000000000000000000000000000000000000000000000000000000000000000000000000000000000000000000000000000000000000000000000000000000000000000000000000000000000000000000000000000000
310
00000000000000000000000000000000000000000000000000000000000000000000000000000000000000000000000000000000000000000000000000000000000000000000000000000000000000000000000000000000000000000000000000000000000000000000000000000000000000000000000000000000000000
310
0000000000000000000000000000000000000000000000000000000000000000000000000000000000000000000000000000000000000000
102
{BLKREFS
331
57EF
102
}
 70
     0
280
     1
281
     0
1001
AcDbDynamicBlockGUID
1000
{9191743C-DC17-485E-B3D0-0EF34E8551D3}
  0
BLOCK_RECORD
  5
19E6
330
1
100
AcDbSymbolTableRecord
100
AcDbBlockTableRecord
  2
TSTYUKI
340
0
102
{BLKREFS
331
1B4B
102
}
 70
     0
280
     1
281
     0
  0
BLOCK_RECORD
  5
60E7
330
1
100
AcDbSymbolTableRecord
100
AcDbBlockTableRecord
  2
*D16
340
0
 70
     0
280
     1
281
     0
  0
BLOCK_RECORD
  5
60F3
330
1
100
AcDbSymbolTableRecord
100
AcDbBlockTableRecord
  2
*D17
340
0
 70
     0
280
     1
281
     0
  0
BLOCK_RECORD
  5
60FF
330
1
100
AcDbSymbolTableRecord
100
AcDbBlockTableRecord
  2
*D18
340
0
 70
     0
280
     1
281
     0
  0
BLOCK_RECORD
  5
610B
330
1
100
AcDbSymbolTableRecord
100
AcDbBlockTableRecord
  2
*D19
340
0
 70
     0
280
     1
281
     0
  0
BLOCK_RECORD
  5
6117
330
1
100
AcDbSymbolTableRecord
100
AcDbBlockTableRecord
  2
*D20
340
0
 70
     0
280
     1
281
     0
  0
BLOCK_RECORD
  5
6125
330
1
100
AcDbSymbolTableRecord
100
AcDbBlockTableRecord
  2
*D21
340
0
 70
     0
280
     1
281
     0
  0
BLOCK_RECORD
  5
6133
330
1
100
AcDbSymbolTableRecord
100
AcDbBlockTableRecord
  2
*D22
340
0
 70
     0
280
     1
281
     0
  0
BLOCK_RECORD
  5
613F
330
1
100
AcDbSymbolTableRecord
100
AcDbBlockTableRecord
  2
*D23
340
0
 70
     0
280
     1
281
     0
  0
BLOCK_RECORD
  5
614B
330
1
100
AcDbSymbolTableRecord
100
AcDbBlockTableRecord
  2
*D24
340
0
 70
     0
280
     1
281
     0
  0
BLOCK_RECORD
  5
6157
330
1
100
AcDbSymbolTableRecord
100
AcDbBlockTableRecord
  2
*D25
340
0
 70
     0
280
     1
281
     0
  0
BLOCK_RECORD
  5
6163
330
1
100
AcDbSymbolTableRecord
100
AcDbBlockTableRecord
  2
*D26
340
0
 70
     0
280
     1
281
     0
  0
BLOCK_RECORD
  5
616F
330
1
100
AcDbSymbolTableRecord
100
AcDbBlockTableRecord
  2
*D27
340
0
 70
     0
280
     1
281
     0
  0
BLOCK_RECORD
  5
617D
330
1
100
AcDbSymbolTableRecord
100
AcDbBlockTableRecord
  2
*D28
340
0
 70
     0
280
     1
281
     0
  0
BLOCK_RECORD
  5
6189
330
1
100
AcDbSymbolTableRecord
100
AcDbBlockTableRecord
  2
*D29
340
0
 70
     0
280
     1
281
     0
  0
BLOCK_RECORD
  5
6195
330
1
100
AcDbSymbolTableRecord
100
AcDbBlockTableRecord
  2
*D30
340
0
 70
     0
280
     1
281
     0
  0
BLOCK_RECORD
  5
62D2
330
1
100
AcDbSymbolTableRecord
100
AcDbBlockTableRecord
  2
*D31
340
0
 70
     0
280
     1
281
     0
  0
BLOCK_RECORD
  5
62DE
330
1
100
AcDbSymbolTableRecord
100
AcDbBlockTableRecord
  2
*D32
340
0
 70
     0
280
     1
281
     0
  0
BLOCK_RECORD
  5
62EA
330
1
100
AcDbSymbolTableRecord
100
AcDbBlockTableRecord
  2
*D33
340
0
 70
     0
280
     1
281
     0
  0
BLOCK_RECORD
  5
62F8
330
1
100
AcDbSymbolTableRecord
100
AcDbBlockTableRecord
  2
*D34
340
0
 70
     0
280
     1
281
     0
  0
BLOCK_RECORD
  5
6306
330
1
100
AcDbSymbolTableRecord
100
AcDbBlockTableRecord
  2
*D35
340
0
 70
     0
280
     1
281
     0
  0
BLOCK_RECORD
  5
6314
330
1
100
AcDbSymbolTableRecord
100
AcDbBlockTableRecord
  2
*D36
340
0
 70
     0
280
     1
281
     0
  0
BLOCK_RECORD
  5
64A6
330
1
100
AcDbSymbolTableRecord
100
AcDbBlockTableRecord
  2
*D37
340
0
 70
     0
280
     1
281
     0
  0
ENDTAB
  0
ENDSEC
  0
SECTION
  2
BLOCKS
  0
BLOCK
  5
20
330
18
100
AcDbEntity
  8
0
100
AcDbBlockBegin
  2
*MODEL_SPACE
 70
     0
 10
0.0
 20
0.0
 30
0.0
  3
*MODEL_SPACE
  1

  0
ENDBLK
  5
21
330
18
100
AcDbEntity
  8
0
100
AcDbBlockEnd
  0
BLOCK
  5
1E
330
15
100
AcDbEntity
 67
     1
  8
0
100
AcDbBlockBegin
  2
*PAPER_SPACE
 70
     0
 10
0.0
 20
0.0
 30
0.0
  3
*PAPER_SPACE
  1

  0
ENDBLK
  5
1F
330
15
100
AcDbEntity
 67
     1
  8
0
100
AcDbBlockEnd
  0
BLOCK
  5
46
330
45
100
AcDbEntity
  8
0
100
AcDbBlockBegin
  2
YAZ1
 70
     0
 10
0.0
 20
0.0
 30
0.0
  3
YAZ1
  1

  0
LINE
  5
47
330
45
100
AcDbEntity
  8
0
 62
     0
100
AcDbLine
 10
-1.0
 20
0.0
 30
0.0
 11
0.0
 21
0.0
 31
0.0
  0
LINE
  5
48
330
45
100
AcDbEntity
  8
0
 62
     0
100
AcDbLine
 10
0.0
 20
0.0
 30
0.0
 11
-1.0
 21
0.2679491924311037
 31
0.0
  0
LINE
  5
49
330
45
100
AcDbEntity
  8
0
 62
     0
100
AcDbLine
 10
0.0
 20
0.0
 30
0.0
 11
-1.0
 21
-0.2679491924311037
 31
0.0
  0
ENDBLK
  5
4A
330
45
100
AcDbEntity
  8
0
100
AcDbBlockEnd
  0
BLOCK
  5
CC
330
CB
100
AcDbEntity
  8
0
100
AcDbBlockBegin
  2
YAZ3
 70
     0
 10
0.0
 20
0.0
 30
0.0
  3
YAZ3
  1

  0
LINE
  5
CD
330
CB
100
AcDbEntity
  8
0
 62
     0
100
AcDbLine
 10
-1.0
 20
0.0
 30
0.0
 11
0.0
 21
0.0
 31
0.0
  0
LINE
  5
CE
330
CB
100
AcDbEntity
  8
0
 62
     0
100
AcDbLine
 10
0.0
 20
0.0
 30
0.0
 11
-1.0
 21
0.2679491924311037
 31
0.0
  0
LINE
  5
CF
330
CB
100
AcDbEntity
  8
0
 62
     0
100
AcDbLine
 10
0.0
 20
0.0
 30
0.0
 11
-1.0
 21
-0.2679491924311037
 31
0.0
  0
SOLID
  5
D0
330
CB
100
AcDbEntity
  8
0
 62
     0
100
AcDbTrace
 10
0.0
 20
0.0
 30
0.0
 11
-1.0
 21
0.2679491924311037
 31
0.0
 12
-1.0
 22
-0.2679491924311037
 32
0.0
 13
-1.0
 23
-0.2679491924311037
 33
0.0
  0
ENDBLK
  5
D1
330
CB
100
AcDbEntity
  8
0
100
AcDbBlockEnd
  0
BLOCK
  5
D3
330
D2
100
AcDbEntity
  8
0
100
AcDbBlockBegin
  2
DOT1
 70
     0
 10
0.0
 20
0.0
 30
0.0
  3
DOT1
  1

  0
LWPOLYLINE
  5
D4
330
D2
100
AcDbEntity
  8
0
 62
     0
100
AcDbPolyline
 90
        2
 70
     1
 43
0.25
 10
-0.125
 20
0.0
 42
1.0
 10
0.125
 20
0.0
 42
1.0
  0
LINE
  5
D5
330
D2
100
AcDbEntity
  8
0
 62
     0
100
AcDbLine
 10
-1.0
 20
0.0
 30
0.0
 11
0.0
 21
0.0
 31
0.0
  0
ENDBLK
  5
D6
330
D2
100
AcDbEntity
  8
0
100
AcDbBlockEnd
  0
BLOCK
  5
D8
330
D7
100
AcDbEntity
  8
0
100
AcDbBlockBegin
  2
TICK
 70
     0
 10
0.0
 20
0.0
 30
0.0
  3
TICK
  1

  0
LINE
  5
D9
330
D7
100
AcDbEntity
  8
0
 62
     0
100
AcDbLine
 10
0.5
 20
0.5
 30
0.0
 11
-0.5
 21
-0.5
 31
0.0
  0
LINE
  5
DA
330
D7
100
AcDbEntity
  8
0
 62
     0
100
AcDbLine
 10
0.0
 20
0.0
 30
0.0
 11
-1.0
 21
0.0
 31
0.0
  0
ENDBLK
  5
DB
330
D7
100
AcDbEntity
  8
0
100
AcDbBlockEnd
  0
BLOCK
  5
DD
330
DC
100
AcDbEntity
  8
0
100
AcDbBlockBegin
  2
YAZ0
 70
     0
 10
0.0
 20
0.0
 30
0.0
  3
YAZ0
  1

  0
LINE
  5
DE
330
DC
100
AcDbEntity
  8
0
 62
     0
100
AcDbLine
 10
0.0
 20
0.0
 30
0.0
 11
-1.0
 21
0.0
 31
0.0
  0
ENDBLK
  5
DF
330
DC
100
AcDbEntity
  8
0
100
AcDbBlockEnd
  0
BLOCK
  5
E1
330
E0
100
AcDbEntity
  8
0
100
AcDbBlockBegin
  2
YAZ6
 70
     0
 10
0.0
 20
0.0
 30
0.0
  3
YAZ6
  1

  0
LINE
  5
E2
330
E0
100
AcDbEntity
  8
0
 62
     0
100
AcDbLine
 10
0.0000000000000213
 20
0.0
 30
0.0
 11
1.000000000000021
 21
-0.2679491924311037
 31
0.0
  0
LINE
  5
E3
330
E0
100
AcDbEntity
  8
0
 62
     0
100
AcDbLine
 10
1.000000000000021
 20
0.0
 30
0.0
 11
0.0000000000000213
 21
0.0
 31
0.0
  0
LINE
  5
E4
330
E0
100
AcDbEntity
  8
0
 62
     0
100
AcDbLine
 10
0.0000000000000213
 20
0.0
 30
0.0
 11
1.000000000000021
 21
0.2679491924311037
 31
0.0
  0
LINE
  5
E5
330
E0
100
AcDbEntity
  8
0
 62
     0
100
AcDbLine
 10
-0.9999999999999785
 20
0.0
 30
0.0
 11
0.0000000000000213
 21
0.0
 31
0.0
  0
ENDBLK
  5
E6
330
E0
100
AcDbEntity
  8
0
100
AcDbBlockEnd
  0
BLOCK
  5
E8
330
E7
100
AcDbEntity
  8
0
100
AcDbBlockBegin
  2
YAZ8
 70
     0
 10
0.0
 20
0.0
 30
0.0
  3
YAZ8
  1

  0
SOLID
  5
E9
330
E7
100
AcDbEntity
  8
0
 62
     0
100
AcDbTrace
 10
-0.0000000000000142
 20
0.0
 30
0.0
 11
0.9999999999999856
 21
0.2679491924311037
 31
0.0
 12
0.9999999999999856
 22
-0.2679491924311037
 32
0.0
 13
0.9999999999999856
 23
0.2679491924311037
 33
0.0
  0
LINE
  5
EA
330
E7
100
AcDbEntity
  8
0
 62
     0
100
AcDbLine
 10
-0.0000000000000142
 20
0.0
 30
0.0
 11
0.9999999999999856
 21
-0.2679491924311037
 31
0.0
  0
LINE
  5
EB
330
E7
100
AcDbEntity
  8
0
 62
     0
100
AcDbLine
 10
-0.0000000000000142
 20
0.0
 30
0.0
 11
0.9999999999999856
 21
0.2679491924311037
 31
0.0
  0
LINE
  5
EC
330
E7
100
AcDbEntity
  8
0
 62
     0
100
AcDbLine
 10
-1.000000000000013
 20
0.0
 30
0.0
 11
-0.0000000000000142
 21
0.0
 31
0.0
  0
ENDBLK
  5
ED
330
E7
100
AcDbEntity
  8
0
100
AcDbBlockEnd
  0
BLOCK
  5
EF
330
EE
100
AcDbEntity
  8
0
100
AcDbBlockBegin
  2
HYBASE
 70
     0
 10
0.0
 20
0.0
 30
0.0
  3
HYBASE
  1

  0
ENDBLK
  5
F0
330
EE
100
AcDbEntity
  8
0
100
AcDbBlockEnd
  0
BLOCK
  5
F2
330
F1
100
AcDbEntity
  8
0
100
AcDbBlockBegin
  2
HYW1
 70
     2
 10
0.0
 20
0.0
 30
0.0
  3
HYW1
  1

  0
LINE
  5
F3
330
F1
100
AcDbEntity
  8
0
100
AcDbLine
 10
0.0
 20
0.0
 30
0.0
 11
1.0
 21
0.0
 31
0.0
  0
LINE
  5
F4
330
F1
100
AcDbEntity
  8
0
100
AcDbLine
 10
1.0
 20
0.0
 30
0.0
 11
1.0
 21
1.0
 31
0.0
  0
LINE
  5
F5
330
F1
100
AcDbEntity
  8
0
100
AcDbLine
 10
1.0
 20
1.0
 30
0.0
 11
0.0000000000000001
 21
1.0
 31
0.0
  0
LINE
  5
F6
330
F1
100
AcDbEntity
  8
0
100
AcDbLine
 10
0.0000000000000001
 20
1.0
 30
0.0
 11
0.0
 21
0.0
 31
0.0
  0
ATTDEF
  5
F7
330
F1
100
AcDbEntity
  8
0
100
AcDbText
 10
-0.2486376891619071
 20
0.3700653978223733
 30
0.0
 40
0.1
  1

100
AcDbAttributeDefinition
  3

  2
HKCT
 70
     1
280
     0
  0
ATTDEF
  5
F8
330
F1
100
AcDbEntity
  8
0
100
AcDbText
 10
-0.2486376891619071
 20
0.2500653978223733
 30
0.0
 40
0.1
  1

100
AcDbAttributeDefinition
  3

  2
HMTL
 70
     1
280
     0
  0
ATTDEF
  5
F9
330
F1
100
AcDbEntity
  8
0
100
AcDbText
 10
-0.2486376891619071
 20
0.1300653978223733
 30
0.0
 40
0.1
  1

100
AcDbAttributeDefinition
  3

  2
HKWL
 70
     1
280
     0
  0
ATTDEF
  5
FA
330
F1
100
AcDbEntity
  8
0
100
AcDbText
 10
-0.2486376891619071
 20
0.0100653978223733
 30
0.0
 40
0.1
  1

100
AcDbAttributeDefinition
  3

  2
HKML
 70
     1
280
     0
  0
ENDBLK
  5
FB
330
F1
100
AcDbEntity
  8
0
100
AcDbBlockEnd
  0
BLOCK
  5
FD
330
FC
100
AcDbEntity
  8
0
100
AcDbBlockBegin
  2
HYW2
 70
     0
 10
0.0
 20
0.0
 30
0.0
  3
HYW2
  1

  0
LINE
  5
FE
330
FC
100
AcDbEntity
  8
0
100
AcDbLine
 10
1.0
 20
0.0
 30
0.0
 11
1.0
 21
1.0
 31
0.0
  0
ENDBLK
  5
FF
330
FC
100
AcDbEntity
  8
0
100
AcDbBlockEnd
  0
BLOCK
  5
101
330
100
100
AcDbEntity
  8
0
100
AcDbBlockBegin
  2
HYW3
 70
     0
 10
0.0
 20
0.0
 30
0.0
  3
HYW3
  1

  0
LINE
  5
102
330
100
100
AcDbEntity
  8
0
100
AcDbLine
 10
1.0
 20
1.0
 30
0.0
 11
0.0000000000000001
 21
1.0
 31
0.0
  0
ENDBLK
  5
103
330
100
100
AcDbEntity
  8
0
100
AcDbBlockEnd
  0
BLOCK
  5
105
330
104
100
AcDbEntity
  8
0
100
AcDbBlockBegin
  2
INSLYTXT
 70
     0
 10
0.0
 20
0.0
 30
0.0
  3
INSLYTXT
  1

  0
ENDBLK
  5
106
330
104
100
AcDbEntity
  8
0
100
AcDbBlockEnd
1001
EX_TSTYL
1002
{
1000
TYP1
1040
4.0
1040
0.0
1040
0.0
1040
0.0
1040
7.0
1040
0.0
1040
0.0
1040
0.0
1040
10.0
1040
0.0
1040
0.0
1040
0.0
1040
15.0
1040
0.0
1040
0.0
1040
0.0
1040
15.0
1040
0.0
1040
0.0
1040
0.0
1040
20.0
1040
0.0
1040
0.0
1040
0.0
1040
30.0
1040
0.0
1040
0.0
1040
0.0
1040
40.0
1040
0.0
1040
0.0
1040
0.0
1040
50.0
1040
0.0
1040
0.0
1040
0.0
1002
}
1001
EX_TCONL
1002
{
1000
BNO1
1000
SRD-
1000

1000
01
1070
     1
1000
PROJ-
1000
A
1000
100
1070
     1
1000
PROJ-
1000
B
1000
200
1070
     1
1000
PROJ-
1000
C
1000
300
1070
    10
1000
PROJ-
1000
C
1000
300
1070
    10
1002
}
1001
EX_DIM
1002
{
1070
     0
1040
10.0
1040
4.0
1000

1000
1
1040
0.0
1070
     1
1070
     0
1000
YAZ0
1070
     0
1002
}
1001
EX_ETC
1002
{
1040
1.0
1040
3.0
1000
ACAD
1070
    10
1070
     1
1070
     1
1070
     4
1070
     5
1070
    97
1070
     1
1002
}
1001
EX_TSTY
1002
{
1000
TYP1
1040
4.0
1040
7.0
1040
10.0
1040
15.0
1040
15.0
1040
0.0
1040
0.0
1040
0.0
1040
0.0
1040
0.0
1010
0.0
1020
0.0
1030
0.0
1010
0.0
1020
0.0
1030
0.0
1010
0.0
1020
0.0
1030
0.0
1010
0.0
1020
0.0
1030
0.0
1010
0.0
1020
0.0
1030
0.0
1002
}
1001
EX_TCON
1002
{
1000
BNO1
1000
SRD-
1000
PROJ-
1000
PROJ-
1000
PROJ-
1000
PROJ-
1000

1000
A
1000
B
1000
C
1000
C
1000
01
1000
100
1000
200
1000
300
1000
300
1070
     1
1070
     1
1070
     1
1070
    10
1070
    10
1002
}
  0
BLOCK
  5
6C4
330
6C3
100
AcDbEntity
  8
0
100
AcDbBlockBegin
  2
MTWBLK
 70
     0
 10
0.0
 20
0.0
 30
0.0
  3
MTWBLK
  1

  0
LINE
  5
6C5
330
6C3
100
AcDbEntity
  8
0
100
AcDbLine
 10
-13.71326758209989
 20
128.2549656478263
 30
0.0
 11
-3.713267582099888
 21
128.2549656478263
 31
0.0
  0
DIMENSION
  5
6C6
330
6C3
100
AcDbEntity
  8
SCALE
100
AcDbDimension
  2
*D13
 10
-4.625238393966697
 20
97.11258168854923
 30
0.0
 11
-9.625222135582376
 21
100.1125816885492
 31
0.0
 12
-35.0
 22
-8.0
 32
0.0
 71
     5
 42
-1.0
 73
     0
 74
     0
 75
     0
  3
STANDARD
100
AcDbAlignedDimension
 13
-14.62520587719805
 23
88.91721785759221
 33
0.0
 14
-4.625238393966697
 24
88.91721785759221
 34
0.0
100
AcDbRotatedDimension
  0
LINE
  5
6C7
330
6C3
100
AcDbEntity
  8
ZOKUSEI
100
AcDbLine
 10
-13.71326758209989
 20
123.6655623229827
 30
0.0
 11
-3.713267582099891
 21
123.6655623229827
 31
0.0
  0
LINE
  5
6C8
330
6C3
100
AcDbEntity
  8
GAIKEI
100
AcDbLine
 10
-13.71326758209989
 20
117.4370848303069
 30
0.0
 11
-3.713267582099891
 21
117.4370848303069
 31
0.0
  0
LINE
  5
6C9
330
6C3
100
AcDbEntity
  8
DRAHAT
100
AcDbLine
 10
-13.71326758209989
 20
112.5198665317327
 30
0.0
 11
-3.713267582099891
 21
112.5198665317327
 31
0.0
  0
TEXT
  5
6CA
330
6C3
100
AcDbEntity
  8
TXT1
100
AcDbText
 10
-11.51214832750383
 20
82.6887410657369
 30
0.0
 40
4.0
  1
111
 41
0.7
100
AcDbText
  0
LINE
  5
6CB
330
6C3
100
AcDbEntity
  8
CENTER
100
AcDbLine
 10
-13.71326758209989
 20
106.9470189865179
 30
0.0
 11
-3.713267582099888
 21
106.9470189865179
 31
0.0
  0
INSERT
  5
6CC
330
6C3
100
AcDbEntity
  8
WBLK
100
AcDbBlockReference
  2
HYW3
 10
-11.67544169931204
 20
8.112663714663936
 30
0.0
 50
270.0
  0
INSERT
  5
6CD
330
6C3
100
AcDbEntity
  8
WBLK
100
AcDbBlockReference
  2
HYW2
 10
-11.67544169931204
 20
18.11266371466394
 30
0.0
 50
270.0
  0
INSERT
  5
6CE
330
6C3
100
AcDbEntity
  8
WBLK
100
AcDbBlockReference
 66
     1
  2
HYW1
 10
-11.67544169931204
 20
28.11266371466394
 30
0.0
 50
270.0
  0
ATTRIB
  5
6CF
330
6CE
100
AcDbEntity
  8
0
100
AcDbText
 10
-11.30537630148967
 20
28.36130140382585
 30
0.0
 40
0.1
  1

 50
270.0
100
AcDbAttribute
  2
HKCT
 70
     1
280
     0
  0
ATTRIB
  5
6D0
330
6CE
100
AcDbEntity
  8
0
100
AcDbText
 10
-11.42537630148968
 20
28.36130140382585
 30
0.0
 40
0.1
  1

 50
270.0
100
AcDbAttribute
  2
HMTL
 70
     1
280
     0
  0
ATTRIB
  5
6D1
330
6CE
100
AcDbEntity
  8
0
100
AcDbText
 10
-11.54537630148968
 20
28.36130140382585
 30
0.0
 40
0.1
  1

 50
270.0
100
AcDbAttribute
  2
HKWL
 70
     1
280
     0
  0
ATTRIB
  5
6D2
330
6CE
100
AcDbEntity
  8
0
100
AcDbText
 10
-11.66537630148968
 20
28.36130140382585
 30
0.0
 40
0.1
  1

 50
270.0
100
AcDbAttribute
  2
HKML
 70
     1
280
     0
  0
SEQEND
  5
6D3
330
6CE
100
AcDbEntity
  8
WBLK
  0
INSERT
  5
6D4
330
6C3
100
AcDbEntity
  8
WBLK
100
AcDbBlockReference
  2
DOT1
 10
-11.67544169931204
 20
48.11266371466394
 30
0.0
 50
270.0
  0
INSERT
  5
6D5
330
6C3
100
AcDbEntity
  8
WBLK
100
AcDbBlockReference
  2
YAZ6
 10
-6.675441699312044
 20
18.11266371466394
 30
0.0
 50
270.0
  0
TEXT
  5
6D6
330
6C3
100
AcDbEntity
  8
WBLK
100
AcDbText
 10
-20.69469490555332
 20
61.70860867733876
 30
0.0
 40
4.0
  1
MechBlk
 41
0.7
100
AcDbText
  0
POINT
  5
6D7
330
6C3
100
AcDbEntity
  8
WBLK
100
AcDbPoint
 10
-11.67544169931204
 20
8.112663714663936
 30
0.0
  0
POINT
  5
6D8
330
6C3
100
AcDbEntity
  8
WBLK
100
AcDbPoint
 10
-11.67544169931204
 20
18.11266371466394
 30
0.0
  0
POINT
  5
6D9
330
6C3
100
AcDbEntity
  8
WBLK
100
AcDbPoint
 10
-11.67544169931204
 20
28.11266371466394
 30
0.0
  0
POINT
  5
6DA
330
6C3
100
AcDbEntity
  8
WBLK
100
AcDbPoint
 10
-11.67544169931204
 20
38.11266371466394
 30
0.0
  0
POINT
  5
6DB
330
6C3
100
AcDbEntity
  8
WBLK
100
AcDbPoint
 10
-11.67544169931204
 20
48.11266371466394
 30
0.0
  0
POINT
  5
6DC
330
6C3
100
AcDbEntity
  8
WBLK
100
AcDbPoint
 10
-11.67544169931204
 20
58.11266371466394
 30
0.0
  0
INSERT
  5
6DD
330
6C3
100
AcDbEntity
  8
WBLK
100
AcDbBlockReference
  2
YAZ8
 10
-11.67544169931204
 20
58.11266371466394
 30
0.0
 50
270.0
  0
INSERT
  5
6DE
330
6C3
100
AcDbEntity
  8
WBLK
100
AcDbBlockReference
  2
YAZ3
 10
-6.675441699312044
 20
8.112663714663936
 30
0.0
 50
270.0
  0
INSERT
  5
6DF
330
6C3
100
AcDbEntity
  8
WBLK
100
AcDbBlockReference
  2
YAZ1
 10
-6.675441699312044
 20
28.11266371466394
 30
0.0
 50
270.0
  0
INSERT
  5
6E0
330
6C3
100
AcDbEntity
  8
WBLK
100
AcDbBlockReference
  2
YAZ0
 10
-6.675441699312044
 20
38.11266371466394
 30
0.0
 50
270.0
  0
INSERT
  5
6E1
330
6C3
100
AcDbEntity
  8
WBLK
100
AcDbBlockReference
  2
TICK
 10
-6.675441699312044
 20
48.11266371466394
 30
0.0
 50
270.0
  0
POINT
  5
6E2
330
6C3
100
AcDbEntity
  8
WBLK
100
AcDbPoint
 10
-6.675441699312044
 20
8.112663714663936
 30
0.0
  0
POINT
  5
6E3
330
6C3
100
AcDbEntity
  8
WBLK
100
AcDbPoint
 10
-6.675441699312044
 20
18.11266371466394
 30
0.0
  0
POINT
  5
6E4
330
6C3
100
AcDbEntity
  8
WBLK
100
AcDbPoint
 10
-6.675441699312044
 20
18.11266371466394
 30
0.0
  0
POINT
  5
6E5
330
6C3
100
AcDbEntity
  8
WBLK
100
AcDbPoint
 10
-6.675441699312044
 20
28.11266371466394
 30
0.0
  0
POINT
  5
6E6
330
6C3
100
AcDbEntity
  8
WBLK
100
AcDbPoint
 10
-6.675441699312044
 20
38.11266371466394
 30
0.0
  0
POINT
  5
6E7
330
6C3
100
AcDbEntity
  8
WBLK
100
AcDbPoint
 10
-6.675441699312044
 20
48.11266371466394
 30
0.0
  0
POINT
  5
6E8
330
6C3
100
AcDbEntity
  8
WBLK
100
AcDbPoint
 10
-6.675441699312044
 20
58.11266371466394
 30
0.0
  0
LINE
  5
6E9
330
6C3
100
AcDbEntity
  8
NITENSASEN
100
AcDbLine
 10
-13.71326758209989
 20
147.4304630499613
 30
0.0
 11
-3.713267582099883
 21
147.4304630499613
 31
0.0
  0
LINE
  5
6EA
330
6C3
100
AcDbEntity
  8
HASEN
100
AcDbLine
 10
-13.71326758209989
 20
152.4304630499614
 30
0.0
 11
-3.713267582099883
 21
152.4304630499614
 31
0.0
  0
TEXT
  5
6EB
330
6C3
100
AcDbEntity
  8
WBLK
100
AcDbText
 10
-13.47983624538824
 20
137.4337743999746
 30
0.0
 40
4.0
  1
Line
 41
0.7
100
AcDbText
  0
TEXT
  5
6EC
330
6C3
100
AcDbEntity
  8
WBLK
100
AcDbText
 10
-15.44752527374351
 20
131.5331118810293
 30
0.0
 40
4.0
  1
Layer
 41
0.7
100
AcDbText
  0
ENDBLK
  5
6ED
330
6C3
100
AcDbEntity
  8
0
100
AcDbBlockEnd
  0
BLOCK
  5
6EF
330
6EE
100
AcDbEntity
  8
0
100
AcDbBlockBegin
  2
*D13
 70
     1
 10
0.0
 20
0.0
 30
0.0
  3
*D13
  1

  0
LINE
  5
6F0
330
6EE
100
AcDbEntity
  8
0
  6
ByBlock
100
AcDbLine
 10
20.37479412280195
 20
97.41721785759224
 30
0.0
 11
20.37479412280195
 21
107.1125816885492
 31
0.0
  0
LINE
  5
6F1
330
6EE
100
AcDbEntity
  8
0
  6
ByBlock
100
AcDbLine
 10
30.3747616060333
 20
97.41721785759224
 30
0.0
 11
30.3747616060333
 21
107.1125816885492
 31
0.0
  0
LINE
  5
6F2
330
6EE
100
AcDbEntity
  8
0
  6
ByBlock
100
AcDbLine
 10
21.87479412280195
 20
105.1125816885492
 30
0.0
 11
28.87476160603331
 21
105.1125816885492
 31
0.0
  0
INSERT
  5
6F3
330
6EE
100
AcDbEntity
  8
0
  6
ByBlock
100
AcDbBlockReference
  2
YAZ1
 10
20.37479412280195
 20
105.1125816885492
 30
0.0
 41
1.5
 42
1.5
 43
1.5
 50
180.0
  0
INSERT
  5
6F4
330
6EE
100
AcDbEntity
  8
0
  6
ByBlock
100
AcDbBlockReference
  2
YAZ1
 10
30.3747616060333
 20
105.1125816885492
 30
0.0
 41
1.5
 42
1.5
 43
1.5
  0
MTEXT
  5
6F5
330
6EE
100
AcDbEntity
  8
0
  6
ByBlock
100
AcDbMText
 10
25.37477786441762
 20
108.1125816885492
 30
0.0
 40
4.0
 41
0.0
 46
0.0
 71
     5
 72
     5
  1
\A1;10
 73
     1
 44
1.0
  0
POINT
  5
6F6
330
6EE
100
AcDbEntity
  8
Defpoints
  6
ByBlock
 62
     0
100
AcDbPoint
 10
20.37479412280195
 20
96.91721785759222
 30
0.0
  0
POINT
  5
6F7
330
6EE
100
AcDbEntity
  8
Defpoints
  6
ByBlock
 62
     0
100
AcDbPoint
 10
30.3747616060333
 20
96.91721785759222
 30
0.0
  0
POINT
  5
6F8
330
6EE
100
AcDbEntity
  8
Defpoints
  6
ByBlock
 62
     0
100
AcDbPoint
 10
30.3747616060333
 20
105.1125816885492
 30
0.0
  0
ENDBLK
  5
6F9
330
6EE
100
AcDbEntity
  8
0
100
AcDbBlockEnd
  0
BLOCK
  5
AF3
330
AF2
100
AcDbEntity
  8
0
100
AcDbBlockBegin
  2
NITTO CERA社名
 70
     0
 10
0.0
 20
0.0
 30
0.0
  3
NITTO CERA社名
  1

  0
TEXT
  5
66DF
330
AF2
100
AcDbEntity
  8
図枠
100
AcDbText
 10
17.39767234812523
 20
0.9283468251990319
 30
0.0
 40
13.49578927781894
  1
グローエジャパン
 41
0.7
  7
MSP明朝
100
AcDbText
  0
TEXT
  5
66E0
330
AF2
100
AcDbEntity
  8
図枠
100
AcDbText
 10
128.714867177877
 20
2.415871441007026
 30
0.0
 40
10.1699999999596
  1
㈱
  7
MSP明朝
100
AcDbText
  0
ENDBLK
  5
AF5
330
AF2
100
AcDbEntity
  8
0
100
AcDbBlockEnd
  0
BLOCK
  5
19E7
330
19E6
100
AcDbEntity
  8
0
100
AcDbBlockBegin
  2
TSTYUKI
 70
     2
 10
0.0
 20
0.0
 30
0.0
  3
TSTYUKI
  1

  0
TEXT
  5
19E8
330
19E6
100
AcDbEntity
  8
TXT1
100
AcDbText
 10
0.0
 20
0.0
 30
0.0
 40
4.0
  1
注記
 41
0.7
100
AcDbText
  0
POINT
  5
19E9
330
19E6
100
AcDbEntity
  8
DRADOT
100
AcDbPoint
 10
0.0
 20
0.0
 30
0.0
  0
ATTDEF
  5
19EA
330
19E6
100
AcDbEntity
  8
ZOKUSEI
100
AcDbText
 10
10.0
 20
0.0
 30
0.0
 40
4.0
  1
1.
 41
0.7
100
AcDbAttributeDefinition
  3

  2
注記1行目
 70
     0
280
     0
  0
ATTDEF
  5
19EB
330
19E6
100
AcDbEntity
  8
ZOKUSEI
100
AcDbText
 10
10.0
 20
5.999999999999969
 30
0.0
 40
4.0
  1

 41
0.7
100
AcDbAttributeDefinition
  3

  2
注記2行目
 70
     0
280
     0
  0
ATTDEF
  5
19EC
330
19E6
100
AcDbEntity
  8
ZOKUSEI
100
AcDbText
 10
10.0
 20
11.99999999999998
 30
0.0
 40
4.0
  1

 41
0.7
100
AcDbAttributeDefinition
  3

  2
注記3行目
 70
     0
280
     0
  0
ATTDEF
  5
19ED
330
19E6
100
AcDbEntity
  8
ZOKUSEI
100
AcDbText
 10
10.0
 20
17.99999999999997
 30
0.0
 40
4.0
  1

 41
0.7
100
AcDbAttributeDefinition
  3

  2
注記4行目
 70
     0
280
     0
  0
ATTDEF
  5
19EE
330
19E6
100
AcDbEntity
  8
ZOKUSEI
100
AcDbText
 10
10.0
 20
23.99999999999999
 30
0.0
 40
4.0
  1

 41
0.7
100
AcDbAttributeDefinition
  3

  2
注記5行目
 70
     0
280
     0
  0
ATTDEF
  5
19EF
330
19E6
100
AcDbEntity
  8
ZOKUSEI
100
AcDbText
 10
10.0
 20
29.99999999999996
 30
0.0
 40
4.0
  1

 41
0.7
100
AcDbAttributeDefinition
  3

  2
注記6行目
 70
     0
280
     0
  0
ATTDEF
  5
19F0
330
19E6
100
AcDbEntity
  8
ZOKUSEI
100
AcDbText
 10
10.0
 20
35.99999999999996
 30
0.0
 40
4.0
  1

 41
0.7
100
AcDbAttributeDefinition
  3

  2
注記7行目
 70
     0
280
     0
  0
ATTDEF
  5
19F1
330
19E6
100
AcDbEntity
  8
ZOKUSEI
100
AcDbText
 10
10.0
 20
41.99999999999993
 30
0.0
 40
4.0
  1

 41
0.7
100
AcDbAttributeDefinition
  3

  2
注記8行目
 70
     0
280
     0
  0
ATTDEF
  5
19F2
330
19E6
100
AcDbEntity
  8
ZOKUSEI
100
AcDbText
 10
10.0
 20
47.99999999999997
 30
0.0
 40
4.0
  1

 41
0.7
100
AcDbAttributeDefinition
  3

  2
注記9行目
 70
     0
280
     0
  0
ATTDEF
  5
19F3
330
19E6
100
AcDbEntity
  8
ZOKUSEI
100
AcDbText
 10
10.0
 20
53.99999999999995
 30
0.0
 40
4.0
  1

 41
0.7
100
AcDbAttributeDefinition
  3

  2
注記10行目
 70
     0
280
     0
  0
ATTDEF
  5
19F4
330
19E6
100
AcDbEntity
  8
ZOKUSEI
100
AcDbText
 10
10.0
 20
59.99999999999996
 30
0.0
 40
4.0
  1

 41
0.7
100
AcDbAttributeDefinition
  3

  2
注記11行目
 70
     0
280
     0
  0
ATTDEF
  5
19F5
330
19E6
100
AcDbEntity
  8
ZOKUSEI
100
AcDbText
 10
10.0
 20
65.99999999999993
 30
0.0
 40
4.0
  1

 41
0.7
100
AcDbAttributeDefinition
  3

  2
注記12行目
 70
     0
280
     0
  0
ENDBLK
  5
19F6
330
19E6
100
AcDbEntity
  8
0
100
AcDbBlockEnd
  0
BLOCK
  5
60F1
330
60E7
100
AcDbEntity
  8
0
100
AcDbBlockBegin
  2
*D16
 70
     1
 10
0.0
 20
0.0
 30
0.0
  3
*D16
  1

  0
LINE
  5
6399
330
60E7
100
AcDbEntity
  8
SCALE
 62
     0
440
 16777216
370
    -2
100
AcDbLine
 10
180.8658346418982
 20
372.5757031187806
 30
0.0
 11
180.3415235282521
 21
372.5757031187806
 31
0.0
  0
LINE
  5
639A
330
60E7
100
AcDbEntity
  8
SCALE
 62
     0
440
 16777216
370
    -2
100
AcDbLine
 10
135.2111050510604
 20
276.5757031187805
 30
0.0
 11
180.3415235282521
 21
276.5757031187805
 31
0.0
  0
LINE
  5
639B
330
60E7
100
AcDbEntity
  8
SCALE
 62
     0
440
 16777216
370
    -2
100
AcDbLine
 10
180.3415235282521
 20
366.5757031187806
 30
0.0
 11
180.3415235282521
 21
282.5757031187805
 31
0.0
  0
INSERT
  5
639C
330
60E7
100
AcDbEntity
  8
SCALE
 62
     0
440
 16777216
370
    -2
100
AcDbBlockReference
  2
YAZ1
 10
180.3415235282521
 20
372.5757031187806
 30
0.0
 41
6.0
 42
6.0
 43
6.0
 50
90.0
  0
INSERT
  5
639D
330
60E7
100
AcDbEntity
  8
SCALE
 62
     0
440
 16777216
370
    -2
100
AcDbBlockReference
  2
YAZ1
 10
180.3415235282521
 20
276.5757031187805
 30
0.0
 41
6.0
 42
6.0
 43
6.0
 50
270.0
  0
MTEXT
  5
639E
330
60E7
100
AcDbEntity
  8
SCALE
 62
     0
440
 16777216
100
AcDbMText
 10
173.3415235282521
 20
324.5757031187807
 30
0.0
 40
8.0
 41
0.0
 46
0.0
 71
     5
 72
     1
  1
\A1;（96）
 11
0.0000000000000001
 21
1.0
 31
0.0
 73
     1
 44
1.0
  0
POINT
  5
639F
330
60E7
100
AcDbEntity
  8
Defpoints
 62
     0
440
 16777216
100
AcDbPoint
 10
179.8658346418982
 20
372.5757031187806
 30
0.0
  0
POINT
  5
63A0
330
60E7
100
AcDbEntity
  8
Defpoints
 62
     0
440
 16777216
100
AcDbPoint
 10
134.2111050510604
 20
276.5757031187805
 30
0.0
  0
POINT
  5
63A1
330
60E7
100
AcDbEntity
  8
Defpoints
 62
     0
440
 16777216
100
AcDbPoint
 10
180.3415235282521
 20
276.5757031187805
 30
0.0
  0
ENDBLK
  5
60F2
330
60E7
100
AcDbEntity
  8
0
100
AcDbBlockEnd
  0
BLOCK
  5
60FD
330
60F3
100
AcDbEntity
  8
0
100
AcDbBlockBegin
  2
*D17
 70
     1
 10
0.0
 20
0.0
 30
0.0
  3
*D17
  1

  0
LINE
  5
662E
330
60F3
100
AcDbEntity
  8
SCALE
 62
     0
440
 16777216
370
    -2
100
AcDbLine
 10
298.3505737042413
 20
506.7655674588976
 30
0.0
 11
327.7966888824486
 21
506.7655674588976
 31
0.0
  0
LINE
  5
662F
330
60F3
100
AcDbEntity
  8
SCALE
 62
     0
440
 16777216
370
    -2
100
AcDbLine
 10
287.3005737042412
 20
400.2655674588978
 30
0.0
 11
327.7966888824486
 21
400.2655674588978
 31
0.0
  0
LINE
  5
6630
330
60F3
100
AcDbEntity
  8
SCALE
 62
     0
440
 16777216
370
    -2
100
AcDbLine
 10
327.7966888824486
 20
500.7655674588978
 30
0.0
 11
327.7966888824486
 21
406.2655674588977
 31
0.0
  0
INSERT
  5
6631
330
60F3
100
AcDbEntity
  8
SCALE
 62
     0
440
 16777216
370
    -2
100
AcDbBlockReference
  2
YAZ1
 10
327.7966888824486
 20
506.7655674588976
 30
0.0
 41
6.0
 42
6.0
 43
6.0
 50
90.0
  0
INSERT
  5
6632
330
60F3
100
AcDbEntity
  8
SCALE
 62
     0
440
 16777216
370
    -2
100
AcDbBlockReference
  2
YAZ1
 10
327.7966888824486
 20
400.2655674588978
 30
0.0
 41
6.0
 42
6.0
 43
6.0
 50
270.0
  0
MTEXT
  5
6633
330
60F3
100
AcDbEntity
  8
SCALE
 62
     0
440
 16777216
100
AcDbMText
 10
320.7966888824484
 20
453.5155674588978
 30
0.0
 40
8.0
 41
0.0
 46
0.0
 71
     5
 72
     1
  1
\A1;（106.5）
 11
0.0000000000000001
 21
1.0
 31
0.0
 73
     1
 44
1.0
  0
POINT
  5
6634
330
60F3
100
AcDbEntity
  8
Defpoints
 62
     0
440
 16777216
100
AcDbPoint
 10
297.3505737042414
 20
506.7655674588976
 30
0.0
  0
POINT
  5
6635
330
60F3
100
AcDbEntity
  8
Defpoints
 62
     0
440
 16777216
100
AcDbPoint
 10
286.3005737042412
 20
400.2655674588978
 30
0.0
  0
POINT
  5
6636
330
60F3
100
AcDbEntity
  8
Defpoints
 62
     0
440
 16777216
100
AcDbPoint
 10
327.7966888824486
 20
400.2655674588978
 30
0.0
  0
ENDBLK
  5
60FE
330
60F3
100
AcDbEntity
  8
0
100
AcDbBlockEnd
  0
BLOCK
  5
6109
330
60FF
100
AcDbEntity
  8
0
100
AcDbBlockBegin
  2
*D18
 70
     1
 10
0.0
 20
0.0
 30
0.0
  3
*D18
  1

  0
LINE
  5
668B
330
60FF
100
AcDbEntity
  8
SCALE
 62
     0
440
 16777216
370
    -2
100
AcDbLine
 10
283.5505737042412
 20
539.2655674588977
 30
0.0
 11
327.7966888824486
 21
539.2655674588977
 31
0.0
  0
LINE
  5
668C
330
60FF
100
AcDbEntity
  8
SCALE
 62
     0
440
 16777216
370
    -2
100
AcDbLine
 10
298.3505737042413
 20
506.7655674588976
 30
0.0
 11
327.7966888824486
 21
506.7655674588976
 31
0.0
  0
LINE
  5
668D
330
60FF
100
AcDbEntity
  8
SCALE
 62
     0
440
 16777216
370
    -2
100
AcDbLine
 10
327.7966888824486
 20
533.2655674588977
 30
0.0
 11
327.7966888824486
 21
512.7655674588977
 31
0.0
  0
INSERT
  5
668E
330
60FF
100
AcDbEntity
  8
SCALE
 62
     0
440
 16777216
370
    -2
100
AcDbBlockReference
  2
YAZ1
 10
327.7966888824486
 20
539.2655674588977
 30
0.0
 41
6.0
 42
6.0
 43
6.0
 50
90.0
  0
INSERT
  5
668F
330
60FF
100
AcDbEntity
  8
SCALE
 62
     0
440
 16777216
370
    -2
100
AcDbBlockReference
  2
YAZ1
 10
327.7966888824486
 20
506.7655674588976
 30
0.0
 41
6.0
 42
6.0
 43
6.0
 50
270.0
  0
MTEXT
  5
6690
330
60FF
100
AcDbEntity
  8
SCALE
 62
     0
440
 16777216
100
AcDbMText
 10
320.7966888824485
 20
523.7165736064321
 30
0.0
 40
8.0
 41
0.0
 46
0.0
 71
     5
 72
     1
  1
\A1;（32.5）
 11
0.0000000000000001
 21
1.0
 31
0.0
 73
     1
 44
1.0
  0
POINT
  5
6691
330
60FF
100
AcDbEntity
  8
Defpoints
 62
     0
440
 16777216
100
AcDbPoint
 10
282.5505737042412
 20
539.2655674588977
 30
0.0
  0
POINT
  5
6692
330
60FF
100
AcDbEntity
  8
Defpoints
 62
     0
440
 16777216
100
AcDbPoint
 10
297.3505737042414
 20
506.7655674588976
 30
0.0
  0
POINT
  5
6693
330
60FF
100
AcDbEntity
  8
Defpoints
 62
     0
440
 16777216
100
AcDbPoint
 10
327.7966888824486
 20
506.7655674588976
 30
0.0
  0
ENDBLK
  5
610A
330
60FF
100
AcDbEntity
  8
0
100
AcDbBlockEnd
  0
BLOCK
  5
6115
330
610B
100
AcDbEntity
  8
0
100
AcDbBlockBegin
  2
*D19
 70
     1
 10
0.0
 20
0.0
 30
0.0
  3
*D19
  1

  0
LINE
  5
661C
330
610B
100
AcDbEntity
  8
SCALE
 62
     0
440
 16777216
370
    -2
100
AcDbLine
 10
267.5505737042412
 20
508.4380634588978
 30
0.0
 11
267.5505737042412
 21
553.1617422729838
 31
0.0
  0
LINE
  5
661D
330
610B
100
AcDbEntity
  8
SCALE
 62
     0
440
 16777216
370
    -2
100
AcDbLine
 10
297.5505737042412
 20
508.4380634588978
 30
0.0
 11
297.5505737042412
 21
553.1617422729838
 31
0.0
  0
LINE
  5
661E
330
610B
100
AcDbEntity
  8
SCALE
 62
     0
440
 16777216
370
    -2
100
AcDbLine
 10
273.5505737042412
 20
553.1617422729838
 30
0.0
 11
291.5505737042412
 21
553.1617422729838
 31
0.0
  0
INSERT
  5
661F
330
610B
100
AcDbEntity
  8
SCALE
 62
     0
440
 16777216
370
    -2
100
AcDbBlockReference
  2
YAZ1
 10
267.5505737042412
 20
553.1617422729838
 30
0.0
 41
6.0
 42
6.0
 43
6.0
 50
180.0
  0
INSERT
  5
6620
330
610B
100
AcDbEntity
  8
SCALE
 62
     0
440
 16777216
370
    -2
100
AcDbBlockReference
  2
YAZ1
 10
297.5505737042412
 20
553.1617422729838
 30
0.0
 41
6.0
 42
6.0
 43
6.0
  0
MTEXT
  5
6621
330
610B
100
AcDbEntity
  8
SCALE
 62
     0
440
 16777216
100
AcDbMText
 10
282.5505737042412
 20
560.1617422729836
 30
0.0
 40
8.0
 41
0.0
 46
0.0
 71
     5
 72
     1
  1
\A1;%%c30
 73
     1
 44
1.0
  0
POINT
  5
6622
330
610B
100
AcDbEntity
  8
Defpoints
 62
     0
440
 16777216
100
AcDbPoint
 10
267.5505737042412
 20
507.4380634588977
 30
0.0
  0
POINT
  5
6623
330
610B
100
AcDbEntity
  8
Defpoints
 62
     0
440
 16777216
100
AcDbPoint
 10
297.5505737042412
 20
507.4380634588977
 30
0.0
  0
POINT
  5
6624
330
610B
100
AcDbEntity
  8
Defpoints
 62
     0
440
 16777216
100
AcDbPoint
 10
297.5505737042412
 20
553.1617422729838
 30
0.0
  0
ENDBLK
  5
6116
330
610B
100
AcDbEntity
  8
0
100
AcDbBlockEnd
  0
BLOCK
  5
6123
330
6117
100
AcDbEntity
  8
0
100
AcDbBlockBegin
  2
*D20
 70
     1
 10
0.0
 20
0.0
 30
0.0
  3
*D20
  1

  0
LINE
  5
6676
330
6117
100
AcDbEntity
  8
SCALE
 62
     0
440
 16777216
370
    -2
100
AcDbLine
 10
291.7881777042413
 20
467.6165008893826
 30
0.0
 11
291.7881777042413
 21
463.0666510974086
 31
0.0
  0
LINE
  5
6677
330
6117
100
AcDbEntity
  8
SCALE
 62
     0
440
 16777216
370
    -2
100
AcDbLine
 10
273.3129697042413
 20
467.6165008893826
 30
0.0
 11
273.3129697042413
 21
463.0666510974086
 31
0.0
  0
LINE
  5
6678
330
6117
100
AcDbEntity
  8
SCALE
 62
     0
440
 16777216
370
    -2
100
AcDbLine
 10
297.7881777042413
 20
463.0666510974086
 30
0.0
 11
303.7881777042413
 21
463.0666510974086
 31
0.0
  0
LINE
  5
6679
330
6117
100
AcDbEntity
  8
SCALE
 62
     0
440
 16777216
370
    -2
100
AcDbLine
 10
267.3129697042412
 20
463.0666510974086
 30
0.0
 11
202.3255533547086
 21
463.0666510974086
 31
0.0
  0
LINE
  5
667A
330
6117
100
AcDbEntity
  8
SCALE
 62
     0
440
 16777216
370
    -2
100
AcDbLine
 10
291.7881777042413
 20
463.0666510974086
 30
0.0
 11
273.3129697042413
 21
463.0666510974086
 31
0.0
  0
INSERT
  5
667B
330
6117
100
AcDbEntity
  8
SCALE
 62
     0
440
 16777216
370
    -2
100
AcDbBlockReference
  2
YAZ1
 10
291.7881777042413
 20
463.0666510974086
 30
0.0
 41
6.0
 42
6.0
 43
6.0
 50
180.0
  0
INSERT
  5
667C
330
6117
100
AcDbEntity
  8
SCALE
 62
     0
440
 16777216
370
    -2
100
AcDbBlockReference
  2
YAZ1
 10
273.3129697042413
 20
463.0666510974086
 30
0.0
 41
6.0
 42
6.0
 43
6.0
  0
MTEXT
  5
667D
330
6117
100
AcDbEntity
  8
SCALE
 62
     0
440
 16777216
100
AcDbMText
 10
223.698886688042
 20
470.0666510974087
 30
0.0
 40
8.0
 41
0.0
 46
0.0
 71
     5
 72
     1
  1
\A1;六角対辺16
 73
     1
 44
1.0
  0
POINT
  5
667E
330
6117
100
AcDbEntity
  8
Defpoints
 62
     0
440
 16777216
100
AcDbPoint
 10
291.7881777042413
 20
468.6165008893826
 30
0.0
  0
POINT
  5
667F
330
6117
100
AcDbEntity
  8
Defpoints
 62
     0
440
 16777216
100
AcDbPoint
 10
273.3129697042413
 20
468.6165008893826
 30
0.0
  0
POINT
  5
6680
330
6117
100
AcDbEntity
  8
Defpoints
 62
     0
440
 16777216
100
AcDbPoint
 10
273.3129697042413
 20
463.0666510974086
 30
0.0
  0
ENDBLK
  5
6124
330
6117
100
AcDbEntity
  8
0
100
AcDbBlockEnd
  0
BLOCK
  5
6131
330
6125
100
AcDbEntity
  8
0
100
AcDbBlockBegin
  2
*D21
 70
     1
 10
0.0
 20
0.0
 30
0.0
  3
*D21
  1

  0
LINE
  5
665D
330
6125
100
AcDbEntity
  8
SCALE
 62
     0
440
 16777216
370
    -2
100
AcDbLine
 10
269.0505737042412
 20
475.9019688893824
 30
0.0
 11
249.1559256871735
 21
475.9019688893824
 31
0.0
  0
LINE
  5
665E
330
6125
100
AcDbEntity
  8
SCALE
 62
     0
440
 16777216
370
    -2
100
AcDbLine
 10
266.7505737042412
 20
506.7655674588976
 30
0.0
 11
249.1559256871735
 21
506.7655674588976
 31
0.0
  0
LINE
  5
665F
330
6125
100
AcDbEntity
  8
SCALE
 62
     0
440
 16777216
370
    -2
100
AcDbLine
 10
249.1559256871735
 20
469.9019688893825
 30
0.0
 11
249.1559256871735
 21
463.9019688893824
 31
0.0
  0
LINE
  5
6660
330
6125
100
AcDbEntity
  8
SCALE
 62
     0
440
 16777216
370
    -2
100
AcDbLine
 10
249.1559256871735
 20
512.7655674588977
 30
0.0
 11
249.1559256871735
 21
518.7655674588977
 31
0.0
  0
LINE
  5
6661
330
6125
100
AcDbEntity
  8
SCALE
 62
     0
440
 16777216
370
    -2
100
AcDbLine
 10
249.1559256871735
 20
491.3337681741402
 30
0.0
 11
236.9233277189906
 21
505.0023970925066
 31
0.0
  0
LINE
  5
6662
330
6125
100
AcDbEntity
  8
SCALE
 62
     0
440
 16777216
370
    -2
100
AcDbLine
 10
236.9233277189906
 20
505.0023970925066
 30
0.0
 11
236.9233277189906
 21
573.2423970925067
 31
0.0
  0
MTEXT
  5
6663
330
6125
100
AcDbEntity
  8
SCALE
 62
     0
440
 16777216
100
AcDbMText
 10
229.9233277189905
 20
539.1223970925067
 30
0.0
 40
8.0
 41
0.0
 46
0.0
 71
     5
 72
     1
  1
\A1;天板締付範囲6～40
 11
0.0000000000000001
 21
1.0
 31
0.0
 73
     1
 44
1.0
  0
LINE
  5
6664
330
6125
100
AcDbEntity
  8
SCALE
 62
     0
440
 16777216
370
    -2
100
AcDbLine
 10
249.1559256871735
 20
475.9019688893824
 30
0.0
 11
249.1559256871735
 21
506.7655674588976
 31
0.0
  0
LINE
  5
6665
330
6125
100
AcDbEntity
  8
SCALE
 62
     0
440
 16777216
370
    -2
100
AcDbLine
 10
249.1559256871735
 20
475.9019688893824
 30
0.0
 11
249.1559256871735
 21
506.7655674588976
 31
0.0
  0
INSERT
  5
6666
330
6125
100
AcDbEntity
  8
SCALE
 62
     0
440
 16777216
370
    -2
100
AcDbBlockReference
  2
YAZ1
 10
249.1559256871735
 20
475.9019688893824
 30
0.0
 41
6.0
 42
6.0
 43
6.0
 50
90.0
  0
INSERT
  5
6667
330
6125
100
AcDbEntity
  8
SCALE
 62
     0
440
 16777216
370
    -2
100
AcDbBlockReference
  2
YAZ1
 10
249.1559256871735
 20
506.7655674588976
 30
0.0
 41
6.0
 42
6.0
 43
6.0
 50
270.0
  0
POINT
  5
6668
330
6125
100
AcDbEntity
  8
Defpoints
 62
     0
440
 16777216
100
AcDbPoint
 10
270.0505737042412
 20
475.9019688893824
 30
0.0
  0
POINT
  5
6669
330
6125
100
AcDbEntity
  8
Defpoints
 62
     0
440
 16777216
100
AcDbPoint
 10
267.7505737042412
 20
506.7655674588976
 30
0.0
  0
POINT
  5
666A
330
6125
100
AcDbEntity
  8
Defpoints
 62
     0
440
 16777216
100
AcDbPoint
 10
249.1559256871735
 20
506.7655674588976
 30
0.0
  0
ENDBLK
  5
6132
330
6125
100
AcDbEntity
  8
0
100
AcDbBlockEnd
  0
BLOCK
  5
613D
330
6133
100
AcDbEntity
  8
0
100
AcDbBlockBegin
  2
*D22
 70
     1
 10
0.0
 20
0.0
 30
0.0
  3
*D22
  1

  0
LINE
  5
63D3
330
6133
100
AcDbEntity
  8
SCALE
 62
     0
440
 16777216
370
    -2
100
AcDbLine
 10
94.63071360782899
 20
304.9757031187803
 30
0.0
 11
85.62408866815784
 21
304.9757031187803
 31
0.0
  0
LINE
  5
63D4
330
6133
100
AcDbEntity
  8
SCALE
 62
     0
440
 16777216
370
    -2
100
AcDbLine
 10
100.5362135299822
 20
252.9757031187804
 30
0.0
 11
85.62408866815784
 21
252.9757031187804
 31
0.0
  0
LINE
  5
63D5
330
6133
100
AcDbEntity
  8
SCALE
 62
     0
440
 16777216
370
    -2
100
AcDbLine
 10
85.62408866815784
 20
298.9757031187803
 30
0.0
 11
85.62408866815784
 21
258.9757031187804
 31
0.0
  0
INSERT
  5
63D6
330
6133
100
AcDbEntity
  8
SCALE
 62
     0
440
 16777216
370
    -2
100
AcDbBlockReference
  2
YAZ1
 10
85.62408866815784
 20
304.9757031187803
 30
0.0
 41
6.0
 42
6.0
 43
6.0
 50
90.0
  0
INSERT
  5
63D7
330
6133
100
AcDbEntity
  8
SCALE
 62
     0
440
 16777216
370
    -2
100
AcDbBlockReference
  2
YAZ1
 10
85.62408866815784
 20
252.9757031187804
 30
0.0
 41
6.0
 42
6.0
 43
6.0
 50
270.0
  0
MTEXT
  5
63D8
330
6133
100
AcDbEntity
  8
SCALE
 62
     0
440
 16777216
100
AcDbMText
 10
78.6240886681578
 20
264.7878408648703
 30
0.0
 40
8.0
 41
0.0
 46
0.0
 71
     5
 72
     1
  1
\A1;（52）
 11
0.0000000000000001
 21
1.0
 31
0.0
 73
     1
 44
1.0
  0
POINT
  5
63D9
330
6133
100
AcDbEntity
  8
Defpoints
 62
     0
440
 16777216
100
AcDbPoint
 10
95.63071360782899
 20
304.9757031187803
 30
0.0
  0
POINT
  5
63DA
330
6133
100
AcDbEntity
  8
Defpoints
 62
     0
440
 16777216
100
AcDbPoint
 10
101.5362135299822
 20
252.9757031187804
 30
0.0
  0
POINT
  5
63DB
330
6133
100
AcDbEntity
  8
Defpoints
 62
     0
440
 16777216
100
AcDbPoint
 10
85.62408866815784
 20
252.9757031187804
 30
0.0
  0
ENDBLK
  5
613E
330
6133
100
AcDbEntity
  8
0
100
AcDbBlockEnd
  0
BLOCK
  5
6149
330
613F
100
AcDbEntity
  8
0
100
AcDbBlockBegin
  2
*D23
 70
     1
 10
0.0
 20
0.0
 30
0.0
  3
*D23
  1

  0
LINE
  5
63DC
330
613F
100
AcDbEntity
  8
SCALE
 62
     0
440
 16777216
370
    -2
100
AcDbLine
 10
94.63071360782899
 20
304.9757031187803
 30
0.0
 11
65.62408866815785
 21
304.9757031187803
 31
0.0
  0
LINE
  5
63DD
330
613F
100
AcDbEntity
  8
SCALE
 62
     0
440
 16777216
370
    -2
100
AcDbLine
 10
155.3362135299817
 20
174.9757031187803
 30
0.0
 11
65.62408866815783
 21
174.9757031187803
 31
0.0
  0
LINE
  5
63DE
330
613F
100
AcDbEntity
  8
SCALE
 62
     0
440
 16777216
370
    -2
100
AcDbLine
 10
65.62408866815785
 20
298.9757031187803
 30
0.0
 11
65.62408866815783
 21
180.9757031187803
 31
0.0
  0
INSERT
  5
63DF
330
613F
100
AcDbEntity
  8
SCALE
 62
     0
440
 16777216
370
    -2
100
AcDbBlockReference
  2
YAZ1
 10
65.62408866815785
 20
304.9757031187803
 30
0.0
 41
6.0
 42
6.0
 43
6.0
 50
90.0
  0
INSERT
  5
63E0
330
613F
100
AcDbEntity
  8
SCALE
 62
     0
440
 16777216
370
    -2
100
AcDbBlockReference
  2
YAZ1
 10
65.62408866815783
 20
174.9757031187803
 30
0.0
 41
6.0
 42
6.0
 43
6.0
 50
270.0
  0
MTEXT
  5
63E1
330
613F
100
AcDbEntity
  8
SCALE
 62
     0
440
 16777216
100
AcDbMText
 10
58.6240886681578
 20
239.9757031187804
 30
0.0
 40
8.0
 41
0.0
 46
0.0
 71
     5
 72
     1
  1
\A1;（130）
 11
0.0000000000000001
 21
1.0
 31
0.0
 73
     1
 44
1.0
  0
POINT
  5
63E2
330
613F
100
AcDbEntity
  8
Defpoints
 62
     0
440
 16777216
100
AcDbPoint
 10
95.63071360782899
 20
304.9757031187803
 30
0.0
  0
POINT
  5
63E3
330
613F
100
AcDbEntity
  8
Defpoints
 62
     0
440
 16777216
100
AcDbPoint
 10
156.3362135299817
 20
174.9757031187803
 30
0.0
  0
POINT
  5
63E4
330
613F
100
AcDbEntity
  8
Defpoints
 62
     0
440
 16777216
100
AcDbPoint
 10
65.62408866815783
 20
174.9757031187803
 30
0.0
  0
ENDBLK
  5
614A
330
613F
100
AcDbEntity
  8
0
100
AcDbBlockEnd
  0
BLOCK
  5
6155
330
614B
100
AcDbEntity
  8
0
100
AcDbBlockBegin
  2
*D24
 70
     1
 10
0.0
 20
0.0
 30
0.0
  3
*D24
  1

  0
LINE
  5
63E5
330
614B
100
AcDbEntity
  8
SCALE
 62
     0
440
 16777216
370
    -2
100
AcDbLine
 10
118.3362135299817
 20
211.9757031187804
 30
0.0
 11
118.3362135299817
 21
143.3852753278074
 31
0.0
  0
LINE
  5
63E6
330
614B
100
AcDbEntity
  8
SCALE
 62
     0
440
 16777216
370
    -2
100
AcDbLine
 10
194.3362135299816
 20
211.9757031187804
 30
0.0
 11
194.3362135299816
 21
143.3852753278074
 31
0.0
  0
LINE
  5
63E7
330
614B
100
AcDbEntity
  8
SCALE
 62
     0
440
 16777216
370
    -2
100
AcDbLine
 10
124.3362135299817
 20
143.3852753278074
 30
0.0
 11
188.3362135299817
 21
143.3852753278074
 31
0.0
  0
INSERT
  5
63E8
330
614B
100
AcDbEntity
  8
SCALE
 62
     0
440
 16777216
370
    -2
100
AcDbBlockReference
  2
YAZ1
 10
118.3362135299817
 20
143.3852753278074
 30
0.0
 41
6.0
 42
6.0
 43
6.0
 50
180.0
  0
INSERT
  5
63E9
330
614B
100
AcDbEntity
  8
SCALE
 62
     0
440
 16777216
370
    -2
100
AcDbBlockReference
  2
YAZ1
 10
194.3362135299816
 20
143.3852753278074
 30
0.0
 41
6.0
 42
6.0
 43
6.0
  0
MTEXT
  5
63EA
330
614B
100
AcDbEntity
  8
SCALE
 62
     0
440
 16777216
100
AcDbMText
 10
156.7820976953175
 20
150.3852753278074
 30
0.0
 40
8.0
 41
0.0
 46
0.0
 71
     5
 72
     1
  1
\A1;（76）
 73
     1
 44
1.0
  0
POINT
  5
63EB
330
614B
100
AcDbEntity
  8
Defpoints
 62
     0
440
 16777216
100
AcDbPoint
 10
118.3362135299817
 20
212.9757031187804
 30
0.0
  0
POINT
  5
63EC
330
614B
100
AcDbEntity
  8
Defpoints
 62
     0
440
 16777216
100
AcDbPoint
 10
194.3362135299816
 20
212.9757031187804
 30
0.0
  0
POINT
  5
63ED
330
614B
100
AcDbEntity
  8
Defpoints
 62
     0
440
 16777216
100
AcDbPoint
 10
194.3362135299816
 20
143.3852753278074
 30
0.0
  0
ENDBLK
  5
6156
330
614B
100
AcDbEntity
  8
0
100
AcDbBlockEnd
  0
BLOCK
  5
6161
330
6157
100
AcDbEntity
  8
0
100
AcDbBlockBegin
  2
*D25
 70
     1
 10
0.0
 20
0.0
 30
0.0
  3
*D25
  1

  0
LINE
  5
63EE
330
6157
100
AcDbEntity
  8
SCALE
 62
     0
440
 16777216
370
    -2
100
AcDbLine
 10
194.3362135299816
 20
211.9757031187804
 30
0.0
 11
194.3362135299816
 21
143.3852627803012
 31
0.0
  0
LINE
  5
63EF
330
6157
100
AcDbEntity
  8
SCALE
 62
     0
440
 16777216
370
    -2
100
AcDbLine
 10
360.4318414290535
 20
250.1007031187804
 30
0.0
 11
360.4318414290535
 21
143.3852627803012
 31
0.0
  0
LINE
  5
63F0
330
6157
100
AcDbEntity
  8
SCALE
 62
     0
440
 16777216
370
    -2
100
AcDbLine
 10
200.3362135299817
 20
143.3852627803012
 30
0.0
 11
354.4318414290535
 21
143.3852627803012
 31
0.0
  0
INSERT
  5
63F1
330
6157
100
AcDbEntity
  8
SCALE
 62
     0
440
 16777216
370
    -2
100
AcDbBlockReference
  2
YAZ1
 10
194.3362135299816
 20
143.3852627803012
 30
0.0
 41
6.0
 42
6.0
 43
6.0
 50
180.0
  0
INSERT
  5
63F2
330
6157
100
AcDbEntity
  8
SCALE
 62
     0
440
 16777216
370
    -2
100
AcDbBlockReference
  2
YAZ1
 10
360.4318414290535
 20
143.3852627803012
 30
0.0
 41
6.0
 42
6.0
 43
6.0
  0
MTEXT
  5
63F3
330
6157
100
AcDbEntity
  8
SCALE
 62
     0
440
 16777216
100
AcDbMText
 10
277.9671506471359
 20
150.3852627803012
 30
0.0
 40
8.0
 41
0.0
 46
0.0
 71
     5
 72
     1
  1
\A1;（350）
 73
     1
 44
1.0
  0
POINT
  5
63F4
330
6157
100
AcDbEntity
  8
Defpoints
 62
     0
440
 16777216
100
AcDbPoint
 10
194.3362135299816
 20
212.9757031187804
 30
0.0
  0
POINT
  5
63F5
330
6157
100
AcDbEntity
  8
Defpoints
 62
     0
440
 16777216
100
AcDbPoint
 10
360.4318414290535
 20
251.1007031187804
 30
0.0
  0
POINT
  5
63F6
330
6157
100
AcDbEntity
  8
Defpoints
 62
     0
440
 16777216
100
AcDbPoint
 10
360.4318414290535
 20
143.3852627803012
 30
0.0
  0
ENDBLK
  5
6162
330
6157
100
AcDbEntity
  8
0
100
AcDbBlockEnd
  0
BLOCK
  5
616D
330
6163
100
AcDbEntity
  8
0
100
AcDbBlockBegin
  2
*D26
 70
     1
 10
0.0
 20
0.0
 30
0.0
  3
*D26
  1

  0
LINE
  5
63F7
330
6163
100
AcDbEntity
  8
SCALE
 62
     0
440
 16777216
370
    -2
100
AcDbLine
 10
157.3362135299817
 20
174.9757031187803
 30
0.0
 11
244.5993275016471
 21
174.9757031187803
 31
0.0
  0
LINE
  5
63F8
330
6163
100
AcDbEntity
  8
SCALE
 62
     0
440
 16777216
370
    -2
100
AcDbLine
 10
233.3590675299818
 20
266.9757031187804
 30
0.0
 11
244.5993275016471
 21
266.9757031187804
 31
0.0
  0
LINE
  5
63F9
330
6163
100
AcDbEntity
  8
SCALE
 62
     0
440
 16777216
370
    -2
100
AcDbLine
 10
244.5993275016471
 20
180.9757031187803
 30
0.0
 11
244.5993275016471
 21
260.9757031187804
 31
0.0
  0
INSERT
  5
63FA
330
6163
100
AcDbEntity
  8
SCALE
 62
     0
440
 16777216
370
    -2
100
AcDbBlockReference
  2
YAZ1
 10
244.5993275016471
 20
174.9757031187803
 30
0.0
 41
6.0
 42
6.0
 43
6.0
 50
270.0
  0
INSERT
  5
63FB
330
6163
100
AcDbEntity
  8
SCALE
 62
     0
440
 16777216
370
    -2
100
AcDbBlockReference
  2
YAZ1
 10
244.5993275016471
 20
266.9757031187804
 30
0.0
 41
6.0
 42
6.0
 43
6.0
 50
90.0
  0
MTEXT
  5
63FC
330
6163
100
AcDbEntity
  8
SCALE
 62
     0
440
 16777216
100
AcDbMText
 10
237.599327501647
 20
220.9757031187804
 30
0.0
 40
8.0
 41
0.0
 46
0.0
 71
     5
 72
     1
  1
\A1;（92）
 11
0.0000000000000001
 21
1.0
 31
0.0
 73
     1
 44
1.0
  0
POINT
  5
63FD
330
6163
100
AcDbEntity
  8
Defpoints
 62
     0
440
 16777216
100
AcDbPoint
 10
156.3362135299817
 20
174.9757031187803
 30
0.0
  0
POINT
  5
63FE
330
6163
100
AcDbEntity
  8
Defpoints
 62
     0
440
 16777216
100
AcDbPoint
 10
232.3590675299818
 20
266.9757031187804
 30
0.0
  0
POINT
  5
63FF
330
6163
100
AcDbEntity
  8
Defpoints
 62
     0
440
 16777216
100
AcDbPoint
 10
244.5993275016471
 20
266.9757031187804
 30
0.0
  0
ENDBLK
  5
616E
330
6163
100
AcDbEntity
  8
0
100
AcDbBlockEnd
  0
BLOCK
  5
617B
330
616F
100
AcDbEntity
  8
0
100
AcDbBlockBegin
  2
*D27
 70
     1
 10
0.0
 20
0.0
 30
0.0
  3
*D27
  1

  0
LINE
  5
6400
330
616F
100
AcDbEntity
  8
SCALE
 62
     0
440
 16777216
370
    -2
100
AcDbLine
 10
94.33621352998196
 20
306.0132031187804
 30
0.0
 11
94.33621352998196
 21
341.0174882649564
 31
0.0
  0
LINE
  5
6401
330
616F
100
AcDbEntity
  8
SCALE
 62
     0
440
 16777216
370
    -2
100
AcDbLine
 10
142.3362135299816
 20
306.0132031187804
 30
0.0
 11
142.3362135299816
 21
341.0174882649564
 31
0.0
  0
LINE
  5
6402
330
616F
100
AcDbEntity
  8
SCALE
 62
     0
440
 16777216
370
    -2
100
AcDbLine
 10
88.33621352998196
 20
341.0174882649564
 30
0.0
 11
82.33621352998197
 21
341.0174882649564
 31
0.0
  0
LINE
  5
6403
330
616F
100
AcDbEntity
  8
SCALE
 62
     0
440
 16777216
370
    -2
100
AcDbLine
 10
148.3362135299817
 20
341.0174882649564
 30
0.0
 11
229.0282234646308
 21
341.0174882649564
 31
0.0
  0
LINE
  5
6404
330
616F
100
AcDbEntity
  8
SCALE
 62
     0
440
 16777216
370
    -2
100
AcDbLine
 10
94.33621352998196
 20
341.0174882649564
 30
0.0
 11
142.3362135299816
 21
341.0174882649564
 31
0.0
  0
INSERT
  5
6405
330
616F
100
AcDbEntity
  8
SCALE
 62
     0
440
 16777216
370
    -2
100
AcDbBlockReference
  2
YAZ1
 10
94.33621352998196
 20
341.0174882649564
 30
0.0
 41
6.0
 42
6.0
 43
6.0
  0
INSERT
  5
6406
330
616F
100
AcDbEntity
  8
SCALE
 62
     0
440
 16777216
370
    -2
100
AcDbBlockReference
  2
YAZ1
 10
142.3362135299816
 20
341.0174882649564
 30
0.0
 41
6.0
 42
6.0
 43
6.0
 50
180.0
  0
MTEXT
  5
6407
330
616F
100
AcDbEntity
  8
SCALE
 62
     0
440
 16777216
100
AcDbMText
 10
207.6548901312976
 20
348.0174882649563
 30
0.0
 40
8.0
 41
0.0
 46
0.0
 71
     5
 72
     1
  1
\A1;六角対辺43
 73
     1
 44
1.0
  0
POINT
  5
6408
330
616F
100
AcDbEntity
  8
Defpoints
 62
     0
440
 16777216
100
AcDbPoint
 10
94.33621352998196
 20
305.0132031187804
 30
0.0
  0
POINT
  5
6409
330
616F
100
AcDbEntity
  8
Defpoints
 62
     0
440
 16777216
100
AcDbPoint
 10
142.3362135299816
 20
305.0132031187804
 30
0.0
  0
POINT
  5
640A
330
616F
100
AcDbEntity
  8
Defpoints
 62
     0
440
 16777216
100
AcDbPoint
 10
142.3362135299816
 20
341.0174882649564
 30
0.0
  0
ENDBLK
  5
617C
330
616F
100
AcDbEntity
  8
0
100
AcDbBlockEnd
  0
BLOCK
  5
6187
330
617D
100
AcDbEntity
  8
0
100
AcDbBlockBegin
  2
*D28
 70
     1
 10
0.0
 20
0.0
 30
0.0
  3
*D28
  1

  0
LINE
  5
640B
330
617D
100
AcDbEntity
  8
SCALE
 62
     0
440
 16777216
370
    -2
100
AcDbLine
 10
170.3590675299818
 20
222.6757031187803
 30
0.0
 11
170.3590675299818
 21
296.0981379953836
 31
0.0
  0
LINE
  5
640C
330
617D
100
AcDbEntity
  8
SCALE
 62
     0
440
 16777216
370
    -2
100
AcDbLine
 10
218.3362135299817
 20
222.6757031187803
 30
0.0
 11
218.3362135299817
 21
296.0981379953836
 31
0.0
  0
LINE
  5
640D
330
617D
100
AcDbEntity
  8
SCALE
 62
     0
440
 16777216
370
    -2
100
AcDbLine
 10
176.3590675299818
 20
296.0981379953836
 30
0.0
 11
212.3362135299817
 21
296.0981379953836
 31
0.0
  0
INSERT
  5
640E
330
617D
100
AcDbEntity
  8
SCALE
 62
     0
440
 16777216
370
    -2
100
AcDbBlockReference
  2
YAZ1
 10
170.3590675299818
 20
296.0981379953836
 30
0.0
 41
6.0
 42
6.0
 43
6.0
 50
180.0
  0
INSERT
  5
640F
330
617D
100
AcDbEntity
  8
SCALE
 62
     0
440
 16777216
370
    -2
100
AcDbBlockReference
  2
YAZ1
 10
218.3362135299817
 20
296.0981379953836
 30
0.0
 41
6.0
 42
6.0
 43
6.0
  0
MTEXT
  5
6410
330
617D
100
AcDbEntity
  8
SCALE
 62
     0
440
 16777216
100
AcDbMText
 10
212.3362135299817
 20
303.0981379953836
 30
0.0
 40
8.0
 41
0.0
 46
0.0
 71
     5
 72
     1
  1
\A1;六角対辺43
 73
     1
 44
1.0
  0
POINT
  5
6411
330
617D
100
AcDbEntity
  8
Defpoints
 62
     0
440
 16777216
100
AcDbPoint
 10
170.3590675299818
 20
221.6757031187803
 30
0.0
  0
POINT
  5
6412
330
617D
100
AcDbEntity
  8
Defpoints
 62
     0
440
 16777216
100
AcDbPoint
 10
218.3362135299817
 20
221.6757031187803
 30
0.0
  0
POINT
  5
6413
330
617D
100
AcDbEntity
  8
Defpoints
 62
     0
440
 16777216
100
AcDbPoint
 10
218.3362135299817
 20
296.0981379953836
 30
0.0
  0
ENDBLK
  5
6188
330
617D
100
AcDbEntity
  8
0
100
AcDbBlockEnd
  0
BLOCK
  5
6193
330
6189
100
AcDbEntity
  8
0
100
AcDbBlockBegin
  2
*D29
 70
     1
 10
0.0
 20
0.0
 30
0.0
  3
*D29
  1

  0
LINE
  5
6414
330
6189
100
AcDbEntity
  8
SCALE
 62
     0
440
 16777216
370
    -2
100
AcDbLine
 10
331.4318414290535
 20
233.9757031187804
 30
0.0
 11
377.0705943883368
 21
233.9757031187804
 31
0.0
  0
LINE
  5
6415
330
6189
100
AcDbEntity
  8
SCALE
 62
     0
440
 16777216
370
    -2
100
AcDbLine
 10
331.4318414290535
 20
299.9757031187804
 30
0.0
 11
377.0705943883368
 21
299.9757031187804
 31
0.0
  0
LINE
  5
6416
330
6189
100
AcDbEntity
  8
SCALE
 62
     0
440
 16777216
370
    -2
100
AcDbLine
 10
377.0705943883368
 20
239.9757031187804
 30
0.0
 11
377.0705943883368
 21
293.9757031187804
 31
0.0
  0
INSERT
  5
6417
330
6189
100
AcDbEntity
  8
SCALE
 62
     0
440
 16777216
370
    -2
100
AcDbBlockReference
  2
YAZ1
 10
377.0705943883368
 20
233.9757031187804
 30
0.0
 41
6.0
 42
6.0
 43
6.0
 50
270.0
  0
INSERT
  5
6418
330
6189
100
AcDbEntity
  8
SCALE
 62
     0
440
 16777216
370
    -2
100
AcDbBlockReference
  2
YAZ1
 10
377.0705943883368
 20
299.9757031187804
 30
0.0
 41
6.0
 42
6.0
 43
6.0
 50
90.0
  0
MTEXT
  5
6419
330
6189
100
AcDbEntity
  8
SCALE
 62
     0
440
 16777216
100
AcDbMText
 10
370.0705943883368
 20
266.9757031187805
 30
0.0
 40
8.0
 41
0.0
 46
0.0
 71
     5
 72
     1
  1
\A1;%%c66
 11
0.0000000000000001
 21
1.0
 31
0.0
 73
     1
 44
1.0
  0
POINT
  5
641A
330
6189
100
AcDbEntity
  8
Defpoints
 62
     0
440
 16777216
100
AcDbPoint
 10
330.4318414290535
 20
233.9757031187804
 30
0.0
  0
POINT
  5
641B
330
6189
100
AcDbEntity
  8
Defpoints
 62
     0
440
 16777216
100
AcDbPoint
 10
330.4318414290535
 20
299.9757031187804
 30
0.0
  0
POINT
  5
641C
330
6189
100
AcDbEntity
  8
Defpoints
 62
     0
440
 16777216
100
AcDbPoint
 10
377.0705943883368
 20
299.9757031187804
 30
0.0
  0
ENDBLK
  5
6194
330
6189
100
AcDbEntity
  8
0
100
AcDbBlockEnd
  0
BLOCK
  5
61A1
330
6195
100
AcDbEntity
  8
0
100
AcDbBlockBegin
  2
*D30
 70
     1
 10
0.0
 20
0.0
 30
0.0
  3
*D30
  1

  0
LINE
  5
641D
330
6195
100
AcDbEntity
  8
SCALE
 62
     0
440
 16777216
370
    -2
100
AcDbLine
 10
292.5146955385007
 20
251.1007031187804
 30
0.0
 11
296.8550212938173
 21
251.1007031187804
 31
0.0
  0
LINE
  5
641E
330
6195
100
AcDbEntity
  8
SCALE
 62
     0
440
 16777216
370
    -2
100
AcDbLine
 10
293.8306543493268
 20
282.8507031187804
 30
0.0
 11
296.8550212938173
 21
282.8507031187804
 31
0.0
  0
LINE
  5
641F
330
6195
100
AcDbEntity
  8
SCALE
 62
     0
440
 16777216
370
    -2
100
AcDbLine
 10
296.8550212938173
 20
245.1007031187804
 30
0.0
 11
296.8550212938173
 21
239.1007031187804
 31
0.0
  0
LINE
  5
6420
330
6195
100
AcDbEntity
  8
SCALE
 62
     0
440
 16777216
370
    -2
100
AcDbLine
 10
296.8550212938173
 20
288.8507031187804
 30
0.0
 11
296.8550212938173
 21
314.9840364521138
 31
0.0
  0
LINE
  5
6421
330
6195
100
AcDbEntity
  8
SCALE
 62
     0
440
 16777216
370
    -2
100
AcDbLine
 10
296.8550212938173
 20
251.1007031187804
 30
0.0
 11
296.8550212938173
 21
282.8507031187804
 31
0.0
  0
INSERT
  5
6422
330
6195
100
AcDbEntity
  8
SCALE
 62
     0
440
 16777216
370
    -2
100
AcDbBlockReference
  2
YAZ1
 10
296.8550212938173
 20
251.1007031187804
 30
0.0
 41
6.0
 42
6.0
 43
6.0
 50
90.0
  0
INSERT
  5
6423
330
6195
100
AcDbEntity
  8
SCALE
 62
     0
440
 16777216
370
    -2
100
AcDbBlockReference
  2
YAZ1
 10
296.8550212938173
 20
282.8507031187804
 30
0.0
 41
6.0
 42
6.0
 43
6.0
 50
270.0
  0
MTEXT
  5
6424
330
6195
100
AcDbEntity
  8
SCALE
 62
     0
440
 16777216
100
AcDbMText
 10
289.8550212938173
 20
304.9173697854472
 30
0.0
 40
8.0
 41
0.0
 46
0.0
 71
     5
 72
     1
  1
\A1;%%c32
 11
0.0000000000000001
 21
1.0
 31
0.0
 73
     1
 44
1.0
  0
POINT
  5
6425
330
6195
100
AcDbEntity
  8
Defpoints
 62
     0
440
 16777216
100
AcDbPoint
 10
291.5146955385008
 20
251.1007031187804
 30
0.0
  0
POINT
  5
6426
330
6195
100
AcDbEntity
  8
Defpoints
 62
     0
440
 16777216
100
AcDbPoint
 10
292.8306543493268
 20
282.8507031187804
 30
0.0
  0
POINT
  5
6427
330
6195
100
AcDbEntity
  8
Defpoints
 62
     0
440
 16777216
100
AcDbPoint
 10
296.8550212938173
 20
282.8507031187804
 30
0.0
  0
ENDBLK
  5
61A2
330
6195
100
AcDbEntity
  8
0
100
AcDbBlockEnd
  0
BLOCK
  5
62DC
330
62D2
100
AcDbEntity
  8
0
100
AcDbBlockBegin
  2
*D31
 70
     1
 10
0.0
 20
0.0
 30
0.0
  3
*D31
  1

  0
LINE
  5
635D
330
62D2
100
AcDbEntity
  8
SCALE
 62
     0
440
 16777216
370
    -2
100
AcDbLine
 10
180.8658346418983
 20
372.5757031187805
 30
0.0
 11
180.3415235282521
 21
372.5757031187805
 31
0.0
  0
LINE
  5
635E
330
62D2
100
AcDbEntity
  8
SCALE
 62
     0
440
 16777216
370
    -2
100
AcDbLine
 10
135.2111050510602
 20
276.5757031187805
 30
0.0
 11
180.3415235282521
 21
276.5757031187805
 31
0.0
  0
LINE
  5
635F
330
62D2
100
AcDbEntity
  8
SCALE
 62
     0
440
 16777216
370
    -2
100
AcDbLine
 10
180.3415235282521
 20
366.5757031187805
 30
0.0
 11
180.3415235282521
 21
282.5757031187805
 31
0.0
  0
INSERT
  5
6360
330
62D2
100
AcDbEntity
  8
SCALE
 62
     0
440
 16777216
370
    -2
100
AcDbBlockReference
  2
YAZ1
 10
180.3415235282521
 20
372.5757031187805
 30
0.0
 41
6.0
 42
6.0
 43
6.0
 50
90.0
  0
INSERT
  5
6361
330
62D2
100
AcDbEntity
  8
SCALE
 62
     0
440
 16777216
370
    -2
100
AcDbBlockReference
  2
YAZ1
 10
180.3415235282521
 20
276.5757031187805
 30
0.0
 41
6.0
 42
6.0
 43
6.0
 50
270.0
  0
MTEXT
  5
6362
330
62D2
100
AcDbEntity
  8
SCALE
 62
     0
440
 16777216
100
AcDbMText
 10
173.3415235282521
 20
324.5757031187806
 30
0.0
 40
8.0
 41
0.0
 46
0.0
 71
     5
 72
     1
  1
\A1;（96）
 11
0.0000000000000001
 21
1.0
 31
0.0
 73
     1
 44
1.0
  0
POINT
  5
6363
330
62D2
100
AcDbEntity
  8
Defpoints
 62
     0
440
 16777216
100
AcDbPoint
 10
179.8658346418983
 20
372.5757031187805
 30
0.0
  0
POINT
  5
6364
330
62D2
100
AcDbEntity
  8
Defpoints
 62
     0
440
 16777216
100
AcDbPoint
 10
134.2111050510602
 20
276.5757031187805
 30
0.0
  0
POINT
  5
6365
330
62D2
100
AcDbEntity
  8
Defpoints
 62
     0
440
 16777216
100
AcDbPoint
 10
180.3415235282521
 20
276.5757031187805
 30
0.0
  0
ENDBLK
  5
62DD
330
62D2
100
AcDbEntity
  8
0
100
AcDbBlockEnd
  0
BLOCK
  5
62E8
330
62DE
100
AcDbEntity
  8
0
100
AcDbBlockBegin
  2
*D32
 70
     1
 10
0.0
 20
0.0
 30
0.0
  3
*D32
  1

  0
LINE
  5
6366
330
62DE
100
AcDbEntity
  8
SCALE
 62
     0
440
 16777216
370
    -2
100
AcDbLine
 10
91.33589715898802
 20
491.5732031187801
 30
0.0
 11
91.33589715898802
 21
515.7779051187806
 31
0.0
  0
LINE
  5
6367
330
62DE
100
AcDbEntity
  8
SCALE
 62
     0
440
 16777216
370
    -2
100
AcDbLine
 10
145.335897158988
 20
491.5732031187801
 30
0.0
 11
145.335897158988
 21
515.7779051187806
 31
0.0
  0
LINE
  5
6368
330
62DE
100
AcDbEntity
  8
SCALE
 62
     0
440
 16777216
370
    -2
100
AcDbLine
 10
97.33589715898801
 20
515.7779051187806
 30
0.0
 11
139.335897158988
 21
515.7779051187806
 31
0.0
  0
INSERT
  5
6369
330
62DE
100
AcDbEntity
  8
SCALE
 62
     0
440
 16777216
370
    -2
100
AcDbBlockReference
  2
YAZ1
 10
91.33589715898802
 20
515.7779051187806
 30
0.0
 41
6.0
 42
6.0
 43
6.0
 50
180.0
  0
INSERT
  5
636A
330
62DE
100
AcDbEntity
  8
SCALE
 62
     0
440
 16777216
370
    -2
100
AcDbBlockReference
  2
YAZ1
 10
145.335897158988
 20
515.7779051187806
 30
0.0
 41
6.0
 42
6.0
 43
6.0
  0
MTEXT
  5
636B
330
62DE
100
AcDbEntity
  8
SCALE
 62
     0
440
 16777216
100
AcDbMText
 10
118.335897158988
 20
522.7779051187805
 30
0.0
 40
8.0
 41
0.0
 46
0.0
 71
     5
 72
     1
  1
\A1;%%c54
 73
     1
 44
1.0
  0
POINT
  5
636C
330
62DE
100
AcDbEntity
  8
Defpoints
 62
     0
440
 16777216
100
AcDbPoint
 10
91.33589715898802
 20
490.5732031187802
 30
0.0
  0
POINT
  5
636D
330
62DE
100
AcDbEntity
  8
Defpoints
 62
     0
440
 16777216
100
AcDbPoint
 10
145.335897158988
 20
490.5732031187802
 30
0.0
  0
POINT
  5
636E
330
62DE
100
AcDbEntity
  8
Defpoints
 62
     0
440
 16777216
100
AcDbPoint
 10
145.335897158988
 20
515.7779051187806
 30
0.0
  0
ENDBLK
  5
62E9
330
62DE
100
AcDbEntity
  8
0
100
AcDbBlockEnd
  0
BLOCK
  5
62F6
330
62EA
100
AcDbEntity
  8
0
100
AcDbBlockBegin
  2
*D33
 70
     1
 10
0.0
 20
0.0
 30
0.0
  3
*D33
  1

  0
LINE
  5
643D
330
62EA
100
AcDbEntity
  8
SCALE
 62
     0
440
 16777216
370
    -2
100
AcDbLine
 10
146.335897158988
 20
490.5732031187802
 30
0.0
 11
172.1823731589878
 21
490.5732031187802
 31
0.0
  0
LINE
  5
643E
330
62EA
100
AcDbEntity
  8
SCALE
 62
     0
440
 16777216
370
    -2
100
AcDbLine
 10
138.3358951589876
 20
455.3845391187806
 30
0.0
 11
172.1823731589878
 21
455.3845391187806
 31
0.0
  0
LINE
  5
643F
330
62EA
100
AcDbEntity
  8
SCALE
 62
     0
440
 16777216
370
    -2
100
AcDbLine
 10
172.1823731589878
 20
449.3845391187806
 30
0.0
 11
172.1823731589878
 21
443.3845391187808
 31
0.0
  0
LINE
  5
6440
330
62EA
100
AcDbEntity
  8
SCALE
 62
     0
440
 16777216
370
    -2
100
AcDbLine
 10
172.1823731589878
 20
496.5732031187799
 30
0.0
 11
172.1823731589878
 21
542.0132031187802
 31
0.0
  0
LINE
  5
6441
330
62EA
100
AcDbEntity
  8
SCALE
 62
     0
440
 16777216
370
    -2
100
AcDbLine
 10
172.1823731589878
 20
455.3845391187806
 30
0.0
 11
172.1823731589878
 21
490.5732031187802
 31
0.0
  0
INSERT
  5
6442
330
62EA
100
AcDbEntity
  8
SCALE
 62
     0
440
 16777216
370
    -2
100
AcDbBlockReference
  2
YAZ1
 10
172.1823731589878
 20
455.3845391187806
 30
0.0
 41
6.0
 42
6.0
 43
6.0
 50
90.0
  0
INSERT
  5
6443
330
62EA
100
AcDbEntity
  8
SCALE
 62
     0
440
 16777216
370
    -2
100
AcDbBlockReference
  2
YAZ1
 10
172.1823731589878
 20
490.5732031187802
 30
0.0
 41
6.0
 42
6.0
 43
6.0
 50
270.0
  0
MTEXT
  5
6444
330
62EA
100
AcDbEntity
  8
SCALE
 62
     0
440
 16777216
100
AcDbMText
 10
163.0871350637496
 20
524.2932031187803
 30
0.0
 40
8.0
 41
0.0
 46
0.0
 71
     5
 72
     1
  1
\A1;(最小34)
 11
0.0000000000000001
 21
1.0
 31
0.0
 73
     1
 44
1.0
  0
POINT
  5
6445
330
62EA
100
AcDbEntity
  8
Defpoints
 62
     0
440
 16777216
100
AcDbPoint
 10
145.335897158988
 20
490.5732031187802
 30
0.0
  0
POINT
  5
6446
330
62EA
100
AcDbEntity
  8
Defpoints
 62
     0
440
 16777216
100
AcDbPoint
 10
137.3358951589876
 20
455.3845391187806
 30
0.0
  0
POINT
  5
6447
330
62EA
100
AcDbEntity
  8
Defpoints
 62
     0
440
 16777216
100
AcDbPoint
 10
172.1823731589878
 20
455.3845391187806
 30
0.0
  0
ENDBLK
  5
62F7
330
62EA
100
AcDbEntity
  8
0
100
AcDbBlockEnd
  0
BLOCK
  5
6304
330
62F8
100
AcDbEntity
  8
0
100
AcDbBlockBegin
  2
*D34
 70
     1
 10
0.0
 20
0.0
 30
0.0
  3
*D34
  1

  0
LINE
  5
637A
330
62F8
100
AcDbEntity
  8
SCALE
 62
     0
440
 16777216
370
    -2
100
AcDbLine
 10
142.335897158988
 20
435.5279131187805
 30
0.0
 11
142.335897158988
 21
425.7398592210086
 31
0.0
  0
LINE
  5
637B
330
62F8
100
AcDbEntity
  8
SCALE
 62
     0
440
 16777216
370
    -2
100
AcDbLine
 10
94.33589715898802
 20
435.5279131187805
 30
0.0
 11
94.33589715898802
 21
425.7398592210086
 31
0.0
  0
LINE
  5
637C
330
62F8
100
AcDbEntity
  8
SCALE
 62
     0
440
 16777216
370
    -2
100
AcDbLine
 10
88.33589715898801
 20
425.7398592210086
 30
0.0
 11
82.33589715898801
 21
425.7398592210086
 31
0.0
  0
LINE
  5
637D
330
62F8
100
AcDbEntity
  8
SCALE
 62
     0
440
 16777216
370
    -2
100
AcDbLine
 10
148.335897158988
 20
425.7398592210086
 30
0.0
 11
201.0825638256547
 21
425.7398592210086
 31
0.0
  0
LINE
  5
637E
330
62F8
100
AcDbEntity
  8
SCALE
 62
     0
440
 16777216
370
    -2
100
AcDbLine
 10
94.33589715898802
 20
425.7398592210086
 30
0.0
 11
142.335897158988
 21
425.7398592210086
 31
0.0
  0
INSERT
  5
637F
330
62F8
100
AcDbEntity
  8
SCALE
 62
     0
440
 16777216
370
    -2
100
AcDbBlockReference
  2
YAZ1
 10
94.33589715898802
 20
425.7398592210086
 30
0.0
 41
6.0
 42
6.0
 43
6.0
  0
INSERT
  5
6380
330
62F8
100
AcDbEntity
  8
SCALE
 62
     0
440
 16777216
370
    -2
100
AcDbBlockReference
  2
YAZ1
 10
142.335897158988
 20
425.7398592210086
 30
0.0
 41
6.0
 42
6.0
 43
6.0
 50
180.0
  0
MTEXT
  5
6381
330
62F8
100
AcDbEntity
  8
SCALE
 62
     0
440
 16777216
100
AcDbMText
 10
179.7092304923213
 20
432.7398592210085
 30
0.0
 40
8.0
 41
0.0
 46
0.0
 71
     5
 72
     1
  1
\A1;六角対辺43
 73
     1
 44
1.0
  0
POINT
  5
6382
330
62F8
100
AcDbEntity
  8
Defpoints
 62
     0
440
 16777216
100
AcDbPoint
 10
142.335897158988
 20
436.5279131187805
 30
0.0
  0
POINT
  5
6383
330
62F8
100
AcDbEntity
  8
Defpoints
 62
     0
440
 16777216
100
AcDbPoint
 10
94.33589715898802
 20
436.5279131187805
 30
0.0
  0
POINT
  5
6384
330
62F8
100
AcDbEntity
  8
Defpoints
 62
     0
440
 16777216
100
AcDbPoint
 10
94.33589715898802
 20
425.7398592210086
 30
0.0
  0
ENDBLK
  5
6305
330
62F8
100
AcDbEntity
  8
0
100
AcDbBlockEnd
  0
BLOCK
  5
6312
330
6306
100
AcDbEntity
  8
0
100
AcDbBlockBegin
  2
*D35
 70
     1
 10
0.0
 20
0.0
 30
0.0
  3
*D35
  1

  0
LINE
  5
6385
330
6306
100
AcDbEntity
  8
SCALE
 62
     0
440
 16777216
370
    -2
100
AcDbLine
 10
140.835897158988
 20
420.0732011187803
 30
0.0
 11
140.835897158988
 21
402.2566831187803
 31
0.0
  0
LINE
  5
6386
330
6306
100
AcDbEntity
  8
SCALE
 62
     0
440
 16777216
370
    -2
100
AcDbLine
 10
95.83589715898801
 20
420.0732011187803
 30
0.0
 11
95.83589715898801
 21
402.2566831187803
 31
0.0
  0
LINE
  5
6387
330
6306
100
AcDbEntity
  8
SCALE
 62
     0
440
 16777216
370
    -2
100
AcDbLine
 10
89.83589715898801
 20
402.2566831187803
 30
0.0
 11
83.83589715898802
 21
402.2566831187803
 31
0.0
  0
LINE
  5
6388
330
6306
100
AcDbEntity
  8
SCALE
 62
     0
440
 16777216
370
    -2
100
AcDbLine
 10
146.835897158988
 20
402.2566831187803
 30
0.0
 11
198.7825638256547
 21
402.2566831187803
 31
0.0
  0
LINE
  5
6389
330
6306
100
AcDbEntity
  8
SCALE
 62
     0
440
 16777216
370
    -2
100
AcDbLine
 10
95.83589715898801
 20
402.2566831187803
 30
0.0
 11
140.835897158988
 21
402.2566831187803
 31
0.0
  0
INSERT
  5
638A
330
6306
100
AcDbEntity
  8
SCALE
 62
     0
440
 16777216
370
    -2
100
AcDbBlockReference
  2
YAZ1
 10
95.83589715898801
 20
402.2566831187803
 30
0.0
 41
6.0
 42
6.0
 43
6.0
  0
INSERT
  5
638B
330
6306
100
AcDbEntity
  8
SCALE
 62
     0
440
 16777216
370
    -2
100
AcDbBlockReference
  2
YAZ1
 10
140.835897158988
 20
402.2566831187803
 30
0.0
 41
6.0
 42
6.0
 43
6.0
 50
180.0
  0
MTEXT
  5
638C
330
6306
100
AcDbEntity
  8
SCALE
 62
     0
440
 16777216
100
AcDbMText
 10
178.2092304923213
 20
409.2566831187801
 30
0.0
 40
8.0
 41
0.0
 46
0.0
 71
     5
 72
     1
  1
\A1;六角対辺41
 73
     1
 44
1.0
  0
POINT
  5
638D
330
6306
100
AcDbEntity
  8
Defpoints
 62
     0
440
 16777216
100
AcDbPoint
 10
140.835897158988
 20
421.0732011187802
 30
0.0
  0
POINT
  5
638E
330
6306
100
AcDbEntity
  8
Defpoints
 62
     0
440
 16777216
100
AcDbPoint
 10
95.83589715898801
 20
421.0732011187802
 30
0.0
  0
POINT
  5
638F
330
6306
100
AcDbEntity
  8
Defpoints
 62
     0
440
 16777216
100
AcDbPoint
 10
95.83589715898801
 20
402.2566831187803
 30
0.0
  0
ENDBLK
  5
6313
330
6306
100
AcDbEntity
  8
0
100
AcDbBlockEnd
  0
BLOCK
  5
631E
330
6314
100
AcDbEntity
  8
0
100
AcDbBlockBegin
  2
*D36
 70
     1
 10
0.0
 20
0.0
 30
0.0
  3
*D36
  1

  0
LINE
  5
64FF
330
6314
100
AcDbEntity
  8
SCALE
 62
     0
440
 16777216
370
    -2
100
AcDbLine
 10
101.4608951589878
 20
276.5732031187801
 30
0.0
 11
59.28644915898786
 21
276.5732031187801
 31
0.0
  0
LINE
  5
6500
330
6314
100
AcDbEntity
  8
SCALE
 62
     0
440
 16777216
370
    -2
100
AcDbLine
 10
91.3358951589878
 20
491.5732031187801
 30
0.0
 11
59.28644915898789
 21
491.5732031187801
 31
0.0
  0
LINE
  5
6501
330
6314
100
AcDbEntity
  8
SCALE
 62
     0
440
 16777216
370
    -2
100
AcDbLine
 10
59.28644915898786
 20
282.5732031187802
 30
0.0
 11
59.28644915898789
 21
485.5732031187801
 31
0.0
  0
INSERT
  5
6502
330
6314
100
AcDbEntity
  8
SCALE
 62
     0
440
 16777216
370
    -2
100
AcDbBlockReference
  2
YAZ1
 10
59.28644915898786
 20
276.5732031187801
 30
0.0
 41
6.0
 42
6.0
 43
6.0
 50
270.0
  0
INSERT
  5
6503
330
6314
100
AcDbEntity
  8
SCALE
 62
     0
440
 16777216
370
    -2
100
AcDbBlockReference
  2
YAZ1
 10
59.28644915898789
 20
491.5732031187801
 30
0.0
 41
6.0
 42
6.0
 43
6.0
 50
90.0
  0
MTEXT
  5
6504
330
6314
100
AcDbEntity
  8
SCALE
 62
     0
440
 16777216
100
AcDbMText
 10
50.19121106374971
 20
384.0732031187802
 30
0.0
 40
8.0
 41
0.0
 46
0.0
 71
     5
 72
     1
  1
\A1;(215)
 11
0.0000000000000001
 21
1.0
 31
0.0
 73
     1
 44
1.0
  0
POINT
  5
6505
330
6314
100
AcDbEntity
  8
Defpoints
 62
     0
440
 16777216
100
AcDbPoint
 10
102.4608951589878
 20
276.5732031187801
 30
0.0
  0
POINT
  5
6506
330
6314
100
AcDbEntity
  8
Defpoints
 62
     0
440
 16777216
100
AcDbPoint
 10
92.33589515898779
 20
491.5732031187801
 30
0.0
  0
POINT
  5
6507
330
6314
100
AcDbEntity
  8
Defpoints
 62
     0
440
 16777216
100
AcDbPoint
 10
59.28644915898789
 20
491.5732031187801
 30
0.0
  0
ENDBLK
  5
631F
330
6314
100
AcDbEntity
  8
0
100
AcDbBlockEnd
  0
BLOCK
  5
64A7
330
64A6
100
AcDbEntity
  8
0
100
AcDbBlockBegin
  2
*D37
 70
     1
 10
0.0
 20
0.0
 30
0.0
  3
*D37
  1

  0
LINE
  5
64B2
330
64A6
100
AcDbEntity
  8
SCALE
 62
     0
440
 16777216
370
    -2
100
AcDbLine
 10
135.2111050510606
 20
311.0132031187802
 30
0.0
 11
161.7763142896562
 21
311.0132031187802
 31
0.0
  0
LINE
  5
64B3
330
64A6
100
AcDbEntity
  8
SCALE
 62
     0
440
 16777216
370
    -2
100
AcDbLine
 10
135.2111050510606
 20
276.5757031187805
 30
0.0
 11
161.7763142896562
 21
276.5757031187805
 31
0.0
  0
LINE
  5
64B4
330
64A6
100
AcDbEntity
  8
SCALE
 62
     0
440
 16777216
370
    -2
100
AcDbLine
 10
157.7763142896561
 20
308.0132031187801
 30
0.0
 11
157.7763142896561
 21
279.5757031187804
 31
0.0
  0
INSERT
  5
64B5
330
64A6
100
AcDbEntity
  8
SCALE
 62
     0
440
 16777216
370
    -2
100
AcDbBlockReference
  2
YAZ1
 10
157.7763142896561
 20
311.0132031187802
 30
0.0
 41
3.0
 42
3.0
 43
3.0
 50
90.0
  0
INSERT
  5
64B6
330
64A6
100
AcDbEntity
  8
SCALE
 62
     0
440
 16777216
370
    -2
100
AcDbBlockReference
  2
YAZ1
 10
157.7763142896561
 20
276.5757031187805
 30
0.0
 41
3.0
 42
3.0
 43
3.0
 50
270.0
  0
MTEXT
  5
64B7
330
64A6
100
AcDbEntity
  8
SCALE
 62
     0
440
 16777216
100
AcDbMText
 10
151.7763142896561
 20
293.7944531187803
 30
0.0
 40
8.0
 41
0.0
 46
0.0
 71
     5
 72
     1
  1
\A1;15～50
 11
0.0000000000000001
 21
1.0
 31
0.0
 73
     1
 44
1.0
  0
POINT
  5
64B8
330
64A6
100
AcDbEntity
  8
Defpoints
 62
     0
440
 16777216
100
AcDbPoint
 10
134.2111050510606
 20
311.0132031187802
 30
0.0
  0
POINT
  5
64B9
330
64A6
100
AcDbEntity
  8
Defpoints
 62
     0
440
 16777216
100
AcDbPoint
 10
134.2111050510606
 20
276.5757031187805
 30
0.0
  0
POINT
  5
64BA
330
64A6
100
AcDbEntity
  8
Defpoints
 62
     0
440
 16777216
100
AcDbPoint
 10
157.7763142896561
 20
276.5757031187805
 30
0.0
  0
ENDBLK
  5
64A8
330
64A6
100
AcDbEntity
  8
0
100
AcDbBlockEnd
  0
ENDSEC
  0
SECTION
  2
ENTITIES
  0
INSERT
  5
A53
330
18
100
AcDbEntity
  8
WBLK
100
AcDbBlockReference
  2
HYBASE
 10
149.8626121932736
 20
146.2019859251579
 30
0.0
 41
2.0
 42
2.0
 43
2.0
  0
LINE
  5
A54
330
18
100
AcDbEntity
  8
HOJYO
100
AcDbLine
 10
420.0000000000001
 20
594.0
 30
0.0
 11
420.0
 21
0.0
 31
0.0
  0
LINE
  5
A55
330
18
100
AcDbEntity
  8
HOJYO
100
AcDbLine
 10
420.0
 20
0.0
 30
0.0
 11
0.0
 21
0.0
 31
0.0
  0
LINE
  5
A56
330
18
100
AcDbEntity
  8
HOJYO
100
AcDbLine
 10
0.0
 20
0.0
 30
0.0
 11
0.0
 21
594.0
 31
0.0
  0
LINE
  5
A57
330
18
100
AcDbEntity
  8
HOJYO
100
AcDbLine
 10
0.0
 20
594.0
 30
0.0
 11
420.0000000000001
 21
594.0
 31
0.0
  0
INSERT
  5
A92
330
18
100
AcDbEntity
  8
WBLK
100
AcDbBlockReference
  2
MTWBLK
 10
56.0
 20
13.99999999999994
 30
0.0
 41
2.0
 42
2.0
 43
2.0
  0
INSERT
  5
AEA
330
18
100
AcDbEntity
  8
0
100
AcDbBlockReference
  2
INSLYTXT
 10
0.0
 20
0.0
 30
0.0
 41
2.0
 42
2.0
 43
2.0
  0
TEXT
  5
B2C
330
18
100
AcDbEntity
  8
0
100
AcDbText
 10
109.24
 20
60.49999999999995
 30
0.0
 40
7.0
  1
1:2
 41
0.75
  7
MSP明朝
 72
     1
 11
115.0
 21
63.99999999999995
 31
0.0
100
AcDbText
 73
     2
  0
TEXT
  5
B2D
330
18
100
AcDbEntity
  8
0
100
AcDbText
 10
229.315019924255
 20
59.99999999999995
 30
0.0
 40
8.0
  1
JPK12800
  7
MSP明朝
 11
229.315019924255
 21
63.99999999999995
 31
0.0
100
AcDbText
 73
     2
  0
TEXT
  5
B2F
330
18
100
AcDbEntity
  8
0
100
AcDbText
 10
227.0516748731524
 20
40.49999999999993
 30
0.0
 40
7.0
  1
洗面器用ワイヤー式ポップアップ（Pトラップ付）
 41
0.7
  7
MSP明朝
 11
227.0516748731524
 21
43.99999999999994
 31
0.0
100
AcDbText
 73
     2
  0
TEXT
  5
B31
330
18
100
AcDbEntity
  8
0
100
AcDbText
 10
45.8
 20
60.49999999999995
 30
0.0
 40
7.0
  1
2015.10.01
 41
0.75
  7
MSP明朝
 72
     1
 11
65.0
 21
63.99999999999995
 31
0.0
100
AcDbText
 73
     2
  0
INSERT
  5
1B4B
330
18
100
AcDbEntity
  8
ZOKUSEI
100
AcDbBlockReference
 66
     1
  2
TSTYUKI
 10
39.0772821340397
 20
79.66198843901565
 30
0.0
 41
2.0
 42
2.0
 43
2.0
  0
ATTRIB
  5
1B4C
330
1B4B
100
AcDbEntity
  8
ZOKUSEI
100
AcDbText
 10
59.0772821340397
 20
79.66198843901565
 30
0.0
 40
8.0
  1
1.（）内寸法は参考寸法である。
 41
0.7
100
AcDbAttribute
  2
注記1行目
 70
     0
280
     0
  0
ATTRIB
  5
1B4D
330
1B4B
100
AcDbEntity
  8
ZOKUSEI
100
AcDbText
 10
59.0772821340397
 20
91.66198843901559
 30
0.0
 40
8.0
  1
2.テール管の差込代は、15mm以上確保すること。
 41
0.7
100
AcDbAttribute
  2
注記2行目
 70
     0
280
     0
  0
ATTRIB
  5
1B4E
330
1B4B
100
AcDbEntity
  8
ZOKUSEI
100
AcDbText
 10
59.0772821340397
 20
103.6619884390156
 30
0.0
 40
8.0
  1
3.壁排水管の差込代は、40mm以上確保すること。
 41
0.7
100
AcDbAttribute
  2
注記3行目
 70
     0
280
     0
  0
ATTRIB
  5
1B4F
330
1B4B
100
AcDbEntity
  8
ZOKUSEI
100
AcDbText
 10
59.0772821340397
 20
115.6619884390155
 30
0.0
 40
8.0
  1

 41
0.7
100
AcDbAttribute
  2
注記4行目
 70
     0
280
     0
  0
ATTRIB
  5
1B50
330
1B4B
100
AcDbEntity
  8
ZOKUSEI
100
AcDbText
 10
59.0772821340397
 20
127.6619884390156
 30
0.0
 40
8.0
  1

 41
0.7
100
AcDbAttribute
  2
注記5行目
 70
     0
280
     0
  0
ATTRIB
  5
1B51
330
1B4B
100
AcDbEntity
  8
ZOKUSEI
100
AcDbText
 10
59.0772821340397
 20
139.6619884390155
 30
0.0
 40
8.0
  1

 41
0.7
100
AcDbAttribute
  2
注記6行目
 70
     0
280
     0
  0
ATTRIB
  5
1B52
330
1B4B
100
AcDbEntity
  8
ZOKUSEI
100
AcDbText
 10
59.0772821340397
 20
151.6619884390156
 30
0.0
 40
8.0
  1

 41
0.7
100
AcDbAttribute
  2
注記7行目
 70
     0
280
     0
  0
ATTRIB
  5
1B53
330
1B4B
100
AcDbEntity
  8
ZOKUSEI
100
AcDbText
 10
59.0772821340397
 20
163.6619884390155
 30
0.0
 40
8.0
  1

 41
0.7
100
AcDbAttribute
  2
注記8行目
 70
     0
280
     0
  0
ATTRIB
  5
1B54
330
1B4B
100
AcDbEntity
  8
ZOKUSEI
100
AcDbText
 10
59.0772821340397
 20
175.6619884390155
 30
0.0
 40
8.0
  1

 41
0.7
100
AcDbAttribute
  2
注記9行目
 70
     0
280
     0
  0
ATTRIB
  5
1B55
330
1B4B
100
AcDbEntity
  8
ZOKUSEI
100
AcDbText
 10
59.0772821340397
 20
187.6619884390155
 30
0.0
 40
8.0
  1

 41
0.7
100
AcDbAttribute
  2
注記10行目
 70
     0
280
     0
  0
ATTRIB
  5
1B56
330
1B4B
100
AcDbEntity
  8
ZOKUSEI
100
AcDbText
 10
59.0772821340397
 20
199.6619884390155
 30
0.0
 40
8.0
  1

 41
0.7
100
AcDbAttribute
  2
注記11行目
 70
     0
280
     0
  0
ATTRIB
  5
1B57
330
1B4B
100
AcDbEntity
  8
ZOKUSEI
100
AcDbText
 10
59.0772821340397
 20
211.6619884390155
 30
0.0
 40
8.0
  1

 41
0.7
100
AcDbAttribute
  2
注記12行目
 70
     0
280
     0
  0
SEQEND
  5
1B58
330
1B4B
100
AcDbEntity
  8
ZOKUSEI
  0
INSERT
  5
57EF
330
18
100
AcDbEntity
  8
0
100
AcDbBlockReference
  2
NITTO CERA社名
 10
212.2688236071439
 20
16.42271556818686
 30
0.0
  0
TEXT
  5
57F0
330
18
100
AcDbEntity
  8
図枠
100
AcDbText
 10
31.70857142857143
 20
15.99999999999994
 30
0.0
 40
6.0
  1
考
 41
0.75
  7
MSP明朝
 72
     1
 11
35.0
 21
18.99999999999994
 31
0.0
100
AcDbText
 73
     2
  0
TEXT
  5
57F1
330
18
100
AcDbEntity
  8
図枠
100
AcDbText
 10
31.70857142857143
 20
25.99999999999995
 30
0.0
 40
6.0
  1
備
 41
0.75
  7
MSP明朝
 72
     1
 11
35.0
 21
28.99999999999995
 31
0.0
100
AcDbText
 73
     2
  0
TEXT
  5
57F2
330
18
100
AcDbEntity
  8
図枠
100
AcDbText
 10
211.7085714285714
 20
35.99999999999995
 30
0.0
 40
6.0
  1
名
 41
0.75
  7
MSP明朝
 72
     1
 11
215.0
 21
38.99999999999995
 31
0.0
100
AcDbText
 73
     2
  0
TEXT
  5
57F3
330
18
100
AcDbEntity
  8
図枠
100
AcDbText
 10
211.7085714285714
 20
45.99999999999995
 30
0.0
 40
6.0
  1
品
 41
0.75
  7
MSP明朝
 72
     1
 11
215.0
 21
48.99999999999995
 31
0.0
100
AcDbText
 73
     2
  0
TEXT
  5
57F4
330
18
100
AcDbEntity
  8
図枠
100
AcDbText
 10
31.70857142857143
 20
35.99999999999995
 30
0.0
 40
6.0
  1
番
 41
0.75
  7
MSP明朝
 72
     1
 11
35.0
 21
38.99999999999995
 31
0.0
100
AcDbText
 73
     2
  0
TEXT
  5
57F5
330
18
100
AcDbEntity
  8
図枠
100
AcDbText
 10
31.70857142857143
 20
45.99999999999995
 30
0.0
 40
6.0
  1
図
 41
0.75
  7
MSP明朝
 72
     1
 11
35.0
 21
48.99999999999995
 31
0.0
100
AcDbText
 73
     2
  0
TEXT
  5
57F6
330
18
100
AcDbEntity
  8
図枠
100
AcDbText
 10
211.7085714285714
 20
55.99999999999995
 30
0.0
 40
6.0
  1
番
 41
0.75
  7
MSP明朝
 72
     1
 11
215.0
 21
58.99999999999995
 31
0.0
100
AcDbText
 73
     2
  0
TEXT
  5
57F7
330
18
100
AcDbEntity
  8
図枠
100
AcDbText
 10
211.7085714285714
 20
65.99999999999996
 30
0.0
 40
6.0
  1
品
 41
0.75
  7
MSP明朝
 72
     1
 11
215.0
 21
68.99999999999995
 31
0.0
100
AcDbText
 73
     2
  0
TEXT
  5
57F8
330
18
100
AcDbEntity
  8
図枠
100
AcDbText
 10
171.7085714285714
 20
55.99999999999995
 30
0.0
 40
6.0
  1
図
 41
0.75
  7
MSP明朝
 72
     1
 11
175.0
 21
58.99999999999995
 31
0.0
100
AcDbText
 73
     2
  0
TEXT
  5
57F9
330
18
100
AcDbEntity
  8
図枠
100
AcDbText
 10
171.7085714285714
 20
65.99999999999996
 30
0.0
 40
6.0
  1
検
 41
0.75
  7
MSP明朝
 72
     1
 11
175.0
 21
68.99999999999995
 31
0.0
100
AcDbText
 73
     2
  0
TEXT
  5
57FA
330
18
100
AcDbEntity
  8
図枠
100
AcDbText
 10
131.7085714285714
 20
55.99999999999995
 30
0.0
 40
6.0
  1
図
 41
0.75
  7
MSP明朝
 72
     1
 11
135.0
 21
58.99999999999995
 31
0.0
100
AcDbText
 73
     2
  0
TEXT
  5
57FB
330
18
100
AcDbEntity
  8
図枠
100
AcDbText
 10
131.7085714285714
 20
65.99999999999996
 30
0.0
 40
6.0
  1
製
 41
0.75
  7
MSP明朝
 72
     1
 11
135.0
 21
68.99999999999995
 31
0.0
100
AcDbText
 73
     2
  0
TEXT
  5
57FC
330
18
100
AcDbEntity
  8
図枠
100
AcDbText
 10
91.70857142857142
 20
55.99999999999995
 30
0.0
 40
6.0
  1
度
 41
0.75
  7
MSP明朝
 72
     1
 11
95.0
 21
58.99999999999995
 31
0.0
100
AcDbText
 73
     2
  0
TEXT
  5
57FD
330
18
100
AcDbEntity
  8
図枠
100
AcDbText
 10
91.70857142857142
 20
65.99999999999996
 30
0.0
 40
6.0
  1
尺
 41
0.75
  7
MSP明朝
 72
     1
 11
95.0
 21
68.99999999999995
 31
0.0
100
AcDbText
 73
     2
  0
TEXT
  5
57FE
330
18
100
AcDbEntity
  8
図枠
100
AcDbText
 10
31.70857142857143
 20
55.99999999999995
 30
0.0
 40
6.0
  1
付
 41
0.75
  7
MSP明朝
 72
     1
 11
35.0
 21
58.99999999999995
 31
0.0
100
AcDbText
 73
     2
  0
TEXT
  5
57FF
330
18
100
AcDbEntity
  8
図枠
100
AcDbText
 10
31.70857142857143
 20
65.99999999999996
 30
0.0
 40
6.0
  1
日
 41
0.75
  7
MSP明朝
 72
     1
 11
35.0
 21
68.99999999999995
 31
0.0
100
AcDbText
 73
     2
  0
LINE
  5
5800
330
18
100
AcDbEntity
  8
図枠
 62
     0
100
AcDbLine
 10
30.0
 20
73.99999999999995
 30
0.0
 11
390.0
 21
73.99999999999995
 31
0.0
  0
LINE
  5
5801
330
18
100
AcDbEntity
  8
図枠
 62
     0
100
AcDbLine
 10
30.0
 20
53.99999999999995
 30
0.0
 11
390.0
 21
53.99999999999995
 31
0.0
  0
LINE
  5
5802
330
18
100
AcDbEntity
  8
図枠
 62
     0
100
AcDbLine
 10
30.0
 20
33.99999999999995
 30
0.0
 11
390.0
 21
33.99999999999995
 31
0.0
  0
LINE
  5
5803
330
18
100
AcDbEntity
  8
図枠
 62
     0
100
AcDbLine
 10
30.0
 20
13.99999999999994
 30
0.0
 11
390.0
 21
13.99999999999994
 31
0.0
  0
LINE
  5
5804
330
18
100
AcDbEntity
  8
図枠
 62
     0
100
AcDbLine
 10
30.0
 20
13.99999999999994
 30
0.0
 11
30.0
 21
583.8024732171926
 31
0.0
  0
LINE
  5
5805
330
18
100
AcDbEntity
  8
図枠
 62
     0
100
AcDbLine
 10
40.0
 20
13.99999999999994
 30
0.0
 11
40.0
 21
73.99999999999995
 31
0.0
  0
LINE
  5
5806
330
18
100
AcDbEntity
  8
図枠
 62
     0
100
AcDbLine
 10
210.0
 20
13.99999999999994
 30
0.0
 11
210.0
 21
73.99999999999995
 31
0.0
  0
LINE
  5
5807
330
18
100
AcDbEntity
  8
図枠
 62
     0
100
AcDbLine
 10
220.0
 20
33.99999999999995
 30
0.0
 11
220.0000000000001
 21
73.99999999999995
 31
0.0
  0
LINE
  5
5808
330
18
100
AcDbEntity
  8
図枠
 62
     0
100
AcDbLine
 10
390.0
 20
13.99999999999994
 30
0.0
 11
390.0000000000002
 21
583.8024732171926
 31
0.0
  0
LINE
  5
5809
330
18
100
AcDbEntity
  8
図枠
 62
     0
100
AcDbLine
 10
180.0
 20
53.99999999999995
 30
0.0
 11
180.0
 21
73.99999999999995
 31
0.0
  0
LINE
  5
580A
330
18
100
AcDbEntity
  8
図枠
 62
     0
100
AcDbLine
 10
170.0
 20
53.99999999999995
 30
0.0
 11
170.0
 21
73.99999999999995
 31
0.0
  0
LINE
  5
580B
330
18
100
AcDbEntity
  8
図枠
 62
     0
100
AcDbLine
 10
140.0
 20
53.99999999999995
 30
0.0
 11
140.0
 21
73.99999999999995
 31
0.0
  0
LINE
  5
580C
330
18
100
AcDbEntity
  8
図枠
 62
     0
100
AcDbLine
 10
130.0
 20
53.99999999999995
 30
0.0
 11
130.0
 21
73.99999999999995
 31
0.0
  0
LINE
  5
580D
330
18
100
AcDbEntity
  8
図枠
 62
     0
100
AcDbLine
 10
100.0
 20
53.99999999999995
 30
0.0
 11
100.0
 21
73.99999999999995
 31
0.0
  0
LINE
  5
580E
330
18
100
AcDbEntity
  8
図枠
 62
     0
100
AcDbLine
 10
90.0
 20
53.99999999999995
 30
0.0
 11
90.0
 21
73.99999999999995
 31
0.0
  0
LINE
  5
580F
330
18
100
AcDbEntity
  8
図枠
 62
     0
100
AcDbLine
 10
30.0
 20
583.8024732171926
 30
0.0
 11
390.0000000000002
 21
583.8024732171926
 31
0.0
  0
DIMENSION
  5
5F27
330
18
100
AcDbEntity
  8
SCALE
100
AcDbDimension
  2
*D30
 10
296.8550212938173
 20
282.8507031187804
 30
0.0
 11
296.8550212938173
 21
304.9173697854472
 31
0.0
 70
   160
 71
     5
 42
31.75
 73
     0
 74
     0
 75
     0
  3
STANDARD
100
AcDbAlignedDimension
 13
291.5146955385008
 23
251.1007031187804
 33
0.0
 14
292.8306543493268
 24
282.8507031187804
 34
0.0
 50
90.0
100
AcDbRotatedDimension
1001
ACAD
1000
DSTYLE
1002
{
1070
   271
1070
     0
1070
     3
1000
%%c<>
1070
    41
1040
6.0
1070
    42
1040
1.0
1070
    44
1040
0.0
1070
   140
1040
8.0
1070
   147
1040
3.0
1002
}
  0
DIMENSION
  5
5F28
330
18
100
AcDbEntity
  8
SCALE
100
AcDbDimension
  2
*D29
 10
377.0705943883368
 20
299.9757031187804
 30
0.0
 11
377.0705943883367
 21
266.9757031187805
 31
0.0
 70
   160
 71
     5
 42
65.99999999999997
 73
     0
 74
     0
 75
     0
  3
STANDARD
100
AcDbAlignedDimension
 13
330.4318414290535
 23
233.9757031187804
 33
0.0
 14
330.4318414290535
 24
299.9757031187804
 34
0.0
 50
90.0
100
AcDbRotatedDimension
1001
ACAD
1000
DSTYLE
1002
{
1070
     3
1000
%%c<>
1070
    41
1040
6.0
1070
    42
1040
1.0
1070
    44
1040
0.0
1070
   140
1040
8.0
1070
   147
1040
3.0
1070
   271
1070
     1
1002
}
  0
DIMENSION
  5
5F29
330
18
100
AcDbEntity
  8
SCALE
100
AcDbDimension
  2
*D28
 10
218.3362135299817
 20
296.0981379953836
 30
0.0
 11
212.3362135299817
 21
296.0981379953836
 31
0.0
 70
   160
  1
六角対辺43
 71
     5
 42
47.97714599999993
 73
     0
 74
     0
 75
     0
  3
STANDARD
100
AcDbAlignedDimension
 13
170.3590675299818
 23
221.6757031187803
 33
0.0
 14
218.3362135299817
 24
221.6757031187803
 34
0.0
100
AcDbRotatedDimension
1001
ACAD
1000
DSTYLE
1002
{
1070
    41
1040
6.0
1070
    42
1040
1.0
1070
    44
1040
0.0
1070
   140
1040
8.0
1070
   147
1040
3.0
1002
}
  0
DIMENSION
  5
5F2A
330
18
100
AcDbEntity
  8
SCALE
100
AcDbDimension
  2
*D27
 10
142.3362135299816
 20
341.0174882649564
 30
0.0
 11
207.6548901312976
 21
341.0174882649564
 31
0.0
 70
   160
  1
六角対辺43
 71
     5
 42
47.99999999999977
 73
     0
 74
     0
 75
     0
  3
STANDARD
100
AcDbAlignedDimension
 13
94.33621352998196
 23
305.0132031187804
 33
0.0
 14
142.3362135299816
 24
305.0132031187804
 34
0.0
100
AcDbRotatedDimension
1001
ACAD
1000
DSTYLE
1002
{
1070
    41
1040
6.0
1070
    42
1040
1.0
1070
    44
1040
0.0
1070
   140
1040
8.0
1070
   147
1040
3.0
1002
}
  0
DIMENSION
  5
5F2B
330
18
100
AcDbEntity
  8
SCALE
100
AcDbDimension
  2
*D26
 10
244.5993275016471
 20
266.9757031187804
 30
0.0
 11
237.599327501647
 21
220.9757031187804
 31
0.0
 70
    32
  1
（<>）
 71
     5
 42
92.00000000000015
 73
     0
 74
     0
 75
     0
  3
STANDARD
100
AcDbAlignedDimension
 13
156.3362135299817
 23
174.9757031187803
 33
0.0
 14
232.3590675299818
 24
266.9757031187804
 34
0.0
 50
90.0
100
AcDbRotatedDimension
1001
ACAD
1000
DSTYLE
1002
{
1070
    41
1040
6.0
1070
    42
1040
1.0
1070
    44
1040
0.0
1070
   140
1040
8.0
1070
   147
1040
3.0
1002
}
  0
DIMENSION
  5
5F2C
330
18
100
AcDbEntity
  8
SCALE
100
AcDbDimension
  2
*D25
 10
360.4318414290535
 20
143.3852627803012
 30
0.0
 11
277.9671506471359
 21
143.3852627803012
 31
0.0
 70
   160
  1
（350）
 71
     5
 42
166.0956278990718
 73
     0
 74
     0
 75
     0
  3
STANDARD
100
AcDbAlignedDimension
 13
194.3362135299816
 23
212.9757031187804
 33
0.0
 14
360.4318414290535
 24
251.1007031187804
 34
0.0
100
AcDbRotatedDimension
1001
ACAD
1000
DSTYLE
1002
{
1070
    41
1040
6.0
1070
    42
1040
1.0
1070
    44
1040
0.0
1070
   140
1040
8.0
1070
   147
1040
3.0
1002
}
  0
DIMENSION
  5
5F2D
330
18
100
AcDbEntity
  8
SCALE
100
AcDbDimension
  2
*D24
 10
194.3362135299816
 20
143.3852753278074
 30
0.0
 11
156.7820976953175
 21
143.3852753278074
 31
0.0
 70
   160
  1
（<>）
 71
     5
 42
76.0
 73
     0
 74
     0
 75
     0
  3
STANDARD
100
AcDbAlignedDimension
 13
118.3362135299817
 23
212.9757031187804
 33
0.0
 14
194.3362135299816
 24
212.9757031187804
 34
0.0
100
AcDbRotatedDimension
1001
ACAD
1000
DSTYLE
1002
{
1070
    41
1040
6.0
1070
    42
1040
1.0
1070
    44
1040
0.0
1070
   140
1040
8.0
1070
   147
1040
3.0
1002
}
  0
DIMENSION
  5
5F2E
330
18
100
AcDbEntity
  8
SCALE
100
AcDbDimension
  2
*D23
 10
65.62408866815783
 20
174.9757031187803
 30
0.0
 11
58.6240886681578
 21
239.9757031187804
 31
0.0
 70
    32
  1
（<>）
 71
     5
 42
130.0000000000001
 73
     0
 74
     0
 75
     0
  3
STANDARD
100
AcDbAlignedDimension
 13
95.63071360782899
 23
304.9757031187803
 33
0.0
 14
156.3362135299817
 24
174.9757031187803
 34
0.0
 50
90.0
100
AcDbRotatedDimension
1001
ACAD
1000
DSTYLE
1002
{
1070
    41
1040
6.0
1070
    42
1040
1.0
1070
    44
1040
0.0
1070
   140
1040
8.0
1070
   147
1040
3.0
1002
}
  0
DIMENSION
  5
5F2F
330
18
100
AcDbEntity
  8
SCALE
100
AcDbDimension
  2
*D22
 10
85.62408866815784
 20
252.9757031187804
 30
0.0
 11
85.62408866815779
 21
264.7878408648703
 31
0.0
 70
   160
  1
（<>）
 71
     5
 42
51.99999999999997
 73
     0
 74
     0
 75
     0
  3
STANDARD
100
AcDbAlignedDimension
 13
95.63071360782899
 23
304.9757031187803
 33
0.0
 14
101.5362135299822
 24
252.9757031187804
 34
0.0
 50
90.0
100
AcDbRotatedDimension
1001
ACAD
1000
DSTYLE
1002
{
1070
    41
1040
6.0
1070
    42
1040
1.0
1070
    44
1040
0.0
1070
   140
1040
8.0
1070
   147
1040
3.0
1002
}
  0
LINE
  5
5F30
330
18
100
AcDbEntity
  8
BLKDRA
  6
Continuous
100
AcDbLine
 10
178.4840675299822
 20
228.9757031187801
 30
0.0
 11
178.4840675299822
 21
227.6757031187801
 31
0.0
  0
LINE
  5
5F31
330
18
100
AcDbEntity
  8
BLKDRA
  6
Continuous
100
AcDbLine
 10
215.627717529982
 20
215.6757031187801
 30
0.0
 11
173.0675649078528
 21
215.6757031187801
 31
0.0
  0
LINE
  5
5F32
330
18
100
AcDbEntity
  8
BLKDRA
  6
Continuous
100
AcDbLine
 10
173.0675649078528
 20
227.6757031187801
 30
0.0
 11
215.627717529982
 21
227.6757031187801
 31
0.0
  0
LWPOLYLINE
  5
5F33
330
18
100
AcDbEntity
  8
BLKDRA
  6
Continuous
100
AcDbPolyline
 90
       67
 70
     0
 43
0.0
 10
218.1365143813528
 20
223.452021397721
 10
218.0588795299819
 20
223.7278251187802
 10
217.8800515299818
 20
224.2114131187802
 10
217.6642755299818
 20
224.6757031187801
 10
217.4131955299818
 20
225.1171611187804
 10
217.1287215299817
 20
225.53242911878
 10
216.8130175299821
 20
225.91834311878
 10
216.4684875299818
 20
226.2719691187801
 10
216.0977535299822
 20
226.5906151187802
 10
215.703635529982
 20
226.87185511878
 10
215.2891355299821
 20
227.1135491187799
 10
214.8574055299819
 20
227.31385911878
 10
214.4117335299821
 20
227.4712591187801
 10
213.9555095299821
 20
227.5845491187799
 10
213.4922075299819
 20
227.65287111878
 10
213.0253515299819
 20
227.6757031187801
 10
212.5584955299819
 20
227.65287111878
 10
212.0951935299818
 20
227.5845491187799
 10
211.6389695299818
 20
227.4712591187801
 10
211.1932975299819
 20
227.31385911878
 10
210.7615695299819
 20
227.1135491187799
 10
210.3470675299818
 20
226.87185511878
 10
209.9529515299819
 20
226.5906151187802
 10
209.5822175299818
 20
226.2719691187801
 10
209.2376875299819
 20
225.91834311878
 10
208.9219835299819
 20
225.53242911878
 10
208.637507529982
 20
225.1171611187804
 10
208.386427529982
 20
224.6757031187801
 10
208.1706535299818
 20
224.2114131187802
 10
207.9918255299817
 20
223.7278251187802
 10
207.8513055299818
 20
223.22861711878
 10
207.7501615299821
 20
222.7175931187801
 10
207.6891675299822
 20
222.1986371187802
 10
207.6687835299817
 20
221.6757031187801
 10
207.6891675299822
 20
221.1527691187801
 10
207.7501615299821
 20
220.6338151187804
 10
207.8513055299818
 20
220.1227891187802
 10
207.9918255299817
 20
219.6235831187803
 10
208.1706535299818
 20
219.13999311878
 10
208.386427529982
 20
218.6757031187801
 10
208.637507529982
 20
218.2342451187803
 10
208.9219835299819
 20
217.8189771187801
 10
209.2376875299819
 20
217.4330631187802
 10
209.5822175299818
 20
217.0794371187801
 10
209.9529515299819
 20
216.7607911187799
 10
210.3470675299818
 20
216.4795511187801
 10
210.7615695299819
 20
216.2378571187804
 10
211.1932975299819
 20
216.0375471187801
 10
211.6389695299818
 20
215.8801491187803
 10
212.0951935299818
 20
215.7668571187803
 10
212.5584955299819
 20
215.6985351187802
 10
213.0253515299819
 20
215.6757031187801
 10
213.4922075299819
 20
215.6985351187802
 10
213.9555095299821
 20
215.7668571187803
 10
214.4117335299821
 20
215.8801491187803
 10
214.8574055299819
 20
216.0375471187801
 10
215.2891355299821
 20
216.2378571187804
 10
215.703635529982
 20
216.4795511187801
 10
216.0977535299822
 20
216.7607911187799
 10
216.4684875299818
 20
217.0794371187801
 10
216.8130175299821
 20
217.4330631187802
 10
217.1287215299817
 20
217.8189771187801
 10
217.4131955299818
 20
218.2342451187803
 10
217.6642755299818
 20
218.6757031187801
 10
217.8800515299818
 20
219.13999311878
 10
218.0588795299819
 20
219.6235831187803
 10
218.1365154484986
 20
219.8993895259757
  0
LWPOLYLINE
  5
5F34
330
18
100
AcDbEntity
  8
0
100
AcDbPolyline
 90
       15
 70
     0
 43
0.0
 10
205.0015775299824
 20
221.6757031187801
 10
204.9196735299823
 20
222.4178591187804
 10
204.6752215299823
 20
223.1486171187801
 10
204.271971529982
 20
223.8567531187803
 10
203.7161215299823
 20
224.53138911878
 10
203.016207529982
 20
225.1621671187802
 10
202.1829775299823
 20
225.7393951187802
 10
201.229229529982
 20
226.2542111187801
 10
200.1696155299822
 20
226.69870511878
 10
199.0204055299821
 20
227.0660531187802
 10
197.7992515299823
 20
227.3506091187802
 10
196.5249095299821
 20
227.54800711878
 10
195.2169515299822
 20
227.6552131187802
 10
194.7769595299821
 20
227.67058111878
 10
194.3362135299819
 20
227.67570711878
  0
ARC
  5
5F35
330
18
100
AcDbEntity
  8
BLKDRA
  6
Continuous
100
AcDbCircle
 10
210.3362135299817
 20
221.6757031187801
 30
0.0
 40
8.0
100
AcDbArc
 50
311.4096220000018
 51
48.59037799999819
  0
LWPOLYLINE
  5
5F36
330
18
100
AcDbEntity
  8
0
100
AcDbPolyline
 90
       11
 70
     0
 43
0.0
 10
205.0015775299824
 20
221.6757031187801
 10
204.8702695299824
 20
220.7370951187801
 10
204.479577529982
 20
219.8216011187803
 10
203.8391235299821
 20
218.9517591187803
 10
202.9646755299821
 20
218.14898911878
 10
201.8777655299821
 20
217.43306111878
 10
200.6051575299824
 20
216.8215991187801
 10
199.1781875299823
 20
216.32966111878
 10
197.6319915299821
 20
215.9693611187802
 10
196.0046435299821
 20
215.7495691187803
 10
194.3362135299819
 20
215.6756991187801
  0
ARC
  5
5F37
330
18
100
AcDbEntity
  8
BLKDRA
  6
Continuous
100
AcDbCircle
 10
156.3362135299819
 20
212.9757031187803
 30
0.0
 40
53.875
100
AcDbArc
 50
180.0
 51
0.0
  0
LWPOLYLINE
  5
5F38
330
18
100
AcDbEntity
  8
BLKDRA
  6
Continuous
100
AcDbPolyline
 90
       67
 70
     0
 43
0.0
 10
170.5587656114651
 20
219.8993895259757
 10
170.6364015299821
 20
219.6235831187803
 10
170.8152295299822
 20
219.13999311878
 10
171.0310035299819
 20
218.6757031187801
 10
171.2820855299822
 20
218.2342451187803
 10
171.5665595299822
 20
217.8189771187801
 10
171.8822635299823
 20
217.4330631187802
 10
172.2267935299822
 20
217.0794371187801
 10
172.5975275299822
 20
216.7607911187799
 10
172.9916435299822
 20
216.4795511187801
 10
173.4061455299823
 20
216.2378571187804
 10
173.8378735299823
 20
216.0375471187801
 10
174.2835455299821
 20
215.8801491187803
 10
174.7397695299822
 20
215.7668571187803
 10
175.203073529982
 20
215.6985351187802
 10
175.6699275299823
 20
215.6757031187801
 10
176.1367835299823
 20
215.6985351187802
 10
176.6000875299821
 20
215.7668571187803
 10
177.0563095299819
 20
215.8801491187803
 10
177.5019815299821
 20
216.0375471187801
 10
177.933711529982
 20
216.2378571187804
 10
178.3482115299823
 20
216.4795511187801
 10
178.7423295299821
 20
216.7607911187799
 10
179.1130635299821
 20
217.0794371187801
 10
179.457593529982
 20
217.4330631187802
 10
179.7732975299821
 20
217.8189771187801
 10
180.0577715299821
 20
218.2342451187803
 10
180.3088515299821
 20
218.6757031187801
 10
180.5246275299821
 20
219.13999311878
 10
180.7034555299822
 20
219.6235831187803
 10
180.8439755299821
 20
220.1227891187802
 10
180.9451175299821
 20
220.6338151187804
 10
181.0061135299823
 20
221.1527691187801
 10
181.0264955299819
 20
221.6757031187801
 10
181.0061135299823
 20
222.1986371187802
 10
180.9451175299821
 20
222.7175931187801
 10
180.8439755299821
 20
223.22861711878
 10
180.7034555299822
 20
223.7278251187802
 10
180.5246275299821
 20
224.2114131187802
 10
180.3088515299821
 20
224.6757031187801
 10
180.0577715299821
 20
225.1171611187804
 10
179.7732975299821
 20
225.53242911878
 10
179.457593529982
 20
225.91834311878
 10
179.1130635299821
 20
226.2719691187801
 10
178.7423295299821
 20
226.5906151187802
 10
178.3482115299823
 20
226.87185511878
 10
177.933711529982
 20
227.1135491187799
 10
177.5019815299821
 20
227.31385911878
 10
177.0563095299819
 20
227.4712591187801
 10
176.6000875299821
 20
227.5845491187799
 10
176.1367835299823
 20
227.65287111878
 10
175.6699275299823
 20
227.6757031187801
 10
175.203073529982
 20
227.65287111878
 10
174.7397695299822
 20
227.5845491187799
 10
174.2835455299821
 20
227.4712591187801
 10
173.8378735299823
 20
227.31385911878
 10
173.4061455299823
 20
227.1135491187799
 10
172.9916435299822
 20
226.87185511878
 10
172.5975275299822
 20
226.5906151187802
 10
172.2267935299822
 20
226.2719691187801
 10
171.8822635299823
 20
225.91834311878
 10
171.5665595299822
 20
225.53242911878
 10
171.2820855299822
 20
225.1171611187804
 10
171.0310035299819
 20
224.6757031187801
 10
170.8152295299822
 20
224.2114131187802
 10
170.6364015299821
 20
223.7278251187802
 10
170.5587666786112
 20
223.452021397721
  0
LWPOLYLINE
  5
5F39
330
18
100
AcDbEntity
  8
BLKDRA
  6
Continuous
100
AcDbPolyline
 90
       69
 70
     0
 43
0.0
 10
94.42906481181696
 20
303.7978845807747
 10
94.4958815299822
 20
303.4602891187804
 10
94.63640152998213
 20
302.9610831187799
 10
94.8152295299822
 20
302.47749311878
 10
95.03100352998195
 20
302.0132031187801
 10
95.2820855299822
 20
301.5717451187799
 10
95.56655952998225
 20
301.1564771187802
 10
95.88226352998189
 20
300.7705631187802
 10
96.22679352998218
 20
300.4169371187801
 10
96.5975275299823
 20
300.09829111878
 10
96.99164352998224
 20
299.8170511187802
 10
97.40614552998184
 20
299.5753571187799
 10
97.83787352998189
 20
299.3750471187802
 10
98.28354552998215
 20
299.2176491187799
 10
98.73976952998214
 20
299.1043571187799
 10
99.20307352998205
 20
299.0360351187803
 10
99.66992752998185
 20
299.0132031187802
 10
100.1367835299818
 20
299.0360351187803
 10
100.6000875299821
 20
299.1043571187799
 10
101.0563095299819
 20
299.2176491187799
 10
101.5019815299822
 20
299.3750471187802
 10
101.933711529982
 20
299.5753571187799
 10
102.3482115299819
 20
299.8170511187802
 10
102.7423295299821
 20
300.09829111878
 10
103.1130635299821
 20
300.4169371187801
 10
103.457593529982
 20
300.7705631187802
 10
103.7732975299821
 20
301.1564771187802
 10
104.0577715299821
 20
301.5717451187799
 10
104.3088515299821
 20
302.0132031187801
 10
104.5246275299821
 20
302.47749311878
 10
104.7034555299822
 20
302.9610831187799
 10
104.8439755299821
 20
303.4602891187804
 10
104.9451175299821
 20
303.9713151187799
 10
105.0061135299823
 20
304.4902691187801
 10
105.026495529982
 20
305.0132031187802
 10
105.0061135299823
 20
305.5361371187802
 10
104.9451175299821
 20
306.0550931187801
 10
104.8439755299821
 20
306.56611711878
 10
104.7034555299822
 20
307.0653251187802
 10
104.5246275299821
 20
307.5489131187802
 10
104.3088515299821
 20
308.0132031187801
 10
104.0577715299821
 20
308.4546611187799
 10
103.7732975299821
 20
308.8699291187801
 10
103.457593529982
 20
309.2558431187801
 10
103.1130635299821
 20
309.6094691187802
 10
102.7423295299821
 20
309.9281151187799
 10
102.3482115299819
 20
310.2093551187802
 10
101.933711529982
 20
310.45104911878
 10
101.5019815299822
 20
310.6513591187801
 10
101.0563095299819
 20
310.8087591187802
 10
100.6000875299821
 20
310.92204911878
 10
100.1367835299818
 20
310.9903711187802
 10
99.66992752998185
 20
311.0132031187802
 10
99.20307352998205
 20
310.9903711187802
 10
98.73976952998214
 20
310.92204911878
 10
98.28354552998215
 20
310.8087591187802
 10
97.83787352998189
 20
310.6513591187801
 10
97.40614552998184
 20
310.45104911878
 10
96.99164352998224
 20
310.2093551187802
 10
96.5975275299823
 20
309.9281151187799
 10
96.22679352998218
 20
309.6094691187802
 10
95.88226352998189
 20
309.2558431187801
 10
95.56655952998225
 20
308.8699291187801
 10
95.2820855299822
 20
308.4546611187799
 10
95.03100352998195
 20
308.0132031187801
 10
94.8152295299822
 20
307.5489131187802
 10
94.63640152998213
 20
307.0653251187802
 10
94.4958815299822
 20
306.56611711878
 10
94.42906572071459
 20
306.2285275702723
  0
LINE
  5
5F3A
330
18
100
AcDbEntity
  8
0
100
AcDbLine
 10
118.3362135299819
 20
250.8754431187801
 30
0.0
 11
102.5200435299819
 21
250.8754431187801
 31
0.0
  0
ARC
  5
5F3B
330
18
100
AcDbEntity
  8
BLKDRA
  6
Continuous
100
AcDbCircle
 10
97.46121352998196
 20
248.7751831187799
 30
0.0
 40
5.0
100
AcDbArc
 50
0.0
 51
24.83787600000213
  0
ARC
  5
5F3C
330
18
100
AcDbEntity
  8
BLKDRA
  6
Continuous
100
AcDbCircle
 10
106.5362135299822
 20
252.9757031187803
 30
0.0
 40
5.0
100
AcDbArc
 50
180.0
 51
204.8378760000021
  0
ARC
  5
5F3D
330
18
100
AcDbEntity
  8
BLKDRA
  6
Continuous
100
AcDbCircle
 10
139.2112135299819
 20
248.7751831187799
 30
0.0
 40
5.0
100
AcDbArc
 50
155.1621239999978
 51
180.0
  0
ARC
  5
5F3E
330
18
100
AcDbEntity
  8
BLKDRA
  6
Continuous
100
AcDbCircle
 10
130.1362135299821
 20
252.9757031187803
 30
0.0
 40
5.0
100
AcDbArc
 50
335.1621239999979
 51
0.0
  0
LINE
  5
5F3F
330
18
100
AcDbEntity
  8
BLKDRA
  6
Continuous
100
AcDbLine
 10
101.5362135299822
 20
252.9757031187803
 30
0.0
 11
101.5362135299822
 21
297.9757031187802
 31
0.0
  0
LINE
  5
5F40
330
18
100
AcDbEntity
  8
BLKDRA
  6
Continuous
100
AcDbLine
 10
99.13728752998194
 20
299.0132031187802
 30
0.0
 11
100.9342895299822
 21
297.9757031187802
 31
0.0
  0
LINE
  5
5F41
330
18
100
AcDbEntity
  8
BLKDRA
  6
Continuous
100
AcDbLine
 10
102.4612135299819
 20
212.9757031187803
 30
0.0
 11
102.4612135299819
 21
248.7751831187799
 31
0.0
  0
LINE
  5
5F42
330
18
100
AcDbEntity
  8
BLKDRA
  6
Continuous
100
AcDbLine
 10
134.2112135299819
 20
212.9757031187803
 30
0.0
 11
134.2112135299819
 21
248.7751831187799
 31
0.0
  0
ARC
  5
5F43
330
18
100
AcDbEntity
  8
BLKDRA
  6
Continuous
100
AcDbCircle
 10
156.3362135299819
 20
212.9757031187803
 30
0.0
 40
22.125
100
AcDbArc
 50
180.0
 51
0.0
  0
LINE
  5
5F44
330
18
100
AcDbEntity
  8
BLKDRA
  6
Continuous
100
AcDbLine
 10
178.4612135299819
 20
212.9757031187803
 30
0.0
 11
178.4612135299819
 21
215.6757031187801
 31
0.0
  0
LINE
  5
5F45
330
18
100
AcDbEntity
  8
BLKDRA
  6
Continuous
100
AcDbLine
 10
210.2112135299817
 20
212.9757031187803
 30
0.0
 11
210.2112135299817
 21
215.6757031187801
 31
0.0
  0
LINE
  5
5F46
330
18
100
AcDbEntity
  8
CENTER
 62
     0
100
AcDbLine
 10
194.347639529982
 20
212.9757031187803
 30
0.0
 11
194.347639529982
 21
228.9757031187801
 31
0.0
  0
ARC
  5
5F47
330
18
100
AcDbEntity
  8
CENTER
 62
     0
100
AcDbCircle
 10
156.3362135299819
 20
212.9757031187803
 30
0.0
 40
38.0
100
AcDbArc
 50
180.0
 51
0.0
  0
LWPOLYLINE
  5
5F48
330
18
100
AcDbEntity
  8
0
100
AcDbPolyline
 90
       11
 70
     0
 43
0.0
 10
183.693701529982
 20
221.6757031187801
 10
183.8250115299823
 20
222.6143111187801
 10
184.215701529982
 20
223.5298071187801
 10
184.8561575299821
 20
224.3996471187799
 10
185.7306055299821
 20
225.2024171187802
 10
186.8175155299821
 20
225.91834711878
 10
188.0901235299823
 20
226.5298071187801
 10
189.5170935299823
 20
227.0217451187801
 10
191.0632875299823
 20
227.38204511878
 10
192.6906355299823
 20
227.6018371187799
 10
194.3590675299822
 20
227.67570711878
  0
ARC
  5
5F49
330
18
100
AcDbEntity
  8
BLKDRA
  6
Continuous
100
AcDbCircle
 10
178.3590675299822
 20
221.6757031187801
 30
0.0
 40
8.0
100
AcDbArc
 50
131.4096220000018
 51
228.5903779999982
  0
LWPOLYLINE
  5
5F4A
330
18
100
AcDbEntity
  8
0
100
AcDbPolyline
 90
       15
 70
     0
 43
0.0
 10
183.693701529982
 20
221.6757031187801
 10
183.7756055299822
 20
220.9335471187803
 10
184.0200595299823
 20
220.2027891187802
 10
184.4233075299824
 20
219.4946551187802
 10
184.9791595299823
 20
218.8200171187802
 10
185.6790735299821
 20
218.1892411187803
 10
186.5123035299823
 20
217.6120111187799
 10
187.466049529982
 20
217.0971971187803
 10
188.525665529982
 20
216.6527011187802
 10
189.6748755299821
 20
216.2853551187802
 10
190.8960295299823
 20
216.0007971187799
 10
192.1703695299823
 20
215.8033991187801
 10
193.4783275299821
 20
215.69619311878
 10
193.918321529982
 20
215.6808251187801
 10
194.3590675299822
 20
215.6756991187801
  0
LWPOLYLINE
  5
5F4B
330
18
100
AcDbEntity
  8
0
100
AcDbPolyline
 90
       26
 70
     0
 43
0.0
 10
118.3362135299819
 20
311.0132071187801
 10
116.9441035299822
 20
310.9618751187801
 10
115.5758135299823
 20
310.80876111878
 10
114.2547555299823
 20
310.55648311878
 10
113.0035315299822
 20
310.2093591187801
 10
111.8435515299823
 20
309.7733251187804
 10
110.7946615299822
 20
309.2558471187802
 10
109.874811529982
 20
308.6657731187799
 10
109.0997375299824
 20
308.0132051187799
 10
108.4827015299822
 20
307.3093051187799
 10
108.0342635299819
 20
306.5661191187802
 10
107.7620935299822
 20
305.7963611187799
 10
107.670849529982
 20
305.0132031187802
 10
107.7620935299822
 20
304.23004511878
 10
108.0342635299819
 20
303.4602891187804
 10
108.4827015299822
 20
302.7171011187799
 10
109.0997375299824
 20
302.0132011187799
 10
109.874811529982
 20
301.36063311878
 10
110.7946615299822
 20
300.77056111878
 10
111.8435515299823
 20
300.25308111878
 10
113.0035315299822
 20
299.8170471187802
 10
114.2547555299823
 20
299.4699231187803
 10
115.5758135299823
 20
299.2176451187798
 10
116.9441035299822
 20
299.0645311187801
 10
118.3362135299819
 20
299.0131991187802
 10
118.3362135299819
 20
299.0131991187802
  0
ARC
  5
5F4C
330
18
100
AcDbEntity
  8
BLKDRA
  6
Continuous
100
AcDbCircle
 10
102.3362135299819
 20
305.0132031187802
 30
0.0
 40
8.0
100
AcDbArc
 50
131.4096220000018
 51
228.5903779999982
  0
LINE
  5
5F4D
330
18
100
AcDbEntity
  8
0
100
AcDbLine
 10
134.2112135299819
 20
216.7753051187804
 30
0.0
 11
134.2112135299819
 21
216.6864791187802
 31
0.0
  0
ARC
  5
5F4E
330
18
100
AcDbEntity
  8
CENTER
 62
     0
100
AcDbCircle
 10
232.359067529982
 20
228.9757031187801
 30
0.0
 40
38.0
100
AcDbArc
 50
90.0
 51
180.0
  0
LINE
  5
5F4F
330
18
100
AcDbEntity
  8
BLKDRA
  6
Continuous
100
AcDbLine
 10
232.359067529982
 20
251.1007031187801
 30
0.0
 11
271.0350534290535
 21
251.1007031187801
 31
0.0
  0
LINE
  5
5F50
330
18
100
AcDbEntity
  8
BLKDRA
  6
Continuous
100
AcDbLine
 10
232.359067529982
 20
282.8507031187803
 30
0.0
 11
271.0350534290535
 21
282.8507031187803
 31
0.0
  0
ARC
  5
5F51
330
18
100
AcDbEntity
  8
BLKDRA
  6
Continuous
100
AcDbCircle
 10
232.359067529982
 20
228.9757031187801
 30
0.0
 40
22.125
100
AcDbArc
 50
90.0
 51
180.0
  0
ARC
  5
5F52
330
18
100
AcDbEntity
  8
BLKDRA
  6
Continuous
100
AcDbCircle
 10
232.359067529982
 20
228.9757031187801
 30
0.0
 40
53.875
100
AcDbArc
 50
90.0
 51
180.0
  0
LINE
  5
5F53
330
18
100
AcDbEntity
  8
BLKDRA
  6
Continuous
100
AcDbLine
 10
210.234067529982
 20
227.6757031187801
 30
0.0
 11
210.234067529982
 21
228.9757031187801
 31
0.0
  0
LINE
  5
5F54
330
18
100
AcDbEntity
  8
BLKDRA
  6
Continuous
100
AcDbLine
 10
360.4318414290535
 20
282.8507031187803
 30
0.0
 11
360.4318414290535
 21
251.1007031187801
 31
0.0
  0
LINE
  5
5F55
330
18
100
AcDbEntity
  8
BLKDRA
  6
Continuous
100
AcDbLine
 10
360.4318414290535
 20
282.8507031187803
 30
0.0
 11
360.4318414290535
 21
266.9757031187803
 31
0.0
  0
ARC
  5
5F56
330
18
100
AcDbEntity
  8
0
100
AcDbCircle
 10
292.3858354290535
 20
274.9132031187802
 30
0.0
 40
13.850782
100
AcDbArc
 50
145.0352500000048
 51
214.9647499999952
  0
ARC
  5
5F57
330
18
100
AcDbEntity
  8
0
100
AcDbCircle
 10
259.6842734290533
 20
274.9132031187802
 30
0.0
 40
13.850782
100
AcDbArc
 50
325.0352500000048
 51
34.96474999999519
  0
ARC
  5
5F58
330
18
100
AcDbEntity
  8
0
100
AcDbCircle
 10
282.3858354290535
 20
274.9132031187802
 30
0.0
 40
13.850782
100
AcDbArc
 50
145.0352500000048
 51
214.9647499999952
  0
ARC
  5
5F59
330
18
100
AcDbEntity
  8
0
100
AcDbCircle
 10
292.3858354290535
 20
259.0382031187802
 30
0.0
 40
13.850782
100
AcDbArc
 50
145.0352500000048
 51
214.9647499999952
  0
ARC
  5
5F5A
330
18
100
AcDbEntity
  8
0
100
AcDbCircle
 10
269.6842734290533
 20
259.0382031187802
 30
0.0
 40
13.850782
100
AcDbArc
 50
325.0352500000048
 51
34.96474999999519
  0
ARC
  5
5F5B
330
18
100
AcDbEntity
  8
0
100
AcDbCircle
 10
259.6842734290533
 20
259.0382031187802
 30
0.0
 40
13.850782
100
AcDbArc
 50
325.0352500000048
 51
34.96474999999519
  0
LINE
  5
5F5C
330
18
100
AcDbEntity
  8
BLKDRA
  6
Continuous
100
AcDbLine
 10
321.4348314290535
 20
299.9757031187802
 30
0.0
 11
330.4318414290535
 21
299.9757031187802
 31
0.0
  0
ARC
  5
5F5D
330
18
100
AcDbEntity
  8
BLKDRA
  6
Continuous
100
AcDbCircle
 10
321.4348314290535
 20
288.9727131187803
 30
0.0
 40
11.002992
100
AcDbArc
 50
90.0
 51
180.0
  0
LINE
  5
5F5E
330
18
100
AcDbEntity
  8
BLKDRA
  6
Continuous
100
AcDbLine
 10
330.4318414290535
 20
299.9757031187802
 30
0.0
 11
330.4318414290535
 21
233.9757031187803
 31
0.0
  0
ARC
  5
5F5F
330
18
100
AcDbEntity
  8
BLKDRA
  6
Continuous
100
AcDbCircle
 10
321.4348314290535
 20
244.97869511878
 30
0.0
 40
11.002992
100
AcDbArc
 50
180.0
 51
270.0
  0
LINE
  5
5F60
330
18
100
AcDbEntity
  8
BLKDRA
  6
Continuous
100
AcDbLine
 10
321.4348314290535
 20
233.9757031187803
 30
0.0
 11
330.4318414290535
 21
233.9757031187803
 31
0.0
  0
LINE
  5
5F61
330
18
100
AcDbEntity
  8
BLKDRA
  6
Continuous
100
AcDbLine
 10
310.4318414290535
 20
288.9727131187803
 30
0.0
 11
310.4318414290535
 21
244.97869511878
 31
0.0
  0
LINE
  5
5F62
330
18
100
AcDbEntity
  8
BLKDRA
  6
Continuous
100
AcDbLine
 10
281.0350534290535
 20
282.8507031187803
 30
0.0
 11
310.4318414290535
 21
282.8507031187803
 31
0.0
  0
LINE
  5
5F63
330
18
100
AcDbEntity
  8
BLKDRA
  6
Continuous
100
AcDbLine
 10
281.0350534290535
 20
251.1007031187801
 30
0.0
 11
310.4318414290535
 21
251.1007031187801
 31
0.0
  0
LINE
  5
5F64
330
18
100
AcDbEntity
  8
BLKDRA
  6
Continuous
100
AcDbLine
 10
330.4318414290535
 20
282.8507031187803
 30
0.0
 11
360.4318414290535
 21
282.8507031187803
 31
0.0
  0
LINE
  5
5F65
330
18
100
AcDbEntity
  8
BLKDRA
  6
Continuous
100
AcDbLine
 10
330.4318414290535
 20
251.1007031187801
 30
0.0
 11
360.4318414290535
 21
251.1007031187801
 31
0.0
  0
LINE
  5
5F66
330
18
100
AcDbEntity
  8
BLKDRA
  6
Continuous
100
AcDbLine
 10
135.1362135299821
 20
252.9757031187803
 30
0.0
 11
135.1362135299821
 21
297.9757031187802
 31
0.0
  0
LINE
  5
5F67
330
18
100
AcDbEntity
  8
BLKDRA
  6
Continuous
100
AcDbLine
 10
135.7381375299822
 20
297.9757031187802
 30
0.0
 11
100.9342895299819
 21
297.9757031187802
 31
0.0
  0
LWPOLYLINE
  5
5F68
330
18
100
AcDbEntity
  8
0
100
AcDbPolyline
 90
       23
 70
     0
 43
0.0
 10
118.3362135299819
 20
311.0132071187801
 10
119.8540535299824
 20
310.9521351187802
 10
121.3409935299821
 20
310.7701651187801
 10
122.7667655299822
 20
310.4709991187803
 10
124.1023455299821
 20
310.0607271187802
 10
125.3205415299819
 20
309.5477031187798
 10
126.3965575299819
 20
308.94236911878
 10
127.3084895299824
 20
308.25704911878
 10
128.0377695299824
 20
307.50569511878
 10
128.5695555299819
 20
306.7035991187801
 10
128.893019529982
 20
305.8670931187799
 10
129.0015775299824
 20
305.0132031187802
 10
128.893019529982
 20
304.1593131187803
 10
128.5695555299819
 20
303.3228071187802
 10
128.0377695299824
 20
302.5207111187804
 10
127.3084895299824
 20
301.7693571187803
 10
126.3965575299819
 20
301.0840371187803
 10
125.3205415299819
 20
300.4787031187799
 10
124.1023455299821
 20
299.9656791187801
 10
122.7667655299822
 20
299.5554091187802
 10
121.3409935299821
 20
299.25624311878
 10
119.8540535299824
 20
299.0742711187801
 10
118.3362135299819
 20
299.0131991187802
  0
LINE
  5
5F69
330
18
100
AcDbEntity
  8
BLKDRA
  6
Continuous
100
AcDbLine
 10
139.6277175299822
 20
299.0132031187802
 30
0.0
 11
97.04471090785299
 21
299.0132031187802
 31
0.0
  0
LINE
  5
5F6A
330
18
100
AcDbEntity
  8
BLKDRA
  6
Continuous
100
AcDbLine
 10
97.04471090785299
 20
311.0132031187802
 30
0.0
 11
139.6277175299822
 21
311.0132031187802
 31
0.0
  0
ARC
  5
5F6B
330
18
100
AcDbEntity
  8
BLKDRA
  6
Continuous
100
AcDbCircle
 10
134.3362135299819
 20
305.0132031187802
 30
0.0
 40
8.0
100
AcDbArc
 50
311.4096220000018
 51
48.59037799999819
  0
LINE
  5
5F6C
330
18
100
AcDbEntity
  8
BLKDRA
  6
Continuous
100
AcDbLine
 10
137.535139529982
 20
299.0132031187802
 30
0.0
 11
135.7381375299822
 21
297.9757031187802
 31
0.0
  0
LWPOLYLINE
  5
5F6D
330
18
100
AcDbEntity
  8
BLKDRA
  6
Continuous
100
AcDbPolyline
 90
       69
 70
     0
 43
0.0
 10
142.2433567471655
 20
306.2285574469265
 10
142.1765455299822
 20
306.56611711878
 10
142.0360255299822
 20
307.0653251187802
 10
141.8571975299822
 20
307.5489131187802
 10
141.6414235299819
 20
308.0132031187801
 10
141.3903415299821
 20
308.4546611187799
 10
141.1058675299821
 20
308.8699291187801
 10
140.790163529982
 20
309.2558431187801
 10
140.4456335299822
 20
309.6094691187802
 10
140.0748995299821
 20
309.9281151187799
 10
139.6807835299821
 20
310.2093551187802
 10
139.2662815299821
 20
310.45104911878
 10
138.834553529982
 20
310.6513591187801
 10
138.3888815299822
 20
310.8087591187802
 10
137.9326575299822
 20
310.92204911878
 10
137.4693535299823
 20
310.9903711187802
 10
137.0024995299821
 20
311.0132031187802
 10
136.5356435299821
 20
310.9903711187802
 10
136.0723415299819
 20
310.92204911878
 10
135.6161175299819
 20
310.8087591187802
 10
135.1704455299821
 20
310.6513591187801
 10
134.7387155299823
 20
310.45104911878
 10
134.324215529982
 20
310.2093551187802
 10
133.9300975299823
 20
309.9281151187799
 10
133.5593635299822
 20
309.6094691187802
 10
133.2148335299824
 20
309.2558431187801
 10
132.8991295299823
 20
308.8699291187801
 10
132.6146555299822
 20
308.4546611187799
 10
132.3635755299822
 20
308.0132031187801
 10
132.1477995299822
 20
307.5489131187802
 10
131.9689715299821
 20
307.0653251187802
 10
131.8284515299822
 20
306.56611711878
 10
131.7273095299822
 20
306.0550931187801
 10
131.6663135299821
 20
305.5361371187802
 10
131.6459315299824
 20
305.0132031187802
 10
131.6663135299821
 20
304.4902691187801
 10
131.7273095299822
 20
303.9713151187799
 10
131.8284515299822
 20
303.4602891187804
 10
131.9689715299821
 20
302.9610831187799
 10
132.1477995299822
 20
302.47749311878
 10
132.3635755299822
 20
302.0132031187801
 10
132.6146555299822
 20
301.5717451187799
 10
132.8991295299823
 20
301.1564771187802
 10
133.2148335299824
 20
300.7705631187802
 10
133.5593635299822
 20
300.4169371187801
 10
133.9300975299823
 20
300.09829111878
 10
134.324215529982
 20
299.8170511187802
 10
134.7387155299823
 20
299.5753571187799
 10
135.1704455299821
 20
299.3750471187802
 10
135.6161175299819
 20
299.2176491187799
 10
136.0723415299819
 20
299.1043571187799
 10
136.5356435299821
 20
299.0360351187803
 10
137.0024995299821
 20
299.0132031187802
 10
137.4693535299823
 20
299.0360351187803
 10
137.9326575299822
 20
299.1043571187799
 10
138.3888815299822
 20
299.2176491187799
 10
138.834553529982
 20
299.3750471187802
 10
139.2662815299821
 20
299.5753571187799
 10
139.6807835299821
 20
299.8170511187802
 10
140.0748995299821
 20
300.09829111878
 10
140.4456335299822
 20
300.4169371187801
 10
140.790163529982
 20
300.7705631187802
 10
141.1058675299821
 20
301.1564771187802
 10
141.3903415299821
 20
301.5717451187799
 10
141.6414235299819
 20
302.0132031187801
 10
141.8571975299822
 20
302.47749311878
 10
142.0360255299822
 20
302.9610831187799
 10
142.1765455299822
 20
303.4602891187804
 10
142.2433576560226
 20
303.797854703708
  0
LINE
  5
5F6E
330
18
100
AcDbEntity
  8
BLKDRA
  6
Continuous
100
AcDbLine
 10
118.3362135299819
 20
250.8754431187801
 30
0.0
 11
134.152383529982
 21
250.8754431187801
 31
0.0
  0
LINE
  5
5F6F
330
18
100
AcDbEntity
  8
CENTER
 62
     0
100
AcDbLine
 10
365.4318414290535
 20
266.9757031187803
 30
0.0
 11
232.359067529982
 21
266.9757031187803
 31
0.0
  0
ARC
  5
5F70
330
18
100
AcDbEntity
  8
0
100
AcDbCircle
 10
255.7505737042415
 20
399.3757031187807
 30
0.0
 40
25.0
100
AcDbArc
 50
294.9127762768739
 51
0.0
  0
LINE
  5
5F71
330
18
100
AcDbEntity
  8
0
100
AcDbLine
 10
263.8088779305448
 20
376.4399144889782
 30
0.0
 11
268.2466516151685
 21
371.5973015448468
 31
0.0
  0
LINE
  5
5F72
330
18
100
AcDbEntity
  8
0
100
AcDbLine
 10
265.2833815714346
 20
377.7911505945506
 30
0.0
 11
269.7211552560583
 21
372.9485376504193
 31
0.0
  0
ARC
  5
5F73
330
18
100
AcDbEntity
  8
0
100
AcDbCircle
 10
255.7505737042415
 20
399.3757031187807
 30
0.0
 40
28.6
100
AcDbArc
 50
297.1854143295815
 51
0.0
  0
ARC
  5
5F74
330
18
100
AcDbEntity
  8
CENTER
 62
     0
100
AcDbCircle
 10
255.7505737042415
 20
399.3757031187807
 30
0.0
 40
26.8
100
AcDbArc
 50
270.0
 51
0.0
  0
ARC
  5
5F75
330
18
100
AcDbEntity
  8
0
100
AcDbCircle
 10
255.7505737042415
 20
399.3757031187807
 30
0.0
 40
28.6
100
AcDbArc
 50
270.0
 51
292.9852519958536
  0
ARC
  5
5F76
330
18
100
AcDbEntity
  8
0
100
AcDbCircle
 10
255.7505737042415
 20
399.3757031187807
 30
0.0
 40
25.0
100
AcDbArc
 50
270.0
 51
290.032554704348
  0
LINE
  5
5F77
330
18
100
AcDbEntity
  8
GAIKEI
  6
DASHED2
 62
     0
100
AcDbLine
 10
134.2111050510606
 20
311.0132031187802
 30
0.0
 11
134.2111050510606
 21
276.5757031187805
 31
0.0
  0
LINE
  5
5F78
330
18
100
AcDbEntity
  8
GAIKEI
  6
DASHED2
 62
     0
100
AcDbLine
 10
102.4611050510606
 20
311.0132031187802
 30
0.0
 11
102.4611050510606
 21
276.5757031187805
 31
0.0
  0
DIMENSION
  5
5F79
330
18
100
AcDbEntity
  8
SCALE
100
AcDbDimension
  2
*D21
 10
249.1559256871735
 20
506.7655674588976
 30
0.0
 11
236.9233277189906
 21
508.0023970925067
 31
0.0
 70
   160
  1
天板締付範囲6～40
 71
     5
 42
30.86359856951526
 73
     0
 74
     0
 75
     0
  3
STANDARD
100
AcDbAlignedDimension
 13
270.0505737042412
 23
475.9019688893824
 33
0.0
 14
267.7505737042412
 24
506.7655674588976
 34
0.0
 50
90.0
100
AcDbRotatedDimension
1001
ACAD
1000
DSTYLE
1002
{
1070
   279
1070
     1
1070
    41
1040
6.0
1070
    42
1040
1.0
1070
    44
1040
0.0
1070
   140
1040
8.0
1070
   147
1040
3.0
1002
}
  0
DIMENSION
  5
5F7A
330
18
100
AcDbEntity
  8
SCALE
100
AcDbDimension
  2
*D20
 10
273.3129697042413
 20
463.0666510974086
 30
0.0
 11
223.698886688042
 21
463.0666510974086
 31
0.0
 70
   160
  1
六角対辺16
 71
     5
 42
18.47520800000006
 73
     0
 74
     0
 75
     0
  3
STANDARD
100
AcDbAlignedDimension
 13
291.7881777042413
 23
468.6165008893826
 33
0.0
 14
273.3129697042413
 24
468.6165008893826
 34
0.0
100
AcDbRotatedDimension
1001
ACAD
1000
DSTYLE
1002
{
1070
    41
1040
6.0
1070
    42
1040
1.0
1070
    44
1040
0.0
1070
   140
1040
8.0
1070
   147
1040
3.0
1002
}
  0
LEADER
  5
5F7B
330
18
100
AcDbEntity
  8
SCALE
100
AcDbLeader
  3
STANDARD
 73
     0
 75
     1
 40
8.0
 41
63.14666666666664
 76
     3
 10
276.2005737042413
 20
459.705269406614
 30
0.0
 10
256.3379073086805
 20
439.1654887196746
 30
0.0
 10
250.3379073086805
 20
439.1654887196746
 30
0.0
340
5F7C
1001
ACAD
1000
DSTYLE
1002
{
1070
    41
1040
6.0
1070
    42
1040
1.0
1070
    44
1040
0.0
1070
   140
1040
8.0
1070
   147
1040
3.0
1002
}
  0
MTEXT
  5
5F7C
102
{ACAD_REACTORS
330
5F7B
102
}
330
18
100
AcDbEntity
  8
SCALE
100
AcDbMText
 10
247.3379073086805
 20
442.1654887196746
 30
0.0
 40
8.0
 41
0.0
 46
0.0
 71
     9
 72
     1
  1
カウンター穴径φ14
 73
     1
 44
1.0
  0
DIMENSION
  5
5F7D
330
18
100
AcDbEntity
  8
SCALE
100
AcDbDimension
  2
*D19
 10
297.5505737042412
 20
553.1617422729838
 30
0.0
 11
282.5505737042412
 21
560.1617422729836
 31
0.0
 70
    32
 71
     5
 42
30.0
 73
     0
 74
     0
 75
     0
  3
STANDARD
100
AcDbAlignedDimension
 13
267.5505737042412
 23
507.4380634588977
 33
0.0
 14
297.5505737042412
 24
507.4380634588977
 34
0.0
100
AcDbRotatedDimension
1001
ACAD
1000
DSTYLE
1002
{
1070
     3
1000
%%c<>
1070
    41
1040
6.0
1070
    42
1040
1.0
1070
    44
1040
0.0
1070
   140
1040
8.0
1070
   147
1040
3.0
1002
}
  0
DIMENSION
  5
5F7E
330
18
100
AcDbEntity
  8
SCALE
100
AcDbDimension
  2
*D18
 10
327.7966888824486
 20
506.7655674588976
 30
0.0
 11
327.7966888824485
 21
523.7165736064321
 31
0.0
 70
   160
  1
（<>）
 71
     5
 42
32.50000000000011
 73
     0
 74
     0
 75
     0
  3
STANDARD
100
AcDbAlignedDimension
 13
282.5505737042412
 23
539.2655674588977
 33
0.0
 14
297.3505737042414
 24
506.7655674588976
 34
0.0
 50
90.0
100
AcDbRotatedDimension
1001
ACAD
1000
DSTYLE
1002
{
1070
    41
1040
6.0
1070
    42
1040
1.0
1070
    44
1040
0.0
1070
   140
1040
8.0
1070
   147
1040
3.0
1002
}
  0
DIMENSION
  5
5F7F
330
18
100
AcDbEntity
  8
SCALE
100
AcDbDimension
  2
*D17
 10
327.7966888824486
 20
400.2655674588978
 30
0.0
 11
320.7966888824484
 21
453.5155674588978
 31
0.0
 70
    32
  1
（<>）
 71
     5
 42
106.5
 73
     0
 74
     0
 75
     0
  3
STANDARD
100
AcDbAlignedDimension
 13
297.3505737042414
 23
506.7655674588976
 33
0.0
 14
286.3005737042412
 24
400.2655674588978
 34
0.0
 50
90.0
100
AcDbRotatedDimension
1001
ACAD
1000
DSTYLE
1002
{
1070
    41
1040
6.0
1070
    42
1040
1.0
1070
    44
1040
0.0
1070
   140
1040
8.0
1070
   147
1040
3.0
1002
}
  0
MTEXT
  5
5F80
102
{ACAD_REACTORS
330
5F81
102
}
330
18
100
AcDbEntity
  8
SCALE
100
AcDbMText
 10
261.4195008096073
 20
339.4936435784496
 30
0.0
 40
8.0
 41
0.0
 46
0.0
 71
     7
 72
     1
  1
\A1;L=600
 73
     1
 44
1.0
  0
LEADER
  5
5F81
330
18
100
AcDbEntity
  8
SCALE
100
AcDbLeader
  3
STANDARD
 73
     0
 74
     0
 75
     1
 76
     3
 10
244.788386839908
 20
370.7757031187808
 30
0.0
 10
252.4195008096072
 20
336.4936435784496
 30
0.0
 10
258.4195008096072
 20
336.4936435784496
 30
0.0
1001
ACAD
1000
DSTYLE
1002
{
1070
    41
1040
6.0
1070
    42
1040
1.0
1070
    44
1040
0.0
1070
   140
1040
8.0
1070
   147
1040
3.0
1002
}
  0
DIMENSION
  5
5F82
330
18
100
AcDbEntity
  8
SCALE
100
AcDbDimension
  2
*D16
 10
180.3415235282521
 20
276.5757031187805
 30
0.0
 11
173.3415235282521
 21
324.5757031187807
 31
0.0
 70
    32
  1
（<>）
 71
     5
 42
96.00000000000006
 73
     0
 74
     0
 75
     0
  3
STANDARD
100
AcDbAlignedDimension
 13
179.8658346418982
 23
372.5757031187806
 33
0.0
 14
134.2111050510604
 24
276.5757031187805
 34
0.0
 50
90.0
100
AcDbRotatedDimension
1001
ACAD
1000
DSTYLE
1002
{
1070
    41
1040
6.0
1070
    42
1040
1.0
1070
    44
1040
0.0
1070
   140
1040
8.0
1070
   147
1040
3.0
1002
}
  0
LINE
  5
5F88
330
18
100
AcDbEntity
  8
0
100
AcDbLine
 10
277.5505737042412
 20
438.7655674588978
 30
0.0
 11
275.3005737042412
 21
438.7655674588978
 31
0.0
  0
LINE
  5
5F89
330
18
100
AcDbEntity
  8
0
100
AcDbLine
 10
287.5505737042412
 20
438.7655674588978
 30
0.0
 11
289.8005737042412
 21
438.7655674588978
 31
0.0
  0
LINE
  5
5F8A
330
18
100
AcDbEntity
  8
0
100
AcDbLine
 10
287.9505737042413
 20
442.4655674588976
 30
0.0
 11
287.6505737042411
 21
442.7655674588978
 31
0.0
  0
ARC
  5
5F8E
330
18
100
AcDbEntity
  8
0
100
AcDbCircle
 10
282.5505737042412
 20
459.265567458898
 30
0.0
 40
80.0
100
AcDbArc
 50
90.0
 51
96.21618899999765
  0
LINE
  5
5F8F
330
18
100
AcDbEntity
  8
0
100
AcDbLine
 10
282.5505737042412
 20
525.265567458898
 30
0.0
 11
278.0505737042412
 21
525.265567458898
 31
0.0
  0
ARC
  5
5F90
330
18
100
AcDbEntity
  8
0
100
AcDbCircle
 10
274.0505737042412
 20
537.3040194588979
 30
0.0
 40
1.5
100
AcDbArc
 50
96.21618899999765
 51
205.1708190000005
  0
LINE
  5
5F91
330
18
100
AcDbEntity
  8
0
100
AcDbLine
 10
278.0505737042412
 20
525.265567458898
 30
0.0
 11
272.693007704241
 21
536.6660414588981
 31
0.0
  0
ARC
  5
5F92
330
18
100
AcDbEntity
  8
0
100
AcDbCircle
 10
282.5505737042412
 20
459.265567458898
 30
0.0
 40
80.0
100
AcDbArc
 50
83.78381100000236
 51
90.0
  0
ARC
  5
5F93
330
18
100
AcDbEntity
  8
0
100
AcDbCircle
 10
291.0505737042412
 20
537.3040194588979
 30
0.0
 40
1.5
100
AcDbArc
 50
334.8291809999996
 51
83.78381100000236
  0
LINE
  5
5F94
330
18
100
AcDbEntity
  8
0
100
AcDbLine
 10
287.0505737042412
 20
525.265567458898
 30
0.0
 11
292.4081397042413
 21
536.6660414588981
 31
0.0
  0
LINE
  5
5F95
330
18
100
AcDbEntity
  8
0
100
AcDbLine
 10
282.5505737042412
 20
525.265567458898
 30
0.0
 11
287.0505737042412
 21
525.265567458898
 31
0.0
  0
LINE
  5
5F96
330
18
100
AcDbEntity
  8
0
100
AcDbLine
 10
267.5505737042412
 20
507.4380634588981
 30
0.0
 11
267.5505737042412
 21
506.9655674588978
 31
0.0
  0
ARC
  5
5F97
330
18
100
AcDbEntity
  8
0
100
AcDbCircle
 10
267.7505737042415
 20
506.9655674588978
 30
0.0
 40
0.2
100
AcDbArc
 50
180.0
 51
270.0
  0
LINE
  5
5F98
330
18
100
AcDbEntity
  8
0
100
AcDbLine
 10
278.0505737042412
 20
510.265567458898
 30
0.0
 11
268.3634617042411
 21
508.4204034588981
 31
0.0
  0
ARC
  5
5F99
330
18
100
AcDbEntity
  8
0
100
AcDbCircle
 10
268.5505737042412
 20
507.4380634588981
 30
0.0
 40
1.0
100
AcDbArc
 50
100.7842979999958
 51
180.0
  0
LINE
  5
5F9A
330
18
100
AcDbEntity
  8
0
100
AcDbLine
 10
276.2005737042413
 20
504.265567458898
 30
0.0
 11
276.2005737042413
 21
475.901968889383
 31
0.0
  0
LINE
  5
5F9B
330
18
100
AcDbEntity
  8
0
100
AcDbLine
 10
277.0005737042414
 20
500.765567458898
 30
0.0
 11
277.0005737042414
 21
475.901968889383
 31
0.0
  0
LINE
  5
5F9C
330
18
100
AcDbEntity
  8
0
100
AcDbLine
 10
276.2005737042413
 20
500.765567458898
 30
0.0
 11
282.5505737042412
 21
500.765567458898
 31
0.0
  0
ARC
  5
5F9D
330
18
100
AcDbEntity
  8
0
100
AcDbCircle
 10
275.7005737042413
 20
506.265567458898
 30
0.0
 40
0.5
100
AcDbArc
 50
0.0
 51
90.0
  0
LINE
  5
5F9E
330
18
100
AcDbEntity
  8
0
100
AcDbLine
 10
277.0005737042414
 20
500.765567458898
 30
0.0
 11
276.2005737042413
 21
501.5655674588981
 31
0.0
  0
LINE
  5
5F9F
330
18
100
AcDbEntity
  8
0
100
AcDbLine
 10
277.0005737042414
 20
449.7655674588978
 30
0.0
 11
288.1005737042414
 21
449.7655674588978
 31
0.0
  0
LINE
  5
5FA0
330
18
100
AcDbEntity
  8
0
100
AcDbLine
 10
277.0005737042414
 20
449.7655674588978
 30
0.0
 11
276.2005737042413
 21
450.565567458898
 31
0.0
  0
LINE
  5
5FA1
330
18
100
AcDbEntity
  8
0
100
AcDbLine
 10
276.2005737042413
 20
450.565567458898
 30
0.0
 11
288.9005737042412
 21
450.5655674588981
 31
0.0
  0
LINE
  5
5FA2
330
18
100
AcDbEntity
  8
0
100
AcDbLine
 10
277.0005737042414
 20
449.7655674588978
 30
0.0
 11
277.0005737042414
 21
445.3155674588979
 31
0.0
  0
LINE
  5
5FA3
330
18
100
AcDbEntity
  8
0
100
AcDbLine
 10
287.0505737042412
 20
510.265567458898
 30
0.0
 11
278.0505737042412
 21
510.2655674588981
 31
0.0
  0
LINE
  5
5FA4
330
18
100
AcDbEntity
  8
0
100
AcDbLine
 10
297.3505737042414
 20
506.765567458898
 30
0.0
 11
267.7505737042415
 21
506.765567458898
 31
0.0
  0
LINE
  5
5FA5
330
18
100
AcDbEntity
  8
0
100
AcDbLine
 10
288.9005737042412
 20
500.765567458898
 30
0.0
 11
282.5505737042412
 21
500.765567458898
 31
0.0
  0
LINE
  5
5FA6
330
18
100
AcDbEntity
  8
0
100
AcDbLine
 10
288.1005737042414
 20
449.7655674588978
 30
0.0
 11
288.9005737042412
 21
450.565567458898
 31
0.0
  0
LINE
  5
5FA7
330
18
100
AcDbEntity
  8
0
100
AcDbLine
 10
288.1005737042414
 20
500.765567458898
 30
0.0
 11
288.9005737042412
 21
501.5655674588981
 31
0.0
  0
ARC
  5
5FA8
330
18
100
AcDbEntity
  8
0
100
AcDbCircle
 10
289.4005737042411
 20
506.265567458898
 30
0.0
 40
0.5
100
AcDbArc
 50
90.0
 51
180.0
  0
LINE
  5
5FA9
330
18
100
AcDbEntity
  8
0
100
AcDbLine
 10
288.1005737042414
 20
467.901968889383
 30
0.0
 11
288.1005737042414
 21
449.7655674588978
 31
0.0
  0
LINE
  5
5FAA
330
18
100
AcDbEntity
  8
0
100
AcDbLine
 10
288.9005737042412
 20
467.901968889383
 30
0.0
 11
288.9005737042412
 21
450.565567458898
 31
0.0
  0
ARC
  5
5FAB
330
18
100
AcDbEntity
  8
0
100
AcDbCircle
 10
296.5505737042412
 20
507.4380634588981
 30
0.0
 40
1.0
100
AcDbArc
 50
0.0
 51
79.21570200000418
  0
LINE
  5
5FAC
330
18
100
AcDbEntity
  8
0
100
AcDbLine
 10
287.0505737042412
 20
510.265567458898
 30
0.0
 11
296.7376857042412
 21
508.4204034588981
 31
0.0
  0
ARC
  5
5FAD
330
18
100
AcDbEntity
  8
0
100
AcDbCircle
 10
297.3505737042414
 20
506.9655674588978
 30
0.0
 40
0.2
100
AcDbArc
 50
270.0
 51
0.0
  0
LINE
  5
5FAE
330
18
100
AcDbEntity
  8
0
100
AcDbLine
 10
297.5505737042412
 20
507.4380634588981
 30
0.0
 11
297.5505737042412
 21
506.9655674588978
 31
0.0
  0
LINE
  5
5FAF
330
18
100
AcDbEntity
  8
0
100
AcDbLine
 10
277.4505737042413
 20
442.7655674588978
 30
0.0
 11
287.6505737042411
 21
442.7655674588978
 31
0.0
  0
LINE
  5
5FB0
330
18
100
AcDbEntity
  8
0
100
AcDbLine
 10
278.0505737042412
 20
442.8655674588977
 30
0.0
 11
278.0505737042412
 21
442.7655674588978
 31
0.0
  0
LINE
  5
5FB1
330
18
100
AcDbEntity
  8
0
100
AcDbLine
 10
278.6505737042411
 20
444.2655674588976
 30
0.0
 11
286.4505737042415
 21
444.2655674588978
 31
0.0
  0
LINE
  5
5FB2
330
18
100
AcDbEntity
  8
0
100
AcDbLine
 10
277.4505737042413
 20
444.8655674588977
 30
0.0
 11
277.0005737042414
 21
445.3155674588979
 31
0.0
  0
LINE
  5
5FB3
330
18
100
AcDbEntity
  8
0
100
AcDbLine
 10
277.1505737042411
 20
442.4655674588976
 30
0.0
 11
277.4505737042413
 21
442.7655674588978
 31
0.0
  0
LINE
  5
5FB4
330
18
100
AcDbEntity
  8
0
100
AcDbLine
 10
277.1505737042411
 20
442.4655674588976
 30
0.0
 11
277.5505737042412
 21
438.7655674588978
 31
0.0
  0
LINE
  5
5FB5
330
18
100
AcDbEntity
  8
0
100
AcDbLine
 10
277.1505737042411
 20
442.4655674588976
 30
0.0
 11
287.9505737042415
 21
442.4655674588976
 31
0.0
  0
LINE
  5
5FB6
330
18
100
AcDbEntity
  8
0
100
AcDbLine
 10
287.5505737042412
 20
438.7655674588978
 30
0.0
 11
277.5505737042412
 21
438.7655674588978
 31
0.0
  0
LINE
  5
5FB7
330
18
100
AcDbEntity
  8
0
100
AcDbLine
 10
288.1005737042414
 20
449.7655674588978
 30
0.0
 11
288.1005737042414
 21
445.3155674588979
 31
0.0
  0
LINE
  5
5FB8
330
18
100
AcDbEntity
  8
0
100
AcDbLine
 10
288.1005737042414
 20
445.3155674588979
 30
0.0
 11
277.0005737042414
 21
445.3155674588979
 31
0.0
  0
LINE
  5
5FB9
330
18
100
AcDbEntity
  8
0
100
AcDbLine
 10
287.9505737042413
 20
442.4655674588976
 30
0.0
 11
287.5505737042412
 21
438.7655674588978
 31
0.0
  0
LINE
  5
5FBA
330
18
100
AcDbEntity
  8
0
100
AcDbLine
 10
287.6505737042411
 20
444.8655674588977
 30
0.0
 11
288.1005737042414
 21
445.3155674588979
 31
0.0
  0
LINE
  5
5FBB
330
18
100
AcDbEntity
  8
0
100
AcDbLine
 10
287.0505737042412
 20
442.8655674588977
 30
0.0
 11
287.0505737042412
 21
442.7655674588978
 31
0.0
  0
LINE
  5
5FBC
330
18
100
AcDbEntity
  8
0
100
AcDbLine
 10
297.4216377042412
 20
507.9292334588978
 30
0.0
 11
267.6795099688578
 21
507.9292334588978
 31
0.0
  0
LINE
  5
5FBD
330
18
100
AcDbEntity
  8
0
100
AcDbLine
 10
279.8005737042412
 20
525.265567458898
 30
0.0
 11
279.8005737042412
 21
510.265567458898
 31
0.0
  0
LINE
  5
5FBE
330
18
100
AcDbEntity
  8
0
100
AcDbLine
 10
285.3005737042412
 20
525.265567458898
 30
0.0
 11
285.3005737042412
 21
510.265567458898
 31
0.0
  0
LINE
  5
5FBF
330
18
100
AcDbEntity
  8
0
100
AcDbLine
 10
268.5505737042412
 20
506.265567458898
 30
0.0
 11
268.5505737042412
 21
504.265567458898
 31
0.0
  0
LINE
  5
5FC0
330
18
100
AcDbEntity
  8
0
100
AcDbLine
 10
282.5505737042412
 20
506.265567458898
 30
0.0
 11
268.5505737042412
 21
506.265567458898
 31
0.0
  0
LINE
  5
5FC1
330
18
100
AcDbEntity
  8
0
100
AcDbLine
 10
282.5505737042412
 20
504.265567458898
 30
0.0
 11
268.5505737042412
 21
504.265567458898
 31
0.0
  0
LINE
  5
5FC2
330
18
100
AcDbEntity
  8
0
100
AcDbLine
 10
282.5505737042412
 20
506.265567458898
 30
0.0
 11
296.5505737042412
 21
506.265567458898
 31
0.0
  0
LINE
  5
5FC3
330
18
100
AcDbEntity
  8
0
100
AcDbLine
 10
282.5505737042412
 20
504.265567458898
 30
0.0
 11
296.5505737042412
 21
504.265567458898
 31
0.0
  0
LINE
  5
5FC4
330
18
100
AcDbEntity
  8
0
100
AcDbLine
 10
296.5505737042412
 20
506.265567458898
 30
0.0
 11
296.5505737042412
 21
504.265567458898
 31
0.0
  0
LINE
  5
5FC5
330
18
100
AcDbEntity
  8
0
100
AcDbLine
 10
270.0505737042412
 20
475.901968889383
 30
0.0
 11
270.0505737042412
 21
474.901968889383
 31
0.0
  0
LINE
  5
5FC6
330
18
100
AcDbEntity
  8
0
100
AcDbLine
 10
276.2005737042413
 20
467.901968889383
 30
0.0
 11
276.2005737042413
 21
450.565567458898
 31
0.0
  0
LINE
  5
5FC7
330
18
100
AcDbEntity
  8
0
100
AcDbLine
 10
277.0005737042414
 20
467.901968889383
 30
0.0
 11
277.0005737042414
 21
449.7655674588978
 31
0.0
  0
LINE
  5
5FC8
330
18
100
AcDbEntity
  8
0
100
AcDbLine
 10
295.0505737042412
 20
475.901968889383
 30
0.0
 11
270.0505737042412
 21
475.901968889383
 31
0.0
  0
LINE
  5
5FC9
330
18
100
AcDbEntity
  8
0
100
AcDbLine
 10
295.0505737042412
 20
474.901968889383
 30
0.0
 11
270.0505737042412
 21
474.901968889383
 31
0.0
  0
LINE
  5
5FCA
330
18
100
AcDbEntity
  8
0
100
AcDbLine
 10
295.0505737042412
 20
475.901968889383
 30
0.0
 11
295.0505737042412
 21
474.901968889383
 31
0.0
  0
LINE
  5
5FCB
330
18
100
AcDbEntity
  8
0
100
AcDbLine
 10
274.5505737042412
 20
467.901968889383
 30
0.0
 11
290.5505737042412
 21
467.901968889383
 31
0.0
  0
LINE
  5
5FCC
330
18
100
AcDbEntity
  8
0
100
AcDbLine
 10
273.3129697042413
 20
468.6165008893828
 30
0.0
 11
273.3129697042413
 21
474.901968889383
 31
0.0
  0
LINE
  5
5FCD
330
18
100
AcDbEntity
  8
0
100
AcDbLine
 10
291.7881777042412
 20
468.6165008893828
 30
0.0
 11
291.7881777042412
 21
474.901968889383
 31
0.0
  0
LINE
  5
5FCE
330
18
100
AcDbEntity
  8
0
100
AcDbLine
 10
277.9317717042411
 20
468.6165008893828
 30
0.0
 11
277.9317717042411
 21
474.901968889383
 31
0.0
  0
LINE
  5
5FCF
330
18
100
AcDbEntity
  8
0
100
AcDbLine
 10
287.1693757042411
 20
468.6165008893828
 30
0.0
 11
287.1693757042411
 21
474.901968889383
 31
0.0
  0
LINE
  5
5FD0
330
18
100
AcDbEntity
  8
0
100
AcDbLine
 10
274.5505737042412
 20
467.901968889383
 30
0.0
 11
273.3129697042413
 21
468.6165008893828
 31
0.0
  0
ARC
  5
5FD1
330
18
100
AcDbEntity
  8
0
100
AcDbCircle
 10
282.5505737042412
 20
483.1874388893828
 30
0.0
 40
15.285468
100
AcDbArc
 50
252.4120459999942
 51
287.5879540000058
  0
ARC
  5
5FD2
330
18
100
AcDbEntity
  8
0
100
AcDbCircle
 10
275.6223717042411
 20
471.9912868893826
 30
0.0
 40
4.089316
100
AcDbArc
 50
244.3842470000001
 51
304.3842470000042
  0
LINE
  5
5FD3
330
18
100
AcDbEntity
  8
0
100
AcDbLine
 10
290.5505737042412
 20
467.901968889383
 30
0.0
 11
291.7881777042412
 21
468.6165008893828
 31
0.0
  0
ARC
  5
5FD4
330
18
100
AcDbEntity
  8
0
100
AcDbCircle
 10
289.478777704241
 20
471.9912868893826
 30
0.0
 40
4.089316
100
AcDbArc
 50
235.6157529999958
 51
295.6157529999999
  0
LINE
  5
5FD5
330
18
100
AcDbEntity
  8
0
100
AcDbLine
 10
288.9005737042412
 20
504.265567458898
 30
0.0
 11
288.9005737042412
 21
475.901968889383
 31
0.0
  0
LINE
  5
5FD6
330
18
100
AcDbEntity
  8
0
100
AcDbLine
 10
288.1005737042414
 20
500.765567458898
 30
0.0
 11
288.1005737042414
 21
475.901968889383
 31
0.0
  0
LINE
  5
5FD7
330
18
100
AcDbEntity
  8
GAIKEI
  6
DASHED2
 62
     0
100
AcDbLine
 10
102.4611050510606
 20
276.5757031187805
 30
0.0
 11
134.2111050510606
 21
276.5757031187805
 31
0.0
  0
LINE
  5
5FD8
330
18
100
AcDbEntity
  8
CENTER
 62
     0
100
AcDbLine
 10
255.7505737042415
 20
372.5757031187805
 30
0.0
 11
115.3361050510606
 21
372.5757031187805
 31
0.0
  0
LINE
  5
5FE0
330
18
100
AcDbEntity
  8
BLKDRA
  6
Continuous
100
AcDbLine
 10
137.7111050510606
 20
366.3257031187805
 30
0.0
 11
134.2111050510606
 21
366.3257031187805
 31
0.0
  0
LINE
  5
5FE1
330
18
100
AcDbEntity
  8
BLKDRA
  6
Continuous
100
AcDbLine
 10
137.7111050510606
 20
378.8257031187805
 30
0.0
 11
134.2111050510606
 21
378.8257031187805
 31
0.0
  0
LINE
  5
5FE2
330
18
100
AcDbEntity
  8
BLKDRA
  6
Continuous
100
AcDbLine
 10
137.7111050510606
 20
378.8257031187805
 30
0.0
 11
137.7111050510606
 21
366.3257031187805
 31
0.0
  0
LINE
  5
5FE3
330
18
100
AcDbEntity
  8
BLKDRA
  6
Continuous
100
AcDbLine
 10
144.2111050510606
 20
375.3257031187805
 30
0.0
 11
137.7111050510606
 21
375.3257031187805
 31
0.0
  0
LINE
  5
5FE4
330
18
100
AcDbEntity
  8
BLKDRA
  6
Continuous
100
AcDbLine
 10
144.2111050510606
 20
375.3257031187805
 30
0.0
 11
144.2111050510606
 21
372.5757031187805
 31
0.0
  0
LINE
  5
5FE5
330
18
100
AcDbEntity
  8
BLKDRA
  6
Continuous
100
AcDbLine
 10
144.2111050510606
 20
369.8257031187805
 30
0.0
 11
137.7111050510606
 21
369.8257031187805
 31
0.0
  0
LINE
  5
5FE6
330
18
100
AcDbEntity
  8
BLKDRA
  6
Continuous
100
AcDbLine
 10
144.2111050510606
 20
369.8257031187805
 30
0.0
 11
144.2111050510606
 21
372.5757031187805
 31
0.0
  0
LINE
  5
5FE7
330
18
100
AcDbEntity
  8
0
100
AcDbLine
 10
255.7505737042415
 20
374.3757031187807
 30
0.0
 11
144.2111050510606
 21
374.3757031187807
 31
0.0
  0
LINE
  5
5FE8
330
18
100
AcDbEntity
  8
0
100
AcDbLine
 10
255.7505737042415
 20
370.7757031187808
 30
0.0
 11
144.2111050510606
 21
370.7757031187808
 31
0.0
  0
LINE
  5
5FE9
330
18
100
AcDbEntity
  8
0
100
AcDbLine
 10
278.8005737042412
 20
400.265567458898
 30
0.0
 11
286.3005737042412
 21
400.265567458898
 31
0.0
  0
LINE
  5
5FEA
330
18
100
AcDbEntity
  8
0
100
AcDbLine
 10
278.0505737042412
 20
403.265567458898
 30
0.0
 11
287.0505737042412
 21
403.265567458898
 31
0.0
  0
LINE
  5
5FEB
330
18
100
AcDbEntity
  8
0
100
AcDbLine
 10
286.8005737042412
 20
403.265567458898
 30
0.0
 11
286.8005737042412
 21
400.7655674588979
 31
0.0
  0
LINE
  5
5FEC
330
18
100
AcDbEntity
  8
0
100
AcDbLine
 10
278.3005737042412
 20
403.265567458898
 30
0.0
 11
278.3005737042412
 21
400.7655674588979
 31
0.0
  0
LINE
  5
5FED
330
18
100
AcDbEntity
  8
0
100
AcDbLine
 10
287.5505737042412
 20
436.7655674588978
 30
0.0
 11
287.5505737042412
 21
403.765567458898
 31
0.0
  0
LINE
  5
5FEE
330
18
100
AcDbEntity
  8
0
100
AcDbLine
 10
277.5505737042412
 20
436.7655674588978
 30
0.0
 11
277.5505737042412
 21
403.765567458898
 31
0.0
  0
ARC
  5
5FEF
330
18
100
AcDbEntity
  8
0
100
AcDbCircle
 10
278.0505737042412
 20
403.765567458898
 30
0.0
 40
0.5
100
AcDbArc
 50
180.0
 51
270.0
  0
ARC
  5
5FF0
330
18
100
AcDbEntity
  8
0
100
AcDbCircle
 10
287.0505737042412
 20
403.765567458898
 30
0.0
 40
0.5
100
AcDbArc
 50
270.0
 51
0.0
  0
LINE
  5
5FF1
330
18
100
AcDbEntity
  8
0
100
AcDbLine
 10
277.5505737042412
 20
408.265567458898
 30
0.0
 11
287.5505737042412
 21
408.265567458898
 31
0.0
  0
LINE
  5
5FF2
330
18
100
AcDbEntity
  8
0
100
AcDbLine
 10
284.5505737042412
 20
406.265567458898
 30
0.0
 11
284.5505737042412
 21
403.265567458898
 31
0.0
  0
LINE
  5
5FF3
330
18
100
AcDbEntity
  8
0
100
AcDbLine
 10
280.5505737042412
 20
406.265567458898
 30
0.0
 11
284.5505737042412
 21
406.265567458898
 31
0.0
  0
LINE
  5
5FF4
330
18
100
AcDbEntity
  8
0
100
AcDbLine
 10
280.5505737042412
 20
406.265567458898
 30
0.0
 11
280.5505737042412
 21
403.265567458898
 31
0.0
  0
LINE
  5
5FF5
330
18
100
AcDbEntity
  8
0
100
AcDbLine
 10
284.3505737042414
 20
400.265567458898
 30
0.0
 11
284.3505737042414
 21
399.3757031187807
 31
0.0
  0
LINE
  5
5FF6
330
18
100
AcDbEntity
  8
0
100
AcDbLine
 10
280.7505737042415
 20
400.265567458898
 30
0.0
 11
280.7505737042415
 21
399.3757031187807
 31
0.0
  0
LINE
  5
5FF7
330
18
100
AcDbEntity
  8
0
100
AcDbLine
 10
283.0505737042411
 20
413.765567458898
 30
0.0
 11
283.0505737042411
 21
412.5646054588981
 31
0.0
  0
ARC
  5
5FF8
330
18
100
AcDbEntity
  8
0
100
AcDbCircle
 10
282.5505737042412
 20
413.765567458898
 30
0.0
 40
0.5
100
AcDbArc
 50
0.0
 51
180.0
  0
ARC
  5
5FF9
330
18
100
AcDbEntity
  8
0
100
AcDbCircle
 10
278.8005737042412
 20
400.7655674588979
 30
0.0
 40
0.5
100
AcDbArc
 50
180.0
 51
270.0
  0
ARC
  5
5FFA
330
18
100
AcDbEntity
  8
0
100
AcDbCircle
 10
286.3005737042412
 20
400.7655674588979
 30
0.0
 40
0.5
100
AcDbArc
 50
270.0
 51
0.0
  0
LINE
  5
5FFB
330
18
100
AcDbEntity
  8
0
100
AcDbLine
 10
283.0505737042411
 20
410.265567458898
 30
0.0
 11
283.8005737042412
 21
410.265567458898
 31
0.0
  0
LINE
  5
5FFC
330
18
100
AcDbEntity
  8
0
100
AcDbLine
 10
283.8005737042412
 20
411.265567458898
 30
0.0
 11
283.8005737042412
 21
410.265567458898
 31
0.0
  0
LINE
  5
5FFD
330
18
100
AcDbEntity
  8
0
100
AcDbLine
 10
283.8005737042412
 20
411.265567458898
 30
0.0
 11
283.0505737042411
 21
412.5646054588981
 31
0.0
  0
LINE
  5
5FFE
330
18
100
AcDbEntity
  8
0
100
AcDbLine
 10
283.0505737042411
 20
410.265567458898
 30
0.0
 11
283.0505737042411
 21
408.265567458898
 31
0.0
  0
LINE
  5
5FFF
330
18
100
AcDbEntity
  8
0
100
AcDbLine
 10
282.0505737042412
 20
413.765567458898
 30
0.0
 11
282.0505737042412
 21
412.5646054588981
 31
0.0
  0
LINE
  5
6000
330
18
100
AcDbEntity
  8
0
100
AcDbLine
 10
282.0505737042412
 20
410.265567458898
 30
0.0
 11
282.0505737042412
 21
408.265567458898
 31
0.0
  0
LINE
  5
6001
330
18
100
AcDbEntity
  8
0
100
AcDbLine
 10
281.3005737042412
 20
411.265567458898
 30
0.0
 11
282.0505737042412
 21
412.5646054588981
 31
0.0
  0
LINE
  5
6002
330
18
100
AcDbEntity
  8
0
100
AcDbLine
 10
281.3005737042412
 20
411.265567458898
 30
0.0
 11
281.3005737042412
 21
410.265567458898
 31
0.0
  0
LINE
  5
6003
330
18
100
AcDbEntity
  8
0
100
AcDbLine
 10
282.0505737042412
 20
410.265567458898
 30
0.0
 11
281.3005737042412
 21
410.265567458898
 31
0.0
  0
LINE
  5
6004
330
18
100
AcDbEntity
  8
0
100
AcDbLine
 10
281.8505737042414
 20
408.265567458898
 30
0.0
 11
282.0505737042412
 21
408.4655674588978
 31
0.0
  0
LINE
  5
6005
330
18
100
AcDbEntity
  8
0
100
AcDbLine
 10
283.2505737042414
 20
408.265567458898
 30
0.0
 11
283.0505737042411
 21
408.4655674588978
 31
0.0
  0
ARC
  5
6006
330
18
100
AcDbEntity
  8
0
100
AcDbCircle
 10
282.5505737042412
 20
412.765567458898
 30
0.0
 40
0.5
100
AcDbArc
 50
0.0
 51
180.0
  0
LINE
  5
6007
330
18
100
AcDbEntity
  8
0
100
AcDbLine
 10
281.3005737042412
 20
411.265567458898
 30
0.0
 11
283.8005737042412
 21
411.265567458898
 31
0.0
  0
LINE
  5
6008
330
18
100
AcDbEntity
  8
0
100
AcDbLine
 10
282.5505737042412
 20
438.7655674588978
 30
0.0
 11
287.5505737042412
 21
438.7655674588978
 31
0.0
  0
ARC
  5
6009
330
18
100
AcDbEntity
  8
0
100
AcDbCircle
 10
277.0505737042412
 20
436.7655674588978
 30
0.0
 40
0.5
100
AcDbArc
 50
0.0
 51
90.0
  0
LINE
  5
600A
330
18
100
AcDbEntity
  8
0
100
AcDbLine
 10
289.8005737042412
 20
437.2655674588978
 30
0.0
 11
286.5505737042412
 21
437.2655674588978
 31
0.0
  0
ARC
  5
600B
330
18
100
AcDbEntity
  8
0
100
AcDbCircle
 10
288.0505737042412
 20
436.7655674588978
 30
0.0
 40
0.5
100
AcDbArc
 50
90.0
 51
180.0
  0
LINE
  5
600C
330
18
100
AcDbEntity
  8
0
100
AcDbLine
 10
289.8005737042412
 20
437.2655674588978
 30
0.0
 11
289.8005737042412
 21
432.7655674588978
 31
0.0
  0
LINE
  5
600D
330
18
100
AcDbEntity
  8
0
100
AcDbLine
 10
289.8005737042412
 20
438.7655674588978
 30
0.0
 11
289.0776337042415
 21
442.8655674588977
 31
0.0
  0
LINE
  5
600E
330
18
100
AcDbEntity
  8
0
100
AcDbLine
 10
287.0505737042412
 20
444.8655674588977
 30
0.0
 11
290.2481197042415
 21
444.8655674588977
 31
0.0
  0
LINE
  5
600F
330
18
100
AcDbEntity
  8
0
100
AcDbLine
 10
286.0505737042412
 20
443.8655674588977
 30
0.0
 11
286.0505737042412
 21
442.8655674588977
 31
0.0
  0
LINE
  5
6010
330
18
100
AcDbEntity
  8
0
100
AcDbLine
 10
286.0505737042412
 20
442.8655674588977
 30
0.0
 11
289.0776337042415
 21
442.8655674588977
 31
0.0
  0
LINE
  5
6011
330
18
100
AcDbEntity
  8
0
100
AcDbLine
 10
286.0505737042412
 20
443.8655674588977
 30
0.0
 11
287.0505737042412
 21
444.8655674588977
 31
0.0
  0
LINE
  5
6012
330
18
100
AcDbEntity
  8
0
100
AcDbLine
 10
291.3005737042412
 20
438.896799458898
 30
0.0
 11
290.2481197042415
 21
444.8655674588977
 31
0.0
  0
LINE
  5
6013
330
18
100
AcDbEntity
  8
0
100
AcDbLine
 10
290.3005737042412
 20
429.1655674588978
 30
0.0
 11
291.0505737042412
 21
429.1655674588978
 31
0.0
  0
ARC
  5
6014
330
18
100
AcDbEntity
  8
0
100
AcDbCircle
 10
290.3005737042412
 20
429.6655674588977
 30
0.0
 40
0.5
100
AcDbArc
 50
180.0
 51
270.0
  0
ARC
  5
6015
330
18
100
AcDbEntity
  8
0
100
AcDbCircle
 10
291.0505737042412
 20
429.4155674588978
 30
0.0
 40
0.25
100
AcDbArc
 50
270.0
 51
90.0
  0
ARC
  5
6016
330
18
100
AcDbEntity
  8
0
100
AcDbCircle
 10
291.0505737042412
 20
430.3155674588978
 30
0.0
 40
0.25
100
AcDbArc
 50
270.0
 51
90.0
  0
ARC
  5
6017
330
18
100
AcDbEntity
  8
0
100
AcDbCircle
 10
291.0505737042412
 20
431.2155674588976
 30
0.0
 40
0.25
100
AcDbArc
 50
270.0
 51
90.0
  0
ARC
  5
6018
330
18
100
AcDbEntity
  8
0
100
AcDbCircle
 10
291.0505737042412
 20
432.1155674588977
 30
0.0
 40
0.25
100
AcDbArc
 50
270.0
 51
90.0
  0
ARC
  5
6019
330
18
100
AcDbEntity
  8
0
100
AcDbCircle
 10
291.0505737042412
 20
433.0155674588977
 30
0.0
 40
0.25
100
AcDbArc
 50
270.0
 51
90.0
  0
ARC
  5
601A
330
18
100
AcDbEntity
  8
0
100
AcDbCircle
 10
291.0505737042412
 20
433.9155674588978
 30
0.0
 40
0.25
100
AcDbArc
 50
270.0
 51
90.0
  0
ARC
  5
601B
330
18
100
AcDbEntity
  8
0
100
AcDbCircle
 10
291.0505737042412
 20
434.8155674588978
 30
0.0
 40
0.25
100
AcDbArc
 50
270.0
 51
90.0
  0
ARC
  5
601C
330
18
100
AcDbEntity
  8
0
100
AcDbCircle
 10
291.0505737042412
 20
435.7155674588976
 30
0.0
 40
0.25
100
AcDbArc
 50
270.0
 51
90.0
  0
LINE
  5
601D
330
18
100
AcDbEntity
  8
0
100
AcDbLine
 10
291.0505737042412
 20
435.4655674588975
 30
0.0
 11
291.0505737042412
 21
435.0655674588979
 31
0.0
  0
LINE
  5
601E
330
18
100
AcDbEntity
  8
0
100
AcDbLine
 10
291.0505737042412
 20
434.565567458898
 30
0.0
 11
291.0505737042412
 21
434.1655674588977
 31
0.0
  0
LINE
  5
601F
330
18
100
AcDbEntity
  8
0
100
AcDbLine
 10
291.0505737042412
 20
433.6655674588977
 30
0.0
 11
291.0505737042412
 21
433.2655674588978
 31
0.0
  0
LINE
  5
6020
330
18
100
AcDbEntity
  8
0
100
AcDbLine
 10
291.0505737042412
 20
432.7655674588978
 30
0.0
 11
291.0505737042412
 21
432.3655674588977
 31
0.0
  0
LINE
  5
6021
330
18
100
AcDbEntity
  8
0
100
AcDbLine
 10
291.0505737042412
 20
431.8655674588977
 30
0.0
 11
291.0505737042412
 21
431.4655674588975
 31
0.0
  0
LINE
  5
6022
330
18
100
AcDbEntity
  8
0
100
AcDbLine
 10
291.0505737042412
 20
430.9655674588976
 30
0.0
 11
291.0505737042412
 21
430.565567458898
 31
0.0
  0
LINE
  5
6023
330
18
100
AcDbEntity
  8
0
100
AcDbLine
 10
291.0505737042412
 20
430.065567458898
 30
0.0
 11
291.0505737042412
 21
429.6655674588977
 31
0.0
  0
LINE
  5
6024
330
18
100
AcDbEntity
  8
0
100
AcDbLine
 10
291.0505737042412
 20
435.9655674588976
 30
0.0
 11
291.3005737042412
 21
438.896799458898
 31
0.0
  0
LINE
  5
6025
330
18
100
AcDbEntity
  8
0
100
AcDbLine
 10
275.3005737042412
 20
438.7655674588978
 30
0.0
 11
276.0235137042413
 21
442.8655674588977
 31
0.0
  0
LINE
  5
6026
330
18
100
AcDbEntity
  8
0
100
AcDbLine
 10
279.0505737042412
 20
442.8655674588977
 30
0.0
 11
276.0235137042413
 21
442.8655674588977
 31
0.0
  0
LINE
  5
6027
330
18
100
AcDbEntity
  8
0
100
AcDbLine
 10
279.0505737042412
 20
443.8655674588977
 30
0.0
 11
278.0505737042412
 21
444.8655674588977
 31
0.0
  0
LINE
  5
6028
330
18
100
AcDbEntity
  8
0
100
AcDbLine
 10
273.8005737042412
 20
438.896799458898
 30
0.0
 11
274.8530277042413
 21
444.8655674588977
 31
0.0
  0
LINE
  5
6029
330
18
100
AcDbEntity
  8
0
100
AcDbLine
 10
278.0505737042412
 20
444.8655674588977
 30
0.0
 11
274.8530277042413
 21
444.8655674588977
 31
0.0
  0
LINE
  5
602A
330
18
100
AcDbEntity
  8
0
100
AcDbLine
 10
279.0505737042412
 20
443.8655674588977
 30
0.0
 11
279.0505737042412
 21
442.8655674588977
 31
0.0
  0
LINE
  5
602B
330
18
100
AcDbEntity
  8
0
100
AcDbLine
 10
275.3005737042412
 20
437.2655674588978
 30
0.0
 11
278.5505737042412
 21
437.2655674588978
 31
0.0
  0
LINE
  5
602C
330
18
100
AcDbEntity
  8
0
100
AcDbLine
 10
274.0505737042412
 20
435.9655674588976
 30
0.0
 11
273.8005737042412
 21
438.896799458898
 31
0.0
  0
LINE
  5
602D
330
18
100
AcDbEntity
  8
0
100
AcDbLine
 10
274.0505737042412
 20
430.065567458898
 30
0.0
 11
274.0505737042412
 21
429.6655674588977
 31
0.0
  0
LINE
  5
602E
330
18
100
AcDbEntity
  8
0
100
AcDbLine
 10
274.0505737042412
 20
430.9655674588976
 30
0.0
 11
274.0505737042412
 21
430.565567458898
 31
0.0
  0
LINE
  5
602F
330
18
100
AcDbEntity
  8
0
100
AcDbLine
 10
274.0505737042412
 20
431.8655674588977
 30
0.0
 11
274.0505737042412
 21
431.4655674588975
 31
0.0
  0
LINE
  5
6030
330
18
100
AcDbEntity
  8
0
100
AcDbLine
 10
274.0505737042412
 20
432.7655674588978
 30
0.0
 11
274.0505737042412
 21
432.3655674588977
 31
0.0
  0
LINE
  5
6031
330
18
100
AcDbEntity
  8
0
100
AcDbLine
 10
274.0505737042412
 20
433.6655674588977
 30
0.0
 11
274.0505737042412
 21
433.2655674588978
 31
0.0
  0
LINE
  5
6032
330
18
100
AcDbEntity
  8
0
100
AcDbLine
 10
274.0505737042412
 20
434.565567458898
 30
0.0
 11
274.0505737042412
 21
434.1655674588977
 31
0.0
  0
LINE
  5
6033
330
18
100
AcDbEntity
  8
0
100
AcDbLine
 10
274.0505737042412
 20
435.4655674588975
 30
0.0
 11
274.0505737042412
 21
435.0655674588979
 31
0.0
  0
ARC
  5
6034
330
18
100
AcDbEntity
  8
0
100
AcDbCircle
 10
274.0505737042412
 20
435.7155674588976
 30
0.0
 40
0.25
100
AcDbArc
 50
90.0
 51
270.0
  0
ARC
  5
6035
330
18
100
AcDbEntity
  8
0
100
AcDbCircle
 10
274.0505737042412
 20
434.8155674588978
 30
0.0
 40
0.25
100
AcDbArc
 50
90.0
 51
270.0
  0
ARC
  5
6036
330
18
100
AcDbEntity
  8
0
100
AcDbCircle
 10
274.0505737042412
 20
433.9155674588978
 30
0.0
 40
0.25
100
AcDbArc
 50
90.0
 51
270.0
  0
ARC
  5
6037
330
18
100
AcDbEntity
  8
0
100
AcDbCircle
 10
274.0505737042412
 20
433.0155674588977
 30
0.0
 40
0.25
100
AcDbArc
 50
90.0
 51
270.0
  0
ARC
  5
6038
330
18
100
AcDbEntity
  8
0
100
AcDbCircle
 10
274.0505737042412
 20
432.1155674588977
 30
0.0
 40
0.25
100
AcDbArc
 50
90.0
 51
270.0
  0
ARC
  5
6039
330
18
100
AcDbEntity
  8
0
100
AcDbCircle
 10
274.0505737042412
 20
431.2155674588976
 30
0.0
 40
0.25
100
AcDbArc
 50
90.0
 51
270.0
  0
ARC
  5
603A
330
18
100
AcDbEntity
  8
0
100
AcDbCircle
 10
274.0505737042412
 20
430.3155674588978
 30
0.0
 40
0.25
100
AcDbArc
 50
90.0
 51
270.0
  0
ARC
  5
603B
330
18
100
AcDbEntity
  8
0
100
AcDbCircle
 10
274.0505737042412
 20
429.4155674588978
 30
0.0
 40
0.25
100
AcDbArc
 50
90.0
 51
270.0
  0
ARC
  5
603C
330
18
100
AcDbEntity
  8
0
100
AcDbCircle
 10
274.8005737042412
 20
429.6655674588977
 30
0.0
 40
0.5
100
AcDbArc
 50
270.0
 51
0.0
  0
LINE
  5
603D
330
18
100
AcDbEntity
  8
0
100
AcDbLine
 10
274.8005737042412
 20
429.1655674588978
 30
0.0
 11
274.0505737042412
 21
429.1655674588978
 31
0.0
  0
LINE
  5
603E
330
18
100
AcDbEntity
  8
0
100
AcDbLine
 10
275.3005737042412
 20
437.2655674588978
 30
0.0
 11
275.3005737042412
 21
432.7655674588978
 31
0.0
  0
LINE
  5
603F
330
18
100
AcDbEntity
  8
0
100
AcDbLine
 10
286.5505737042412
 20
437.2655674588978
 30
0.0
 11
286.5505737042412
 21
438.7655674588978
 31
0.0
  0
LINE
  5
6040
330
18
100
AcDbEntity
  8
0
100
AcDbLine
 10
278.5505737042412
 20
437.2655674588978
 30
0.0
 11
278.5505737042412
 21
438.7655674588978
 31
0.0
  0
ARC
  5
6041
330
18
100
AcDbEntity
  8
0
100
AcDbCircle
 10
289.8005737042412
 20
432.1655674588978
 30
0.0
 40
0.6
100
AcDbArc
 50
90.0
 51
270.0
  0
LINE
  5
6042
330
18
100
AcDbEntity
  8
0
100
AcDbLine
 10
289.8005737042412
 20
431.5655674588978
 30
0.0
 11
289.8005737042412
 21
429.6655674588977
 31
0.0
  0
ARC
  5
6043
330
18
100
AcDbEntity
  8
0
100
AcDbCircle
 10
275.3005737042412
 20
432.1655674588978
 30
0.0
 40
0.6
100
AcDbArc
 50
270.0
 51
90.0
  0
LINE
  5
6044
330
18
100
AcDbEntity
  8
0
100
AcDbLine
 10
275.3005737042412
 20
431.5655674588978
 30
0.0
 11
275.3005737042412
 21
429.6655674588977
 31
0.0
  0
DIMENSION
  5
6265
330
18
100
AcDbEntity
  8
SCALE
100
AcDbDimension
  2
*D36
 10
59.28644915898789
 20
491.5732031187801
 30
0.0
 11
59.28644915898781
 21
384.0732031187802
 31
0.0
 70
   160
  1
(215)
 71
     5
 42
215.0000000000001
 73
     0
 74
     0
 75
     0
  3
STANDARD
100
AcDbAlignedDimension
 13
102.4608951589878
 23
276.5732031187801
 33
0.0
 14
92.33589515898779
 24
491.5732031187801
 34
0.0
 50
90.0
100
AcDbRotatedDimension
1001
ACAD
1000
DSTYLE
1002
{
1070
     3
1000
%%c<>
1070
    41
1040
6.0
1070
    42
1040
1.0
1070
    44
1040
0.0
1070
   140
1040
8.0
1070
   147
1040
3.0
1002
}
  0
LINE
  5
6266
330
18
100
AcDbEntity
  8
BLKDRA
  6
Continuous
100
AcDbLine
 10
134.210897158988
 20
415.0732031187801
 30
0.0
 11
134.210897158988
 21
372.5732031187801
 31
0.0
  0
LINE
  5
6267
330
18
100
AcDbEntity
  8
BLKDRA
  6
Continuous
100
AcDbLine
 10
102.460897158988
 20
415.0732031187801
 30
0.0
 11
102.460897158988
 21
311.0132031187802
 31
0.0
  0
DIMENSION
  5
6268
330
18
100
AcDbEntity
  8
SCALE
100
AcDbDimension
  2
*D35
 10
95.83589715898801
 20
402.2566831187803
 30
0.0
 11
178.2092304923213
 21
402.2566831187803
 31
0.0
 70
   160
  1
六角対辺41
 71
     5
 42
45.0
 73
     0
 74
     0
 75
     0
  3
STANDARD
100
AcDbAlignedDimension
 13
140.835897158988
 23
421.0732011187802
 33
0.0
 14
95.83589715898801
 24
421.0732011187802
 34
0.0
100
AcDbRotatedDimension
1001
ACAD
1000
DSTYLE
1002
{
1070
     3
1000
%%c<>
1070
    41
1040
6.0
1070
    42
1040
1.0
1070
    44
1040
0.0
1070
   140
1040
8.0
1070
   147
1040
3.0
1002
}
  0
DIMENSION
  5
6269
330
18
100
AcDbEntity
  8
SCALE
100
AcDbDimension
  2
*D34
 10
94.33589715898802
 20
425.7398592210086
 30
0.0
 11
179.7092304923213
 21
425.7398592210086
 31
0.0
 70
   160
  1
六角対辺43
 71
     5
 42
48.0
 73
     0
 74
     0
 75
     0
  3
STANDARD
100
AcDbAlignedDimension
 13
142.335897158988
 23
436.5279131187805
 33
0.0
 14
94.33589715898802
 24
436.5279131187805
 34
0.0
100
AcDbRotatedDimension
1001
ACAD
1000
DSTYLE
1002
{
1070
     3
1000
%%c<>
1070
    41
1040
6.0
1070
    42
1040
1.0
1070
    44
1040
0.0
1070
   140
1040
8.0
1070
   147
1040
3.0
1002
}
  0
DIMENSION
  5
626A
330
18
100
AcDbEntity
  8
SCALE
100
AcDbDimension
  2
*D33
 10
172.1823731589878
 20
455.3845391187806
 30
0.0
 11
172.1823731589877
 21
524.2932031187803
 31
0.0
 70
   160
  1
(最小34)
 71
     5
 42
35.18866399999935
 73
     0
 74
     0
 75
     0
  3
STANDARD
100
AcDbAlignedDimension
 13
145.335897158988
 23
490.5732031187802
 33
0.0
 14
137.3358951589878
 24
455.3845391187808
 34
0.0
 50
90.0
100
AcDbRotatedDimension
1001
ACAD
1000
DSTYLE
1002
{
1070
     3
1000
%%c<>
1070
    41
1040
6.0
1070
    42
1040
1.0
1070
    44
1040
0.0
1070
   140
1040
8.0
1070
   147
1040
3.0
1002
}
  0
DIMENSION
  5
626B
330
18
100
AcDbEntity
  8
SCALE
100
AcDbDimension
  2
*D32
 10
145.335897158988
 20
515.7779051187806
 30
0.0
 11
118.335897158988
 21
515.7779051187806
 31
0.0
 70
   160
  1
%%c54
 71
     5
 42
54.0
 73
     0
 74
     0
 75
     0
  3
STANDARD
100
AcDbAlignedDimension
 13
91.33589715898802
 23
490.5732031187802
 33
0.0
 14
145.335897158988
 24
490.5732031187802
 34
0.0
100
AcDbRotatedDimension
1001
ACAD
1000
DSTYLE
1002
{
1070
     3
1000
%%c<>
1070
    41
1040
6.0
1070
    42
1040
1.0
1070
    44
1040
0.0
1070
   140
1040
8.0
1070
   147
1040
3.0
1002
}
  0
LWPOLYLINE
  5
626C
330
18
100
AcDbEntity
  8
BLKDRA
  6
Continuous
100
AcDbPolyline
 90
       73
 70
     1
 43
0.0
 10
136.089419158988
 20
427.0732031187801
 10
135.6852931589881
 20
427.0503711187805
 10
135.2842451589879
 20
426.9820491187803
 10
134.8893231589875
 20
426.8687571187808
 10
134.5035351589879
 20
426.7113591187806
 10
134.1298171589876
 20
426.5110491187803
 10
133.7710131589881
 20
426.2693551187806
 10
133.4298531589877
 20
425.9881151187802
 10
133.1089351589878
 20
425.6694691187801
 10
132.8106991589877
 20
425.3158431187804
 10
132.5374171589876
 20
424.9299291187806
 10
132.2911671589879
 20
424.5146611187803
 10
132.0738231589878
 20
424.0732031187802
 10
131.8870411589876
 20
423.6089111187805
 10
131.732243158988
 20
423.1253231187809
 10
131.6106051589879
 20
422.6261171187805
 10
131.523053158988
 20
422.1150911187808
 10
131.4702531589876
 20
421.5961371187805
 10
131.452609158988
 20
421.0732031187801
 10
131.4702531589876
 20
420.5502671187803
 10
131.523053158988
 20
420.0313131187805
 10
131.6106051589879
 20
419.5202891187807
 10
131.732243158988
 20
419.0210811187805
 10
131.8870411589876
 20
418.5374931187805
 10
132.0738231589878
 20
418.0732031187801
 10
132.2911671589879
 20
417.6317431187806
 10
132.5374171589876
 20
417.2164771187805
 10
132.8106991589877
 20
416.8305611187803
 10
133.1089351589878
 20
416.4769351187803
 10
133.4298531589877
 20
416.1582911187803
 10
133.7710131589881
 20
415.8770491187802
 10
134.1298171589876
 20
415.6353551187804
 10
134.5035351589879
 20
415.4350471187806
 10
134.8893231589875
 20
415.2776471187805
 10
135.2842451589879
 20
415.1643551187805
 10
135.6852931589881
 20
415.0960351187801
 10
136.089419158988
 20
415.0732031187801
 10
136.4935431589881
 20
415.0960351187801
 10
136.8945911589878
 20
415.1643551187805
 10
137.2895131589878
 20
415.2776471187805
 10
137.6753011589878
 20
415.4350471187806
 10
138.0490191589877
 20
415.6353551187804
 10
138.4078231589876
 20
415.8770491187802
 10
138.748983158988
 20
416.1582911187803
 10
139.0699011589879
 20
416.4769351187803
 10
139.3681371589875
 20
416.8305611187803
 10
139.6414191589876
 20
417.2164771187805
 10
139.8876691589878
 20
417.6317431187806
 10
140.1050131589879
 20
418.0732031187801
 10
140.2917951589881
 20
418.5374931187805
 10
140.4465931589882
 20
419.0210811187805
 10
140.5682311589878
 20
419.5202891187807
 10
140.6557831589878
 20
420.0313131187805
 10
140.7085831589877
 20
420.5502671187803
 10
140.7262271589882
 20
421.0732031187801
 10
140.7085831589877
 20
421.5961371187805
 10
140.6557831589878
 20
422.1150911187808
 10
140.5682311589878
 20
422.6261171187805
 10
140.4465931589882
 20
423.1253231187809
 10
140.2917951589881
 20
423.6089111187805
 10
140.1050131589879
 20
424.0732031187802
 10
139.8876691589878
 20
424.5146611187803
 10
139.6414191589876
 20
424.9299291187806
 10
139.3681371589875
 20
425.3158431187804
 10
139.0699011589879
 20
425.6694691187801
 10
138.748983158988
 20
425.9881151187802
 10
138.4078231589876
 20
426.2693551187806
 10
138.0490191589877
 20
426.5110491187803
 10
137.6753011589878
 20
426.7113591187806
 10
137.2895131589878
 20
426.8687571187808
 10
136.8945911589878
 20
426.9820491187803
 10
136.4935431589881
 20
427.0503711187805
 10
136.089419158988
 20
427.0732031187801
  0
ARC
  5
626D
330
18
100
AcDbEntity
  8
BLKDRA
  6
Continuous
100
AcDbCircle
 10
130.835897158988
 20
421.0732031187801
 30
0.0
 40
10.0
100
AcDbArc
 50
323.1301019999967
 51
36.86989800000322
  0
LINE
  5
626E
330
18
100
AcDbEntity
  8
BLKDRA
  6
Continuous
100
AcDbLine
 10
138.835897158988
 20
415.0732031187801
 30
0.0
 11
118.335897158988
 21
415.0732031187801
 31
0.0
  0
LINE
  5
626F
330
18
100
AcDbEntity
  8
BLKDRA
  6
Continuous
100
AcDbLine
 10
138.835897158988
 20
427.0732031187801
 30
0.0
 11
118.335897158988
 21
427.0732031187801
 31
0.0
  0
ARC
  5
6270
330
18
100
AcDbEntity
  8
BLKDRA
  6
Continuous
100
AcDbCircle
 10
105.835897158988
 20
421.0732031187801
 30
0.0
 40
10.0
100
AcDbArc
 50
143.1301019999966
 51
216.8698980000034
  0
LWPOLYLINE
  5
6271
330
18
100
AcDbEntity
  8
BLKDRA
  6
Continuous
100
AcDbPolyline
 90
       73
 70
     1
 43
0.0
 10
100.5823771589878
 20
427.0732031187801
 10
100.1782511589879
 20
427.0503711187805
 10
99.77720315898771
 20
426.9820491187803
 10
99.3822811589878
 20
426.8687571187808
 10
98.99649515898795
 20
426.7113591187806
 10
98.62277715898812
 20
426.5110491187803
 10
98.26397115898794
 20
426.2693551187806
 10
97.922811158988
 20
425.9881151187802
 10
97.60189315898813
 20
425.6694691187801
 10
97.30365715898756
 20
425.3158431187804
 10
97.03037515898792
 20
424.9299291187806
 10
96.78412515898823
 20
424.5146611187803
 10
96.56678115898808
 20
424.0732031187802
 10
96.38000115898762
 20
423.6089111187805
 10
96.22520115898785
 20
423.1253231187809
 10
96.10356315898776
 20
422.6261171187805
 10
96.0160111589878
 20
422.1150911187808
 10
95.96321115898788
 20
421.5961371187805
 10
95.94556715898784
 20
421.0732031187801
 10
95.96321115898788
 20
420.5502671187803
 10
96.0160111589878
 20
420.0313131187805
 10
96.10356315898776
 20
419.5202891187807
 10
96.22520115898785
 20
419.0210811187805
 10
96.38000115898762
 20
418.5374931187805
 10
96.56678115898808
 20
418.0732031187801
 10
96.78412515898823
 20
417.6317431187806
 10
97.03037515898792
 20
417.2164771187805
 10
97.30365715898756
 20
416.8305611187803
 10
97.60189315898813
 20
416.4769351187803
 10
97.922811158988
 20
416.1582911187803
 10
98.26397115898794
 20
415.8770491187802
 10
98.62277715898812
 20
415.6353551187804
 10
98.99649515898795
 20
415.4350471187806
 10
99.3822811589878
 20
415.2776471187805
 10
99.77720315898771
 20
415.1643551187805
 10
100.1782511589879
 20
415.0960351187801
 10
100.5823771589878
 20
415.0732031187801
 10
100.9865011589879
 20
415.0960351187801
 10
101.3875491589876
 20
415.1643551187805
 10
101.7824711589876
 20
415.2776471187805
 10
102.1682591589881
 20
415.4350471187806
 10
102.5419771589879
 20
415.6353551187804
 10
102.9007811589879
 20
415.8770491187802
 10
103.2419411589878
 20
416.1582911187803
 10
103.5628611589879
 20
416.4769351187803
 10
103.8610951589878
 20
416.8305611187803
 10
104.1343791589881
 20
417.2164771187805
 10
104.3806291589878
 20
417.6317431187806
 10
104.5979711589877
 20
418.0732031187801
 10
104.784753158988
 20
418.5374931187805
 10
104.939551158988
 20
419.0210811187805
 10
105.0611911589878
 20
419.5202891187807
 10
105.1487431589878
 20
420.0313131187805
 10
105.2015411589875
 20
420.5502671187803
 10
105.219185158988
 20
421.0732031187801
 10
105.2015411589875
 20
421.5961371187805
 10
105.1487431589878
 20
422.1150911187808
 10
105.0611911589878
 20
422.6261171187805
 10
104.939551158988
 20
423.1253231187809
 10
104.784753158988
 20
423.6089111187805
 10
104.5979711589877
 20
424.0732031187802
 10
104.3806291589878
 20
424.5146611187803
 10
104.1343791589881
 20
424.9299291187806
 10
103.8610951589878
 20
425.3158431187804
 10
103.5628611589879
 20
425.6694691187801
 10
103.2419411589878
 20
425.9881151187802
 10
102.9007811589879
 20
426.2693551187806
 10
102.5419771589879
 20
426.5110491187803
 10
102.1682591589881
 20
426.7113591187806
 10
101.7824711589876
 20
426.8687571187808
 10
101.3875491589876
 20
426.9820491187803
 10
100.9865011589879
 20
427.0503711187805
 10
100.5823771589878
 20
427.0732031187801
  0
LWPOLYLINE
  5
6272
330
18
100
AcDbEntity
  8
BLKDRA
  6
Continuous
100
AcDbPolyline
 90
       73
 70
     1
 43
0.0
 10
127.6095151589877
 20
421.0732031187801
 10
127.5742271589881
 20
421.5961371187805
 10
127.468629158988
 20
422.1150911187808
 10
127.2935251589881
 20
422.6261171187805
 10
127.050249158988
 20
423.1253231187809
 10
126.7406491589879
 20
423.6089111187805
 10
126.3670871589877
 20
424.0732031187802
 10
125.9324011589876
 20
424.5146611187803
 10
125.4399011589878
 20
424.9299291187806
 10
124.8933351589878
 20
425.3158431187804
 10
124.2968651589879
 20
425.6694691187801
 10
123.6550271589879
 20
425.9881151187802
 10
122.9727071589875
 20
426.2693551187806
 10
122.2550971589878
 20
426.5110491187803
 10
121.5076611589882
 20
426.7113591187806
 10
120.7360871589878
 20
426.8687571187808
 10
119.9462451589881
 20
426.9820491187803
 10
119.144147158988
 20
427.0503711187805
 10
118.335897158988
 20
427.0732031187801
 10
117.5276491589877
 20
427.0503711187805
 10
116.7255511589876
 20
426.9820491187803
 10
115.9357091589879
 20
426.8687571187808
 10
115.1641331589878
 20
426.7113591187806
 10
114.4166971589877
 20
426.5110491187803
 10
113.6990871589876
 20
426.2693551187806
 10
113.0167691589879
 20
425.9881151187802
 10
112.3749311589879
 20
425.6694691187801
 10
111.7784591589882
 20
425.3158431187804
 10
111.2318931589882
 20
424.9299291187806
 10
110.7393931589879
 20
424.5146611187803
 10
110.3047091589881
 20
424.0732031187802
 10
109.9311451589881
 20
423.6089111187805
 10
109.6215471589878
 20
423.1253231187809
 10
109.3782691589879
 20
422.6261171187805
 10
109.203165158988
 20
422.1150911187808
 10
109.0975671589879
 20
421.5961371187805
 10
109.0622791589878
 20
421.0732031187801
 10
109.0975671589879
 20
420.5502671187803
 10
109.203165158988
 20
420.0313131187805
 10
109.3782691589879
 20
419.5202891187807
 10
109.6215471589878
 20
419.0210811187805
 10
109.9311451589881
 20
418.5374931187805
 10
110.3047091589881
 20
418.0732031187801
 10
110.7393931589879
 20
417.6317431187806
 10
111.2318931589882
 20
417.2164771187805
 10
111.7784591589882
 20
416.8305611187803
 10
112.3749311589879
 20
416.4769351187803
 10
113.0167691589879
 20
416.1582911187803
 10
113.6990871589876
 20
415.8770491187802
 10
114.4166971589877
 20
415.6353551187804
 10
115.1641331589878
 20
415.4350471187806
 10
115.9357091589879
 20
415.2776471187805
 10
116.7255511589876
 20
415.1643551187805
 10
117.5276491589877
 20
415.0960351187801
 10
118.335897158988
 20
415.0732031187801
 10
119.144147158988
 20
415.0960351187801
 10
119.9462451589881
 20
415.1643551187805
 10
120.7360871589878
 20
415.2776471187805
 10
121.5076611589882
 20
415.4350471187806
 10
122.2550971589878
 20
415.6353551187804
 10
122.9727071589875
 20
415.8770491187802
 10
123.6550271589879
 20
416.1582911187803
 10
124.2968651589879
 20
416.4769351187803
 10
124.8933351589878
 20
416.8305611187803
 10
125.4399011589878
 20
417.2164771187805
 10
125.9324011589876
 20
417.6317431187806
 10
126.3670871589877
 20
418.0732031187801
 10
126.7406491589879
 20
418.5374931187805
 10
127.050249158988
 20
419.0210811187805
 10
127.2935251589881
 20
419.5202891187807
 10
127.468629158988
 20
420.0313131187805
 10
127.5742271589881
 20
420.5502671187803
 10
127.6095151589877
 20
421.0732031187801
  0
LINE
  5
6273
330
18
100
AcDbEntity
  8
BLKDRA
  6
Continuous
100
AcDbLine
 10
97.83589715898802
 20
415.0732031187801
 30
0.0
 11
118.335897158988
 21
415.0732031187801
 31
0.0
  0
LINE
  5
6274
330
18
100
AcDbEntity
  8
BLKDRA
  6
Continuous
100
AcDbLine
 10
97.83589715898802
 20
427.0732031187801
 30
0.0
 11
118.335897158988
 21
427.0732031187801
 31
0.0
  0
ARC
  5
6275
330
18
100
AcDbEntity
  8
BLKDRA
  6
Continuous
100
AcDbCircle
 10
144.335897158988
 20
442.5845391187805
 30
0.0
 40
1.0
100
AcDbArc
 50
270.0
 51
329.9999999999995
  0
LINE
  5
6276
330
18
100
AcDbEntity
  8
BLKDRA
  6
Continuous
100
AcDbLine
 10
142.335897158988
 20
436.5279131187805
 30
0.0
 11
142.335897158988
 21
441.5845391187805
 31
0.0
  0
LINE
  5
6277
330
18
100
AcDbEntity
  8
BLKDRA
  6
Continuous
100
AcDbLine
 10
139.835897158988
 20
435.0845391187806
 30
0.0
 11
142.335897158988
 21
436.5279131187805
 31
0.0
  0
LINE
  5
6278
330
18
100
AcDbEntity
  8
BLKDRA
  6
Continuous
100
AcDbLine
 10
129.001261158988
 20
436.5279131187805
 30
0.0
 11
129.001261158988
 21
441.5845391187805
 31
0.0
  0
LINE
  5
6279
330
18
100
AcDbEntity
  8
BLKDRA
  6
Continuous
100
AcDbLine
 10
131.622761158988
 20
436.5279131187805
 30
0.0
 11
131.622761158988
 21
441.5845391187805
 31
0.0
  0
ARC
  5
627A
330
18
100
AcDbEntity
  8
BLKDRA
  6
Continuous
100
AcDbCircle
 10
136.9793291589878
 20
445.7457111187806
 30
0.0
 40
10.661172
100
AcDbArc
 50
239.8386349999991
 51
300.1613650000009
  0
LINE
  5
627B
330
18
100
AcDbEntity
  8
BLKDRA
  6
Continuous
100
AcDbLine
 10
131.622761158988
 20
436.5279131187805
 30
0.0
 11
129.001261158988
 21
436.5279131187805
 31
0.0
  0
ARC
  5
627C
330
18
100
AcDbEntity
  8
BLKDRA
  6
Continuous
100
AcDbCircle
 10
118.335897158988
 20
475.2103811187804
 30
0.0
 40
40.125844
100
AcDbArc
 50
270.0
 51
285.4143689999976
  0
LINE
  5
627D
330
18
100
AcDbEntity
  8
BLKDRA
  6
Continuous
100
AcDbLine
 10
139.835897158988
 20
435.0845391187806
 30
0.0
 11
118.335897158988
 21
435.0845391187806
 31
0.0
  0
LINE
  5
627E
330
18
100
AcDbEntity
  8
BLKDRA
  6
Continuous
100
AcDbLine
 10
144.335897158988
 20
441.5845391187805
 30
0.0
 11
118.335897158988
 21
441.5845391187805
 31
0.0
  0
LINE
  5
627F
330
18
100
AcDbEntity
  8
BLKDRA
  6
Continuous
100
AcDbLine
 10
105.0490331589878
 20
436.5279131187805
 30
0.0
 11
107.670533158988
 21
436.5279131187805
 31
0.0
  0
ARC
  5
6280
330
18
100
AcDbEntity
  8
BLKDRA
  6
Continuous
100
AcDbCircle
 10
99.69246515898772
 20
445.7457111187806
 30
0.0
 40
10.661172
100
AcDbArc
 50
239.8386349999991
 51
300.1613650000009
  0
ARC
  5
6281
330
18
100
AcDbEntity
  8
BLKDRA
  6
Continuous
100
AcDbCircle
 10
118.335897158988
 20
475.2103811187804
 30
0.0
 40
40.125844
100
AcDbArc
 50
254.5856310000024
 51
270.0
  0
LINE
  5
6282
330
18
100
AcDbEntity
  8
BLKDRA
  6
Continuous
100
AcDbLine
 10
105.0490331589878
 20
436.5279131187805
 30
0.0
 11
105.0490331589878
 21
441.5845391187805
 31
0.0
  0
LINE
  5
6283
330
18
100
AcDbEntity
  8
BLKDRA
  6
Continuous
100
AcDbLine
 10
107.670533158988
 20
436.5279131187805
 30
0.0
 11
107.670533158988
 21
441.5845391187805
 31
0.0
  0
LINE
  5
6284
330
18
100
AcDbEntity
  8
BLKDRA
  6
Continuous
100
AcDbLine
 10
96.83589715898802
 20
435.0845391187806
 30
0.0
 11
94.33589715898802
 21
436.5279131187805
 31
0.0
  0
LINE
  5
6285
330
18
100
AcDbEntity
  8
BLKDRA
  6
Continuous
100
AcDbLine
 10
94.33589715898802
 20
436.5279131187805
 30
0.0
 11
94.33589715898802
 21
441.5845391187805
 31
0.0
  0
ARC
  5
6286
330
18
100
AcDbEntity
  8
BLKDRA
  6
Continuous
100
AcDbCircle
 10
92.335897158988
 20
442.5845391187805
 30
0.0
 40
1.0
100
AcDbArc
 50
210.0000000000005
 51
270.0
  0
LINE
  5
6287
330
18
100
AcDbEntity
  8
BLKDRA
  6
Continuous
100
AcDbLine
 10
96.83589715898802
 20
435.0845391187806
 30
0.0
 11
118.335897158988
 21
435.0845391187806
 31
0.0
  0
LINE
  5
6288
330
18
100
AcDbEntity
  8
BLKDRA
  6
Continuous
100
AcDbLine
 10
92.335897158988
 20
441.5845391187805
 30
0.0
 11
118.335897158988
 21
441.5845391187805
 31
0.0
  0
LINE
  5
6289
330
18
100
AcDbEntity
  8
BLKDRA
  6
Continuous
100
AcDbLine
 10
148.335897158988
 20
447.0845391187806
 30
0.0
 11
148.335897158988
 21
442.0845391187805
 31
0.0
  0
LINE
  5
628A
330
18
100
AcDbEntity
  8
BLKDRA
  6
Continuous
100
AcDbLine
 10
148.335897158988
 20
442.0845391187805
 30
0.0
 11
118.335897158988
 21
442.0845391187805
 31
0.0
  0
LINE
  5
628B
330
18
100
AcDbEntity
  8
BLKDRA
  6
Continuous
100
AcDbLine
 10
148.335897158988
 20
447.0845391187806
 30
0.0
 11
118.335897158988
 21
447.0845391187806
 31
0.0
  0
LINE
  5
628C
330
18
100
AcDbEntity
  8
BLKDRA
  6
Continuous
100
AcDbLine
 10
88.33589715898801
 20
447.0845391187806
 30
0.0
 11
88.33589715898801
 21
442.0845391187805
 31
0.0
  0
LINE
  5
628D
330
18
100
AcDbEntity
  8
BLKDRA
  6
Continuous
100
AcDbLine
 10
88.33589715898801
 20
442.0845391187805
 30
0.0
 11
118.335897158988
 21
442.0845391187805
 31
0.0
  0
LINE
  5
628E
330
18
100
AcDbEntity
  8
BLKDRA
  6
Continuous
100
AcDbLine
 10
88.33589715898801
 20
447.0845391187806
 30
0.0
 11
118.335897158988
 21
447.0845391187806
 31
0.0
  0
LINE
  5
628F
330
18
100
AcDbEntity
  8
BLKDRA
  6
Continuous
100
AcDbLine
 10
137.335897158988
 20
435.0845391187806
 30
0.0
 11
137.335897158988
 21
427.0732031187801
 31
0.0
  0
LINE
  5
6290
330
18
100
AcDbEntity
  8
BLKDRA
  6
Continuous
100
AcDbLine
 10
136.3194211589878
 20
435.0845391187806
 30
0.0
 11
136.3194211589878
 21
427.0732031187801
 31
0.0
  0
LINE
  5
6291
330
18
100
AcDbEntity
  8
BLKDRA
  6
Continuous
100
AcDbLine
 10
100.3523731589878
 20
435.0845391187806
 30
0.0
 11
100.3523731589878
 21
427.0732031187801
 31
0.0
  0
LINE
  5
6292
330
18
100
AcDbEntity
  8
BLKDRA
  6
Continuous
100
AcDbLine
 10
99.33589715898802
 20
435.0845391187806
 30
0.0
 11
99.33589715898802
 21
427.0732031187801
 31
0.0
  0
LINE
  5
6293
330
18
100
AcDbEntity
  8
BLKDRA
  6
Continuous
100
AcDbLine
 10
137.335897158988
 20
455.3845391187808
 30
0.0
 11
145.004375158988
 21
447.0845391187806
 31
0.0
  0
LINE
  5
6294
330
18
100
AcDbEntity
  8
BLKDRA
  6
Continuous
100
AcDbLine
 10
137.335897158988
 20
455.3845391187808
 30
0.0
 11
118.335897158988
 21
455.3845391187808
 31
0.0
  0
LINE
  5
6295
330
18
100
AcDbEntity
  8
BLKDRA
  6
Continuous
100
AcDbLine
 10
99.33589715898802
 20
455.3845391187808
 30
0.0
 11
91.66741915898795
 21
447.0845391187806
 31
0.0
  0
LINE
  5
6296
330
18
100
AcDbEntity
  8
BLKDRA
  6
Continuous
100
AcDbLine
 10
99.33589715898802
 20
455.3845391187808
 30
0.0
 11
118.335897158988
 21
455.3845391187808
 31
0.0
  0
LINE
  5
6297
330
18
100
AcDbEntity
  8
BLKDRA
  6
Continuous
100
AcDbLine
 10
143.335897158988
 20
487.5857811187803
 30
0.0
 11
143.335897158988
 21
482.0857811187805
 31
0.0
  0
LINE
  5
6298
330
18
100
AcDbEntity
  8
BLKDRA
  6
Continuous
100
AcDbLine
 10
143.335897158988
 20
482.0857811187805
 30
0.0
 11
118.335897158988
 21
482.0857811187805
 31
0.0
  0
LINE
  5
6299
330
18
100
AcDbEntity
  8
BLKDRA
  6
Continuous
100
AcDbLine
 10
143.335897158988
 20
487.5857811187803
 30
0.0
 11
118.335897158988
 21
487.5857811187803
 31
0.0
  0
LINE
  5
629A
330
18
100
AcDbEntity
  8
BLKDRA
  6
Continuous
100
AcDbLine
 10
93.33589715898801
 20
487.5857811187803
 30
0.0
 11
93.33589715898801
 21
482.0857811187805
 31
0.0
  0
LINE
  5
629B
330
18
100
AcDbEntity
  8
BLKDRA
  6
Continuous
100
AcDbLine
 10
93.33589715898801
 20
482.0857811187805
 30
0.0
 11
118.335897158988
 21
482.0857811187805
 31
0.0
  0
LINE
  5
629C
330
18
100
AcDbEntity
  8
BLKDRA
  6
Continuous
100
AcDbLine
 10
93.33589715898801
 20
487.5857811187803
 30
0.0
 11
118.335897158988
 21
487.5857811187803
 31
0.0
  0
ARC
  5
629D
330
18
100
AcDbEntity
  8
BLKDRA
  6
Continuous
100
AcDbCircle
 10
144.335897158988
 20
490.5732031187802
 30
0.0
 40
1.0
100
AcDbArc
 50
0.0
 51
90.0
  0
LINE
  5
629E
330
18
100
AcDbEntity
  8
BLKDRA
  6
Continuous
100
AcDbLine
 10
145.335897158988
 20
490.5732031187802
 30
0.0
 11
143.9354831589878
 21
488.5732031187801
 31
0.0
  0
LINE
  5
629F
330
18
100
AcDbEntity
  8
BLKDRA
  6
Continuous
100
AcDbLine
 10
135.835897158988
 20
481.3732031187803
 30
0.0
 11
135.835897158988
 21
458.0732031187801
 31
0.0
  0
LINE
  5
62A0
330
18
100
AcDbEntity
  8
BLKDRA
  6
Continuous
100
AcDbLine
 10
135.835897158988
 20
481.3732031187803
 30
0.0
 11
135.9843511589877
 21
482.0857811187805
 31
0.0
  0
ARC
  5
62A1
330
18
100
AcDbEntity
  8
BLKDRA
  6
Continuous
100
AcDbCircle
 10
138.5556031589878
 20
487.0732031187801
 30
0.0
 40
1.5
100
AcDbArc
 50
90.0
 51
160.0183419999932
  0
LINE
  5
62A2
330
18
100
AcDbEntity
  8
BLKDRA
  6
Continuous
100
AcDbLine
 10
129.835897158988
 20
474.0732031187802
 30
0.0
 11
129.835897158988
 21
459.0732031187801
 31
0.0
  0
ARC
  5
62A3
330
18
100
AcDbEntity
  8
BLKDRA
  6
Continuous
100
AcDbCircle
 10
127.335897158988
 20
474.0732031187802
 30
0.0
 40
2.5
100
AcDbArc
 50
0.0
 51
90.0
  0
ARC
  5
62A4
330
18
100
AcDbEntity
  8
BLKDRA
  6
Continuous
100
AcDbCircle
 10
127.335897158988
 20
459.0732031187801
 30
0.0
 40
2.5
100
AcDbArc
 50
270.0
 51
0.0
  0
LINE
  5
62A5
330
18
100
AcDbEntity
  8
BLKDRA
  6
Continuous
100
AcDbLine
 10
137.335897158988
 20
456.5732031187801
 30
0.0
 11
137.335897158988
 21
455.3845391187808
 31
0.0
  0
LINE
  5
62A6
330
18
100
AcDbEntity
  8
BLKDRA
  6
Continuous
100
AcDbLine
 10
136.3194211589878
 20
456.9701271187806
 30
0.0
 11
136.3194211589878
 21
455.3845391187808
 31
0.0
  0
ARC
  5
62A7
330
18
100
AcDbEntity
  8
BLKDRA
  6
Continuous
100
AcDbCircle
 10
137.335897158988
 20
458.0732031187801
 30
0.0
 40
1.5
100
AcDbArc
 50
180.0
 51
270.0
  0
LINE
  5
62A8
330
18
100
AcDbEntity
  8
BLKDRA
  6
Continuous
100
AcDbLine
 10
137.335897158988
 20
456.5732031187801
 30
0.0
 11
118.335897158988
 21
456.5732031187801
 31
0.0
  0
LINE
  5
62A9
330
18
100
AcDbEntity
  8
BLKDRA
  6
Continuous
100
AcDbLine
 10
127.335897158988
 20
476.5732031187801
 30
0.0
 11
118.335897158988
 21
476.5732031187801
 31
0.0
  0
LINE
  5
62AA
330
18
100
AcDbEntity
  8
BLKDRA
  6
Continuous
100
AcDbLine
 10
135.835897158988
 20
481.3732031187803
 30
0.0
 11
118.335897158988
 21
481.3732031187803
 31
0.0
  0
LINE
  5
62AB
330
18
100
AcDbEntity
  8
BLKDRA
  6
Continuous
100
AcDbLine
 10
143.9354831589878
 20
488.5732031187801
 30
0.0
 11
118.335897158988
 21
488.5732031187801
 31
0.0
  0
LINE
  5
62AC
330
18
100
AcDbEntity
  8
BLKDRA
  6
Continuous
100
AcDbLine
 10
145.335897158988
 20
490.5732031187802
 30
0.0
 11
118.335897158988
 21
490.5732031187802
 31
0.0
  0
LINE
  5
62AD
330
18
100
AcDbEntity
  8
BLKDRA
  6
Continuous
100
AcDbLine
 10
144.335897158988
 20
491.5732031187801
 30
0.0
 11
118.335897158988
 21
491.5732031187801
 31
0.0
  0
ARC
  5
62AE
330
18
100
AcDbEntity
  8
BLKDRA
  6
Continuous
100
AcDbCircle
 10
99.33589715898802
 20
458.0732031187801
 30
0.0
 40
1.5
100
AcDbArc
 50
270.0
 51
0.0
  0
LINE
  5
62AF
330
18
100
AcDbEntity
  8
BLKDRA
  6
Continuous
100
AcDbLine
 10
100.3523731589878
 20
456.9701271187806
 30
0.0
 11
100.3523731589878
 21
455.3845391187808
 31
0.0
  0
LINE
  5
62B0
330
18
100
AcDbEntity
  8
BLKDRA
  6
Continuous
100
AcDbLine
 10
99.33589715898802
 20
456.5732031187801
 30
0.0
 11
99.33589715898802
 21
455.3845391187808
 31
0.0
  0
ARC
  5
62B1
330
18
100
AcDbEntity
  8
BLKDRA
  6
Continuous
100
AcDbCircle
 10
109.335897158988
 20
459.0732031187801
 30
0.0
 40
2.5
100
AcDbArc
 50
180.0
 51
270.0
  0
ARC
  5
62B2
330
18
100
AcDbEntity
  8
BLKDRA
  6
Continuous
100
AcDbCircle
 10
109.335897158988
 20
474.0732031187802
 30
0.0
 40
2.5
100
AcDbArc
 50
90.0
 51
180.0
  0
LINE
  5
62B3
330
18
100
AcDbEntity
  8
BLKDRA
  6
Continuous
100
AcDbLine
 10
99.33589715898802
 20
456.5732031187801
 30
0.0
 11
118.335897158988
 21
456.5732031187801
 31
0.0
  0
LINE
  5
62B4
330
18
100
AcDbEntity
  8
BLKDRA
  6
Continuous
100
AcDbLine
 10
109.335897158988
 20
476.5732031187801
 30
0.0
 11
118.335897158988
 21
476.5732031187801
 31
0.0
  0
LINE
  5
62B5
330
18
100
AcDbEntity
  8
BLKDRA
  6
Continuous
100
AcDbLine
 10
106.835897158988
 20
474.0732031187802
 30
0.0
 11
106.835897158988
 21
459.0732031187801
 31
0.0
  0
ARC
  5
62B6
330
18
100
AcDbEntity
  8
BLKDRA
  6
Continuous
100
AcDbCircle
 10
98.11619115898771
 20
487.0732031187801
 30
0.0
 40
1.5
100
AcDbArc
 50
19.98165800000679
 51
90.0
  0
LINE
  5
62B7
330
18
100
AcDbEntity
  8
BLKDRA
  6
Continuous
100
AcDbLine
 10
100.835897158988
 20
481.3732031187803
 30
0.0
 11
100.6874431589879
 21
482.0857811187805
 31
0.0
  0
LINE
  5
62B8
330
18
100
AcDbEntity
  8
BLKDRA
  6
Continuous
100
AcDbLine
 10
100.835897158988
 20
481.3732031187803
 30
0.0
 11
100.835897158988
 21
458.0732031187801
 31
0.0
  0
LINE
  5
62B9
330
18
100
AcDbEntity
  8
BLKDRA
  6
Continuous
100
AcDbLine
 10
100.835897158988
 20
481.3732031187803
 30
0.0
 11
118.335897158988
 21
481.3732031187803
 31
0.0
  0
LINE
  5
62BA
330
18
100
AcDbEntity
  8
BLKDRA
  6
Continuous
100
AcDbLine
 10
91.33589715898802
 20
490.5732031187802
 30
0.0
 11
92.73631315898795
 21
488.5732031187801
 31
0.0
  0
LINE
  5
62BB
330
18
100
AcDbEntity
  8
BLKDRA
  6
Continuous
100
AcDbLine
 10
92.73631315898795
 20
488.5732031187801
 30
0.0
 11
118.335897158988
 21
488.5732031187801
 31
0.0
  0
ARC
  5
62BC
330
18
100
AcDbEntity
  8
BLKDRA
  6
Continuous
100
AcDbCircle
 10
92.335897158988
 20
490.5732031187802
 30
0.0
 40
1.0
100
AcDbArc
 50
90.0
 51
180.0
  0
LINE
  5
62BD
330
18
100
AcDbEntity
  8
BLKDRA
  6
Continuous
100
AcDbLine
 10
91.33589715898802
 20
490.5732031187802
 30
0.0
 11
118.335897158988
 21
490.5732031187802
 31
0.0
  0
LINE
  5
62BE
330
18
100
AcDbEntity
  8
BLKDRA
  6
Continuous
100
AcDbLine
 10
92.335897158988
 20
491.5732031187801
 30
0.0
 11
118.335897158988
 21
491.5732031187801
 31
0.0
  0
LINE
  5
62BF
330
18
100
AcDbEntity
  8
BLKDRA
  6
Continuous
100
AcDbLine
 10
114.0559551589879
 20
476.5732031187801
 30
0.0
 11
113.9443691589879
 21
456.5732031187801
 31
0.0
  0
LINE
  5
62C0
330
18
100
AcDbEntity
  8
BLKDRA
  6
Continuous
100
AcDbLine
 10
117.5229391589876
 20
476.5732031187801
 30
0.0
 11
117.299615158988
 21
456.5732031187801
 31
0.0
  0
LWPOLYLINE
  5
62C1
330
18
100
AcDbEntity
  8
BLKDRA
  6
Continuous
100
AcDbPolyline
 90
        5
 70
     0
 43
0.0
 10
118.335897158988
 20
493.2240931187805
 10
114.1449391589879
 20
493.1400331187803
 10
109.9116051589879
 20
492.8857851187806
 10
105.6782711589878
 20
492.4200091187805
 10
101.5293431589878
 20
491.7847331187807
  0
LINE
  5
62C2
330
18
100
AcDbEntity
  8
BLKDRA
  6
Continuous
100
AcDbLine
 10
118.335897158988
 20
491.6159251187806
 30
0.0
 11
101.2120511589876
 21
491.6159251187806
 31
0.0
  0
LINE
  5
62C3
330
18
100
AcDbEntity
  8
BLKDRA
  6
Continuous
100
AcDbLine
 10
101.5293431589878
 20
491.7847331187807
 30
0.0
 11
101.4023911589877
 21
491.7427031187806
 31
0.0
  0
LINE
  5
62C4
330
18
100
AcDbEntity
  8
BLKDRA
  6
Continuous
100
AcDbLine
 10
101.4023911589877
 20
491.7427031187806
 30
0.0
 11
101.2754391589876
 21
491.7006731187805
 31
0.0
  0
LINE
  5
62C5
330
18
100
AcDbEntity
  8
BLKDRA
  6
Continuous
100
AcDbLine
 10
101.2754391589876
 20
491.7006731187805
 30
0.0
 11
101.180097158988
 21
491.5732031187801
 31
0.0
  0
LWPOLYLINE
  5
62C6
330
18
100
AcDbEntity
  8
BLKDRA
  6
Continuous
100
AcDbPolyline
 90
        5
 70
     0
 43
0.0
 10
118.335897158988
 20
493.2240931187805
 10
122.5268551589877
 20
493.1400331187803
 10
126.7601891589877
 20
492.8857851187806
 10
130.9935231589877
 20
492.4200091187805
 10
135.1424511589878
 20
491.7847331187807
  0
LINE
  5
62C7
330
18
100
AcDbEntity
  8
BLKDRA
  6
Continuous
100
AcDbLine
 10
135.2694031589878
 20
491.7427031187806
 30
0.0
 11
135.3963551589879
 21
491.7006731187805
 31
0.0
  0
LINE
  5
62C8
330
18
100
AcDbEntity
  8
BLKDRA
  6
Continuous
100
AcDbLine
 10
135.1424511589878
 20
491.7847331187807
 30
0.0
 11
135.2694031589878
 21
491.7427031187806
 31
0.0
  0
LINE
  5
62C9
330
18
100
AcDbEntity
  8
BLKDRA
  6
Continuous
100
AcDbLine
 10
118.335897158988
 20
491.6159251187806
 30
0.0
 11
135.459743158988
 21
491.6159251187806
 31
0.0
  0
LINE
  5
62CA
330
18
100
AcDbEntity
  8
BLKDRA
  6
Continuous
100
AcDbLine
 10
135.3963551589879
 20
491.7006731187805
 30
0.0
 11
135.491697158988
 21
491.5732031187801
 31
0.0
  0
LINE
  5
62CB
330
18
100
AcDbEntity
  8
BLKDRA
  6
Continuous
100
AcDbLine
 10
122.6158391589877
 20
476.5732031187801
 30
0.0
 11
122.7274251589881
 21
456.5732031187801
 31
0.0
  0
LINE
  5
62CC
330
18
100
AcDbEntity
  8
BLKDRA
  6
Continuous
100
AcDbLine
 10
119.1488571589877
 20
476.5732031187801
 30
0.0
 11
119.372179158988
 21
456.5732031187801
 31
0.0
  0
LINE
  5
62CD
330
18
100
AcDbEntity
  8
BLKDRA
  6
Continuous
100
AcDbLine
 10
134.210897158988
 20
372.5732031187801
 30
0.0
 11
134.210897158988
 21
311.0132031187802
 31
0.0
  0
DIMENSION
  5
62CF
330
18
100
AcDbEntity
  8
SCALE
100
AcDbDimension
  2
*D31
 10
180.3415235282521
 20
276.5757031187805
 30
0.0
 11
173.3415235282521
 21
324.5757031187806
 31
0.0
 70
    32
  1
（<>）
 71
     5
 42
96.0
 73
     0
 74
     0
 75
     0
  3
STANDARD
100
AcDbAlignedDimension
 13
179.8658346418983
 23
372.5757031187805
 33
0.0
 14
134.2111050510602
 24
276.5757031187805
 34
0.0
 50
90.0
100
AcDbRotatedDimension
1001
ACAD
1000
DSTYLE
1002
{
1070
    41
1040
6.0
1070
    42
1040
1.0
1070
    44
1040
0.0
1070
   140
1040
8.0
1070
   147
1040
3.0
1002
}
  0
LINE
  5
635C
330
18
100
AcDbEntity
  8
CENTER
 62
     0
100
AcDbLine
 10
118.3361050510606
 20
505.6454871187812
 30
0.0
 11
118.3361050510606
 21
212.9757031187803
 31
0.0
  0
DIMENSION
  5
64A5
330
18
100
AcDbEntity
  8
SCALE
100
AcDbDimension
  2
*D37
 10
157.7763142896561
 20
276.5757031187805
 30
0.0
 11
151.7763142896561
 21
293.7944531187803
 31
0.0
 70
    32
  1
15～50
 71
     5
 42
34.43749999999972
 73
     0
 74
     0
 75
     0
  3
STANDARD
100
AcDbAlignedDimension
 13
134.2111050510606
 23
311.0132031187802
 33
0.0
 14
134.2111050510606
 24
276.5757031187805
 34
0.0
 50
90.0
100
AcDbRotatedDimension
1001
ACAD
1000
DSTYLE
1002
{
1070
    40
1040
2.0
1002
}
  0
VIEWPORT
  5
19BD
330
15
100
AcDbEntity
 67
     1
  8
0
100
AcDbViewport
 10
133.3499908447265
 20
101.5999970436096
 30
0.0
 40
370.1484805183667
 41
228.4221935424805
 68
     1
 69
     1
 12
133.3499908447265
 22
101.5999970436096
 13
0.0
 23
0.0
 14
10.0
 24
10.0
 15
10.0
 25
10.0
 16
0.0
 26
0.0
 36
1.0
 17
0.0
 27
0.0
 37
0.0
 42
50.0
 43
0.0
 44
0.0
 45
228.4221935424805
 50
0.0
 51
0.0
 72
  1000
 90
    32800
  1

281
     0
 71
     1
 74
     0
110
0.0
120
0.0
130
0.0
111
1.0
121
0.0
131
0.0
112
0.0
122
1.0
132
0.0
 79
     0
146
0.0
170
     0
 61
     5
348
6473
292
     1
282
     1
141
0.0
142
0.0
 63
   250
421
  3355443
  0
VIEWPORT
  5
19BF
330
15
100
AcDbEntity
 67
     1
  8
0
100
AcDbViewport
 10
133.3499939441681
 20
101.5999939441681
 30
0.0
 40
213.3599903106689
 41
162.5599903106689
 68
     2
 69
     2
 12
210.0
 22
297.0
 13
0.0
 23
0.0
 14
1.0
 24
1.0
 15
0.0
 25
0.0
 16
0.0
 26
0.0
 36
1.0
 17
0.0
 27
0.0
 37
0.0
 42
50.0
 43
0.0
 44
0.0
 45
600.75
 50
0.0
 51
0.0
 72
  1000
 90
    34848
  1

281
     0
 71
     1
 74
     0
110
0.0
120
0.0
130
0.0
111
1.0
121
0.0
131
0.0
112
0.0
122
1.0
132
0.0
 79
     0
146
0.0
170
     2
 61
     5
348
6473
292
     1
282
     1
141
0.0
142
0.0
 63
   250
421
  3355443
  0
ENDSEC
  0
SECTION
  2
OBJECTS
  0
DICTIONARY
  5
C
330
0
100
AcDbDictionary
281
     1
  3
ACAD_COLOR
350
29
  3
ACAD_GROUP
350
D
  3
ACAD_LAYOUT
350
2A
  3
ACAD_MATERIAL
350
28
  3
ACAD_MLEADERSTYLE
350
649A
  3
ACAD_MLINESTYLE
350
E
  3
ACAD_PLOTSETTINGS
350
2B
  3
ACAD_PLOTSTYLENAME
350
26
  3
ACAD_SCALELIST
350
6488
  3
ACAD_TABLESTYLE
350
6486
  3
ACAD_VISUALSTYLE
350
646D
  3
AcadDim
350
6D
  3
ACDB_RECOMPOSE_DATA
350
67C8
  3
AcDbVariableDictionary
350
170D
  0
DICTIONARY
  5
B1D
330
2
100
AcDbDictionary
280
     1
281
     1
  3
ACAD_LAYERFILTERS
360
1757
  3
ACAD_LAYERSTATES
360
B1E
  0
DICTIONARY
  5
64BB
330
F
100
AcDbDictionary
280
     1
281
     1
  3
ADSK_XREC_LAYER_RECONCILED
360
64BC
  0
DICTIONARY
  5
64BD
330
7F9
100
AcDbDictionary
280
     1
281
     1
  3
ADSK_XREC_LAYER_RECONCILED
360
64BE
  0
DICTIONARY
  5
64BF
330
7FB
100
AcDbDictionary
280
     1
281
     1
  3
ADSK_XREC_LAYER_RECONCILED
360
64C0
  0
DICTIONARY
  5
64C1
330
7FC
100
AcDbDictionary
280
     1
281
     1
  3
ADSK_XREC_LAYER_RECONCILED
360
64C2
  0
DICTIONARY
  5
64C3
330
7FD
100
AcDbDictionary
280
     1
281
     1
  3
ADSK_XREC_LAYER_RECONCILED
360
64C4
  0
DICTIONARY
  5
64C5
330
7FF
100
AcDbDictionary
280
     1
281
     1
  3
ADSK_XREC_LAYER_RECONCILED
360
64C6
  0
DICTIONARY
  5
64C7
330
800
100
AcDbDictionary
280
     1
281
     1
  3
ADSK_XREC_LAYER_RECONCILED
360
64C8
  0
DICTIONARY
  5
64C9
330
801
100
AcDbDictionary
280
     1
281
     1
  3
ADSK_XREC_LAYER_RECONCILED
360
64CA
  0
DICTIONARY
  5
64CB
330
802
100
AcDbDictionary
280
     1
281
     1
  3
ADSK_XREC_LAYER_RECONCILED
360
64CC
  0
DICTIONARY
  5
64CD
330
803
100
AcDbDictionary
280
     1
281
     1
  3
ADSK_XREC_LAYER_RECONCILED
360
64CE
  0
DICTIONARY
  5
64CF
330
804
100
AcDbDictionary
280
     1
281
     1
  3
ADSK_XREC_LAYER_RECONCILED
360
64D0
  0
DICTIONARY
  5
64D1
330
B1B
100
AcDbDictionary
280
     1
281
     1
  3
ADSK_XREC_LAYER_RECONCILED
360
64D2
  0
DICTIONARY
  5
64D3
330
DD8
100
AcDbDictionary
280
     1
281
     1
  3
ADSK_XREC_LAYER_RECONCILED
360
64D4
  0
DICTIONARY
  5
64D5
330
1758
100
AcDbDictionary
280
     1
281
     1
  3
ADSK_XREC_LAYER_RECONCILED
360
64D6
  0
DICTIONARY
  5
64D7
330
1A51
100
AcDbDictionary
280
     1
281
     1
  3
ADSK_XREC_LAYER_RECONCILED
360
64D8
  0
DICTIONARY
  5
66E2
330
AF2
100
AcDbDictionary
280
     1
281
     1
  0
DICTIONARY
  5
29
102
{ACAD_REACTORS
330
C
102
}
330
C
100
AcDbDictionary
281
     1
  0
DICTIONARY
  5
D
102
{ACAD_REACTORS
330
C
102
}
330
C
100
AcDbDictionary
281
     1
  0
DICTIONARY
  5
2A
102
{ACAD_REACTORS
330
C
102
}
330
C
100
AcDbDictionary
281
     1
  3
Model
350
2C
  3
レイアウト1
350
2D
  0
DICTIONARY
  5
28
102
{ACAD_REACTORS
330
C
102
}
330
C
100
AcDbDictionary
281
     1
  3
ByBlock
350
645D
  3
ByLayer
350
6455
  3
Global
350
6465
  0
DICTIONARY
  5
649A
102
{ACAD_REACTORS
330
C
102
}
330
C
100
AcDbDictionary
281
     1
  3
Standard
350
649B
  0
DICTIONARY
  5
E
102
{ACAD_REACTORS
330
C
102
}
330
C
100
AcDbDictionary
281
     1
  3
STANDARD
350
1B
  0
DICTIONARY
  5
2B
102
{ACAD_REACTORS
330
C
102
}
330
C
100
AcDbDictionary
281
     1
  0
ACDBDICTIONARYWDFLT
  5
26
102
{ACAD_REACTORS
330
C
102
}
330
C
100
AcDbDictionary
281
     1
  3
Normal
350
27
100
AcDbDictionaryWithDefault
340
27
  0
DICTIONARY
  5
6488
102
{ACAD_REACTORS
330
C
102
}
330
C
100
AcDbDictionary
281
     1
  3
A0
350
6489
  3
A1
350
648A
  3
A2
350
648B
  3
A3
350
648C
  3
A4
350
648D
  3
A5
350
648E
  3
A6
350
648F
  3
A7
350
6490
  3
A8
350
6491
  3
A9
350
6492
  3
B0
350
6493
  3
B1
350
6494
  3
B2
350
6495
  3
B3
350
6496
  3
B4
350
6497
  3
B5
350
6498
  3
B6
350
6499
  0
DICTIONARY
  5
6486
102
{ACAD_REACTORS
330
C
102
}
330
C
100
AcDbDictionary
281
     1
  3
Standard
350
6487
  0
DICTIONARY
  5
646D
102
{ACAD_REACTORS
330
C
102
}
330
C
100
AcDbDictionary
281
     1
  3
2dWireframe
350
6473
  3
Basic
350
6472
  3
Brighten
350
6479
  3
ColorChange
350
647D
  3
Conceptual
350
6476
  3
Dim
350
6478
  3
EdgeColorOff
350
6485
  3
Facepattern
350
647C
  3
Flat
350
646E
  3
FlatWithEdges
350
646F
  3
Gouraud
350
6470
  3
GouraudWithEdges
350
6471
  3
Hidden
350
6475
  3
JitterOff
350
6483
  3
Linepattern
350
647B
  3
OverhangOff
350
6484
  3
Realistic
350
6477
  3
Shaded
350
6482
  3
Shaded with edges
350
6481
  3
Shades of Gray
350
647E
  3
Sketchy
350
647F
  3
Thicken
350
647A
  3
Wireframe
350
6474
  3
X-Ray
350
6480
  0
XRECORD
  5
6D
102
{ACAD_REACTORS
330
C
102
}
330
C
100
AcDbXrecord
280
     1
 90
   990106
  3
YAZ1
 60
     0
 61
     0
 62
     4
 63
     4
 64
     1
 65
     0
 66
     0
 67
     3
 68
     1
 69
     0
 70
     0
 71
     0
 72
     0
 40
0.0
170
     2
  0
XRECORD
  5
67C8
102
{ACAD_REACTORS
330
C
102
}
330
C
100
AcDbXrecord
280
     1
 90
        1
330
6487
  0
DICTIONARY
  5
170D
102
{ACAD_REACTORS
330
C
102
}
330
C
100
AcDbDictionary
281
     1
  3
CANNOSCALE
350
64E9
  3
CMLEADERSTYLE
350
64E7
  3
CTABLESTYLE
350
64E6
  3
DIMASSOC
350
170E
  3
LAYEREVAL
350
64EB
  3
LAYERNOTIFY
350
64EC
  3
LIGHTINGUNITS
350
64EA
  3
MSLTSCALE
350
64E8
  3
PROJECTNAME
350
170F
  0
DICTIONARY
  5
1757
102
{ACAD_REACTORS
330
B1D
102
}
330
B1D
100
AcDbDictionary
281
     1
  0
DICTIONARY
  5
B1E
102
{ACAD_REACTORS
330
B1D
102
}
330
B1D
100
AcDbDictionary
281
     1
  0
XRECORD
  5
64BC
102
{ACAD_REACTORS
330
64BB
102
}
330
64BB
100
AcDbXrecord
280
     1
290
     1
  0
XRECORD
  5
64BE
102
{ACAD_REACTORS
330
64BD
102
}
330
64BD
100
AcDbXrecord
280
     1
290
     1
  0
XRECORD
  5
64C0
102
{ACAD_REACTORS
330
64BF
102
}
330
64BF
100
AcDbXrecord
280
     1
290
     1
  0
XRECORD
  5
64C2
102
{ACAD_REACTORS
330
64C1
102
}
330
64C1
100
AcDbXrecord
280
     1
290
     1
  0
XRECORD
  5
64C4
102
{ACAD_REACTORS
330
64C3
102
}
330
64C3
100
AcDbXrecord
280
     1
290
     1
  0
XRECORD
  5
64C6
102
{ACAD_REACTORS
330
64C5
102
}
330
64C5
100
AcDbXrecord
280
     1
290
     1
  0
XRECORD
  5
64C8
102
{ACAD_REACTORS
330
64C7
102
}
330
64C7
100
AcDbXrecord
280
     1
290
     1
  0
XRECORD
  5
64CA
102
{ACAD_REACTORS
330
64C9
102
}
330
64C9
100
AcDbXrecord
280
     1
290
     1
  0
XRECORD
  5
64CC
102
{ACAD_REACTORS
330
64CB
102
}
330
64CB
100
AcDbXrecord
280
     1
290
     1
  0
XRECORD
  5
64CE
102
{ACAD_REACTORS
330
64CD
102
}
330
64CD
100
AcDbXrecord
280
     1
290
     1
  0
XRECORD
  5
64D0
102
{ACAD_REACTORS
330
64CF
102
}
330
64CF
100
AcDbXrecord
280
     1
290
     1
  0
XRECORD
  5
64D2
102
{ACAD_REACTORS
330
64D1
102
}
330
64D1
100
AcDbXrecord
280
     1
290
     1
  0
XRECORD
  5
64D4
102
{ACAD_REACTORS
330
64D3
102
}
330
64D3
100
AcDbXrecord
280
     1
290
     1
  0
XRECORD
  5
64D6
102
{ACAD_REACTORS
330
64D5
102
}
330
64D5
100
AcDbXrecord
280
     1
290
     1
  0
XRECORD
  5
64D8
102
{ACAD_REACTORS
330
64D7
102
}
330
64D7
100
AcDbXrecord
280
     1
290
     1
  0
LAYOUT
  5
2C
102
{ACAD_XDICTIONARY
360
64E4
102
}
102
{ACAD_REACTORS
330
2A
102
}
330
2A
100
AcDbPlotSettings
  1

  2
none_device
  4
Letter_(8.50_x_11.00_Inches)
  6

 40
6.349999904632567
 41
6.349999904632567
 42
6.350006103515625
 43
6.350006103515625
 44
215.8999938964844
 45
279.3999938964844
 46
0.0
 47
0.0
 48
0.0
 49
0.0
140
0.0
141
0.0
142
1.0
143
1.0
 70
 11952
 72
     1
 73
     1
 74
     0
  7
R16.ctb
 75
     0
147
1.0
 76
     0
 77
     2
 78
   300
148
88.81651552303649
149
1.816481504355691
100
AcDbLayout
  1
Model
 70
     1
 71
     0
 10
0.0
 20
0.0
 11
12.0
 21
9.0
 12
0.0
 22
0.0
 32
0.0
 14
0.0
 24
0.0
 34
0.0
 15
0.0
 25
0.0
 35
0.0
146
0.0
 13
0.0
 23
0.0
 33
0.0
 16
1.0
 26
0.0
 36
0.0
 17
0.0
 27
1.0
 37
0.0
 76
     0
330
18
331
6453
  0
LAYOUT
  5
2D
102
{ACAD_REACTORS
330
2A
102
}
330
2A
100
AcDbPlotSettings
  1

  2
none_device
  4
Letter_(8.50_x_11.00_Inches)
  6

 40
6.349999904632567
 41
6.349999904632567
 42
6.350006103515625
 43
6.350006103515625
 44
215.8999938964844
 45
279.3999938964844
 46
0.0
 47
0.0
 48
0.0
 49
0.0
140
0.0
141
0.0
142
1.0
143
1.0
 70
   688
 72
     1
 73
     1
 74
     5
  7
R16.ctb
 75
    16
147
1.0
 76
     1
 77
     2
 78
   300
148
0.0
149
0.0
100
AcDbLayout
  1
レイアウト1
 70
     1
 71
     1
 10
-6.350006103515625
 20
-6.349999904632567
 11
273.0499877929688
 21
209.5499939918518
 12
0.0
 22
0.0
 32
0.0
 14
26.66999878883363
 24
20.31999878883363
 34
0.0
 15
240.0299890995026
 25
182.8799890995025
 35
0.0
146
0.0
 13
0.0
 23
0.0
 33
0.0
 16
1.0
 26
0.0
 36
0.0
 17
0.0
 27
1.0
 37
0.0
 76
     0
330
15
331
19BD
  0
MATERIAL
  5
645D
102
{ACAD_XDICTIONARY
360
645E
102
}
102
{ACAD_REACTORS
330
28
102
}
330
28
100
AcDbMaterial
  1
ByBlock
 72
     0
 43
0.0208333333333333
 43
0.0
 43
0.0
 43
0.0
 43
0.0
 43
0.0208333333333333
 43
0.0
 43
0.0
 43
0.0
 43
0.0
 43
1.0
 43
0.0
 43
0.0
 43
0.0
 43
0.0
 43
1.0
 77
     0
 47
0.0208333333333333
 47
0.0
 47
0.0
 47
0.0
 47
0.0
 47
0.0208333333333333
 47
0.0
 47
0.0
 47
0.0
 47
0.0
 47
1.0
 47
0.0
 47
0.0
 47
0.0
 47
0.0
 47
1.0
171
     0
 49
0.0208333333333333
 49
0.0
 49
0.0
 49
0.0
 49
0.0
 49
0.0208333333333333
 49
0.0
 49
0.0
 49
0.0
 49
0.0
 49
1.0
 49
0.0
 49
0.0
 49
0.0
 49
0.0
 49
1.0
175
     0
142
0.0208333333333333
142
0.0
142
0.0
142
0.0
142
0.0
142
0.0208333333333333
142
0.0
142
0.0
142
0.0
142
0.0
142
1.0
142
0.0
142
0.0
142
0.0
142
0.0
142
1.0
179
     0
144
0.0208333333333333
144
0.0
144
0.0
144
0.0
144
0.0
144
0.0208333333333333
144
0.0
144
0.0
144
0.0
144
0.0
144
1.0
144
0.0
144
0.0
144
0.0
144
0.0
144
1.0
147
0.0208333333333333
147
0.0
147
0.0
147
0.0
147
0.0
147
0.0208333333333333
147
0.0
147
0.0
147
0.0
147
0.0
147
1.0
147
0.0
147
0.0
147
0.0
147
0.0
147
1.0
  0
MATERIAL
  5
6455
102
{ACAD_XDICTIONARY
360
6456
102
}
102
{ACAD_REACTORS
330
28
102
}
330
28
100
AcDbMaterial
  1
ByLayer
 72
     0
 43
0.0208333333333333
 43
0.0
 43
0.0
 43
0.0
 43
0.0
 43
0.0208333333333333
 43
0.0
 43
0.0
 43
0.0
 43
0.0
 43
1.0
 43
0.0
 43
0.0
 43
0.0
 43
0.0
 43
1.0
 77
     0
 47
0.0208333333333333
 47
0.0
 47
0.0
 47
0.0
 47
0.0
 47
0.0208333333333333
 47
0.0
 47
0.0
 47
0.0
 47
0.0
 47
1.0
 47
0.0
 47
0.0
 47
0.0
 47
0.0
 47
1.0
171
     0
 49
0.0208333333333333
 49
0.0
 49
0.0
 49
0.0
 49
0.0
 49
0.0208333333333333
 49
0.0
 49
0.0
 49
0.0
 49
0.0
 49
1.0
 49
0.0
 49
0.0
 49
0.0
 49
0.0
 49
1.0
175
     0
142
0.0208333333333333
142
0.0
142
0.0
142
0.0
142
0.0
142
0.0208333333333333
142
0.0
142
0.0
142
0.0
142
0.0
142
1.0
142
0.0
142
0.0
142
0.0
142
0.0
142
1.0
179
     0
144
0.0208333333333333
144
0.0
144
0.0
144
0.0
144
0.0
144
0.0208333333333333
144
0.0
144
0.0
144
0.0
144
0.0
144
1.0
144
0.0
144
0.0
144
0.0
144
0.0
144
1.0
147
0.0208333333333333
147
0.0
147
0.0
147
0.0
147
0.0
147
0.0208333333333333
147
0.0
147
0.0
147
0.0
147
0.0
147
1.0
147
0.0
147
0.0
147
0.0
147
0.0
147
1.0
  0
MATERIAL
  5
6465
102
{ACAD_XDICTIONARY
360
6466
102
}
102
{ACAD_REACTORS
330
28
102
}
330
28
100
AcDbMaterial
  1
Global
 72
     0
 43
0.0208333333333333
 43
0.0
 43
0.0
 43
0.0
 43
0.0
 43
0.0208333333333333
 43
0.0
 43
0.0
 43
0.0
 43
0.0
 43
1.0
 43
0.0
 43
0.0
 43
0.0
 43
0.0
 43
1.0
 77
     0
 47
0.0208333333333333
 47
0.0
 47
0.0
 47
0.0
 47
0.0
 47
0.0208333333333333
 47
0.0
 47
0.0
 47
0.0
 47
0.0
 47
1.0
 47
0.0
 47
0.0
 47
0.0
 47
0.0
 47
1.0
171
     0
 49
0.0208333333333333
 49
0.0
 49
0.0
 49
0.0
 49
0.0
 49
0.0208333333333333
 49
0.0
 49
0.0
 49
0.0
 49
0.0
 49
1.0
 49
0.0
 49
0.0
 49
0.0
 49
0.0
 49
1.0
175
     0
142
0.0208333333333333
142
0.0
142
0.0
142
0.0
142
0.0
142
0.0208333333333333
142
0.0
142
0.0
142
0.0
142
0.0
142
1.0
142
0.0
142
0.0
142
0.0
142
0.0
142
1.0
179
     0
144
0.0208333333333333
144
0.0
144
0.0
144
0.0
144
0.0
144
0.0208333333333333
144
0.0
144
0.0
144
0.0
144
0.0
144
1.0
144
0.0
144
0.0
144
0.0
144
0.0
144
1.0
147
0.0208333333333333
147
0.0
147
0.0
147
0.0
147
0.0
147
0.0208333333333333
147
0.0
147
0.0
147
0.0
147
0.0
147
1.0
147
0.0
147
0.0
147
0.0
147
0.0
147
1.0
  0
MLEADERSTYLE
  5
649B
102
{ACAD_REACTORS
330
649A
102
}
330
649A
100
AcDbMLeaderStyle
170
     2
171
     1
172
     0
 90
        2
 40
0.0
 41
0.0
173
     1
 91
-1056964608
340
12
 92
       -2
290
     1
 42
2.0
291
     1
 43
0.36
  3
Standard
 44
4.0
300

342
10
174
     1
178
     6
175
     1
176
     0
 93
-1056964608
 45
4.0
292
     0
297
     0
 46
4.0
 94
-1056964608
 47
1.0
 49
1.0
140
1.0
293
     1
141
0.0
294
     1
177
     0
142
1.0
295
     0
296
     0
143
0.125
1001
ACAD_MLEADERVER
1070
     2
  0
MLINESTYLE
  5
1B
102
{ACAD_REACTORS
330
E
102
}
330
E
100
AcDbMlineStyle
  2
STANDARD
 70
     0
  3

 62
     0
 51
90.0
 52
90.0
 71
     2
 49
0.5
 62
   256
  6
BYLAYER
 49
-0.5
 62
   256
  6
BYLAYER
  0
ACDBPLACEHOLDER
  5
27
102
{ACAD_REACTORS
330
26
102
}
330
26
  0
SCALE
  5
6489
102
{ACAD_REACTORS
330
6488
102
}
330
6488
100
AcDbScale
 70
     0
300
1:1
140
1.0
141
1.0
290
     1
  0
SCALE
  5
648A
102
{ACAD_REACTORS
330
6488
102
}
330
6488
100
AcDbScale
 70
     0
300
1:2
140
1.0
141
2.0
290
     0
  0
SCALE
  5
648B
102
{ACAD_REACTORS
330
6488
102
}
330
6488
100
AcDbScale
 70
     0
300
1:4
140
1.0
141
4.0
290
     0
  0
SCALE
  5
648C
102
{ACAD_REACTORS
330
6488
102
}
330
6488
100
AcDbScale
 70
     0
300
1:5
140
1.0
141
5.0
290
     0
  0
SCALE
  5
648D
102
{ACAD_REACTORS
330
6488
102
}
330
6488
100
AcDbScale
 70
     0
300
1:8
140
1.0
141
8.0
290
     0
  0
SCALE
  5
648E
102
{ACAD_REACTORS
330
6488
102
}
330
6488
100
AcDbScale
 70
     0
300
1:10
140
1.0
141
10.0
290
     0
  0
SCALE
  5
648F
102
{ACAD_REACTORS
330
6488
102
}
330
6488
100
AcDbScale
 70
     0
300
1:16
140
1.0
141
16.0
290
     0
  0
SCALE
  5
6490
102
{ACAD_REACTORS
330
6488
102
}
330
6488
100
AcDbScale
 70
     0
300
1:20
140
1.0
141
20.0
290
     0
  0
SCALE
  5
6491
102
{ACAD_REACTORS
330
6488
102
}
330
6488
100
AcDbScale
 70
     0
300
1:30
140
1.0
141
30.0
290
     0
  0
SCALE
  5
6492
102
{ACAD_REACTORS
330
6488
102
}
330
6488
100
AcDbScale
 70
     0
300
1:40
140
1.0
141
40.0
290
     0
  0
SCALE
  5
6493
102
{ACAD_REACTORS
330
6488
102
}
330
6488
100
AcDbScale
 70
     0
300
1:50
140
1.0
141
50.0
290
     0
  0
SCALE
  5
6494
102
{ACAD_REACTORS
330
6488
102
}
330
6488
100
AcDbScale
 70
     0
300
1:100
140
1.0
141
100.0
290
     0
  0
SCALE
  5
6495
102
{ACAD_REACTORS
330
6488
102
}
330
6488
100
AcDbScale
 70
     0
300
2:1
140
2.0
141
1.0
290
     0
  0
SCALE
  5
6496
102
{ACAD_REACTORS
330
6488
102
}
330
6488
100
AcDbScale
 70
     0
300
4:1
140
4.0
141
1.0
290
     0
  0
SCALE
  5
6497
102
{ACAD_REACTORS
330
6488
102
}
330
6488
100
AcDbScale
 70
     0
300
8:1
140
8.0
141
1.0
290
     0
  0
SCALE
  5
6498
102
{ACAD_REACTORS
330
6488
102
}
330
6488
100
AcDbScale
 70
     0
300
10:1
140
10.0
141
1.0
290
     0
  0
SCALE
  5
6499
102
{ACAD_REACTORS
330
6488
102
}
330
6488
100
AcDbScale
 70
     0
300
100:1
140
100.0
141
1.0
290
     0
  0
TABLESTYLE
  5
6487
102
{ACAD_XDICTIONARY
360
669B
102
}
102
{ACAD_REACTORS
330
6486
102
}
330
6486
100
AcDbTableStyle
  3
Standard
 70
     0
 71
     0
 40
1.5
 41
1.5
280
     0
281
     0
  7
STANDARD
140
4.5
170
     2
 62
     0
 63
     7
283
     0
 90
      512
 91
        0
  1

274
    -2
284
     1
 64
     0
275
    -2
285
     1
 65
     0
276
    -2
286
     1
 66
     0
277
    -2
287
     1
 67
     0
278
    -2
288
     1
 68
     0
279
    -2
289
     1
 69
     0
  7
STANDARD
140
6.0
170
     5
 62
     0
 63
     7
283
     0
 90
      512
 91
        0
  1

274
    -2
284
     1
 64
     0
275
    -2
285
     1
 65
     0
276
    -2
286
     1
 66
     0
277
    -2
287
     1
 67
     0
278
    -2
288
     1
 68
     0
279
    -2
289
     1
 69
     0
  7
STANDARD
140
4.5
170
     5
 62
     0
 63
     7
283
     0
 90
      512
 91
        0
  1

274
    -2
284
     1
 64
     0
275
    -2
285
     1
 65
     0
276
    -2
286
     1
 66
     0
277
    -2
287
     1
 67
     0
278
    -2
288
     1
 68
     0
279
    -2
289
     1
 69
     0
  0
VISUALSTYLE
  5
6473
102
{ACAD_XDICTIONARY
360
67D3
102
}
102
{ACAD_REACTORS
330
646D
102
}
330
646D
100
AcDbVisualStyle
  2

 70
     4
 71
     0
 72
     2
 73
     0
 90
        0
 40
-0.6
 41
-30.0
 62
     5
 63
     7
421
 16777215
 74
     1
 91
        4
 64
     7
 65
   257
 75
     1
175
     1
 42
1.0
 92
        0
 66
   257
 43
1.0
 76
     1
 77
     6
 78
     2
 67
     7
 79
     5
170
     0
171
     0
290
     0
174
     0
 93
        1
 44
0.0
173
     0
291
     0
 45
0.0
1001
ACAD
1000
AcDbSavedByObjectVersion
1070
     0
  0
VISUALSTYLE
  5
6472
102
{ACAD_XDICTIONARY
360
67D1
102
}
102
{ACAD_REACTORS
330
646D
102
}
330
646D
100
AcDbVisualStyle
  2

 70
     7
 71
     1
 72
     0
 73
     1
 90
        0
 40
-0.6
 41
-30.0
 62
     5
 63
     7
421
 16777215
 74
     0
 91
        4
 64
     7
 65
   257
 75
     1
175
     1
 42
1.0
 92
        8
 66
     7
 43
1.0
 76
     1
 77
     6
 78
     2
 67
     7
 79
     5
170
     0
171
     0
290
     0
174
     0
 93
        1
 44
0.0
173
     0
291
     1
 45
0.0
1001
ACAD
1000
AcDbSavedByObjectVersion
1070
     0
  0
VISUALSTYLE
  5
6479
102
{ACAD_XDICTIONARY
360
67DF
102
}
102
{ACAD_REACTORS
330
646D
102
}
330
646D
100
AcDbVisualStyle
  2

 70
    12
 71
     2
 72
     2
 73
     0
 90
        0
 40
-0.6
 41
-30.0
 62
     5
 63
     7
421
 16777215
 74
     1
 91
        4
 64
     7
 65
   257
 75
     1
175
     1
 42
1.0
 92
        8
 66
     7
 43
1.0
 76
     1
 77
     6
 78
     2
 67
     7
 79
     5
170
     0
171
     0
290
     0
174
     0
 93
        1
 44
50.0
173
     0
291
     1
 45
0.0
1001
ACAD
1000
AcDbSavedByObjectVersion
1070
     0
  0
VISUALSTYLE
  5
647D
102
{ACAD_XDICTIONARY
360
67E7
102
}
102
{ACAD_REACTORS
330
646D
102
}
330
646D
100
AcDbVisualStyle
  2

 70
    16
 71
     2
 72
     2
 73
     3
 90
        0
 40
-0.6
 41
-30.0
 62
     5
 63
     8
421
  8421504
 74
     1
 91
        4
 64
     7
 65
   257
 75
     1
175
     1
 42
1.0
 92
        8
 66
     8
424
  8421504
 43
1.0
 76
     1
 77
     6
 78
     2
 67
     7
 79
     5
170
     0
171
     0
290
     0
174
     0
 93
        1
 44
0.0
173
     0
291
     1
 45
0.0
1001
ACAD
1000
AcDbSavedByObjectVersion
1070
     0
  0
VISUALSTYLE
  5
6476
102
{ACAD_XDICTIONARY
360
67D9
102
}
102
{ACAD_REACTORS
330
646D
102
}
330
646D
100
AcDbVisualStyle
  2

 70
     9
 71
     3
 72
     2
 73
     0
 90
        0
 40
-0.6
 41
-30.0
 62
     5
 63
     7
421
 16777215
 74
     2
 91
        2
 64
     7
 65
   257
 75
     1
175
     1
 42
179.0
 92
        8
 66
     7
 43
1.0
 76
     1
 77
     6
 78
     2
 67
     7
 79
     3
170
     0
171
     0
290
     0
174
     0
 93
        1
 44
0.0
173
     0
291
     0
 45
0.0
1001
ACAD
1000
AcDbSavedByObjectVersion
1070
     0
  0
VISUALSTYLE
  5
6478
102
{ACAD_XDICTIONARY
360
67DD
102
}
102
{ACAD_REACTORS
330
646D
102
}
330
646D
100
AcDbVisualStyle
  2

 70
    11
 71
     2
 72
     2
 73
     0
 90
        0
 40
-0.6
 41
-30.0
 62
     5
 63
     7
421
 16777215
 74
     1
 91
        4
 64
     7
 65
   257
 75
     1
175
     1
 42
1.0
 92
        8
 66
     7
 43
1.0
 76
     1
 77
     6
 78
     2
 67
     7
 79
     5
170
     0
171
     0
290
     0
174
     0
 93
        1
 44
-50.0
173
     0
291
     1
 45
0.0
1001
ACAD
1000
AcDbSavedByObjectVersion
1070
     0
  0
VISUALSTYLE
  5
6485
102
{ACAD_XDICTIONARY
360
67F7
102
}
102
{ACAD_REACTORS
330
646D
102
}
330
646D
100
AcDbVisualStyle
  2

 70
    22
 71
     2
 72
     2
 73
     0
 90
        0
 40
-0.6
 41
-30.0
 62
     5
 63
     7
421
 16777215
 74
     1
 91
        4
 64
     7
 65
   257
 75
     1
175
     1
 42
1.0
 92
        8
 66
     7
 43
1.0
 76
     1
 77
     6
 78
     2
 67
     7
 79
     5
170
     0
171
     0
290
     0
174
     0
 93
        1
 44
0.0
173
     0
291
     1
 45
0.0
1001
ACAD
1000
AcDbSavedByObjectVersion
1070
     0
  0
VISUALSTYLE
  5
647C
102
{ACAD_XDICTIONARY
360
67E5
102
}
102
{ACAD_REACTORS
330
646D
102
}
330
646D
100
AcDbVisualStyle
  2

 70
    15
 71
     2
 72
     2
 73
     0
 90
        0
 40
-0.6
 41
-30.0
 62
     5
 63
     7
421
 16777215
 74
     1
 91
        4
 64
     7
 65
   257
 75
     1
175
     1
 42
1.0
 92
        8
 66
     7
 43
1.0
 76
     1
 77
     6
 78
     2
 67
     7
 79
     5
170
     0
171
     0
290
     0
174
     0
 93
        1
 44
0.0
173
     0
291
     1
 45
0.0
1001
ACAD
1000
AcDbSavedByObjectVersion
1070
     0
  0
VISUALSTYLE
  5
646E
102
{ACAD_XDICTIONARY
360
67C9
102
}
102
{ACAD_REACTORS
330
646D
102
}
330
646D
100
AcDbVisualStyle
  2

 70
     0
 71
     2
 72
     1
 73
     1
 90
        2
 40
-0.6
 41
30.0
 62
     5
 63
     7
421
 16777215
 74
     0
 91
        0
 64
     7
 65
   257
 75
     1
175
     1
 42
1.0
 92
        8
 66
     7
 43
1.0
 76
     1
 77
     6
 78
     2
 67
     7
 79
     5
170
     0
171
     0
290
     0
174
     0
 93
       13
 44
0.0
173
     0
291
     1
 45
0.0
1001
ACAD
1000
AcDbSavedByObjectVersion
1070
     0
  0
VISUALSTYLE
  5
646F
102
{ACAD_XDICTIONARY
360
67CB
102
}
102
{ACAD_REACTORS
330
646D
102
}
330
646D
100
AcDbVisualStyle
  2

 70
     1
 71
     2
 72
     1
 73
     1
 90
        2
 40
-0.6
 41
30.0
 62
     5
 63
     7
421
 16777215
 74
     1
 91
        0
 64
     7
 65
   257
 75
     1
175
     1
 42
1.0
 92
        0
 66
   257
 43
1.0
 76
     1
 77
     6
 78
     2
 67
     7
 79
     5
170
     0
171
     0
290
     0
174
     0
 93
       13
 44
0.0
173
     0
291
     1
 45
0.0
1001
ACAD
1000
AcDbSavedByObjectVersion
1070
     0
  0
VISUALSTYLE
  5
6470
102
{ACAD_XDICTIONARY
360
67CD
102
}
102
{ACAD_REACTORS
330
646D
102
}
330
646D
100
AcDbVisualStyle
  2

 70
     2
 71
     2
 72
     2
 73
     1
 90
        2
 40
-0.6
 41
30.0
 62
     5
 63
     7
421
 16777215
 74
     0
 91
        0
 64
     7
 65
   257
 75
     1
175
     1
 42
1.0
 92
        0
 66
     7
 43
1.0
 76
     1
 77
     6
 78
     2
 67
     7
 79
     5
170
     0
171
     0
290
     0
174
     0
 93
       13
 44
0.0
173
     0
291
     1
 45
0.0
1001
ACAD
1000
AcDbSavedByObjectVersion
1070
     0
  0
VISUALSTYLE
  5
6471
102
{ACAD_XDICTIONARY
360
67CF
102
}
102
{ACAD_REACTORS
330
646D
102
}
330
646D
100
AcDbVisualStyle
  2

 70
     3
 71
     2
 72
     2
 73
     1
 90
        2
 40
-0.6
 41
30.0
 62
     5
 63
     7
421
 16777215
 74
     1
 91
        0
 64
     7
 65
   257
 75
     1
175
     1
 42
1.0
 92
        0
 66
   257
 43
1.0
 76
     1
 77
     6
 78
     2
 67
     7
 79
     5
170
     0
171
     0
290
     0
174
     0
 93
       13
 44
0.0
173
     0
291
     1
 45
0.0
1001
ACAD
1000
AcDbSavedByObjectVersion
1070
     0
  0
VISUALSTYLE
  5
6475
102
{ACAD_XDICTIONARY
360
67D7
102
}
102
{ACAD_REACTORS
330
646D
102
}
330
646D
100
AcDbVisualStyle
  2

 70
     6
 71
     1
 72
     2
 73
     2
 90
        0
 40
-0.6
 41
-30.0
 62
     5
 63
     7
421
 16777215
 74
     2
 91
        2
 64
     7
 65
   257
 75
     2
175
     1
 42
40.0
 92
        0
 66
   257
 43
1.0
 76
     1
 77
     6
 78
     2
 67
     7
 79
     3
170
     0
171
     0
290
     0
174
     0
 93
        1
 44
0.0
173
     0
291
     0
 45
0.0
1001
ACAD
1000
AcDbSavedByObjectVersion
1070
     0
  0
VISUALSTYLE
  5
6483
102
{ACAD_XDICTIONARY
360
67F3
102
}
102
{ACAD_REACTORS
330
646D
102
}
330
646D
100
AcDbVisualStyle
  2

 70
    20
 71
     2
 72
     2
 73
     0
 90
        0
 40
-0.6
 41
-30.0
 62
     5
 63
     7
421
 16777215
 74
     1
 91
        4
 64
     7
 65
   257
 75
     1
175
     1
 42
1.0
 92
       10
 66
     7
 43
1.0
 76
     1
 77
     6
 78
     2
 67
     7
 79
     5
170
     0
171
     0
290
     0
174
     0
 93
        1
 44
0.0
173
     0
291
     1
 45
0.0
1001
ACAD
1000
AcDbSavedByObjectVersion
1070
     0
  0
VISUALSTYLE
  5
647B
102
{ACAD_XDICTIONARY
360
67E3
102
}
102
{ACAD_REACTORS
330
646D
102
}
330
646D
100
AcDbVisualStyle
  2

 70
    14
 71
     2
 72
     2
 73
     0
 90
        0
 40
-0.6
 41
-30.0
 62
     5
 63
     7
421
 16777215
 74
     1
 91
        4
 64
     7
 65
   257
 75
     7
175
     7
 42
1.0
 92
        8
 66
     7
 43
1.0
 76
     1
 77
     6
 78
     2
 67
     7
 79
     5
170
     0
171
     0
290
     0
174
     0
 93
        1
 44
0.0
173
     0
291
     1
 45
0.0
1001
ACAD
1000
AcDbSavedByObjectVersion
1070
     0
  0
VISUALSTYLE
  5
6484
102
{ACAD_XDICTIONARY
360
67F5
102
}
102
{ACAD_REACTORS
330
646D
102
}
330
646D
100
AcDbVisualStyle
  2

 70
    21
 71
     2
 72
     2
 73
     0
 90
        0
 40
-0.6
 41
-30.0
 62
     5
 63
     7
421
 16777215
 74
     1
 91
        4
 64
     7
 65
   257
 75
     1
175
     1
 42
1.0
 92
        9
 66
     7
 43
1.0
 76
     1
 77
     6
 78
     2
 67
     7
 79
     5
170
     0
171
     0
290
     0
174
     0
 93
        1
 44
0.0
173
     0
291
     1
 45
0.0
1001
ACAD
1000
AcDbSavedByObjectVersion
1070
     0
  0
VISUALSTYLE
  5
6477
102
{ACAD_XDICTIONARY
360
67DB
102
}
102
{ACAD_REACTORS
330
646D
102
}
330
646D
100
AcDbVisualStyle
  2

 70
     8
 71
     2
 72
     3
 73
     0
 90
        2
 40
-0.6
 41
30.0
 62
     5
 63
     7
421
 16777215
 74
     0
 91
        0
 64
     7
 65
   257
 75
     1
175
     1
 42
1.0
 92
        8
 66
   257
 43
1.0
 76
     1
 77
     6
 78
     2
 67
     7
 79
     3
170
     0
171
     0
290
     0
174
     0
 93
       13
 44
0.0
173
     0
291
     0
 45
0.0
1001
ACAD
1000
AcDbSavedByObjectVersion
1070
     0
  0
VISUALSTYLE
  5
6482
102
{ACAD_XDICTIONARY
360
67F1
102
}
102
{ACAD_REACTORS
330
646D
102
}
330
646D
100
AcDbVisualStyle
  2

 70
    27
 71
     2
 72
     2
 73
     1
 90
        2
 40
-0.6
 41
30.0
 62
     5
 63
     7
421
 16777215
 74
     0
 91
        4
 64
     7
 65
   257
 75
     1
175
     1
 42
1.0
 92
        8
 66
   257
 43
1.0
 76
     1
 77
     6
 78
     2
 67
     8
425
  7895160
 79
     3
170
     0
171
     0
290
     0
174
     0
 93
        5
 44
0.0
173
     0
291
     0
 45
0.0
1001
ACAD
1000
AcDbSavedByObjectVersion
1070
     0
  0
VISUALSTYLE
  5
6481
102
{ACAD_XDICTIONARY
360
67EF
102
}
102
{ACAD_REACTORS
330
646D
102
}
330
646D
100
AcDbVisualStyle
  2

 70
    26
 71
     2
 72
     2
 73
     1
 90
        2
 40
-0.6
 41
30.0
 62
     5
 63
     7
421
 16777215
 74
     1
 91
       10
 64
     7
 65
   257
 75
     2
175
     1
 42
1.0
 92
        8
 66
   257
 43
1.0
 76
     1
 77
     6
 78
     2
 67
     7
 79
     3
170
     0
171
     0
290
     0
174
     0
 93
        5
 44
0.0
173
     0
291
     0
 45
0.0
1001
ACAD
1000
AcDbSavedByObjectVersion
1070
     0
  0
VISUALSTYLE
  5
647E
102
{ACAD_XDICTIONARY
360
67E9
102
}
102
{ACAD_REACTORS
330
646D
102
}
330
646D
100
AcDbVisualStyle
  2

 70
    23
 71
     2
 72
     2
 73
     3
 90
        0
 40
-0.6
 41
-30.0
 62
     5
 63
     7
421
 16777215
 74
     2
 91
        2
 64
     7
 65
     7
 75
     1
175
     1
 42
40.0
 92
        8
 66
     7
 43
1.0
 76
     1
 77
     6
 78
     2
 67
     7
 79
     3
170
     0
171
     0
290
     0
174
     0
 93
        1
 44
0.0
173
     0
291
     0
 45
0.0
1001
ACAD
1000
AcDbSavedByObjectVersion
1070
     0
  0
VISUALSTYLE
  5
647F
102
{ACAD_XDICTIONARY
360
67EB
102
}
102
{ACAD_REACTORS
330
646D
102
}
330
646D
100
AcDbVisualStyle
  2

 70
    24
 71
     1
 72
     2
 73
     2
 90
        0
 40
-0.6
 41
-30.0
 62
     5
 63
     7
421
 16777215
 74
     2
 91
        2
 64
     7
 65
     7
 75
     1
175
     1
 42
40.0
 92
       11
 66
     7
 43
1.0
 76
     1
 77
     6
 78
     2
 67
     7
 79
     6
170
     0
171
     0
290
     0
174
     0
 93
        1
 44
0.0
173
     0
291
     0
 45
0.0
1001
ACAD
1000
AcDbSavedByObjectVersion
1070
     0
  0
VISUALSTYLE
  5
647A
102
{ACAD_XDICTIONARY
360
67E1
102
}
102
{ACAD_REACTORS
330
646D
102
}
330
646D
100
AcDbVisualStyle
  2

 70
    13
 71
     2
 72
     2
 73
     0
 90
        0
 40
-0.6
 41
-30.0
 62
     5
 63
     7
421
 16777215
 74
     1
 91
        4
 64
     7
 65
   257
 75
     1
175
     1
 42
1.0
 92
       12
 66
     7
 43
1.0
 76
     1
 77
     6
 78
     2
 67
     7
 79
     5
170
     0
171
     0
290
     0
174
     0
 93
        1
 44
0.0
173
     0
291
     1
 45
0.0
1001
ACAD
1000
AcDbSavedByObjectVersion
1070
     0
  0
VISUALSTYLE
  5
6474
102
{ACAD_XDICTIONARY
360
67D5
102
}
102
{ACAD_REACTORS
330
646D
102
}
330
646D
100
AcDbVisualStyle
  2

 70
     5
 71
     0
 72
     2
 73
     0
 90
        0
 40
-0.6
 41
-30.0
 62
     5
 63
     7
421
 16777215
 74
     1
 91
        4
 64
     7
 65
   257
 75
     1
175
     1
 42
1.0
 92
        0
 66
   257
 43
1.0
 76
     1
 77
     6
 78
     2
 67
     7
 79
     3
170
     0
171
     0
290
     0
174
     0
 93
        1
 44
0.0
173
     0
291
     0
 45
0.0
1001
ACAD
1000
AcDbSavedByObjectVersion
1070
     0
  0
VISUALSTYLE
  5
6480
102
{ACAD_XDICTIONARY
360
67ED
102
}
102
{ACAD_REACTORS
330
646D
102
}
330
646D
100
AcDbVisualStyle
  2

 70
    25
 71
     2
 72
     2
 73
     1
 90
        1
 40
0.5
 41
-30.0
 62
     5
 63
     7
421
 16777215
 74
     1
 91
        0
 64
     7
 65
   257
 75
     1
175
     1
 42
1.0
 92
        8
 66
     7
 43
1.0
 76
     1
 77
     6
 78
     2
 67
     7
 79
     3
170
     0
171
     0
290
     0
174
     0
 93
       13
 44
0.0
173
     0
291
     0
 45
0.0
1001
ACAD
1000
AcDbSavedByObjectVersion
1070
     0
  0
DICTIONARYVAR
  5
64E9
102
{ACAD_REACTORS
330
170D
102
}
330
170D
100
DictionaryVariables
280
     0
  1
1:1
  0
DICTIONARYVAR
  5
64E7
102
{ACAD_REACTORS
330
170D
102
}
330
170D
100
DictionaryVariables
280
     0
  1
STANDARD
  0
DICTIONARYVAR
  5
64E6
102
{ACAD_REACTORS
330
170D
102
}
330
170D
100
DictionaryVariables
280
     0
  1
STANDARD
  0
DICTIONARYVAR
  5
170E
102
{ACAD_REACTORS
330
170D
102
}
330
170D
100
DictionaryVariables
280
     0
  1
1
  0
DICTIONARYVAR
  5
64EB
102
{ACAD_REACTORS
330
170D
102
}
330
170D
100
DictionaryVariables
280
     0
  1
1
  0
DICTIONARYVAR
  5
64EC
102
{ACAD_REACTORS
330
170D
102
}
330
170D
100
DictionaryVariables
280
     0
  1
15
  0
DICTIONARYVAR
  5
64EA
102
{ACAD_REACTORS
330
170D
102
}
330
170D
100
DictionaryVariables
280
     0
  1
0
  0
DICTIONARYVAR
  5
64E8
102
{ACAD_REACTORS
330
170D
102
}
330
170D
100
DictionaryVariables
280
     0
  1
0
  0
DICTIONARYVAR
  5
170F
102
{ACAD_REACTORS
330
170D
102
}
330
170D
100
DictionaryVariables
280
     0
  1

  0
DICTIONARY
  5
64E4
330
2C
100
AcDbDictionary
280
     1
281
     1
  3
ADSK_XREC_LAYOUTTHUMBNAIL
360
64E5
  0
DICTIONARY
  5
645E
330
645D
100
AcDbDictionary
280
     1
281
     1
  3
ACAD_XREC_ROUNDTRIP
360
669F
  3
BUMPTILE
360
6460
  3
DIFFUSETILE
360
645F
  3
OPACITYTILE
360
6463
  3
REFLECTIONTILE
360
6462
  3
REFRACTIONTILE
360
6464
  3
SPECULARTILE
360
6461
  0
DICTIONARY
  5
6456
330
6455
100
AcDbDictionary
280
     1
281
     1
  3
ACAD_XREC_ROUNDTRIP
360
669E
  3
BUMPTILE
360
6458
  3
DIFFUSETILE
360
6457
  3
OPACITYTILE
360
645B
  3
REFLECTIONTILE
360
645A
  3
REFRACTIONTILE
360
645C
  3
SPECULARTILE
360
6459
  0
DICTIONARY
  5
6466
330
6465
100
AcDbDictionary
280
     1
281
     1
  3
ACAD_XREC_ROUNDTRIP
360
66A0
  3
BUMPTILE
360
6468
  3
DIFFUSETILE
360
6467
  3
OPACITYTILE
360
646B
  3
REFLECTIONTILE
360
646A
  3
REFRACTIONTILE
360
646C
  3
SPECULARTILE
360
6469
  0
DICTIONARY
  5
669B
330
6487
100
AcDbDictionary
280
     1
281
     1
  3
ACAD_ROUNDTRIP_2008_TABLESTYLE_CELLSTYLEMAP
360
67C7
  0
DICTIONARY
  5
67D3
330
6473
100
AcDbDictionary
280
     1
281
     1
  3
ACAD_XREC_ROUNDTRIP
360
67D4
  0
DICTIONARY
  5
67D1
330
6472
100
AcDbDictionary
280
     1
281
     1
  3
ACAD_XREC_ROUNDTRIP
360
67D2
  0
DICTIONARY
  5
67DF
330
6479
100
AcDbDictionary
280
     1
281
     1
  3
ACAD_XREC_ROUNDTRIP
360
67E0
  0
DICTIONARY
  5
67E7
330
647D
100
AcDbDictionary
280
     1
281
     1
  3
ACAD_XREC_ROUNDTRIP
360
67E8
  0
DICTIONARY
  5
67D9
330
6476
100
AcDbDictionary
280
     1
281
     1
  3
ACAD_XREC_ROUNDTRIP
360
67DA
  0
DICTIONARY
  5
67DD
330
6478
100
AcDbDictionary
280
     1
281
     1
  3
ACAD_XREC_ROUNDTRIP
360
67DE
  0
DICTIONARY
  5
67F7
330
6485
100
AcDbDictionary
280
     1
281
     1
  3
ACAD_XREC_ROUNDTRIP
360
67F8
  0
DICTIONARY
  5
67E5
330
647C
100
AcDbDictionary
280
     1
281
     1
  3
ACAD_XREC_ROUNDTRIP
360
67E6
  0
DICTIONARY
  5
67C9
330
646E
100
AcDbDictionary
280
     1
281
     1
  3
ACAD_XREC_ROUNDTRIP
360
67CA
  0
DICTIONARY
  5
67CB
330
646F
100
AcDbDictionary
280
     1
281
     1
  3
ACAD_XREC_ROUNDTRIP
360
67CC
  0
DICTIONARY
  5
67CD
330
6470
100
AcDbDictionary
280
     1
281
     1
  3
ACAD_XREC_ROUNDTRIP
360
67CE
  0
DICTIONARY
  5
67CF
330
6471
100
AcDbDictionary
280
     1
281
     1
  3
ACAD_XREC_ROUNDTRIP
360
67D0
  0
DICTIONARY
  5
67D7
330
6475
100
AcDbDictionary
280
     1
281
     1
  3
ACAD_XREC_ROUNDTRIP
360
67D8
  0
DICTIONARY
  5
67F3
330
6483
100
AcDbDictionary
280
     1
281
     1
  3
ACAD_XREC_ROUNDTRIP
360
67F4
  0
DICTIONARY
  5
67E3
330
647B
100
AcDbDictionary
280
     1
281
     1
  3
ACAD_XREC_ROUNDTRIP
360
67E4
  0
DICTIONARY
  5
67F5
330
6484
100
AcDbDictionary
280
     1
281
     1
  3
ACAD_XREC_ROUNDTRIP
360
67F6
  0
DICTIONARY
  5
67DB
330
6477
100
AcDbDictionary
280
     1
281
     1
  3
ACAD_XREC_ROUNDTRIP
360
67DC
  0
DICTIONARY
  5
67F1
330
6482
100
AcDbDictionary
280
     1
281
     1
  3
ACAD_XREC_ROUNDTRIP
360
67F2
  0
DICTIONARY
  5
67EF
330
6481
100
AcDbDictionary
280
     1
281
     1
  3
ACAD_XREC_ROUNDTRIP
360
67F0
  0
DICTIONARY
  5
67E9
330
647E
100
AcDbDictionary
280
     1
281
     1
  3
ACAD_XREC_ROUNDTRIP
360
67EA
  0
DICTIONARY
  5
67EB
330
647F
100
AcDbDictionary
280
     1
281
     1
  3
ACAD_XREC_ROUNDTRIP
360
67EC
  0
DICTIONARY
  5
67E1
330
647A
100
AcDbDictionary
280
     1
281
     1
  3
ACAD_XREC_ROUNDTRIP
360
67E2
  0
DICTIONARY
  5
67D5
330
6474
100
AcDbDictionary
280
     1
281
     1
  3
ACAD_XREC_ROUNDTRIP
360
67D6
  0
DICTIONARY
  5
67ED
330
6480
100
AcDbDictionary
280
     1
281
     1
  3
ACAD_XREC_ROUNDTRIP
360
67EE
  0
XRECORD
  5
64E5
102
{ACAD_REACTORS
330
64E4
102
}
330
64E4
100
AcDbXrecord
280
     1
310
28000000000100007B0000000100080000000000007B0000000000000000000000010000000000000000000000000000FFFFFF000000000000000000000000000000000000000000000000000000000000000000330000006600000099000000CC000000FF00000000330000333300006633000099330000CC330000FF3300
310
0000660000336600006666000099660000CC660000FF66000000990000339900006699000099990000CC990000FF99000000CC000033CC000066CC000099CC0000CCCC0000FFCC000000FF000033FF000066FF000099FF0000CCFF0000FFFF000000003300330033006600330099003300CC003300FF003300003333003333
310
33006633330099333300CC333300FF33330000663300336633006666330099663300CC663300FF66330000993300339933006699330099993300CC993300FF99330000CC330033CC330066CC330099CC3300CCCC3300FFCC330000FF330033FF330066FF330099FF3300CCFF3300FFFF330000006600330066006600660099
310
006600CC006600FF00660000336600333366006633660099336600CC336600FF33660000666600336666006666660099666600CC666600FF66660000996600339966006699660099996600CC996600FF99660000CC660033CC660066CC660099CC6600CCCC6600FFCC660000FF660033FF660066FF660099FF6600CCFF6600
310
FFFF660000009900330099006600990099009900CC009900FF00990000339900333399006633990099339900CC339900FF33990000669900336699006666990099669900CC669900FF66990000999900339999006699990099999900CC999900FF99990000CC990033CC990066CC990099CC9900CCCC9900FFCC990000FF99
310
0033FF990066FF990099FF9900CCFF9900FFFF99000000CC003300CC006600CC009900CC00CC00CC00FF00CC000033CC003333CC006633CC009933CC00CC33CC00FF33CC000066CC003366CC006666CC009966CC00CC66CC00FF66CC000099CC003399CC006699CC009999CC00CC99CC00FF99CC0000CCCC0033CCCC0066CC
310
CC0099CCCC00CCCCCC00FFCCCC0000FFCC0033FFCC0066FFCC0099FFCC00CCFFCC00FFFFCC000000FF003300FF006600FF009900FF00CC00FF00FF00FF000033FF003333FF006633FF009933FF00CC33FF00FF33FF000066FF003366FF006666FF009966FF00CC66FF00FF66FF000099FF003399FF006699FF009999FF00CC
310
99FF00FF99FF0000CCFF0033CCFF0066CCFF0099CCFF00CCCCFF00FFCCFF0000FFFF0033FFFF0066FFFF0099FFFF00CCFFFF00FFFFFF00000000000D0D0D001A1A1A00282828003535350043434300505050005D5D5D006B6B6B00787878008686860093939300A1A1A100AEAEAE00BBBBBB00C9C9C900D6D6D600E4E4E400
310
F1F1F100FFFFFF000000000000000000000000000000000000000000000000000000000000000000000000000000000000000000000000000000000000000000000000000000000000000000000000000000000000000000000000000000000000000000000000000000000000000000000000000000000000000000000000
310
00000000000000000000000000000000000000000000000000000000000000000000000000000000000000000000000000000000000000000000000000000000000000000000000000000000000000000000000000000000000000000000000000000000000000000000000000000000000000000000000000000000000000
310
00000000000000000000000000000000000000000000000000000000000000000000000000000000000000000000000000000000000000000000000000000000000000000000000000000000000000000000000000000000000000000000000000000000000000000000000000000000000000000000000000000000000000
310
00000000000000000000000000000000000000000000000000000000000000000000000000000000000000000000000000000000000000000000000000000000000000000000000000000000000000000000000000000000000000000000000000000000000000000000000000000000000000000000000000000000000000
310
00000000000000000000000000000000000000000000000000000000000000000000000000000000000000000000000000000000000000000000000000000000000000000000000000000000000000000000000000000000000000000000000000000000000000000000000000000000000000000000000000000000000000
310
00000000000000000000000000000000000000000000000000000000000000000000000000000000000000000000000000000000000000000000000000000000000000000000000000000000000000000000000000000000000000000000000000000000000000000000000000000000000000000000000000000000000000
310
00000000000000000000000000000000000000000000000000000000000000000000000000000000000000000000000000000000000000000000000000000000000000000000000000000000000000000000000000000000000000000000000000000000000000000000000000000000000000000000000000000000000000
310
00000000000000000000000000000000000000000000000000000000000000000000000000000000000000000000000000000000000000000000000000000000000000000000000000000000000000000000000000000000000000000000000000000000000000000000000000000000000000000000000000000000000000
310
00000000000000000000000000000000000000000000000000000000000000000000000000000000000000000000000000000000000000000000000000000000000000000000000000000000000000000000000000000000000000000000000000000000000000000000000000000000000000000000000000000000000000
310
00000000000000000000000000000000000000000000000000000000000000000000000000000000000000000000000000000000000000000000000000000000000000000000000000000000000000000000000000000000000000000000000000000000000000000000000000000000000000000000000000000000000000
310
00000000000000000000000000000000000000000000000000000000000000000000000000000000000000000000000000000000000000000000000000000000000000000000000000000000000000000000000000000000000000000000000000000000000000000000000000000000000000000000000000000000000000
310
00000000000000000000000000000000000000000000000000000000000000000000000000000000000000000000000000000000000000000000000000000000000000000000000000000000000000000000000000000000000000000000000000000000000000000000000000000000000000000000000000000000000000
310
00000000000000000000000000000000000000000000000000000000000000000000000000000000000000000000000000000000000000000000000000000000000000000000000000000000000000000000000000000000000000000000000000000000000000000000000000000000000000000000000000000000000000
310
00000000000000000000000000000000000000000000000000000000000000000000000000000000000000000000000000000000000000000000000000000000000000000000000000000000000000000000000000000000000000000000000000000000000000000000000000000000000000000000000000000000000000
310
00000000000000000000000000000000000000000000000000000000000000000000000000000000000000000000000000000000000000000000000000000000000000000000000000000000000000000000000000000000000000000000000000000000000000000000000000000000000000000000000000000000000000
310
00000000000000000000000000000000000000000000000000000000000000000000000000000000000000000000000000000000000000000000000000000000000000000000000000000000000000000000000000000000000000000000000000000000000000000000000000000000000000000000000000000000000000
310
00000000000000000000000000000000000000000000000000000000000000000000000000000000000000000000000000000000000000000000000000000000000000000000000000000000000000000000000000000000000000000000000000000000000000000000000000000000000000000000000000000000000000
310
00000000000000000000000000000000000000000000000000000000000000000000000000000000000000000000000000000000000000000000000000000000000000000000000000000000000000000000000000000000000000000000000000000000000000000000000000000000000000000000000000000000000000
310
00000000000000000000000000000000000000000000000000000000000000000000000000000000000000000000000000000000000000000000000000000000000000000000000000000000000000000000000000000000000000000000000000000000000000000000000000000000000000000000000000000000000000
310
00000000000000000000000000000000000000000000000000000000000000000000000000000000000000000000000000000000000000000000000000000000000000000000000000000000000000000000000000000000000000000000000000000000000000000000000000000000000000000000000000000000000000
310
00000000000000000000000000000000000000000000000000000000000000000000000000000000000000000000000000000000000000000000000000000000000000000000000000000000000000000000000000000000000000000000000000000000000000000000000000000000000000000000000000000000000000
310
00000000000000000000000000000000000000000000000000000000000000000000000000000000000000000000000000000000000000000000000000000000000000000000000000000000000000000000000000000000000000000000000000000000000000000000000000000000000000000000000000000000000000
310
00000000000000000000000000000000000000000000000000000000000000000000000000000000000000000000000000000000000000000000000000000000000000000000000000000000000000000000000000000000000000000000000000000000000000000000000000000000000000000000000000000000000000
310
00000000000000000000000000000000000000000000000000000000000000000000000000000000000000000000000000000000000000000000000000000000000000000000000000000000000000000000000000000000000000000000000000000000000000000000000000000000000000000000000000000000000000
310
00000000000000000000000000000000000000000000000000000000000000000000000000000000000000000000000000000000000000000000000000000000000000000000000000000000000000000000000000000000000000000000000000000000000000000000000000000000000000000000000000000000000000
310
00000000000000000000000000000000000000000000000000000000000000000000000000000000000000000000000000000000000000000000000000000000000000000000000000000000000000000000000000000000000000000000000000000000000000000000000000000000000000000000000000000000000000
310
00000000000000000000000000000000000000000000000000000000000000000000000000000000000000000000000000000000000000000000000000000000000000000000000000000000000000000000000000000000000000000000000000000000000000000000000000000000000000000000000000000000000000
310
00000000000000000000000000000000000000000000000000000000000000000000000000000000000000000000000000000000000000000000000000000000000000000000000000000000000000000000000000000000000000000000000000000000000000000000000000000000000000000000000000000000000000
310
00000000000000000000000000000000000000000000000000000000000000000000000000000000000000000000000000000000000000000000000000000000000000000000000000000000000000000000000000000000000000000000000000000000000000000000000000000000000000000000000000000000000000
310
00000000000000000000000000000000000000000000000000000000000000000000000000000000000000000000000000000000000000000000000000000000000000000000000000000000000000000000000000000000000000000000000000000000000000000000000000000000000000000000000000000000000000
310
00000000000000000000000000000000000000000000000000000000000000000000000000000000000000000000000000000000000000000000000000000000000000000000000000000000000000000000000000000000000000000000000000000000000000000000000000000000000000000000000000000000000000
310
00000000000000000000000000000000000000000000000000000000000000000000000000000000000000000000000000000000000000000000000000000000000000000000000000000000000000000000000000000000000000000000000000000000000000000000000000000000000000000000000000000000000000
310
00000000000000000000000000000000000000000000000000000000000000000000000000000000000000000000000000000000000000000000000000000000000000000000000000000000000000000000000000000000000000000000000000000000000000000000000000000000000000000000000000000000000000
310
00000000000000000000000000000000000000000000000000000000000000000000000000000000000000000000000000000000000000000000000000000000000000000000000000000000000000000000000000000000000000000000000000000000000000000000000000000000000000000000000000000000000000
310
00000000000000000000000000000000000000000000000000000000000000000000000000000000000000000000000000000000000000000000000000000000000000000000000000000000000000000000000000000000000000000000000000000000000000000000000000000000000000000000000000000000000000
310
00000000000000000000000000000000000000000000000000000000000000000000000000000000000000000000000000000000000000000000000000000000000000000000000000000000000000000000000000000000000000000000000000000000000000000000000000000000000000000000000000000000000000
310
00000000000000000000000000000000000000000000000000000000000000000000000000000000000000000000000000000000000000000000000000000000000000000000000000000000000000000000000000000000000000000000000000000000000000000000000000000000000000000000000000000000000000
310
00000000000000000000000000000000000000000000000000000000000000000000000000000000000000000000000000000000000000000000000000000000000000000000000000000000000000000000000000000000000000000000000000000000000000000000000000000000000000000000000000000000000000
310
00000000000000000000000000000000000000000000000000000000000000000000000000000000000000000000000000000000000000000000000000000000000000000000000000000000000000000000000000000000000000000000000000000000000000000000000000000000000000000000000000000000000000
310
00000000000000000000000000000000000000000000000000000000000000000000000000000000000000000000000000000000000000000000000000000000000000000000000000000000000000000000000000000000000000000000000000000000000000000000000000000000000000000000000000000000000000
310
00000000000000000000000000000000000000000000000000000000000000000000000000000000000000000000000000000000000000000000000000000000000000000000000000000000000000000000000000000000000000000000000000000000000000000000000000000000000000000000000000000000000000
310
00000000000000000000000000000000000000000000000000000000000000000000000000000000000000000000000000000000000000000000000000000000000000000000000000000000000000000000000000000000000000000000000000000000000000000000000000000000000000000000000000000000000000
310
00000000000000000000000000000000000000000000000000000000000000000000000000000000000000000000000000000000000000000000000000000000000000000000000000000000000000000000000000000000000000000000000000000000000000000000000000000000000000000000000000000000000000
310
00000000000000000000000000000000000000000000000000000000000000000000000000000000000000000000000000000000000000000000000000000000000000000000000000000000000000000000000000000000000000000000000000000000000000000000000000000000000000000000000000000000000000
310
00000000000000000000000000000000000000000000000000000000000000000000000000000000000000000000000000000000000000000000000000000000000000000000000000000000000000000000000000000000000000000000000000000000000000000000000000000000000000000000000000000000000000
310
00000000000000000000000000000000000000000000000000000000000000000000000000000000000000000000000000000000000000000000000000000000000000000000000000000000000000000000000000000000000000000000000000000000000000000000000000000000000000000000000000000000000000
310
00000000000000000000000000000000000000000000000000000000000000000000000000000000000000000000000000000000000000000000000000000000000000000000000000000000000000000000000000000000000000000000000000000000000000000000000000000000000000000000000000000000000000
310
00000000000000000000000000000000000000000000000000000000000000000000000000000000000000000000000000000000000000000000000000000000000000000000000000000000000000000000000000000000000000000000000000000000000000000000000000000000000000000000000000000000000000
310
00000000000000000000000000000000000000000000000000000000000000000000000000000000000000000000000000000000000000000000000000000000000000000000000000000000000000000000000000000000000000000000000000000000000000000000000000000000000000000000000000000000000000
310
00000000000000000000000000000000000000000000000000000000000000000000000000000000000000000000000000000000000000000000000000000000000000000000000000000000000000000000000000000000000000000000000000000000000000000000000000000000000000000000000000000000000000
310
00000000000000000000000000000000000000000000000000000000000000000000000000000000000000000000000000000000000000000000000000000000000000000000000000000000000000000000000000000000000000000000000000000000000000000000000000000000000000000000000000000000000000
310
00000000000000000000000000000000000000000000000000000000000000000000000000000000000000000000000000000000000000000000000000000000000000000000000000000000000000000000000000000000000000000000000000000000000000000000000000000000000000000000000000000000000000
310
00000000000000000000000000000000000000000000000000000000000000000000000000000000000000000000000000000000000000000000000000000000000000000000000000000000000000000000000000000000000000000000000000000000000000000000000000000000000000000000000000000000000000
310
00000000000000000000000000000000000000000000000000000000000000000000000000000000000000000000000000000000000000000000000000000000000000000000000000000000000000000000000000000000000000000000000000000000000000000000000000000000000000000000000000000000000000
310
00000000000000000000000000000000000000000000000000000000000000000000000000000000000000000000000000000000000000000000000000000000000000000000000000000000000000000000000000000000000000000000000000000000000000000000000000000000000000000000000000000000000000
310
00000000000000000000000000000000000000000000000000000000000000000000000000000000000000000000000000000000000000000000000000000000000000000000000000000000000000000000000000000000000000000000000000000000000000000000000000000000000000000000000000000000000000
310
00000000000000000000000000000000000000000000000000000000000000000000000000000000000000000000000000000000000000000000000000000000000000000000000000000000000000000000000000000000000000000000000000000000000000000000000000000000000000000000000000000000000000
310
00000000000000000000000000000000000000000000000000000000000000000000000000000000000000000000000000000000000000000000000000000000000000000000000000000000000000000000000000000000000000000000000000000000000000000000000000000000000000000000000000000000000000
310
00000000000000000000000000000000000000000000000000000000000000000000000000000000000000000000000000000000000000000000000000000000000000000000000000000000000000000000000000000000000000000000000000000000000000000000000000000000000000000000000000000000000000
310
00000000000000000000000000000000000000000000000000000000000000000000000000000000000000000000000000000000000000000000000000000000000000000000000000000000000000000000000000000000000000000000000000000000000000000000000000000000000000000000000000000000000000
310
00000000000000000000000000000000000000000000000000000000000000000000000000000000000000000000000000000000000000000000000000000000000000000000000000000000000000000000000000000000000000000000000000000000000000000000000000000000000000000000000000000000000000
310
00000000000000000000000000000000000000000000000000000000000000000000000000000000000000000000000000000000000000000000000000000000000000000000000000000000000000000000000000000000000000000000000000000000000000000000000000000000000000000000000000000000000000
310
00000000000000000000000000000000000000000000000000000000000000000000000000000000000000000000000000000000000000000000000000000000000000000000000000000000000000000000000000000000000000000000000000000000000000000000000000000000000000000000000000000000000000
310
00000000000000000000000000000000000000000000000000000000000000000000000000000000000000000000000000000000000000000000000000000000000000000000000000000000000000000000000000000000000000000000000000000000000000000000000000000000000000000000000000000000000000
310
00000000000000000000000000000000000000000000000000000000000000000000000000000000000000000000000000000000000000000000000000000000000000000000000000000000000000000000000000000000000000000000000000000000000000000000000000000000000000000000000000000000000000
310
00000000000000000000000000000000000000000000000000000000000000000000000000000000000000000000000000000000000000000000000000000000000000000000000000000000000000000000000000000000000000000000000000000000000000000000000000000000000000000000000000000000000000
310
00000000000000000000000000000000000000000000000000000000000000000000000000000000000000000000000000000000000000000000000000000000000000000000000000000000000000000000000000000000000000000000000000000000000000000000000000000000000000000000000000000000000000
310
00000000000000000000000000000000000000000000000000000000000000000000000000000000000000000000000000000000000000000000000000000000000000000000000000000000000000000000000000000000000000000000000000000000000000000000000000000000000000000000000000000000000000
310
00000000000000000000000000000000000000000000000000000000000000000000000000000000000000000000000000000000000000000000000000000000000000000000000000000000000000000000000000000000000000000000000000000000000000000000000000000000000000000000000000000000000000
310
00000000000000000000000000000000000000000000000000000000000000000000000000000000000000000000000000000000000000000000000000000000000000000000000000000000000000000000000000000000000000000000000000000000000000000000000000000000000000000000000000000000000000
310
00000000000000000000000000000000000000000000000000000000000000000000000000000000000000000000000000000000000000000000000000000000000000000000000000000000000000000000000000000000000000000000000000000000000000000000000000000000000000000000000000000000000000
310
000000000000000000000000000000000000000000000000000000F5F5F5F5F5F5F5F5F5F5F5F5F5F5F5F5F5F5F5F5F5F5F5F5F5F5F5F5F5F5F5F5F5F5F5F5F5F5F5F5F5F5F5F5F5F5F5F5F5F5F5F5F5F5F5F5F5F5F5F5F5F5F5F5F5F5F5F5F5F5F5F5F5F5F5F5F5F5F5F5F5F5F5F500000000000000000000000000000000
310
00000000000000000000000000000000000000000000000000000000000000000000000000000000000000000000000000000000000000000000000000000000000000000000000000000000000000000000000000000000000000000000000000000000000000000000000000000000000000000000000000000000000000
310
0000000000000000000000000000000000000000000000000000000000F5F5F50000000000000000000000000000000000000000000000000000000000000000000000000000F500000000F5F5F5F5F5F5F5F5F5F5F5F5F5F5F5F5F5F5F5F5F5F5F5F5F500F5F5F5F500000000000000F50000000000000000000000000000
310
00000000000000000000000000000000000000000000000000000000000000000000000000000000000000000000000000000000000000000000000000000000000000000000000000000000000000000000000000000000000000000000000000000000000000000000000000000000000000000000000000000000000000
310
00000000000000000000000000000000000000000000000000000000000000F5F5F50000000000000000000000000000000000000000000000000000000000000000000000000000F500000000F5F5F5F5F5F5F5F5F5F5F5F5F5F5F5F5F5F5F5F5F5F5F5F5F500F5F5F5F500000000000000F5000000000000000000000000
310
00000000000000000000000000000000000000000000000000000000000000000000000000000000000000000000000000000000000000000000000000000000000000000000000000000000000000000000000000000000000000000000000000000000000000000000000000000000000000000000000000000000000000
310
000000000000000000000000000000000000000000000000000000000000000000F5F5F50000000000000000000000000000000000000000000000000000000000000000000000000000F500000000F5F5F5F5F5F5F5F5F5F5F5F5F5F5F5F5F5F5F5F5F5F5F5F5F500F5F5F5F500000000000000F500000000000000000000
310
00000000000000000000000000000000000000000000000000000000000000000000000000000000000000000000000000000000000000000000000000000000000000000000000000000000000000000000000000000000000000000000000000000000000000000000000000000000000000000000000000000000000000
310
0000000000000000000000000000000000000000000000000000000000000000000000F5F5F50000000000000000000000000000000000000000000000000000000000000000000000000000F5F5F50000F5F5F5F5F5F5F5F5F5F5F5F5F5F5F5F5F5F5F5F5F5F5F5F5F5000000000000000000000000F50000000000000000
310
00000000000000000000000000000000000000000000000000000000000000000000000000000000000000000000000000000000000000000000000000000000000000000000000000000000000000000000000000000000000000000000000000000000000000000000000000000000000000000000000000000000000000
310
00000000000000000000000000000000000000000000000000000000000000000000000000F5F5F5F5F5F5F5F5F5F5F5F5F5F5F5F5F5F5F5F5F5F5F5F5F5F5F5F5F5F5F5F5F5F5F5F5F5F5F5F5F5F5F5F5F5F5F5F5F5F5F5F5F5F5F5F5F5F5F5F5F5F5F5F5F5F5F5F5F5F5F5F5F5F5F5F5F5F5F5F5F5F5F5F5000000000000
310
00000000000000000000000000000000000000000000000000000000000000000000000000000000000000000000000000000000000000000000000000000000000000000000000000000000000000000000000000000000000000000000000000000000000000000000000000000000000000000000000000000000000000
310
000000000000000000000000000000000000000000000000000000000000000000000000000000F5F5F50000000000000000000000000000000000000000000000000000000000000000000000000000F5F5F5F5F5F5F5F5F5F5F5F5F5F5F5F5F5F5F5F5F5F5F5F5F5F5F5F5F5F5F5F5F5F5F5F5F5F5F5F5F5F5F500000000
310
00000000000000000000000000000000000000000000000000000000000000000000000000000000000000000000000000000000000000000000000000000000000000000000000000000000000000000000000000000000000000000000000000000000000000000000000000000000000000000000000000000000000000
310
0000000000000000000000000000000000000000000000000000000000000000000000000000000000F5F5F50000000000000000000000000000000000000000000000000000000000000000000000000000F5F5F5F5F5F5F5F5F5F5F5F5F5F5F5F5F5F5F5F5F5F5F5F5F5F5F5F5F5F5F5F5F5F5F5F5F5F5F5F5F5F5F50000
310
00000000000000000000000000000000000000000000000000000000000000000000000000000000000000000000000000000000000000000000000000000000000000000000000000000000000000000000000000000000000000000000000000000000000000000000000000000000000000000000000000000000000000
310
00000000000000000000000000000000000000000000000000000000000000000000000000000000000000F5F5F50000000000000000000000000000000000000000000000000000000000000000000000000000F5F5F5F50000000000000000000000000000000000000000000000000000000000000000000000000000F5
310
00000000000000000000000000000000000000000000000000000000000000000000000000000000000000000000000000000000000000000000000000000000000000000000000000000000000000000000000000000000000000000000000000000000000000000000000000000000000000000000000000000000000000
310
000000000000000000000000000000000000000000000000000000000000000000000000000000000000000000F5F5F5F5F5F5F5F5F5F5F5F5F5F5F5F5F5F5F5F5F5F5F5F5F5F5F5F5F5F5F5F5F5F5F5F5F5F5F5F5F5F5F5F5F5F5F5F5F5F5F5F5F5F5F5F5F5F5F5F5F5F5F5F5F5F5F5F5F5F5F5F5F5F5F5F5F5F5F5F5F5F5
310
F5F50000000000000000000000000000000000000000000000000000000000000000000000000000000000000000000000000000000000000000000000000000000000000000000000000000000000000000000000000000000000000000000000000000000000000000000000000000000000000000000000000000000000
310
0000000000000000000000000000000000000000000000000000000000000000000000000000000000000000000000F5F5F500F5F5F5F5F5F5F5F50000F5F5F500F5F5F50000F5F5F5000000000000F5F5F5000000000000F5F5F5F500F5F5F5F5F5F5F5F5F5F5F50000000000000000000000000000000000000000000000
310
000000F5000000000000000000000000000000000000000000000000000000000000000000000000000000000000000000000000000000000000000000000000000000000000000000000000000000000000000000000000000000000000000000000000000000000000000000000000000000000000000000000000000000
310
00000000000000000000000000000000000000000000000000000000000000000000000000000000000000000000000000F5F5F500F5F5F5F5F5F5F5F50000F5F5F500F5F5F50000F5F5F5000000000000F5F5F5000000000000F5F5F5F500F5F5F5F5F5F5F5F5F5F5F5000000000000000000000000000000000000000000
310
0000000000F500000000000000000000000000000000000000000000000000000000000000000000000000000000000000000000000000000000000000000000000000000000000000000000000000000000000000000000000000000000000000000000000000000000000000000000000000000000000000000000000000
310
000000000000000000000000000000000000000000000000000000000000000000000000000000000000000000000000000000F5F5F500F5F5F5F5F5F5F5F50000F5F5F500F5F5F50000F5F5F5000000000000F5F5F5000000000000F5F5F5F500F5F5F5F5F5F5F5F5F5F5F500000000000000000000000000000000000000
310
00000000000000F50000000000000000000000000000000000000000000000000000000000000000000000000000000000000000000000000000000000000000000000000000000000000000000000000000000000000000000000000000000000000000000000000000000000000000000000000000000000000000000000
310
0000000000000000000000000000000000000000000000000000000000000000000000000000000000000000000000000000000000F5F5F50000000000000000000000F5F5F5000000000000F5F5F5000000000000F5F5F5000000000000F5F5F5F50000000000000000000000000000000000000000000000000000000000
310
000000000000000000F5000000000000000000000000000000000000000000000000000000000000000000000000000000000000000000000000000000000000000000000000000000000000000000000000000000000000000000000000000000000000000000000000000000000000000000000000000000000000000000
310
00000000000000000000000000000000000000000000000000000000000000000000000000000000000000000000000000000000000000F5F5F5F5F5F5F5F5F5F5F5F5F5F5F5F5F5F5F5F5F5F5F5F5F5F5F5F5F5F5F5F5F5F5F5F5F5F5F5F5F5F5F5F5F5F5F5F5F5F5F5F5F5F5F5F5F5F5F5F5F5F5F5F5F5F5F5F5F5F5F5F5
310
F5F5F5F5F5F5F5F5F5F5F5F500000000000000000000000000000000000000000000000000000000000000000000000000000000000000000000000000000000000000000000000000000000000000000000000000000000000000000000000000000000000000000000000000000000000000000000000000000000000000
310
000000000000000000000000000000000000000000000000000000000000000000000000000000000000000000000000000000000000000000F5002828282800282828280028282828282828282800282828282828282800000000000000000000000000000000000000000000000000000000000000000000000000000000
310
00000000000000000000000000F50000000000000000000000000000000000000000000000000000000000000000000000000000000000000000000000000000000000000000000000000000000000000000000000000000000000000000000000000000000000000000000000000000000000000000000000000000000000
310
0000000000000000000000000000000000000000000000000000000000000000000000000000000000000000000000000000000000000000000000F500282828280028002828002828282828282828282828282828282828280000000000000000000000000000000000000000000000000000000000000000000000000000
310
000000000000000000000000000000F5000000000000000000000000000000000000000000000000000000000000000000000000000000000000000000000000000000000000000000000000000000000000000000000000000000000000000000000000000000000000000000000000000000000000000000000000000000
310
00000000000000000000000000000000000000000000000000000000000000000000000000000000000000000000000000000000000000000000000000F50028282828002800282800282828282828282828002828282828282800000000000000000000000000000000000000000000000000000000000000000000000000
310
0000000000000000000000000000000000F500000000000000000000000000000000000000000000000000000000000000000000000000000000000000000000000000000000000000000000000000000000000000000000000000000000000000000000000000000000000000000000000000000000000000000000000000
310
000000000000000000000000000000000000000000000000000000000000000000000000000000000000000000000000000000000000000000000000000000F5000000000000282828000028282828282828282828282800282828282828282828282828282828282828280000000000000000000000000000000000000000
310
00000000000000000000000000000000000000F50000000000000000000000000000000000000000000000000000000000000000000000000000000000000000000000000000000000000000000000000000000000000000000000000000000000000000000000000000000000000000000000000000000000000000000000
310
0000000000000000000000000000000000000000000000000000000000000000000000000000000000000000000000000000000000000000000000000000000000F500000000000028282828282828282828282828282828002828282828282828282828282828282828282800000000000000000000000000000000000000
310
000000000000000000000000000000000000000000F5000000000000000000000000000000000000000000000000000000000000000000000000000000000000000000000000000000000000000000000000000000000000000000000000000000000000000000000000000000000000000000000000000000000000000000
310
00000000000000000000000000000000000000000000000000000000000000000000000000000000000000000000000000000000000000000000000000000000000000F50000000000002800000000002828000028280028002800002828000000282828282828282800000028000000000000000000000000000000000000
310
0000000000000000000000000000000000000000000000F500000000000000000000000000000000000000000000000000000000000000000000000000000000000000000000000000000000000000000000000000000000000000000000000000000000000000000000000000000000000000000000000000000000000000
310
000000000000000000000000000000000000000000000000000000000000000000000000000000000000000000000000000000000000000000000000000000000000000000F5000000000000282828282828282828282828282828282828282828282828282828282828282828282828280000000000000000000000000000
310
00000000000000000000000000000000000000000000000000F50000000000000000000000000000000000000000000000000000000000000000000000000000000000000000000000000000000000000000000000000000000000000000000000000000000000000000000000000000000000000000000000000000000000
310
0000000000000000000000000000000000000000000000000000000000000000000000000000000000000000000000000000000000000000000000000000000000000000000000F500000000000028282828282828282828282828282828000028282828282828282828282828282828282800000000000000000000000000
310
000000000000000000000000000000000000000000000000000000F5000000000000000000000000000000000000000000000000000000000000000000000000000000000000000000000000000000000000000000000000000000000000000000000000000000000000000000000000000000000000000000000000000000
310
00000000000000000000000000000000000000000000000000000000000000000000000000000000000000000000000000000000000000000000000000000000000000000000000000F50000000000000000000000000000000000000000000000000000000000000000000000000000000000000000000000000000000000
310
0000000000000000000000000000000000000000000000000000000000F500000000000000000000000000000000000000000000000000000000000000000000000000000000000000000000000000000000000000000000000000000000000000000000000000000000000000000000000000000000000000000000000000
310
000000000000000000000000000000000000000000000000000000000000000000000000000000000000000000000000000000000000000000000000000000000000000000000000000000F5000000000000000000000000000000000000000000000000000000000000000000000000000000000000000000000000000000
310
00000000000000000000000000000000000000000000000000000000000000F50000000000000000000000000000000000000000000000000000000000000000000000000000000000000000000000000000000000000000000000000000000000000000000000000000000000000000000000000000000000000000000000
310
0000000000000000000000000000000000000000000000000000000000000000000000000000000000000000000000000000000000000000000000000000000000000000000000000000000000F500000000000000000000000000000000000000000000000000000000000000000000000000000000000000000000000000
310
000000000000000000000000000000000000000000000000000000000000000000F5000000000000000000000000000000000000000000000000000000000000000000000000000000000000000000000000000000000000000000000000000000000000000000000000000000000000000000000000000000000000000000
310
00000000000000000000000000000000000000000000000000000000000000000000000000000000000000000000000000000000000000000000000000000000000000000000000000000000000000F50000000000000000000000000000000000000000000000000000000000000000000000000000000000000000000000
310
0000000000000000000000000000000000000000000000000000000000000000000000F500000000000000000000000000000000000000000000000000000000000000000000000000000000000000000000000000000000000000000000000000000000000000000000000000000000000000000000000000000000000000
310
000000000000000000000000000000000000000000000000000000000000000000000000000000000000000000000000000000000000000000000000000000000000000000000000000000000000000000F5000000000000000000000000000000000000000000000000000000000000000000000000000000000000000000
310
00000000000000000000000000000000000000000000000000000000000000000000000000F50000000000000000000000000000000000000000000000000000000000000000000000000000000000000000000000000000000000000000000000000000000000000000000000000000000000000000000000000000000000
310
0000000000000000000000000000000000000000000000000000000000000000000000000000000000000000000000000000000000000000000000000000000000000000000000000000000000000000000000F500000000000000000000000000000000000000000000000000000000000000000000000000000000000000
310
000000000000000000000000000000000000000000000000000000000000000000000000000000F5000000000000000000000000000000000000000000000000000000000000000000000000000000000000000000000000000000000000000000000000000000000000000000000000000000000000000000000000000000
310
00000000000000000000000000000000000000000000000000000000000000000000000000000000000000000000000000000000000000000000000000000000000000000000000000000000000000000000000000F50000000000000000000000000000000000000000002D000000000000000000000000002D00002D0000
310
0000000000000000000000000000000000000000000000000000000000000000002D00000000000000F500000000000000000000000000000000000000000000000000000000000000000000000000000000000000000000000000000000000000000000000000000000000000000000000000000000000000000000000000
310
000000000000000000000000000000000000000000000000000000000000000000000000000000000000000000000000000000000000000000000000000000000000000000000000000000000000000000000000000000F5000000000000000000000000000000000000002D2D2D2D2D2D2D2D2D2D2D2D2D2D2D2D2D2D2D2D
310
2D2D2D2D2D2D2D2D2D2D2D2D2D2D2D2D2D2D2D2D2D2D2D2D2D2D2D2D2D2D2D2D2D2D2D2D2D000000000000F50000000000000000000000000000000000000000000000000000000000000000000000000000000000000000000000000000000000000000000000000000000000000000000000000000000000000000000000
310
0000000000000000000000000000000000000000000000000000000000000000000000000000000000000000000000000000000000000000000000000000000000000000000000000000000000000000000000000000000000F5000000000000000000000000000000000000002D0000000000002D2D2D2D2D000000000000
310
2D000000000000000000000000000000002D2D2D2D2D2D0000000000000000000000000000002D000000000000F5000000000000000000000000000000000000000000000000000000000000000000000000000000000000000000000000000000000000000000000000000000000000000000000000000000000000000000
310
00000000000000000000000000000000000000000000000000000000000000000000000000000000000000000000000000000000000000000000000000000000000000000000000000000000000000000000000000000000000000F5000000000000000000000000000000000000002D0000000000002D2D2D2D2D00000000
310
00002D000000000000000000000000000000002D2D2D2D2D2D0000000000000000000000000000002D000000000000F500000000000000000000000000000000000000000000000000000000000000000000000000000000000000000000000000000000000000000000000000000000000000000000000000000000000000
310
000000000000000000000000000000000000000000000000000000000000000000000000000000000000000000000000000000000000000000000000000000000000000000000000000000000000000000000000000000000000000000F5000000000000000000000000000000000000002D000000000000F5F5F5F5F50000
310
000000002D000000000000000000000000000000000000000000000000000000000000000000000000002D000000000000F50000000000000000000000000000000000000000000000000000000000000000000000000000000000000000000000000000000000000000000000000000000000000000000000000000000000
310
0000000000000000000000000000000000000000000000000000000000000000000000000000000000000000000000000000000000000000000000000000000000000000000000000000000000000000000000000000000000000000000000F5000000000000000000000000000000000000002D000000F5F5F5F5000000F5
310
F5F5F50000002D000000000000000000000000000000000000000000000000000000000000000000000000002D000000000000F5000000000000000000000000000000000000000000000000000000000000000000000000000000000000000000000000000000000000000000000000000000000000000000000000000000
310
00000000000000000000000000000000000000000000000000000000000000000000000000000000000000000000000000000000000000000000000000000000000000000000000000000000000000000000000000000000000000000000000000F5000000000000000000000000000000000000002D00F5F5F50000000000
310
00000000F5F5F5002D000000000000000000000000000000000000000000000000000000000000000000000000002D000000000000F500000000000000000000000000000000000000000000000000000000000000000000000000000000000000000000000000000000000000000000000000000000000000000000000000
310
000000000000000000000000000000000000000000000000000000000000000000000000000000000000000000000000000000000000000000000000000000000000000000000000000000000000000000000000000000000000000000000000000000F5000000000000000000000000000000000000002DF5F50000000000
310
0000000000000000F5F52D000000000000000000000000000000000000000000000000000000000000000000000000002D000000000000F50000000000000000000000000000000000000000000000000000000000000000000000000000000000000000000000000000000000000000000000000000000000000000000000
310
0000000000000000000000000000000000000000000000000000000000000000000000000000000000000000000000000000000000000000000000000000000000000000000000000000000000000000000000000000000000000000000000000000000000F5000000000000002D2D2D2D2D2D2D2D2D2D2D2DF52D2D2D2D2D
310
F5F5F5F5F5F5F52D2D2D2D2DF52D2D2D2D2D2D2D2D2D2D2D00000000000000000000000000000000000000000000000000002D000000000000F5000000000000000000000000000000000000000000000000000000000000000000000000000000000000000000000000000000000000000000000000000000000000000000
310
00000000000000000000000000000000000000000000000000000000000000000000000000000000000000000000000000000000000000000000000000000000000000000000000000000000000000000000000000000000000000000000000000000000000000F5000000000000002D00000000000000000000F5F5000000
310
F5F5F50000000000F5F5F5000000F5F50000000000000000002D2D000000000000000000000000000000000000000000000000002D000000000000F500000000000000000000000000000000000000000000000000000000000000000000000000000000000000000000000000000000000000000000000000000000000000
310
000000000000000000000000000000000000000000000000000000000000000000000000000000000000000000000000000000000000000000000000000000000000000000000000000000000000000000000000000000000000000000000000000000000000000000F5000000000000002D000000000000000000F5F52D00
310
00F5F5000000000000000000F5F500002DF5F500000000000000002D00000000000000000000000000000000000000000000000000002D000000000000F50000000000000000000000000000000000000000000000000000000000000000000000000000000000000000000000000000000000000000000000000000000000
310
0000000000000000000000000000000000000000000000000000000000000000000000000000000000000000000000000000000000000000000000000000000000000000000000000000000000000000000000000000000000000000000000000000000000000000000000F5000000000000002D000000000000000000F500
310
2D00F5F50000000000000000000000F5F5002D00F500000000000000002D00000000000000000000000000000000000000000000000000002D000000000000F5000000000000000000000000000000000000000000000000000000000000000000000000000000000000000000000000000000000000000000000000000000
310
00000000000000000000000000000000000000000000000000000000000000000000000000000000000000000000000000000000000000000000000000000000000000000000000000000000000000000000000000000000000000000000000000000000000000000000000000F5000000000000002D0000000000000000F5
310
F5002DF5F5000000F5F5F5F5F5F5F5000000F5F52D00F5F5000000000000002D00000000000000000000000000000000000000000000000000002D000000000000F500000000000000000000000000000000000000000000000000000000000000000000000000000000000000000000000000000000000000000000000000
310
000000000000000000000000000000000000000000000000000000000000000000000000000000000000000000000000000000000000000000000000000000000000000000000000000000000000000000000000000000000000000000000000000000000000000000000000000000F5000000000000002D00000000000000
310
00F500002DF5000000F5F50000000000F5F5000000F52D0000F5000000000000002D00000000000000000000000000000000000000000000000000002D000000000000F50000000000000000000000000000000000000000000000000000000000000000000000000000000000000000000000000000000000000000000000
310
0000000000000000000000000000000000000000000000000000000000000000000000000000000000000000000000000000000000000000000000000000000000000000000000000000000000000000000000000000000000000000000000000000000000000000000000000000000000F5000000000000002D0000000000
310
000000F500002DF50000F5F500000000000000F5F50000F52D0000F5000000000000002D00000000000000000000000000000000000000000000000000002D000000000000F5000000000000000000000000000000000000000000000000000000000000000000000000000000000000000000000000000000000000000000
310
00000000000000000000000000000000000000000000000000000000000000000000000000000000000000000000000000000000000000000000000000000000000000000000000000000000000000000000000000000000000000000000000000000000000000000000000000000000000000F5000000000000002D000000
310
0000000000F50000F5000000F5000000000000000000F5000000F50000F5000000000000002D00000000000000000000000000000000000000000000000000002D000000000000F500000000000000000000000000000000000000000000000000000000000000000000000000000000000000000000000000000000000000
310
000000000000000000000000000000000000000000000000000000000000000000000000000000000000000000000000000000000000000000000000000000000000000000000000000000000000000000000000000000000000000000000000000000000000000000000000000000000000000000F5000000000000002D00
310
00000000000000F50000F5000000F5000000000000000000F5000000F50000F5000000000000002D00000000000000000000000000000000000000000000000000002D000000000000F50000000000000000000000000000000000000000000000000000000000000000000000000000000000000000000000000000000000
310
0000000000000000000000000000000000000000000000000000000000000000000000000000000000000000000000000000000000000000000000000000000000000000000000000000000000000000000000000000000000000000000000000000000000000000000000000000000000000000000000F500000000000000
310
2D0000000000000000F50000F5000000F50000000000000000F5F5F5F5F5F5F5F5F5F5F50000002D2D2D00000000000000000000000000000000000000000000000000002D000000000000F5000000000000000000000000000000000000000000000000000000000000000000000000000000000000000000000000000000
310
00000000000000000000000000000000000000000000000000000000000000000000000000000000000000000000000000000000000000000000000000000000000000000000000000000000000000000000000000000000000000000000000000000000000000000000000000000000000000000000000000F50000000000
310
00002D0000000000000000F50000F5000000F500000000000000F5F5F5F5F500F5F5F5F500F50000002D2D2D00000000000000000000000000000000000000000000000000002D000000000000F500000000000000000000000000000000000000000000000000000000000000000000000000000000000000000000000000
310
000000000000000000000000000000000000000000000000000000000000000000000000000000000000000000000000000000000000000000000000000000000000000000000000000000000000000000000000000000000000000000000000000000000000000000000000000000000000000000000000000000F5000000
310
000000002D0000000000000000F50000F5000000F500000000000000F500F5F5F500F500F5F500F50000002D2D2D00000000000000000000000000000000000000000000000000002D000000000000F50000000000000000000000000000000000000000000000000000000000000000000000000000000000000000000000
310
0000000000000000000000000000000000000000000000000000000000000000000000000000000000000000000000000000000000000000000000000000000000000000000000000000000000000000000000000000000000000000000000000000000000000000000000000000000000000000000000000000000000F500
310
000000002D2D2D0000000000000000F50000F5000000F500000000000000F5F5F5F5F5F5F5F5F5F5F5F50000002D2D2D00000000000000000000000000000000000000000000000000002D000000000000F5000000000000000000000000000000000000000000000000000000000000000000000000000000000000000000
310
00000000000000000000000000000000000000000000000000000000000000000000000000000000000000000000000000000000000000000000000000000000000000000000000000000000000000000000000000000000000000000000000000000000000000000000000000000000000000000000000000000000000000
310
F500000000002D2D2D0000000000000000F50000F5000000F5000000000000002D00F5000000F50000F5F52D00000000002D00000000000000000000000000000000000000000000000000002D000000000000F500000000000000000000000000000000000000000000000000000000000000000000000000000000000000
310
00000000000000000000000000000000000000000000000000000000000000000000000000000000000000000000000000000000000000000000000000000000000000000000000000000000000000000000000000000000000000000000000000000000000000000000000000000000000000000000000000000000000000
310
0000F500000000002D2D2D0000000000000000F50000F5000000F5000000000000002D00F5000000F5000000F52D00000000002D000000000000000000000000000000F5F5F5F5F52D2D2D2D2D2D2D2D2D2D2D0000F50000000000000000000000000000000000000000000000000000000000000000000000000000000000
310
00000000000000000000000000000000000000000000000000000000000000000000000000000000000000000000000000000000000000000000000000000000000000000000000000000000000000000000000000000000000000000000000000000000000000000000000000000000000000000000000000000000000000
310
00000000F500000000002D2D2D0000000000000000F50000F5000000F5000000000000002D00F5000000F5000000F52D00000000002D00000000000000000000002D000000F5000000F50000000000002D0000002D0000F5000000000000000000000000000000000000000000000000000000000000000000000000000000
310
00000000000000000000000000000000000000000000000000000000000000000000000000000000000000000000000000000000000000000000000000000000000000000000000000000000000000000000000000000000000000000000000000000000000000000000000000000000000000000000000000000000000000
310
000000000000F500000000002D2D2D0000000000000000F50000F5000000F5000000000000002D0000F50000F5F5000000F500000000002D00000000000000000000002D2D0000F5000000F50000000000002D0000002D0000F500000000000000000000000000000000000000000000000000000000000000000000000000
310
00000000000000000000000000000000000000000000000000000000000000000000000000000000000000000000000000000000000000000000000000000000000000000000000000000000000000000000000000000000000000000000000000000000000000000000000000000000000000000000000000000000000000
310
0000000000000000F500000000002D2D2D00000000000000F5F5F5F5F5F5F5F5F5000000000000002D0000F5000000F50000002DF5F5F5F5F5F5F5F5F5F5F5F50000F5F5F5F5F5F5F5F5000000F5F5F5F5F5F5F5F50000002D0000F50000000000000000000000000000000000000000000000000000000000000000000000
310
00000000000000000000000000000000000000000000000000000000000000000000000000000000000000000000000000000000000000000000000000000000000000000000000000000000000000000000000000000000000000000000000000000000000000000000000000000000000000000000000000000000000000
310
00000000000000000000F5000000000000002D000000002D2D2DF5000000F5000000F5000000000000002D0000F5F5000000F500002D00000000002D000000000000F5F5F500002D000000F5000000F5000000000000F50000002D0000F5000000000000000000000000000000000000000000000000000000000000000000
310
00000000000000000000000000000000000000000000000000000000000000000000000000000000000000000000000000000000000000000000000000000000000000000000000000000000000000000000000000000000000000000000000000000000000000000000000000000000000000000000000000000000000000
310
000000000000000000000000F5000000000000002D002D2D2D2D0000F5000000F5000000F5000000000000002D000000F500000000F5002D00000000002D000000000000F5F5F500002D000000F5000000F5000000000000F5002D002D0000F500000000000000000000000000000000000000000000000000000000000000
310
00000000000000000000000000000000000000000000000000000000000000000000000000000000000000000000000000000000000000000000000000000000000000000000000000000000000000000000000000000000000000000000000000000000000000000000000000000000000000000000000000000000000000
310
0000000000000000000000000000F5000000000000002D002D2D2D2D0000F5000000F5000000F5000000000000002D000000F5F500000000F5F500000000002D2D0000000000F5F5F500002D000000F5000000F5000000000000F52D2D2D2D0000F50000000000000000000000000000000000000000000000000000000000
310
00000000000000000000000000000000000000000000000000000000000000000000000000000000000000000000000000000000000000000000000000000000000000000000000000000000000000000000000000000000000000000000000000000000000000000000000000000000000000000000000000000000000000
310
00000000000000000000000000000000F5000000000000002D002D2D2D2D0000F5000000F5000000F5000000000000002D0000000000F5000000002DF5F5F5F5F5F5F5F5F5F5F5F5F5F5F5F5F5F5F5F5F5F5F5F5F5F5F5F5F5F5F5F5F5F52D2D2D0000F5000000000000000000000000000000000000000000000000000000
310
00000000000000000000000000000000000000000000000000000000000000000000000000000000000000000000000000000000000000000000000000000000000000000000000000000000000000000000000000000000000000000000000000000000000000000000000000000000000000000000000000000000000000
310
000000000000000000000000000000000000F5000000000000002D002D2D2D2D0000F5000000F5000000F5000000000000002D0000000000F5F50000002D0000000000000000000000F5F5F50000002D000000F5000000F5000000000000F52D2D2D2D0000F500000000000000000000000000000000000000000000000000
310
00000000000000000000000000000000000000000000000000000000000000000000000000000000000000000000000000000000000000000000000000000000000000000000000000000000000000000000000000000000000000000000000000000000000000000000000000000000000000000000000000000000000000
310
0000000000000000000000000000000000000000F50000000000002D2D2D2D2D2D2D2D2DF5F5F5F5F5F5F5F5F52D2D2D2D2D2D2D2D2D2D2D00000000F5F5002D0000000000000000000000F5F5F50000002D000000F5000000F5000000000000F52D2D2D2D0000F50000000000000000000000000000000000000000000000
310
00000000000000000000000000000000000000000000000000000000000000000000000000000000000000000000000000000000000000000000000000000000000000000000000000000000000000000000000000000000000000000000000000000000000000000000000000000000000000000000000000000000000000
310
00000000000000000000000000000000000000000000F50000000000002D2D000000002D0000F5F50000F5000000F500002D002D2D002D00002D0000000000F5F5F5F500000000000000000000F5F5F5F500002D000000F5000000F5000000000000F50000002D0000F5000000000000000000000000000000000000000000
310
00000000000000000000000000000000000000000000000000000000000000000000000000000000000000000000000000000000000000000000000000000000000000000000000000000000000000000000000000000000000000000000000000000000000000000000000000000000000000000000000000000000000000
310
000000000000000000000000000000000000000000000000F500000000002D2D2D000000002D0000F5F50000F5000000F500002D2D2D00002D002D2D000000000000002DF5F5F5F5F5F5F5F5F5F5F5F50000F5F5F5F5F5F5F5F5000000F5F5F5F5F5F5F5F50000002D0000F500000000000000000000000000000000000000
310
00000000000000000000000000000000000000000000000000000000000000000000000000000000000000000000000000000000000000000000000000000000000000000000000000000000000000000000000000000000000000000000000000000000000000000000000000000000000000000000000000000000000000
310
0000000000000000000000000000000000000000000000000000F50000000000002D2D000000002D0000F5F50000F5000000F500002D2D2D00002D00002D000000000000002D00000000000000000000000000000000002D2D0000F5000000F5000000000000000000002D0000F50000000000000000000000000000000000
310
00000000000000000000000000000000000000000000000000000000000000000000000000000000000000000000000000000000000000000000000000000000000000000000000000000000000000000000000000000000000000000000000000000000000000000000000000000000000000000000000000000000000000
310
00000000000000000000000000000000000000000000000000000000F50000000000002D2D000000002D0000F5F50000F5000000F50000002D2D00002D002D2D0000000000002D2D00000000000000000000000000000000002D000000F5000000F5000000000000000000002D0000F5000000000000000000000000000000
310
00000000000000000000000000000000000000000000000000000000000000000000000000000000000000000000000000000000000000000000000000000000000000000000000000000000000000000000000000000000000000000000000000000000000000000000000000000000000000000000000000000000000000
310
000000000000000000000000000000000000000000000000000000000000F50000000000002D2D0000002D2D00F5F5F5F5F5F5F5F5F5F5F5002D2D2D00002D2D2D2D2D2D2D2D2D2D2D2D2D2D2D0000000000000000000000002D2D2D000000F5F50000F5000000000000000000002D0000F500000000000000000000000000
310
00000000000000000000000000000000000000000000000000000000000000000000000000000000000000000000000000000000000000000000000000000000000000000000000000000000000000000000000000000000000000000000000000000000000000000000000000000000000000000000000000000000000000
310
0000000000000000000000000000000000000000000000000000000000000000F50000000000002D2D000000002D00F5F5F5F5F5F5F5F5F5F5F5F52D2D2D00000000002D00002D2D2D2D2D2D2D2D2D0000000000000000000000002D2D2D00000000F5F5F5F52D2D2D2D2D2D2D2D2D2D2D0000F50000000000000000000000
310
00000000000000000000000000000000000000000000000000000000000000000000000000000000000000000000000000000000000000000000000000000000000000000000000000000000000000000000000000000000000000000000000000000000000000000000000000000000000000000000000000000000000000
310
00000000000000000000000000000000000000000000000000000000000000000000F50000000000002D2D2D2D2D2D2D2DF500F5F500F500F5F5F500F52D2D2D00000000002D00002D2D2D2D2D2D002D2D0000000000000000000000002D2D2D000000000000000000000000000000000000000000F5000000000000000000
310
00000000000000000000000000000000000000000000000000000000000000000000000000000000000000000000000000000000000000000000000000000000000000000000000000000000000000000000000000000000000000000000000000000000000000000000000000000000000000000000000000000000000000
310
000000000000000000000000000000000000000000000000000000000000000000000000F50000000000002D00000000000000F5F5F5F5F5F5F5F5F5F5F5F52D2D2D2D000000002D00000000000000000000000000000000000000000000002D2D2D000000000000000000000000000000000000000000F500000000000000
310
00000000000000000000000000000000000000000000000000000000000000000000000000000000000000000000000000000000000000000000000000000000000000000000000000000000000000000000000000000000000000000000000000000000000000000000000000000000000000000000000000000000000000
310
0000000000000000000000000000000000000000000000000000000000000000000000000000F50000000000002D000000000000002D00F50000F5000000F5002D0000000000002D002D000000000000000000000000000000000000000000000000002D000000000000000000000000000000000000000000F50000000000
310
00000000000000000000000000000000000000000000000000000000000000000000000000000000000000000000000000000000000000000000000000000000000000000000000000000000000000000000000000000000000000000000000000000000000000000000000000000000000000000000000000000000000000
310
00000000000000000000000000000000000000000000000000000000000000000000000000000000F50000000000002D000000000000002D00F50000F5000000F5002D00000000002D2D2D2D0000000000000000000000000000000000000000000000000000000000000000000000000000000000000000000000F5000000
310
00000000000000000000000000000000000000000000000000000000000000000000000000000000000000000000000000000000000000000000000000000000000000000000000000000000000000000000000000000000000000000000000000000000000000000000000000000000000000000000000000000000000000
310
000000000000000000000000000000000000000000000000000000000000000000000000000000000000F50000000000002D000000000000002D00F50000F5000000F5002D00000000002D2D2D2D0000000000000000000000000000000000000000000000000000000000000000000000000000000000000000000000F500
310
00000000000000000000000000000000000000000000000000000000000000000000000000000000000000000000000000000000000000000000000000000000000000000000000000000000000000000000000000000000000000000000000000000000000000000000000000000000000000000000000000000000000000
310
0000000000000000000000000000000000000000000000000000000000000000000000000000000000000000F50000000000002D000000000000002D00F50000F5000000F5002D00000000002D2D2D2D0000000000000000000000000000000000000000000000000000000000000000000000000000000000000000000000
310
F5000000000000000000000000000000000000000000000000000000000000000000000000000000000000000000000000000000000000000000000000000000000000000000000000000000000000000000000000000000000000000000000000000000000000000000000000000000000000000000000000000000000000
310
00000000000000000000000000000000000000000000000000000000000000000000000000000000000000000000F50000000000002D000000000000002D00F50000F5000000F5002D00000000002D2D2D2D000000000000000000000000000000000000000000000000000000000000000000000000000000000000000000
310
0000F500000000000000000000000000000000000000000000000000000000000000000000000000000000000000000000000000000000000000000000000000000000000000000000000000000000000000000000000000000000000000000000000000000000000000000000000000000000000000000000000000000000
310
000000000000000000000000000000000000000000000000000000000000000000000000000000000000000000000000F50000000000002D000000000000002D00F50000F5000000F5002D00000000000000002D0000000000000000000000000000002D2D2D00000000000000000000000000000000000000000000000000
310
00000000F50000000000000000000000000000000000000000000000000000000000000000000000000000000000000000000000000000000000000000000000000000000000000000000000000000000000000000000000000000000000000000000000000000000000000000000000000000000000000000000000000000
310
0000000000000000000000000000000000000000000000000000000000000000000000000000000000000000000000000000F50000000000002D000000002D2D2D2D2DF52D2DF52D2D2DF52D2D2D2D2D2D2D2D2D2D2D2D2D2D2D2D2D2D2D2D2D2D000000002D002D2D2D2D2D2D2D0000000000000000000000000000000000
310
000000000000F5000000000000000000000000000000000000000000000000000000000000000000000000000000000000000000000000000000000000000000000000000000000000000000000000000000000000000000000000000000000000000000000000000000000000000000000000000000000000000000000000
310
00000000000000000000000000000000000000000000000000000000000000000000000000000000000000000000000000000000F50000000000002D000000000000000000F50000F5000000F5000000000000000000002D002D2D2D2D2D2D2D2D2D00000000002D002D2D2D2D2D2D2D000000000000000000000000000000
310
0000000000000000F500000000000000000000000000000000000000000000000000000000000000000000000000000000000000000000000000000000000000000000000000000000000000000000000000000000000000000000000000000000000000000000000000000000000000000000000000000000000000000000
310
000000000000000000000000000000000000000000000000000000000000000000000000000000000000000000000000000000000000F50000000000002D000000000000000000F50000F5000000F5000000000000000000002D002D2D2D2D2D2D002D2D00000000002D002D00002D2D2D2D00000000000000000000000000
310
00000000000000000000F50000000000000000000000000000000000000000000000000000000000000000000000000000000000000000000000000000000000000000000000000000000000000000000000000000000000000000000000000000000000000000000000000000000000000000000000000000000000000000
310
0000000000000000000000000000000000000000000000000000000000000000000000000000000000000000000000000000000000000000F50000000000002D000000000000000000F50000F5000000F5000000000000000000002D002D002D2D2D00002D2D000000002D0000000000000000000000000000000000000000
310
000000000000000000000000F5000000000000000000000000000000000000000000000000000000000000000000000000000000000000000000000000000000000000000000000000000000000000000000000000000000000000000000000000000000000000000000000000000000000000000000000000000000000000
310
00000000000000000000000000000000000000000000000000000000000000000000000000000000000000000000000000000000000000000000F50000000000002D000000000000000000F50000F5000000F5000000000000000000002D00000000000000000000000000002D000000000000000000000000000000000000
310
0000000000000000000000000000F500000000000000000000000000000000000000000000000000000000000000000000000000000000000000000000000000000000000000000000000000000000000000000000000000000000000000000000000000000000000000000000000000000000000000000000000000000000
310
000000000000000000000000000000000000000000000000000000000000000000000000000000000000000000000000000000000000000000000000F50000000000002D000000000000000000F50000F5000000F5000000000000000000002D000000000000000000000000002D2D00000000000000000000000000000000
310
00000000000000000000000000000000F50000000000000000000000000000000000000000000000000000000000000000000000000000000000000000000000000000000000000000000000000000000000000000000000000000000000000000000000000000000000000000000000000000000000000000000000000000
310
0000000000000000000000000000000000000000000000000000000000000000000000000000000000000000000000000000000000000000000000000000F50000000000002D000000000000000000F50000F5000000F5F500000000000000002D2D000000000000000000000000002D2D0000000000000000000000000000
310
000000000000000000000000000000000000F5000000000000000000000000000000000000000000000000000000000000000000000000000000000000000000000000000000000000000000000000000000000000000000000000000000000000000000000000000000000000000000000000000000000000000000000000
310
00000000000000000000000000000000000000000000000000000000000000000000000000000000000000000000000000000000000000000000000000000000F50000000000002D000000000000000000F50000F5F5F5F5F5F5F5F5F5F5F5F5F5F5F5F5F5F5F5F5F5F5F5F5F5F5F5F5F5F5F5F5F5F5F5F500000000000000
310
0000000000000000000000000000000000000000F500000000000000000000000000000000000000000000000000000000000000000000000000000000000000000000000000000000000000000000000000000000000000000000000000000000000000000000000000000000000000000000000000000000000000000000
310
000000000000000000000000000000000000000000000000000000000000000000000000000000000000000000000000000000000000000000000000000000000000F500002D2D2D2D2D000000000000000000F50000F5000000F5F5F5F5F5F5F5F5F5F5F5F5F5F5F5F5F5F5F5F5F5F5F5F5F5F5F5F5F5F5F5F5F500000000
310
00000000000000000000000000000000000000000000F50000000000000000000000000000000000000000000000000000000000000000000000000000000000000000000000000000000000000000000000000000000000000000000000000000000000000000000000000000000000000000000000000000000000000000
310
0000000000000000000000000000000000000000000000000000000000000000000000000000000000000000000000000000000000000000000000000000000000000000F500002D2D2D002D000000000000000000F50000F5000000F5F500000000000000000000000000000000000000000000000000000000F5F5F5F500
310
000000000000000000000000000000000000000000000000F5000000000000000000000000000000000000000000000000000000000000000000000000000000000000000000000000000000000000000000000000000000000000000000000000000000000000000000000000000000000000000000000000000000000000
310
00000000000000000000000000000000000000000000000000000000000000000000000000000000000000000000000000000000000000000000000000000000000000000000F500002D2D2D002D000000000000000000F50000F5000000F500000000000000000000000000000000000000000000000000000000000000F5
310
F5F5000000000000000000000000000000000000000000000000F500000000000000000000000000000000000000000000000000000000000000000000000000000000000000000000000000000000000000000000000000000000000000000000000000000000000000000000000000000000000000000000000000000000
310
000000000000000000000000000000000000000000000000000000000000000000000000000000000000000000000000000000000000000000000000000000000000000000000000F500002D2D2D002D000000000000000000F50000F5000000F5000000000000000000000000000000000000000000000000000000000000
310
0000F5F5000000000000000000000000000000000000000000000000F50000000000000000000000000000000000000000000000000000000000000000000000000000000000000000000000000000000000000000000000000000000000000000000000000000000000000000000000000000000000000000000000000000
310
0000000000000000000000000000000000000000000000000000000000000000000000000000000000000000000000000000000000000000000000000000000000000000000000000000F500002D2D2D2D2D000000000000000000F50000F5000000F500000000000000000000000000000000000000000000000000000000
310
00000000F5F5000000000000000000000000000000000000000000000000F5000000000000000000000000000000000000000000000000000000000000000000000000000000000000000000000000000000000000000000000000000000000000000000000000000000000000000000000000000000000000000000000000
310
00000000000000000000000000000000000000000000000000000000000000000000000000000000
  0
XRECORD
  5
669F
102
{ACAD_REACTORS
330
645E
102
}
330
645E
100
AcDbXrecord
280
     1
102
MATERIAL
148
0.0
149
0.0
149
0.0
 93
        0
 94
      127
282
     0
 72
     0
 77
     0
171
     0
175
     0
179
     0
273
     0
  0
XRECORD
  5
6460
102
{ACAD_REACTORS
330
645E
102
}
330
645E
100
AcDbXrecord
280
     1
270
     1
271
     1
  0
XRECORD
  5
645F
102
{ACAD_REACTORS
330
645E
102
}
330
645E
100
AcDbXrecord
280
     1
270
     1
271
     1
  0
XRECORD
  5
6463
102
{ACAD_REACTORS
330
645E
102
}
330
645E
100
AcDbXrecord
280
     1
270
     1
271
     1
  0
XRECORD
  5
6462
102
{ACAD_REACTORS
330
645E
102
}
330
645E
100
AcDbXrecord
280
     1
270
     1
271
     1
  0
XRECORD
  5
6464
102
{ACAD_REACTORS
330
645E
102
}
330
645E
100
AcDbXrecord
280
     1
270
     1
271
     1
  0
XRECORD
  5
6461
102
{ACAD_REACTORS
330
645E
102
}
330
645E
100
AcDbXrecord
280
     1
270
     1
271
     1
  0
XRECORD
  5
669E
102
{ACAD_REACTORS
330
6456
102
}
330
6456
100
AcDbXrecord
280
     1
102
MATERIAL
148
0.0
149
0.0
149
0.0
 93
        0
 94
      127
282
     0
 72
     0
 77
     0
171
     0
175
     0
179
     0
273
     0
  0
XRECORD
  5
6458
102
{ACAD_REACTORS
330
6456
102
}
330
6456
100
AcDbXrecord
280
     1
270
     1
271
     1
  0
XRECORD
  5
6457
102
{ACAD_REACTORS
330
6456
102
}
330
6456
100
AcDbXrecord
280
     1
270
     1
271
     1
  0
XRECORD
  5
645B
102
{ACAD_REACTORS
330
6456
102
}
330
6456
100
AcDbXrecord
280
     1
270
     1
271
     1
  0
XRECORD
  5
645A
102
{ACAD_REACTORS
330
6456
102
}
330
6456
100
AcDbXrecord
280
     1
270
     1
271
     1
  0
XRECORD
  5
645C
102
{ACAD_REACTORS
330
6456
102
}
330
6456
100
AcDbXrecord
280
     1
270
     1
271
     1
  0
XRECORD
  5
6459
102
{ACAD_REACTORS
330
6456
102
}
330
6456
100
AcDbXrecord
280
     1
270
     1
271
     1
  0
XRECORD
  5
66A0
102
{ACAD_REACTORS
330
6466
102
}
330
6466
100
AcDbXrecord
280
     1
102
MATERIAL
148
0.0
149
0.0
149
0.0
 93
        0
 94
      127
282
     0
 72
     0
 77
     0
171
     0
175
     0
179
     0
273
     0
  0
XRECORD
  5
6468
102
{ACAD_REACTORS
330
6466
102
}
330
6466
100
AcDbXrecord
280
     1
270
     1
271
     1
  0
XRECORD
  5
6467
102
{ACAD_REACTORS
330
6466
102
}
330
6466
100
AcDbXrecord
280
     1
270
     1
271
     1
  0
XRECORD
  5
646B
102
{ACAD_REACTORS
330
6466
102
}
330
6466
100
AcDbXrecord
280
     1
270
     1
271
     1
  0
XRECORD
  5
646A
102
{ACAD_REACTORS
330
6466
102
}
330
6466
100
AcDbXrecord
280
     1
270
     1
271
     1
  0
XRECORD
  5
646C
102
{ACAD_REACTORS
330
6466
102
}
330
6466
100
AcDbXrecord
280
     1
270
     1
271
     1
  0
XRECORD
  5
6469
102
{ACAD_REACTORS
330
6466
102
}
330
6466
100
AcDbXrecord
280
     1
270
     1
271
     1
  0
CELLSTYLEMAP
  5
67C7
102
{ACAD_REACTORS
330
669B
102
}
330
669B
100
AcDbCellStyleMap
 90
        3
300
CELLSTYLE
  1
TABLEFORMAT_BEGIN
 90
        5
170
     1
 91
        0
 92
    32768
 62
   257
 93
        1
300
CONTENTFORMAT
  1
CONTENTFORMAT_BEGIN
 90
        0
 91
        0
 92
      512
 93
        0
300

 40
0.0
140
1.0
 94
        5
 62
     0
340
10
144
6.0
309
CONTENTFORMAT_END
171
     1
301
MARGIN
  1
CELLMARGIN_BEGIN
 40
1.5
 40
1.5
 40
1.5
 40
1.5
 40
0.18
 40
0.18
309
CELLMARGIN_END
 94
        6
 95
        1
302
GRIDFORMAT
  1
GRIDFORMAT_BEGIN
 90
        0
 91
        1
 62
     0
 92
       -2
340
0
 93
        0
 40
1.125
309
GRIDFORMAT_END
 95
        2
302
GRIDFORMAT
  1
GRIDFORMAT_BEGIN
 90
        0
 91
        1
 62
     0
 92
       -2
340
0
 93
        0
 40
1.125
309
GRIDFORMAT_END
 95
        4
302
GRIDFORMAT
  1
GRIDFORMAT_BEGIN
 90
        0
 91
        1
 62
     0
 92
       -2
340
0
 93
        0
 40
1.125
309
GRIDFORMAT_END
 95
        8
302
GRIDFORMAT
  1
GRIDFORMAT_BEGIN
 90
        0
 91
        1
 62
     0
 92
       -2
340
0
 93
        0
 40
1.125
309
GRIDFORMAT_END
 95
       16
302
GRIDFORMAT
  1
GRIDFORMAT_BEGIN
 90
        0
 91
        1
 62
     0
 92
       -2
340
0
 93
        0
 40
1.125
309
GRIDFORMAT_END
 95
       32
302
GRIDFORMAT
  1
GRIDFORMAT_BEGIN
 90
        0
 91
        1
 62
     0
 92
       -2
340
0
 93
        0
 40
1.125
309
GRIDFORMAT_END
309
TABLEFORMAT_END
  1
CELLSTYLE_BEGIN
 90
        1
 91
        1
300
_TITLE
309
CELLSTYLE_END
300
CELLSTYLE
  1
TABLEFORMAT_BEGIN
 90
        5
170
     1
 91
        0
 92
        0
 62
   257
 93
        1
300
CONTENTFORMAT
  1
CONTENTFORMAT_BEGIN
 90
        0
 91
        0
 92
      512
 93
        0
300

 40
0.0
140
1.0
 94
        5
 62
     0
340
10
144
4.5
309
CONTENTFORMAT_END
171
     1
301
MARGIN
  1
CELLMARGIN_BEGIN
 40
1.5
 40
1.5
 40
1.5
 40
1.5
 40
0.18
 40
0.18
309
CELLMARGIN_END
 94
        6
 95
        1
302
GRIDFORMAT
  1
GRIDFORMAT_BEGIN
 90
        0
 91
        1
 62
     0
 92
       -2
340
0
 93
        0
 40
1.125
309
GRIDFORMAT_END
 95
        2
302
GRIDFORMAT
  1
GRIDFORMAT_BEGIN
 90
        0
 91
        1
 62
     0
 92
       -2
340
0
 93
        0
 40
1.125
309
GRIDFORMAT_END
 95
        4
302
GRIDFORMAT
  1
GRIDFORMAT_BEGIN
 90
        0
 91
        1
 62
     0
 92
       -2
340
0
 93
        0
 40
1.125
309
GRIDFORMAT_END
 95
        8
302
GRIDFORMAT
  1
GRIDFORMAT_BEGIN
 90
        0
 91
        1
 62
     0
 92
       -2
340
0
 93
        0
 40
1.125
309
GRIDFORMAT_END
 95
       16
302
GRIDFORMAT
  1
GRIDFORMAT_BEGIN
 90
        0
 91
        1
 62
     0
 92
       -2
340
0
 93
        0
 40
1.125
309
GRIDFORMAT_END
 95
       32
302
GRIDFORMAT
  1
GRIDFORMAT_BEGIN
 90
        0
 91
        1
 62
     0
 92
       -2
340
0
 93
        0
 40
1.125
309
GRIDFORMAT_END
309
TABLEFORMAT_END
  1
CELLSTYLE_BEGIN
 90
        2
 91
        1
300
_HEADER
309
CELLSTYLE_END
300
CELLSTYLE
  1
TABLEFORMAT_BEGIN
 90
        5
170
     1
 91
        0
 92
        0
 62
   257
 93
        1
300
CONTENTFORMAT
  1
CONTENTFORMAT_BEGIN
 90
        0
 91
        0
 92
      512
 93
        0
300

 40
0.0
140
1.0
 94
        2
 62
     0
340
10
144
4.5
309
CONTENTFORMAT_END
171
     1
301
MARGIN
  1
CELLMARGIN_BEGIN
 40
1.5
 40
1.5
 40
1.5
 40
1.5
 40
0.18
 40
0.18
309
CELLMARGIN_END
 94
        6
 95
        1
302
GRIDFORMAT
  1
GRIDFORMAT_BEGIN
 90
        0
 91
        1
 62
     0
 92
       -2
340
0
 93
        0
 40
1.125
309
GRIDFORMAT_END
 95
        2
302
GRIDFORMAT
  1
GRIDFORMAT_BEGIN
 90
        0
 91
        1
 62
     0
 92
       -2
340
0
 93
        0
 40
1.125
309
GRIDFORMAT_END
 95
        4
302
GRIDFORMAT
  1
GRIDFORMAT_BEGIN
 90
        0
 91
        1
 62
     0
 92
       -2
340
0
 93
        0
 40
1.125
309
GRIDFORMAT_END
 95
        8
302
GRIDFORMAT
  1
GRIDFORMAT_BEGIN
 90
        0
 91
        1
 62
     0
 92
       -2
340
0
 93
        0
 40
1.125
309
GRIDFORMAT_END
 95
       16
302
GRIDFORMAT
  1
GRIDFORMAT_BEGIN
 90
        0
 91
        1
 62
     0
 92
       -2
340
0
 93
        0
 40
1.125
309
GRIDFORMAT_END
 95
       32
302
GRIDFORMAT
  1
GRIDFORMAT_BEGIN
 90
        0
 91
        1
 62
     0
 92
       -2
340
0
 93
        0
 40
1.125
309
GRIDFORMAT_END
309
TABLEFORMAT_END
  1
CELLSTYLE_BEGIN
 90
        3
 91
        2
300
_DATA
309
CELLSTYLE_END
  0
XRECORD
  5
67D4
102
{ACAD_REACTORS
330
67D3
102
}
330
67D3
100
AcDbXrecord
280
     1
102
RTVSPropertyOp0
 70
     1
102
RTVSPropertyOp1
 70
     1
102
RTVSPropertyOp2
 70
     1
102
RTVSPropertyOp3
 70
     1
102
RTVSPropertyOp4
 70
     1
102
RTVSPropertyOp5
 70
     1
102
RTVSPropertyOp6
 70
     1
102
RTVSPropertyOp7
 70
     1
102
RTVSPropertyOp8
 70
     1
102
RTVSPropertyOp9
 70
     1
102
RTVSPropertyOp10
 70
     1
102
RTVSPropertyOp11
 70
     1
102
RTVSPropertyOp12
 70
     1
102
RTVSPropertyOp13
 70
     1
102
RTVSPropertyOp14
 70
     1
102
RTVSPropertyOp15
 70
     1
102
RTVSPropertyOp16
 70
     1
102
RTVSPropertyOp17
 70
     1
102
RTVSPropertyOp18
 70
     1
102
RTVSPropertyOp19
 70
     1
102
RTVSPropertyOp20
 70
     1
102
RTVSPropertyOp21
 70
     1
102
RTVSPropertyOp22
 70
     1
102
RTVSPropertyOp23
 70
     1
102
RTVSPropertyOp24
 70
     1
102
RTVSPropertyOp25
 70
     1
102
RTVSPropertyOp26
 70
     1
102
RTVSPropertyOp27
 70
     1
102
RTVSPropertyOp28
 70
     1
102
RTVSPropertyOp29
 70
     1
102
RTVSPropertyOp30
 70
     1
102
RTVSPropertyOp31
 70
     1
102
RTVSPropertyOp32
 70
     1
  0
XRECORD
  5
67D2
102
{ACAD_REACTORS
330
67D1
102
}
330
67D1
100
AcDbXrecord
280
     1
102
RTVSPropertyOp0
 70
     1
102
RTVSPropertyOp1
 70
     1
102
RTVSPropertyOp2
 70
     1
102
RTVSPropertyOp3
 70
     1
102
RTVSPropertyOp4
 70
     1
102
RTVSPropertyOp5
 70
     1
102
RTVSPropertyOp6
 70
     1
102
RTVSPropertyOp7
 70
     1
102
RTVSPropertyOp8
 70
     1
102
RTVSPropertyOp9
 70
     1
102
RTVSPropertyOp10
 70
     1
102
RTVSPropertyOp11
 70
     1
102
RTVSPropertyOp12
 70
     1
102
RTVSPropertyOp13
 70
     1
102
RTVSPropertyOp14
 70
     1
102
RTVSPropertyOp15
 70
     1
102
RTVSPropertyOp16
 70
     1
102
RTVSPropertyOp17
 70
     1
102
RTVSPropertyOp18
 70
     1
102
RTVSPropertyOp19
 70
     1
102
RTVSPropertyOp20
 70
     1
102
RTVSPropertyOp21
 70
     1
102
RTVSPropertyOp22
 70
     1
102
RTVSPropertyOp23
 70
     1
102
RTVSPropertyOp24
 70
     1
102
RTVSPropertyOp25
 70
     1
102
RTVSPropertyOp26
 70
     1
102
RTVSPropertyOp27
 70
     1
102
RTVSPropertyOp28
 70
     1
102
RTVSPropertyOp29
 70
     1
102
RTVSPropertyOp30
 70
     1
102
RTVSPropertyOp31
 70
     1
102
RTVSPropertyOp32
 70
     1
  0
XRECORD
  5
67E0
102
{ACAD_REACTORS
330
67DF
102
}
330
67DF
100
AcDbXrecord
280
     1
102
RTVSPropertyOp0
 70
     1
102
RTVSPropertyOp1
 70
     1
102
RTVSPropertyOp2
 70
     1
102
RTVSPropertyOp3
 70
     1
102
RTVSPropertyOp4
 70
     1
102
RTVSPropertyOp5
 70
     1
102
RTVSPropertyOp6
 70
     1
102
RTVSPropertyOp7
 70
     1
102
RTVSPropertyOp8
 70
     1
102
RTVSPropertyOp9
 70
     1
102
RTVSPropertyOp10
 70
     1
102
RTVSPropertyOp11
 70
     1
102
RTVSPropertyOp12
 70
     1
102
RTVSPropertyOp13
 70
     1
102
RTVSPropertyOp14
 70
     1
102
RTVSPropertyOp15
 70
     1
102
RTVSPropertyOp16
 70
     1
102
RTVSPropertyOp17
 70
     1
102
RTVSPropertyOp18
 70
     1
102
RTVSPropertyOp19
 70
     1
102
RTVSPropertyOp20
 70
     1
102
RTVSPropertyOp21
 70
     1
102
RTVSPropertyOp22
 70
     1
102
RTVSPropertyOp23
 70
     1
102
RTVSPropertyOp24
 70
     1
102
RTVSPropertyOp25
 70
     1
102
RTVSPropertyOp26
 70
     1
102
RTVSPropertyOp27
 70
     1
102
RTVSPropertyOp28
 70
     1
102
RTVSPropertyOp29
 70
     1
102
RTVSPropertyOp30
 70
     1
102
RTVSPropertyOp31
 70
     1
102
RTVSPropertyOp32
 70
     1
  0
XRECORD
  5
67E8
102
{ACAD_REACTORS
330
67E7
102
}
330
67E7
100
AcDbXrecord
280
     1
102
RTVSPropertyOp0
 70
     1
102
RTVSPropertyOp1
 70
     1
102
RTVSPropertyOp2
 70
     1
102
RTVSPropertyOp3
 70
     1
102
RTVSPropertyOp4
 70
     1
102
RTVSPropertyOp5
 70
     1
102
RTVSPropertyOp6
 70
     1
102
RTVSPropertyOp7
 70
     1
102
RTVSPropertyOp8
 70
     1
102
RTVSPropertyOp9
 70
     1
102
RTVSPropertyOp10
 70
     1
102
RTVSPropertyOp11
 70
     1
102
RTVSPropertyOp12
 70
     1
102
RTVSPropertyOp13
 70
     1
102
RTVSPropertyOp14
 70
     1
102
RTVSPropertyOp15
 70
     1
102
RTVSPropertyOp16
 70
     1
102
RTVSPropertyOp17
 70
     1
102
RTVSPropertyOp18
 70
     1
102
RTVSPropertyOp19
 70
     1
102
RTVSPropertyOp20
 70
     1
102
RTVSPropertyOp21
 70
     1
102
RTVSPropertyOp22
 70
     1
102
RTVSPropertyOp23
 70
     1
102
RTVSPropertyOp24
 70
     1
102
RTVSPropertyOp25
 70
     1
102
RTVSPropertyOp26
 70
     1
102
RTVSPropertyOp27
 70
     1
102
RTVSPropertyOp28
 70
     1
102
RTVSPropertyOp29
 70
     1
102
RTVSPropertyOp30
 70
     1
102
RTVSPropertyOp31
 70
     1
102
RTVSPropertyOp32
 70
     1
  0
XRECORD
  5
67DA
102
{ACAD_REACTORS
330
67D9
102
}
330
67D9
100
AcDbXrecord
280
     1
102
RTVSPropertyOp0
 70
     1
102
RTVSPropertyOp1
 70
     1
102
RTVSPropertyOp2
 70
     1
102
RTVSPropertyOp3
 70
     1
102
RTVSPropertyOp4
 70
     1
102
RTVSPropertyOp5
 70
     1
102
RTVSPropertyOp6
 70
     1
102
RTVSPropertyOp7
 70
     1
102
RTVSPropertyOp8
 70
     1
102
RTVSPropertyOp9
 70
     1
102
RTVSPropertyOp10
 70
     1
102
RTVSPropertyOp11
 70
     1
102
RTVSPropertyOp12
 70
     1
102
RTVSPropertyOp13
 70
     1
102
RTVSPropertyOp14
 70
     1
102
RTVSPropertyOp15
 70
     1
102
RTVSPropertyOp16
 70
     1
102
RTVSPropertyOp17
 70
     1
102
RTVSPropertyOp18
 70
     1
102
RTVSPropertyOp19
 70
     1
102
RTVSPropertyOp20
 70
     1
102
RTVSPropertyOp21
 70
     1
102
RTVSPropertyOp22
 70
     1
102
RTVSPropertyOp23
 70
     1
102
RTVSPropertyOp24
 70
     1
102
RTVSPropertyOp25
 70
     1
102
RTVSPropertyOp26
 70
     1
102
RTVSPropertyOp27
 70
     1
102
RTVSPropertyOp28
 70
     1
102
RTVSPropertyOp29
 70
     1
102
RTVSPropertyOp30
 70
     1
102
RTVSPropertyOp31
 70
     1
102
RTVSPropertyOp32
 70
     1
  0
XRECORD
  5
67DE
102
{ACAD_REACTORS
330
67DD
102
}
330
67DD
100
AcDbXrecord
280
     1
102
RTVSPropertyOp0
 70
     1
102
RTVSPropertyOp1
 70
     1
102
RTVSPropertyOp2
 70
     1
102
RTVSPropertyOp3
 70
     1
102
RTVSPropertyOp4
 70
     1
102
RTVSPropertyOp5
 70
     1
102
RTVSPropertyOp6
 70
     1
102
RTVSPropertyOp7
 70
     1
102
RTVSPropertyOp8
 70
     1
102
RTVSPropertyOp9
 70
     1
102
RTVSPropertyOp10
 70
     1
102
RTVSPropertyOp11
 70
     1
102
RTVSPropertyOp12
 70
     1
102
RTVSPropertyOp13
 70
     1
102
RTVSPropertyOp14
 70
     1
102
RTVSPropertyOp15
 70
     1
102
RTVSPropertyOp16
 70
     1
102
RTVSPropertyOp17
 70
     1
102
RTVSPropertyOp18
 70
     1
102
RTVSPropertyOp19
 70
     1
102
RTVSPropertyOp20
 70
     1
102
RTVSPropertyOp21
 70
     1
102
RTVSPropertyOp22
 70
     1
102
RTVSPropertyOp23
 70
     1
102
RTVSPropertyOp24
 70
     1
102
RTVSPropertyOp25
 70
     1
102
RTVSPropertyOp26
 70
     1
102
RTVSPropertyOp27
 70
     1
102
RTVSPropertyOp28
 70
     1
102
RTVSPropertyOp29
 70
     1
102
RTVSPropertyOp30
 70
     1
102
RTVSPropertyOp31
 70
     1
102
RTVSPropertyOp32
 70
     1
  0
XRECORD
  5
67F8
102
{ACAD_REACTORS
330
67F7
102
}
330
67F7
100
AcDbXrecord
280
     1
102
RTVSPropertyOp0
 70
     0
102
RTVSPropertyOp1
 70
     0
102
RTVSPropertyOp2
 70
     0
102
RTVSPropertyOp3
 70
     0
102
RTVSPropertyOp4
 70
     0
102
RTVSPropertyOp5
 70
     0
102
RTVSPropertyOp6
 70
     0
102
RTVSPropertyOp7
 70
     0
102
RTVSPropertyOp8
 70
     0
102
RTVSPropertyOp9
 70
     0
102
RTVSPropertyOp10
 70
     0
102
RTVSPropertyOp11
 70
     0
102
RTVSPropertyOp12
 70
     0
102
RTVSPropertyOp13
 70
     0
102
RTVSPropertyOp14
 70
     2
102
RTVSPropertyOp15
 70
     0
102
RTVSPropertyOp16
 70
     0
102
RTVSPropertyOp17
 70
     0
102
RTVSPropertyOp18
 70
     0
102
RTVSPropertyOp19
 70
     0
102
RTVSPropertyOp20
 70
     0
102
RTVSPropertyOp21
 70
     0
102
RTVSPropertyOp22
 70
     0
102
RTVSPropertyOp23
 70
     0
102
RTVSPropertyOp24
 70
     0
102
RTVSPropertyOp25
 70
     0
102
RTVSPropertyOp26
 70
     0
102
RTVSPropertyOp27
 70
     0
102
RTVSPropertyOp28
 70
     1
102
RTVSPropertyOp29
 70
     1
102
RTVSPropertyOp30
 70
     1
102
RTVSPropertyOp31
 70
     1
102
RTVSPropertyOp32
 70
     1
  0
XRECORD
  5
67E6
102
{ACAD_REACTORS
330
67E5
102
}
330
67E5
100
AcDbXrecord
280
     1
102
RTVSPropertyOp0
 70
     1
102
RTVSPropertyOp1
 70
     1
102
RTVSPropertyOp2
 70
     1
102
RTVSPropertyOp3
 70
     1
102
RTVSPropertyOp4
 70
     1
102
RTVSPropertyOp5
 70
     1
102
RTVSPropertyOp6
 70
     1
102
RTVSPropertyOp7
 70
     1
102
RTVSPropertyOp8
 70
     1
102
RTVSPropertyOp9
 70
     1
102
RTVSPropertyOp10
 70
     1
102
RTVSPropertyOp11
 70
     1
102
RTVSPropertyOp12
 70
     1
102
RTVSPropertyOp13
 70
     1
102
RTVSPropertyOp14
 70
     1
102
RTVSPropertyOp15
 70
     1
102
RTVSPropertyOp16
 70
     1
102
RTVSPropertyOp17
 70
     1
102
RTVSPropertyOp18
 70
     1
102
RTVSPropertyOp19
 70
     1
102
RTVSPropertyOp20
 70
     1
102
RTVSPropertyOp21
 70
     1
102
RTVSPropertyOp22
 70
     1
102
RTVSPropertyOp23
 70
     1
102
RTVSPropertyOp24
 70
     1
102
RTVSPropertyOp25
 70
     1
102
RTVSPropertyOp26
 70
     1
102
RTVSPropertyOp27
 70
     1
102
RTVSPropertyOp28
 70
     1
102
RTVSPropertyOp29
 70
     1
102
RTVSPropertyOp30
 70
     1
102
RTVSPropertyOp31
 70
     1
102
RTVSPropertyOp32
 70
     1
  0
XRECORD
  5
67CA
102
{ACAD_REACTORS
330
67C9
102
}
330
67C9
100
AcDbXrecord
280
     1
102
RTVSPropertyOp0
 70
     1
102
RTVSPropertyOp1
 70
     1
102
RTVSPropertyOp2
 70
     1
102
RTVSPropertyOp3
 70
     1
102
RTVSPropertyOp4
 70
     1
102
RTVSPropertyOp5
 70
     1
102
RTVSPropertyOp6
 70
     1
102
RTVSPropertyOp7
 70
     1
102
RTVSPropertyOp8
 70
     1
102
RTVSPropertyOp9
 70
     1
102
RTVSPropertyOp10
 70
     1
102
RTVSPropertyOp11
 70
     1
102
RTVSPropertyOp12
 70
     1
102
RTVSPropertyOp13
 70
     1
102
RTVSPropertyOp14
 70
     1
102
RTVSPropertyOp15
 70
     1
102
RTVSPropertyOp16
 70
     1
102
RTVSPropertyOp17
 70
     1
102
RTVSPropertyOp18
 70
     1
102
RTVSPropertyOp19
 70
     1
102
RTVSPropertyOp20
 70
     1
102
RTVSPropertyOp21
 70
     1
102
RTVSPropertyOp22
 70
     1
102
RTVSPropertyOp23
 70
     1
102
RTVSPropertyOp24
 70
     1
102
RTVSPropertyOp25
 70
     1
102
RTVSPropertyOp26
 70
     1
102
RTVSPropertyOp27
 70
     1
102
RTVSPropertyOp28
 70
     1
102
RTVSPropertyOp29
 70
     1
102
RTVSPropertyOp30
 70
     1
102
RTVSPropertyOp31
 70
     1
102
RTVSPropertyOp32
 70
     1
  0
XRECORD
  5
67CC
102
{ACAD_REACTORS
330
67CB
102
}
330
67CB
100
AcDbXrecord
280
     1
102
RTVSPropertyOp0
 70
     1
102
RTVSPropertyOp1
 70
     1
102
RTVSPropertyOp2
 70
     1
102
RTVSPropertyOp3
 70
     1
102
RTVSPropertyOp4
 70
     1
102
RTVSPropertyOp5
 70
     1
102
RTVSPropertyOp6
 70
     1
102
RTVSPropertyOp7
 70
     1
102
RTVSPropertyOp8
 70
     1
102
RTVSPropertyOp9
 70
     1
102
RTVSPropertyOp10
 70
     1
102
RTVSPropertyOp11
 70
     1
102
RTVSPropertyOp12
 70
     1
102
RTVSPropertyOp13
 70
     1
102
RTVSPropertyOp14
 70
     1
102
RTVSPropertyOp15
 70
     1
102
RTVSPropertyOp16
 70
     1
102
RTVSPropertyOp17
 70
     1
102
RTVSPropertyOp18
 70
     1
102
RTVSPropertyOp19
 70
     1
102
RTVSPropertyOp20
 70
     1
102
RTVSPropertyOp21
 70
     1
102
RTVSPropertyOp22
 70
     1
102
RTVSPropertyOp23
 70
     1
102
RTVSPropertyOp24
 70
     1
102
RTVSPropertyOp25
 70
     1
102
RTVSPropertyOp26
 70
     1
102
RTVSPropertyOp27
 70
     1
102
RTVSPropertyOp28
 70
     1
102
RTVSPropertyOp29
 70
     1
102
RTVSPropertyOp30
 70
     1
102
RTVSPropertyOp31
 70
     1
102
RTVSPropertyOp32
 70
     1
  0
XRECORD
  5
67CE
102
{ACAD_REACTORS
330
67CD
102
}
330
67CD
100
AcDbXrecord
280
     1
102
RTVSPropertyOp0
 70
     1
102
RTVSPropertyOp1
 70
     1
102
RTVSPropertyOp2
 70
     1
102
RTVSPropertyOp3
 70
     1
102
RTVSPropertyOp4
 70
     1
102
RTVSPropertyOp5
 70
     1
102
RTVSPropertyOp6
 70
     1
102
RTVSPropertyOp7
 70
     1
102
RTVSPropertyOp8
 70
     1
102
RTVSPropertyOp9
 70
     1
102
RTVSPropertyOp10
 70
     1
102
RTVSPropertyOp11
 70
     1
102
RTVSPropertyOp12
 70
     1
102
RTVSPropertyOp13
 70
     1
102
RTVSPropertyOp14
 70
     1
102
RTVSPropertyOp15
 70
     1
102
RTVSPropertyOp16
 70
     1
102
RTVSPropertyOp17
 70
     1
102
RTVSPropertyOp18
 70
     1
102
RTVSPropertyOp19
 70
     1
102
RTVSPropertyOp20
 70
     1
102
RTVSPropertyOp21
 70
     1
102
RTVSPropertyOp22
 70
     1
102
RTVSPropertyOp23
 70
     1
102
RTVSPropertyOp24
 70
     1
102
RTVSPropertyOp25
 70
     1
102
RTVSPropertyOp26
 70
     1
102
RTVSPropertyOp27
 70
     1
102
RTVSPropertyOp28
 70
     1
102
RTVSPropertyOp29
 70
     1
102
RTVSPropertyOp30
 70
     1
102
RTVSPropertyOp31
 70
     1
102
RTVSPropertyOp32
 70
     1
  0
XRECORD
  5
67D0
102
{ACAD_REACTORS
330
67CF
102
}
330
67CF
100
AcDbXrecord
280
     1
102
RTVSPropertyOp0
 70
     1
102
RTVSPropertyOp1
 70
     1
102
RTVSPropertyOp2
 70
     1
102
RTVSPropertyOp3
 70
     1
102
RTVSPropertyOp4
 70
     1
102
RTVSPropertyOp5
 70
     1
102
RTVSPropertyOp6
 70
     1
102
RTVSPropertyOp7
 70
     1
102
RTVSPropertyOp8
 70
     1
102
RTVSPropertyOp9
 70
     1
102
RTVSPropertyOp10
 70
     1
102
RTVSPropertyOp11
 70
     1
102
RTVSPropertyOp12
 70
     1
102
RTVSPropertyOp13
 70
     1
102
RTVSPropertyOp14
 70
     1
102
RTVSPropertyOp15
 70
     1
102
RTVSPropertyOp16
 70
     1
102
RTVSPropertyOp17
 70
     1
102
RTVSPropertyOp18
 70
     1
102
RTVSPropertyOp19
 70
     1
102
RTVSPropertyOp20
 70
     1
102
RTVSPropertyOp21
 70
     1
102
RTVSPropertyOp22
 70
     1
102
RTVSPropertyOp23
 70
     1
102
RTVSPropertyOp24
 70
     1
102
RTVSPropertyOp25
 70
     1
102
RTVSPropertyOp26
 70
     1
102
RTVSPropertyOp27
 70
     1
102
RTVSPropertyOp28
 70
     1
102
RTVSPropertyOp29
 70
     1
102
RTVSPropertyOp30
 70
     1
102
RTVSPropertyOp31
 70
     1
102
RTVSPropertyOp32
 70
     1
  0
XRECORD
  5
67D8
102
{ACAD_REACTORS
330
67D7
102
}
330
67D7
100
AcDbXrecord
280
     1
102
RTVSPropertyOp0
 70
     1
102
RTVSPropertyOp1
 70
     1
102
RTVSPropertyOp2
 70
     1
102
RTVSPropertyOp3
 70
     1
102
RTVSPropertyOp4
 70
     1
102
RTVSPropertyOp5
 70
     1
102
RTVSPropertyOp6
 70
     1
102
RTVSPropertyOp7
 70
     1
102
RTVSPropertyOp8
 70
     1
102
RTVSPropertyOp9
 70
     1
102
RTVSPropertyOp10
 70
     1
102
RTVSPropertyOp11
 70
     1
102
RTVSPropertyOp12
 70
     1
102
RTVSPropertyOp13
 70
     1
102
RTVSPropertyOp14
 70
     1
102
RTVSPropertyOp15
 70
     1
102
RTVSPropertyOp16
 70
     1
102
RTVSPropertyOp17
 70
     1
102
RTVSPropertyOp18
 70
     1
102
RTVSPropertyOp19
 70
     1
102
RTVSPropertyOp20
 70
     1
102
RTVSPropertyOp21
 70
     1
102
RTVSPropertyOp22
 70
     1
102
RTVSPropertyOp23
 70
     1
102
RTVSPropertyOp24
 70
     1
102
RTVSPropertyOp25
 70
     1
102
RTVSPropertyOp26
 70
     1
102
RTVSPropertyOp27
 70
     1
102
RTVSPropertyOp28
 70
     1
102
RTVSPropertyOp29
 70
     1
102
RTVSPropertyOp30
 70
     1
102
RTVSPropertyOp31
 70
     1
102
RTVSPropertyOp32
 70
     1
  0
XRECORD
  5
67F4
102
{ACAD_REACTORS
330
67F3
102
}
330
67F3
100
AcDbXrecord
280
     1
102
RTVSPropertyOp0
 70
     0
102
RTVSPropertyOp1
 70
     0
102
RTVSPropertyOp2
 70
     0
102
RTVSPropertyOp3
 70
     0
102
RTVSPropertyOp4
 70
     0
102
RTVSPropertyOp5
 70
     0
102
RTVSPropertyOp6
 70
     0
102
RTVSPropertyOp7
 70
     0
102
RTVSPropertyOp8
 70
     0
102
RTVSPropertyOp9
 70
     0
102
RTVSPropertyOp10
 70
     0
102
RTVSPropertyOp11
 70
     0
102
RTVSPropertyOp12
 70
     0
102
RTVSPropertyOp13
 70
     0
102
RTVSPropertyOp14
 70
     2
102
RTVSPropertyOp15
 70
     0
102
RTVSPropertyOp16
 70
     0
102
RTVSPropertyOp17
 70
     0
102
RTVSPropertyOp18
 70
     0
102
RTVSPropertyOp19
 70
     0
102
RTVSPropertyOp20
 70
     0
102
RTVSPropertyOp21
 70
     0
102
RTVSPropertyOp22
 70
     0
102
RTVSPropertyOp23
 70
     0
102
RTVSPropertyOp24
 70
     0
102
RTVSPropertyOp25
 70
     0
102
RTVSPropertyOp26
 70
     0
102
RTVSPropertyOp27
 70
     0
102
RTVSPropertyOp28
 70
     1
102
RTVSPropertyOp29
 70
     1
102
RTVSPropertyOp30
 70
     1
102
RTVSPropertyOp31
 70
     1
102
RTVSPropertyOp32
 70
     1
  0
XRECORD
  5
67E4
102
{ACAD_REACTORS
330
67E3
102
}
330
67E3
100
AcDbXrecord
280
     1
102
RTVSPropertyOp0
 70
     1
102
RTVSPropertyOp1
 70
     1
102
RTVSPropertyOp2
 70
     1
102
RTVSPropertyOp3
 70
     1
102
RTVSPropertyOp4
 70
     1
102
RTVSPropertyOp5
 70
     1
102
RTVSPropertyOp6
 70
     1
102
RTVSPropertyOp7
 70
     1
102
RTVSPropertyOp8
 70
     1
102
RTVSPropertyOp9
 70
     1
102
RTVSPropertyOp10
 70
     1
102
RTVSPropertyOp11
 70
     1
102
RTVSPropertyOp12
 70
     1
102
RTVSPropertyOp13
 70
     1
102
RTVSPropertyOp14
 70
     1
102
RTVSPropertyOp15
 70
     1
102
RTVSPropertyOp16
 70
     1
102
RTVSPropertyOp17
 70
     1
102
RTVSPropertyOp18
 70
     1
102
RTVSPropertyOp19
 70
     1
102
RTVSPropertyOp20
 70
     1
102
RTVSPropertyOp21
 70
     1
102
RTVSPropertyOp22
 70
     1
102
RTVSPropertyOp23
 70
     1
102
RTVSPropertyOp24
 70
     1
102
RTVSPropertyOp25
 70
     1
102
RTVSPropertyOp26
 70
     1
102
RTVSPropertyOp27
 70
     1
102
RTVSPropertyOp28
 70
     1
102
RTVSPropertyOp29
 70
     1
102
RTVSPropertyOp30
 70
     1
102
RTVSPropertyOp31
 70
     1
102
RTVSPropertyOp32
 70
     1
  0
XRECORD
  5
67F6
102
{ACAD_REACTORS
330
67F5
102
}
330
67F5
100
AcDbXrecord
280
     1
102
RTVSPropertyOp0
 70
     0
102
RTVSPropertyOp1
 70
     0
102
RTVSPropertyOp2
 70
     0
102
RTVSPropertyOp3
 70
     0
102
RTVSPropertyOp4
 70
     0
102
RTVSPropertyOp5
 70
     0
102
RTVSPropertyOp6
 70
     0
102
RTVSPropertyOp7
 70
     0
102
RTVSPropertyOp8
 70
     0
102
RTVSPropertyOp9
 70
     0
102
RTVSPropertyOp10
 70
     0
102
RTVSPropertyOp11
 70
     0
102
RTVSPropertyOp12
 70
     0
102
RTVSPropertyOp13
 70
     0
102
RTVSPropertyOp14
 70
     2
102
RTVSPropertyOp15
 70
     0
102
RTVSPropertyOp16
 70
     0
102
RTVSPropertyOp17
 70
     0
102
RTVSPropertyOp18
 70
     0
102
RTVSPropertyOp19
 70
     0
102
RTVSPropertyOp20
 70
     0
102
RTVSPropertyOp21
 70
     0
102
RTVSPropertyOp22
 70
     0
102
RTVSPropertyOp23
 70
     0
102
RTVSPropertyOp24
 70
     0
102
RTVSPropertyOp25
 70
     0
102
RTVSPropertyOp26
 70
     0
102
RTVSPropertyOp27
 70
     0
102
RTVSPropertyOp28
 70
     1
102
RTVSPropertyOp29
 70
     1
102
RTVSPropertyOp30
 70
     1
102
RTVSPropertyOp31
 70
     1
102
RTVSPropertyOp32
 70
     1
  0
XRECORD
  5
67DC
102
{ACAD_REACTORS
330
67DB
102
}
330
67DB
100
AcDbXrecord
280
     1
102
RTVSPropertyOp0
 70
     1
102
RTVSPropertyOp1
 70
     1
102
RTVSPropertyOp2
 70
     1
102
RTVSPropertyOp3
 70
     1
102
RTVSPropertyOp4
 70
     1
102
RTVSPropertyOp5
 70
     1
102
RTVSPropertyOp6
 70
     1
102
RTVSPropertyOp7
 70
     1
102
RTVSPropertyOp8
 70
     1
102
RTVSPropertyOp9
 70
     1
102
RTVSPropertyOp10
 70
     1
102
RTVSPropertyOp11
 70
     1
102
RTVSPropertyOp12
 70
     1
102
RTVSPropertyOp13
 70
     1
102
RTVSPropertyOp14
 70
     1
102
RTVSPropertyOp15
 70
     1
102
RTVSPropertyOp16
 70
     1
102
RTVSPropertyOp17
 70
     1
102
RTVSPropertyOp18
 70
     1
102
RTVSPropertyOp19
 70
     1
102
RTVSPropertyOp20
 70
     1
102
RTVSPropertyOp21
 70
     1
102
RTVSPropertyOp22
 70
     1
102
RTVSPropertyOp23
 70
     1
102
RTVSPropertyOp24
 70
     1
102
RTVSPropertyOp25
 70
     1
102
RTVSPropertyOp26
 70
     1
102
RTVSPropertyOp27
 70
     1
102
RTVSPropertyOp28
 70
     1
102
RTVSPropertyOp29
 70
     1
102
RTVSPropertyOp30
 70
     1
102
RTVSPropertyOp31
 70
     1
102
RTVSPropertyOp32
 70
     1
  0
XRECORD
  5
67F2
102
{ACAD_REACTORS
330
67F1
102
}
330
67F1
100
AcDbXrecord
280
     1
102
RTVSPropertyOp0
 70
     1
102
RTVSPropertyOp1
 70
     1
102
RTVSPropertyOp2
 70
     1
102
RTVSPropertyOp3
 70
     1
102
RTVSPropertyOp4
 70
     1
102
RTVSPropertyOp5
 70
     1
102
RTVSPropertyOp6
 70
     1
102
RTVSPropertyOp7
 70
     1
102
RTVSPropertyOp8
 70
     1
102
RTVSPropertyOp9
 70
     1
102
RTVSPropertyOp10
 70
     1
102
RTVSPropertyOp11
 70
     1
102
RTVSPropertyOp12
 70
     1
102
RTVSPropertyOp13
 70
     1
102
RTVSPropertyOp14
 70
     1
102
RTVSPropertyOp15
 70
     1
102
RTVSPropertyOp16
 70
     1
102
RTVSPropertyOp17
 70
     1
102
RTVSPropertyOp18
 70
     1
102
RTVSPropertyOp19
 70
     1
102
RTVSPropertyOp20
 70
     1
102
RTVSPropertyOp21
 70
     1
102
RTVSPropertyOp22
 70
     1
102
RTVSPropertyOp23
 70
     1
102
RTVSPropertyOp24
 70
     1
102
RTVSPropertyOp25
 70
     1
102
RTVSPropertyOp26
 70
     1
102
RTVSPropertyOp27
 70
     1
102
RTVSPropertyOp28
 70
     1
102
RTVSPropertyOp29
 70
     1
102
RTVSPropertyOp30
 70
     1
102
RTVSPropertyOp31
 70
     1
102
RTVSPropertyOp32
 70
     1
  0
XRECORD
  5
67F0
102
{ACAD_REACTORS
330
67EF
102
}
330
67EF
100
AcDbXrecord
280
     1
102
RTVSPropertyOp0
 70
     1
102
RTVSPropertyOp1
 70
     1
102
RTVSPropertyOp2
 70
     1
102
RTVSPropertyOp3
 70
     1
102
RTVSPropertyOp4
 70
     1
102
RTVSPropertyOp5
 70
     1
102
RTVSPropertyOp6
 70
     1
102
RTVSPropertyOp7
 70
     1
102
RTVSPropertyOp8
 70
     1
102
RTVSPropertyOp9
 70
     1
102
RTVSPropertyOp10
 70
     1
102
RTVSPropertyOp11
 70
     1
102
RTVSPropertyOp12
 70
     1
102
RTVSPropertyOp13
 70
     1
102
RTVSPropertyOp14
 70
     1
102
RTVSPropertyOp15
 70
     1
102
RTVSPropertyOp16
 70
     1
102
RTVSPropertyOp17
 70
     1
102
RTVSPropertyOp18
 70
     1
102
RTVSPropertyOp19
 70
     1
102
RTVSPropertyOp20
 70
     1
102
RTVSPropertyOp21
 70
     1
102
RTVSPropertyOp22
 70
     1
102
RTVSPropertyOp23
 70
     1
102
RTVSPropertyOp24
 70
     1
102
RTVSPropertyOp25
 70
     1
102
RTVSPropertyOp26
 70
     1
102
RTVSPropertyOp27
 70
     1
102
RTVSPropertyOp28
 70
     1
102
RTVSPropertyOp29
 70
     1
102
RTVSPropertyOp30
 70
     1
102
RTVSPropertyOp31
 70
     1
102
RTVSPropertyOp32
 70
     1
  0
XRECORD
  5
67EA
102
{ACAD_REACTORS
330
67E9
102
}
330
67E9
100
AcDbXrecord
280
     1
102
RTVSPropertyOp0
 70
     1
102
RTVSPropertyOp1
 70
     1
102
RTVSPropertyOp2
 70
     1
102
RTVSPropertyOp3
 70
     1
102
RTVSPropertyOp4
 70
     1
102
RTVSPropertyOp5
 70
     1
102
RTVSPropertyOp6
 70
     1
102
RTVSPropertyOp7
 70
     1
102
RTVSPropertyOp8
 70
     1
102
RTVSPropertyOp9
 70
     1
102
RTVSPropertyOp10
 70
     1
102
RTVSPropertyOp11
 70
     1
102
RTVSPropertyOp12
 70
     1
102
RTVSPropertyOp13
 70
     1
102
RTVSPropertyOp14
 70
     1
102
RTVSPropertyOp15
 70
     1
102
RTVSPropertyOp16
 70
     1
102
RTVSPropertyOp17
 70
     1
102
RTVSPropertyOp18
 70
     1
102
RTVSPropertyOp19
 70
     1
102
RTVSPropertyOp20
 70
     1
102
RTVSPropertyOp21
 70
     1
102
RTVSPropertyOp22
 70
     1
102
RTVSPropertyOp23
 70
     1
102
RTVSPropertyOp24
 70
     1
102
RTVSPropertyOp25
 70
     1
102
RTVSPropertyOp26
 70
     1
102
RTVSPropertyOp27
 70
     1
102
RTVSPropertyOp28
 70
     1
102
RTVSPropertyOp29
 70
     1
102
RTVSPropertyOp30
 70
     1
102
RTVSPropertyOp31
 70
     1
102
RTVSPropertyOp32
 70
     1
  0
XRECORD
  5
67EC
102
{ACAD_REACTORS
330
67EB
102
}
330
67EB
100
AcDbXrecord
280
     1
102
RTVSPropertyOp0
 70
     1
102
RTVSPropertyOp1
 70
     1
102
RTVSPropertyOp2
 70
     1
102
RTVSPropertyOp3
 70
     1
102
RTVSPropertyOp4
 70
     1
102
RTVSPropertyOp5
 70
     1
102
RTVSPropertyOp6
 70
     1
102
RTVSPropertyOp7
 70
     1
102
RTVSPropertyOp8
 70
     1
102
RTVSPropertyOp9
 70
     1
102
RTVSPropertyOp10
 70
     1
102
RTVSPropertyOp11
 70
     1
102
RTVSPropertyOp12
 70
     1
102
RTVSPropertyOp13
 70
     1
102
RTVSPropertyOp14
 70
     1
102
RTVSPropertyOp15
 70
     1
102
RTVSPropertyOp16
 70
     1
102
RTVSPropertyOp17
 70
     1
102
RTVSPropertyOp18
 70
     1
102
RTVSPropertyOp19
 70
     1
102
RTVSPropertyOp20
 70
     1
102
RTVSPropertyOp21
 70
     1
102
RTVSPropertyOp22
 70
     1
102
RTVSPropertyOp23
 70
     1
102
RTVSPropertyOp24
 70
     1
102
RTVSPropertyOp25
 70
     1
102
RTVSPropertyOp26
 70
     1
102
RTVSPropertyOp27
 70
     1
102
RTVSPropertyOp28
 70
     1
102
RTVSPropertyOp29
 70
     1
102
RTVSPropertyOp30
 70
     1
102
RTVSPropertyOp31
 70
     1
102
RTVSPropertyOp32
 70
     1
  0
XRECORD
  5
67E2
102
{ACAD_REACTORS
330
67E1
102
}
330
67E1
100
AcDbXrecord
280
     1
102
RTVSPropertyOp0
 70
     1
102
RTVSPropertyOp1
 70
     1
102
RTVSPropertyOp2
 70
     1
102
RTVSPropertyOp3
 70
     1
102
RTVSPropertyOp4
 70
     1
102
RTVSPropertyOp5
 70
     1
102
RTVSPropertyOp6
 70
     1
102
RTVSPropertyOp7
 70
     1
102
RTVSPropertyOp8
 70
     1
102
RTVSPropertyOp9
 70
     1
102
RTVSPropertyOp10
 70
     1
102
RTVSPropertyOp11
 70
     1
102
RTVSPropertyOp12
 70
     1
102
RTVSPropertyOp13
 70
     1
102
RTVSPropertyOp14
 70
     1
102
RTVSPropertyOp15
 70
     1
102
RTVSPropertyOp16
 70
     1
102
RTVSPropertyOp17
 70
     1
102
RTVSPropertyOp18
 70
     1
102
RTVSPropertyOp19
 70
     1
102
RTVSPropertyOp20
 70
     1
102
RTVSPropertyOp21
 70
     1
102
RTVSPropertyOp22
 70
     1
102
RTVSPropertyOp23
 70
     1
102
RTVSPropertyOp24
 70
     1
102
RTVSPropertyOp25
 70
     1
102
RTVSPropertyOp26
 70
     1
102
RTVSPropertyOp27
 70
     1
102
RTVSPropertyOp28
 70
     1
102
RTVSPropertyOp29
 70
     1
102
RTVSPropertyOp30
 70
     1
102
RTVSPropertyOp31
 70
     1
102
RTVSPropertyOp32
 70
     1
  0
XRECORD
  5
67D6
102
{ACAD_REACTORS
330
67D5
102
}
330
67D5
100
AcDbXrecord
280
     1
102
RTVSPropertyOp0
 70
     1
102
RTVSPropertyOp1
 70
     1
102
RTVSPropertyOp2
 70
     1
102
RTVSPropertyOp3
 70
     1
102
RTVSPropertyOp4
 70
     1
102
RTVSPropertyOp5
 70
     1
102
RTVSPropertyOp6
 70
     1
102
RTVSPropertyOp7
 70
     1
102
RTVSPropertyOp8
 70
     1
102
RTVSPropertyOp9
 70
     1
102
RTVSPropertyOp10
 70
     1
102
RTVSPropertyOp11
 70
     1
102
RTVSPropertyOp12
 70
     1
102
RTVSPropertyOp13
 70
     1
102
RTVSPropertyOp14
 70
     1
102
RTVSPropertyOp15
 70
     1
102
RTVSPropertyOp16
 70
     1
102
RTVSPropertyOp17
 70
     1
102
RTVSPropertyOp18
 70
     1
102
RTVSPropertyOp19
 70
     1
102
RTVSPropertyOp20
 70
     1
102
RTVSPropertyOp21
 70
     1
102
RTVSPropertyOp22
 70
     1
102
RTVSPropertyOp23
 70
     1
102
RTVSPropertyOp24
 70
     1
102
RTVSPropertyOp25
 70
     1
102
RTVSPropertyOp26
 70
     1
102
RTVSPropertyOp27
 70
     1
102
RTVSPropertyOp28
 70
     1
102
RTVSPropertyOp29
 70
     1
102
RTVSPropertyOp30
 70
     1
102
RTVSPropertyOp31
 70
     1
102
RTVSPropertyOp32
 70
     1
  0
XRECORD
  5
67EE
102
{ACAD_REACTORS
330
67ED
102
}
330
67ED
100
AcDbXrecord
280
     1
102
RTVSPropertyOp0
 70
     1
102
RTVSPropertyOp1
 70
     1
102
RTVSPropertyOp2
 70
     1
102
RTVSPropertyOp3
 70
     1
102
RTVSPropertyOp4
 70
     1
102
RTVSPropertyOp5
 70
     1
102
RTVSPropertyOp6
 70
     1
102
RTVSPropertyOp7
 70
     1
102
RTVSPropertyOp8
 70
     1
102
RTVSPropertyOp9
 70
     1
102
RTVSPropertyOp10
 70
     1
102
RTVSPropertyOp11
 70
     1
102
RTVSPropertyOp12
 70
     1
102
RTVSPropertyOp13
 70
     1
102
RTVSPropertyOp14
 70
     1
102
RTVSPropertyOp15
 70
     1
102
RTVSPropertyOp16
 70
     1
102
RTVSPropertyOp17
 70
     1
102
RTVSPropertyOp18
 70
     1
102
RTVSPropertyOp19
 70
     1
102
RTVSPropertyOp20
 70
     1
102
RTVSPropertyOp21
 70
     1
102
RTVSPropertyOp22
 70
     1
102
RTVSPropertyOp23
 70
     1
102
RTVSPropertyOp24
 70
     1
102
RTVSPropertyOp25
 70
     1
102
RTVSPropertyOp26
 70
     1
102
RTVSPropertyOp27
 70
     1
102
RTVSPropertyOp28
 70
     1
102
RTVSPropertyOp29
 70
     1
102
RTVSPropertyOp30
 70
     1
102
RTVSPropertyOp31
 70
     1
102
RTVSPropertyOp32
 70
     1
  0
ENDSEC
  0
EOF
