  0
SECTION
  2
HEADER
  9
$ACADVER
  1
AC1015
  9
$ACADMAINTVER
 70
     6
  9
$DWGCODEPAGE
  3
ANSI_932
  9
$INSBASE
 10
0.0
 20
0.0
 30
0.0
  9
$EXTMIN
 10
0.0
 20
0.0
 30
0.0
  9
$EXTMAX
 10
210.0
 20
297.0
 30
0.0
  9
$LIMMIN
 10
0.0
 20
0.0
  9
$LIMMAX
 10
210.0
 20
297.0
  9
$ORTHOMODE
 70
     0
  9
$REGENMODE
 70
     1
  9
$FILLMODE
 70
     1
  9
$QTEXTMODE
 70
     0
  9
$MIRRTEXT
 70
     1
  9
$LTSCALE
 40
1.0
  9
$ATTMODE
 70
     1
  9
$TEXTSIZE
 40
2.5
  9
$TRACEWID
 40
1.0
  9
$TEXTSTYLE
  7
Standard
  9
$CLAYER
  8
0
  9
$CELTYPE
  6
ByLayer
  9
$CECOLOR
 62
   256
  9
$CELTSCALE
 40
1.0
  9
$DISPSILH
 70
     0
  9
$DIMSCALE
 40
1.0
  9
$DIMASZ
 40
2.5
  9
$DIMEXO
 40
0.625
  9
$DIMDLI
 40
3.75
  9
$DIMRND
 40
0.0
  9
$DIMDLE
 40
0.0
  9
$DIMEXE
 40
1.25
  9
$DIMTP
 40
0.0
  9
$DIMTM
 40
0.0
  9
$DIMTXT
 40
2.5
  9
$DIMCEN
 40
2.5
  9
$DIMTSZ
 40
0.0
  9
$DIMTOL
 70
     0
  9
$DIMLIM
 70
     0
  9
$DIMTIH
 70
     0
  9
$DIMTOH
 70
     0
  9
$DIMSE1
 70
     0
  9
$DIMSE2
 70
     0
  9
$DIMTAD
 70
     1
  9
$DIMZIN
 70
     8
  9
$DIMBLK
  1

  9
$DIMASO
 70
     1
  9
$DIMSHO
 70
     1
  9
$DIMPOST
  1

  9
$DIMAPOST
  1

  9
$DIMALT
 70
     0
  9
$DIMALTD
 70
     3
  9
$DIMALTF
 40
0.0393700787
  9
$DIMLFAC
 40
1.0
  9
$DIMTOFL
 70
     1
  9
$DIMTVP
 40
0.0
  9
$DIMTIX
 70
     0
  9
$DIMSOXD
 70
     0
  9
$DIMSAH
 70
     0
  9
$DIMBLK1
  1

  9
$DIMBLK2
  1

  9
$DIMSTYLE
  2
ISO-25
  9
$DIMCLRD
 70
     0
  9
$DIMCLRE
 70
     0
  9
$DIMCLRT
 70
     0
  9
$DIMTFAC
 40
1.0
  9
$DIMGAP
 40
0.625
  9
$DIMJUST
 70
     0
  9
$DIMSD1
 70
     0
  9
$DIMSD2
 70
     0
  9
$DIMTOLJ
 70
     0
  9
$DIMTZIN
 70
     8
  9
$DIMALTZ
 70
     0
  9
$DIMALTTZ
 70
     0
  9
$DIMUPT
 70
     0
  9
$DIMDEC
 70
     2
  9
$DIMTDEC
 70
     2
  9
$DIMALTU
 70
     2
  9
$DIMALTTD
 70
     3
  9
$DIMTXSTY
  7
Standard
  9
$DIMAUNIT
 70
     0
  9
$DIMADEC
 70
     0
  9
$DIMALTRND
 40
0.0
  9
$DIMAZIN
 70
     0
  9
$DIMDSEP
 70
    44
  9
$DIMATFIT
 70
     3
  9
$DIMFRAC
 70
     0
  9
$DIMLDRBLK
  1

  9
$DIMLUNIT
 70
     2
  9
$DIMLWD
 70
    -2
  9
$DIMLWE
 70
    -2
  9
$DIMTMOVE
 70
     0
  9
$LUNITS
 70
     2
  9
$LUPREC
 70
     4
  9
$SKETCHINC
 40
1.0
  9
$FILLETRAD
 40
10.0
  9
$AUNITS
 70
     0
  9
$AUPREC
 70
     0
  9
$MENU
  1
.
  9
$ELEVATION
 40
0.0
  9
$PELEVATION
 40
0.0
  9
$THICKNESS
 40
0.0
  9
$LIMCHECK
 70
     0
  9
$CHAMFERA
 40
10.0
  9
$CHAMFERB
 40
10.0
  9
$CHAMFERC
 40
20.0
  9
$CHAMFERD
 40
0.0
  9
$SKPOLY
 70
     0
  9
$TDCREATE
 40
2456840.479172778
  9
$TDUCREATE
 40
2456840.104172778
  9
$TDUPDATE
 40
2456840.479172789
  9
$TDUUPDATE
 40
2456840.104172789
  9
$TDINDWG
 40
0.0000000116
  9
$TDUSRTIMER
 40
0.0000000116
  9
$USRTIMER
 70
     1
  9
$ANGBASE
 50
0.0
  9
$ANGDIR
 70
     0
  9
$PDMODE
 70
     0
  9
$PDSIZE
 40
0.0
  9
$PLINEWID
 40
0.0
  9
$SPLFRAME
 70
     0
  9
$SPLINETYPE
 70
     6
  9
$SPLINESEGS
 70
     8
  9
$HANDSEED
  5
1C8
  9
$SURFTAB1
 70
     6
  9
$SURFTAB2
 70
     6
  9
$SURFTYPE
 70
     6
  9
$SURFU
 70
     6
  9
$SURFV
 70
     6
  9
$UCSBASE
  2

  9
$UCSNAME
  2

  9
$UCSORG
 10
0.0
 20
0.0
 30
0.0
  9
$UCSXDIR
 10
1.0
 20
0.0
 30
0.0
  9
$UCSYDIR
 10
0.0
 20
1.0
 30
0.0
  9
$UCSORTHOREF
  2

  9
$UCSORTHOVIEW
 70
     0
  9
$UCSORGTOP
 10
0.0
 20
0.0
 30
0.0
  9
$UCSORGBOTTOM
 10
0.0
 20
0.0
 30
0.0
  9
$UCSORGLEFT
 10
0.0
 20
0.0
 30
0.0
  9
$UCSORGRIGHT
 10
0.0
 20
0.0
 30
0.0
  9
$UCSORGFRONT
 10
0.0
 20
0.0
 30
0.0
  9
$UCSORGBACK
 10
0.0
 20
0.0
 30
0.0
  9
$PUCSBASE
  2

  9
$PUCSNAME
  2

  9
$PUCSORG
 10
0.0
 20
0.0
 30
0.0
  9
$PUCSXDIR
 10
1.0
 20
0.0
 30
0.0
  9
$PUCSYDIR
 10
0.0
 20
1.0
 30
0.0
  9
$PUCSORTHOREF
  2

  9
$PUCSORTHOVIEW
 70
     0
  9
$PUCSORGTOP
 10
0.0
 20
0.0
 30
0.0
  9
$PUCSORGBOTTOM
 10
0.0
 20
0.0
 30
0.0
  9
$PUCSORGLEFT
 10
0.0
 20
0.0
 30
0.0
  9
$PUCSORGRIGHT
 10
0.0
 20
0.0
 30
0.0
  9
$PUCSORGFRONT
 10
0.0
 20
0.0
 30
0.0
  9
$PUCSORGBACK
 10
0.0
 20
0.0
 30
0.0
  9
$USERI1
 70
     0
  9
$USERI2
 70
     0
  9
$USERI3
 70
     0
  9
$USERI4
 70
     0
  9
$USERI5
 70
     0
  9
$USERR1
 40
0.0
  9
$USERR2
 40
0.0
  9
$USERR3
 40
0.0
  9
$USERR4
 40
0.0
  9
$USERR5
 40
0.0
  9
$WORLDVIEW
 70
     1
  9
$SHADEDGE
 70
     3
  9
$SHADEDIF
 70
    70
  9
$TILEMODE
 70
     1
  9
$MAXACTVP
 70
    64
  9
$PINSBASE
 10
0.0
 20
0.0
 30
0.0
  9
$PLIMCHECK
 70
     0
  9
$PEXTMIN
 10
0.0
 20
0.0
 30
0.0
  9
$PEXTMAX
 10
210.0
 20
297.0
 30
0.0
  9
$PLIMMIN
 10
0.0
 20
0.0
  9
$PLIMMAX
 10
210.0
 20
297.0
  9
$UNITMODE
 70
     0
  9
$VISRETAIN
 70
     1
  9
$PLINEGEN
 70
     0
  9
$PSLTSCALE
 70
     1
  9
$TREEDEPTH
 70
  3020
  9
$CMLSTYLE
  2
Standard
  9
$CMLJUST
 70
     0
  9
$CMLSCALE
 40
20.0
  9
$PROXYGRAPHICS
 70
     1
  9
$MEASUREMENT
 70
     1
  9
$CELWEIGHT
370
    -1
  9
$ENDCAPS
280
     0
  9
$JOINSTYLE
280
     0
  9
$LWDISPLAY
290
     0
  9
$INSUNITS
 70
     4
  9
$HYPERLINKBASE
  1

  9
$STYLESHEET
  1

  9
$XEDIT
290
     1
  9
$CEPSNTYPE
380
     0
  9
$PSTYLEMODE
290
     1
  9
$FINGERPRINTGUID
  2
{FAF79075-310F-4157-B793-11C2BEEC36F5}
  9
$VERSIONGUID
  2
{FAEB1C32-E019-11D5-929B-00C0DF256EC4}
  9
$EXTNAMES
290
     1
  9
$PSVPSCALE
 40
0.0
  9
$OLESTARTUP
290
     0
  0
ENDSEC
  0
SECTION
  2
CLASSES
  0
CLASS
  1
ACDBDICTIONARYWDFLT
  2
AcDbDictionaryWithDefault
  3
ObjectDBX Classes
 90
        0
280
     0
281
     0
  0
CLASS
  1
ACDBPLACEHOLDER
  2
AcDbPlaceHolder
  3
ObjectDBX Classes
 90
        0
280
     0
281
     0
  0
CLASS
  1
LAYOUT
  2
AcDbLayout
  3
ObjectDBX Classes
 90
        0
280
     0
281
     0
  0
ENDSEC
  0
SECTION
  2
TABLES
  0
TABLE
  2
VPORT
  5
8
330
0
100
AcDbSymbolTable
 70
     1
  0
VPORT
  5
29
330
8
100
AcDbSymbolTableRecord
100
AcDbViewportTableRecord
  2
*Active
 70
     0
 10
0.0
 20
0.0
 11
1.0
 21
1.0
 12
344.1869158879
 22
148.5
 13
0.0
 23
0.0
 14
10.0
 24
10.0
 15
10.0
 25
10.0
 16
0.0
 26
0.0
 36
1.0
 17
0.0
 27
0.0
 37
0.0
 40
297.0
 41
1.9729729729
 42
50.0
 43
0.0
 44
0.0
 50
0.0
 51
0.0
 71
     0
 72
   100
 73
     1
 74
     3
 75
     0
 76
     0
 77
     0
 78
     0
281
     0
 65
     1
110
0.0
120
0.0
130
0.0
111
1.0
121
0.0
131
0.0
112
0.0
122
1.0
132
0.0
 79
     0
146
0.0
  0
ENDTAB
  0
TABLE
  2
LTYPE
  5
5
330
0
100
AcDbSymbolTable
 70
     2
  0
LTYPE
  5
14
330
5
100
AcDbSymbolTableRecord
100
AcDbLinetypeTableRecord
  2
ByBlock
 70
     0
  3

 72
    65
 73
     0
 40
0.0
  0
LTYPE
  5
15
330
5
100
AcDbSymbolTableRecord
100
AcDbLinetypeTableRecord
  2
ByLayer
 70
     0
  3

 72
    65
 73
     0
 40
0.0
  0
LTYPE
  5
16
330
5
100
AcDbSymbolTableRecord
100
AcDbLinetypeTableRecord
  2
Continuous
 70
     0
  3
Solid line
 72
    65
 73
     0
 40
0.0
  0
LTYPE
  5
57
330
5
100
AcDbSymbolTableRecord
100
AcDbLinetypeTableRecord
  2
CENTER2
 70
     0
  3
Center (.5x) ___ _ ___ _ ___ _ ___ _ ___ _ ___
 72
    65
 73
     4
 40
28.575
 49
19.05
 74
     4
 75
     0
340
0
 46
0.0
 50
0.0
 44
0.0
 45
0.0
 49
-3.175
 74
     4
 75
     0
340
0
 46
0.0
 50
0.0
 44
0.0
 45
0.0
 49
3.175
 74
     4
 75
     0
340
0
 46
0.0
 50
0.0
 44
0.0
 45
0.0
 49
-3.175
 74
     4
 75
     0
340
0
 46
0.0
 50
0.0
 44
0.0
 45
0.0
  0
ENDTAB
  0
TABLE
  2
LAYER
  5
2
330
0
100
AcDbSymbolTable
 70
    11
  0
LAYER
  5
10
330
2
100
AcDbSymbolTableRecord
100
AcDbLayerTableRecord
  2
0
 70
     0
 62
     7
  6
Continuous
370
    -3
390
F
  0
LAYER
  5
2C
330
2
100
AcDbSymbolTableRecord
100
AcDbLayerTableRecord
  2
Layer1
 70
     0
 62
     7
  6
Continuous
370
    -3
390
F
  0
LAYER
  5
30
330
2
100
AcDbSymbolTableRecord
100
AcDbLayerTableRecord
  2
Bogenauslauf_55grad_unten
 70
     0
 62
     7
  6
Continuous
370
    -3
390
F
  0
LAYER
  5
34
330
2
100
AcDbSymbolTableRecord
100
AcDbLayerTableRecord
  2
Layer3
 70
     0
 62
     7
  6
Continuous
370
    -3
390
F
  0
LAYER
  5
37
330
2
100
AcDbSymbolTableRecord
100
AcDbLayerTableRecord
  2
DV1_0
 70
     0
 62
     7
  6
Continuous
370
    -3
390
F
  0
LAYER
  5
73
330
2
100
AcDbSymbolTableRecord
100
AcDbLayerTableRecord
  2
$DDT_AUDIT_GENERATED_(73)
 70
     0
 62
     7
  6
Continuous
370
    -3
390
F
  0
LAYER
  5
8E
330
2
100
AcDbSymbolTableRecord
100
AcDbLayerTableRecord
  2
Default
 70
     0
 62
     7
  6
Continuous
370
    -3
390
F
  0
LAYER
  5
E5
330
2
100
AcDbSymbolTableRecord
100
AcDbLayerTableRecord
  2
$DDT_AUDIT_GENERATED_(E5)
 70
     0
 62
     7
  6
Continuous
370
    -3
390
F
  0
LAYER
  5
10C
330
2
100
AcDbSymbolTableRecord
100
AcDbLayerTableRecord
  2
$DDT_AUDIT_GENERATED_(10C)
 70
     0
 62
     7
  6
Continuous
370
    -3
390
F
  0
LAYER
  5
16E
330
2
100
AcDbSymbolTableRecord
100
AcDbLayerTableRecord
  2
MDS_Layer_90
 70
     0
 62
     7
  6
Continuous
370
    -3
390
F
  0
LAYER
  5
171
330
2
100
AcDbSymbolTableRecord
100
AcDbLayerTableRecord
  2
MDS_Layer_94
 70
     0
 62
     7
  6
Continuous
370
    -3
390
F
  0
ENDTAB
  0
TABLE
  2
STYLE
  5
3
330
0
100
AcDbSymbolTable
 70
     5
  0
STYLE
  5
11
330
3
100
AcDbSymbolTableRecord
100
AcDbTextStyleTableRecord
  2
Standard
 70
     0
 40
0.0
 41
1.0
 50
0.0
 71
     0
 42
2.5
  3
txt
  4

  0
STYLE
  5
2A
330
3
100
AcDbSymbolTableRecord
100
AcDbTextStyleTableRecord
  2
SEACAD_arial_ttfB
 70
     0
 40
0.0
 41
1.0
 50
0.0
 71
     0
 42
0.2
  3
arial.ttf
  4

  0
STYLE
  5
9E
330
3
100
AcDbSymbolTableRecord
100
AcDbTextStyleTableRecord
  2
SEACAD_arial_ttf
 70
     0
 40
0.0
 41
1.0
 50
0.0
 71
     0
 42
0.2
  3
arial.ttf
  4

  0
STYLE
  5
AC
330
3
100
AcDbSymbolTableRecord
100
AcDbTextStyleTableRecord
  2
SEACAD_semeca1_ttf
 70
     0
 40
0.0
 41
1.0
 50
0.0
 71
     0
 42
0.2
  3
semeca1.ttf
  4

  0
STYLE
  5
1BB
330
3
100
AcDbSymbolTableRecord
100
AcDbTextStyleTableRecord
  2
SEACAD_seiso_ttf
 70
     0
 40
0.0
 41
1.0
 50
0.0
 71
     0
 42
0.2
  3
seiso.ttf
  4

  0
ENDTAB
  0
TABLE
  2
VIEW
  5
6
330
0
100
AcDbSymbolTable
 70
     0
  0
ENDTAB
  0
TABLE
  2
UCS
  5
7
330
0
100
AcDbSymbolTable
 70
     0
  0
ENDTAB
  0
TABLE
  2
APPID
  5
9
330
0
100
AcDbSymbolTable
 70
     1
  0
APPID
  5
12
330
9
100
AcDbSymbolTableRecord
100
AcDbRegAppTableRecord
  2
ACAD
 70
     0
  0
ENDTAB
  0
TABLE
  2
DIMSTYLE
  5
A
330
0
100
AcDbSymbolTable
 70
     3
100
AcDbDimStyleTable
  0
DIMSTYLE
105
27
330
A
100
AcDbSymbolTableRecord
100
AcDbDimStyleTableRecord
  2
ISO-25
 70
     0
 41
2.5
 42
0.625
 43
3.75
 44
1.25
 73
     0
 74
     0
 77
     1
 78
     8
140
2.5
141
2.5
143
0.0393700787
147
0.625
171
     3
172
     1
271
     2
272
     2
274
     3
278
    44
283
     0
284
     8
340
11
  0
DIMSTYLE
105
8F
330
A
100
AcDbSymbolTableRecord
100
AcDbDimStyleTableRecord
  2
Standard
 70
     0
340
11
  0
DIMSTYLE
105
9F
102
{ACAD_REACTORS
330
A0
330
AB
330
B8
330
C3
330
CE
330
D9
102
}
330
A
100
AcDbSymbolTableRecord
100
AcDbDimStyleTableRecord
  2
JIS
 70
     0
 41
6.0
 42
0.0
 44
3.0
 78
     8
140
6.0
141
3.0
147
3.0
173
     1
176
   136
177
   136
178
   136
271
     2
272
     2
284
     8
340
9E
343
99
344
99
  0
ENDTAB
  0
TABLE
  2
BLOCK_RECORD
  5
1
330
0
100
AcDbSymbolTable
 70
    13
  0
BLOCK_RECORD
  5
1F
330
1
100
AcDbSymbolTableRecord
100
AcDbBlockTableRecord
  2
*Model_Space
340
22
  0
BLOCK_RECORD
  5
1B
330
1
100
AcDbSymbolTableRecord
100
AcDbBlockTableRecord
  2
*Paper_Space
340
1E
  0
BLOCK_RECORD
  5
35
330
1
100
AcDbSymbolTableRecord
100
AcDbBlockTableRecord
  2
SE
340
0
102
{BLKREFS
331
36
102
}
1001
ACAD
1000
DesignCenter Data
1002
{
1070
     1
1070
     0
1002
}
  0
BLOCK_RECORD
  5
90
330
1
100
AcDbSymbolTableRecord
100
AcDbBlockTableRecord
  2
_Oblique
340
0
1001
ACAD
1000
DesignCenter Data
1002
{
1070
     1
1070
     0
1002
}
  0
BLOCK_RECORD
  5
94
330
1
100
AcDbSymbolTableRecord
100
AcDbBlockTableRecord
  2
_Dot
340
0
1001
ACAD
1000
DesignCenter Data
1002
{
1070
     1
1070
     0
1002
}
  0
BLOCK_RECORD
  5
99
330
1
100
AcDbSymbolTableRecord
100
AcDbBlockTableRecord
  2
_SE_FILLED
340
0
1001
ACAD
1000
DesignCenter Data
1002
{
1070
     1
1070
     0
1002
}
  0
BLOCK_RECORD
  5
A1
330
1
100
AcDbSymbolTableRecord
100
AcDbBlockTableRecord
  2
DMBLK1
340
0
1001
ACAD
1000
DesignCenter Data
1002
{
1070
     1
1070
     0
1002
}
  0
BLOCK_RECORD
  5
AD
330
1
100
AcDbSymbolTableRecord
100
AcDbBlockTableRecord
  2
DMBLK2
340
0
1001
ACAD
1000
DesignCenter Data
1002
{
1070
     1
1070
     0
1002
}
  0
BLOCK_RECORD
  5
B9
330
1
100
AcDbSymbolTableRecord
100
AcDbBlockTableRecord
  2
DMBLK3
340
0
1001
ACAD
1000
DesignCenter Data
1002
{
1070
     1
1070
     0
1002
}
  0
BLOCK_RECORD
  5
C4
330
1
100
AcDbSymbolTableRecord
100
AcDbBlockTableRecord
  2
DMBLK4
340
0
1001
ACAD
1000
DesignCenter Data
1002
{
1070
     1
1070
     0
1002
}
  0
BLOCK_RECORD
  5
CF
330
1
100
AcDbSymbolTableRecord
100
AcDbBlockTableRecord
  2
DMBLK5
340
0
1001
ACAD
1000
DesignCenter Data
1002
{
1070
     1
1070
     0
1002
}
  0
BLOCK_RECORD
  5
DA
330
1
100
AcDbSymbolTableRecord
100
AcDbBlockTableRecord
  2
DMBLK6
340
0
1001
ACAD
1000
DesignCenter Data
1002
{
1070
     1
1070
     0
1002
}
  0
BLOCK_RECORD
  5
E3
330
1
100
AcDbSymbolTableRecord
100
AcDbBlockTableRecord
  2
SE1
340
0
102
{BLKREFS
331
E4
102
}
1001
ACAD
1000
DesignCenter Data
1002
{
1070
     1
1070
     0
1002
}
  0
BLOCK_RECORD
  5
10A
330
1
100
AcDbSymbolTableRecord
100
AcDbBlockTableRecord
  2
SE2
340
0
102
{BLKREFS
331
10B
102
}
1001
ACAD
1000
DesignCenter Data
1002
{
1070
     1
1070
     0
1002
}
  0
ENDTAB
  0
ENDSEC
  0
SECTION
  2
BLOCKS
  0
BLOCK
  5
20
330
1F
100
AcDbEntity
  8
0
100
AcDbBlockBegin
  2
*Model_Space
 70
     0
 71
     0
 10
0.0
 20
0.0
 30
0.0
  3
*Model_Space
  1

  0
ENDBLK
  5
21
330
1F
100
AcDbEntity
  8
0
100
AcDbBlockEnd
  0
BLOCK
  5
1C
330
1B
100
AcDbEntity
 67
     1
  8
0
100
AcDbBlockBegin
  2
*Paper_Space
 70
     0
 71
     0
 10
0.0
 20
0.0
 30
0.0
  3
*Paper_Space
  1

  0
ENDBLK
  5
1D
330
1B
100
AcDbEntity
 67
     1
  8
0
100
AcDbBlockEnd
  0
BLOCK
  5
8C
330
35
100
AcDbEntity
  8
0
100
AcDbBlockBegin
  2
SE
 70
     0
 71
     0
 10
0.0
 20
0.0
 30
0.0
  3
SE
  1

  0
LINE
  5
38
330
35
100
AcDbEntity
  8
DV1_0
  6
Continuous
 62
     7
100
AcDbLine
 10
80.5992650699
 20
148.5364811116
 30
0.0
 11
88.1988650699
 21
148.5364811116
 31
0.0
  0
LINE
  5
39
330
35
100
AcDbEntity
  8
DV1_0
  6
Continuous
 62
     7
100
AcDbLine
 10
79.5992650699
 20
147.5364811116
 30
0.0
 11
79.5992650699
 21
120.5364811116
 31
0.0
  0
LINE
  5
3A
330
35
100
AcDbEntity
  8
DV1_0
  6
Continuous
 62
     7
100
AcDbLine
 10
53.5992650699
 20
143.3520811116
 30
0.0
 11
53.5992650699
 21
124.7210811116
 31
0.0
  0
LINE
  5
3B
330
35
100
AcDbEntity
  8
DV1_0
  6
Continuous
 62
     7
100
AcDbLine
 10
54.7612650699
 20
144.5140811116
 30
0.0
 11
67.0992650699
 21
144.5140811116
 31
0.0
  0
LINE
  5
3C
330
35
100
AcDbEntity
  8
DV1_0
  6
Continuous
 62
     7
100
AcDbLine
 10
54.7612650699
 20
123.5590811116
 30
0.0
 11
67.0992650699
 21
123.5590811116
 31
0.0
  0
LINE
  5
3D
330
35
100
AcDbEntity
  8
DV1_0
  6
Continuous
 62
     7
100
AcDbLine
 10
53.5992650699
 20
124.7210811116
 30
0.0
 11
67.0992650699
 21
124.7210811116
 31
0.0
  0
LINE
  5
3E
330
35
100
AcDbEntity
  8
DV1_0
  6
Continuous
 62
     7
100
AcDbLine
 10
54.7612650699
 20
144.5140811116
 30
0.0
 11
53.5992650699
 21
143.3520811116
 31
0.0
  0
LINE
  5
3F
330
35
100
AcDbEntity
  8
DV1_0
  6
Continuous
 62
     7
100
AcDbLine
 10
53.5992650699
 20
124.7210811116
 30
0.0
 11
54.7612650699
 21
123.5590811116
 31
0.0
  0
LINE
  5
40
330
35
100
AcDbEntity
  8
DV1_0
  6
Continuous
 62
     7
100
AcDbLine
 10
80.5992650699
 20
119.5364811116
 30
0.0
 11
116.5992650699
 21
119.5364811116
 31
0.0
  0
LINE
  5
41
330
35
100
AcDbEntity
  8
DV1_0
  6
Continuous
 62
     7
100
AcDbLine
 10
72.0992650699
 20
165.9642811116
 30
0.0
 11
72.0992650699
 21
102.1392811116
 31
0.0
  0
LINE
  5
42
330
35
100
AcDbEntity
  8
DV1_0
  6
Continuous
 62
     7
100
AcDbLine
 10
70.6988650699
 20
166.5364811116
 30
0.0
 11
67.0992650699
 21
166.5364811116
 31
0.0
  0
LINE
  5
43
330
35
100
AcDbEntity
  8
DV1_0
  6
Continuous
 62
     7
100
AcDbLine
 10
72.5782650699
 20
165.2204811116
 30
0.0
 11
79.5546650699
 21
146.0530811116
 31
0.0
  0
LINE
  5
44
330
35
100
AcDbEntity
  8
DV1_0
  6
Continuous
 62
     7
100
AcDbLine
 10
72.5782650699
 20
102.8524811116
 30
0.0
 11
79.5546650699
 21
122.0198811116
 31
0.0
  0
LINE
  5
45
330
35
100
AcDbEntity
  8
DV1_0
  6
Continuous
 62
     7
100
AcDbLine
 10
70.6988650699
 20
101.5364811116
 30
0.0
 11
67.0992650699
 21
101.5364811116
 31
0.0
  0
LINE
  5
46
330
35
100
AcDbEntity
  8
DV1_0
  6
Continuous
 62
     7
100
AcDbLine
 10
67.0992650699
 20
166.5364811116
 30
0.0
 11
67.0992650699
 21
101.5364811116
 31
0.0
  0
LINE
  5
47
330
35
100
AcDbEntity
  8
DV1_0
  6
Continuous
 62
     7
100
AcDbLine
 10
53.5992650699
 20
143.3518811116
 30
0.0
 11
67.0992650699
 21
143.3518811116
 31
0.0
  0
LINE
  5
48
330
35
100
AcDbEntity
  8
DV1_0
  6
Continuous
 62
     7
100
AcDbLine
 10
117.5992650699
 20
197.5364811116
 30
0.0
 11
117.5992650699
 21
197.2564811116
 31
0.0
  0
LINE
  5
49
330
35
100
AcDbEntity
  8
DV1_0
  6
Continuous
 62
     7
100
AcDbLine
 10
96.5992650699
 20
197.5364811116
 30
0.0
 11
117.5992650699
 21
197.5364811116
 31
0.0
  0
LINE
  5
4A
330
35
100
AcDbEntity
  8
DV1_0
  6
Continuous
 62
     7
100
AcDbLine
 10
95.5992650699
 20
196.5364811116
 30
0.0
 11
95.5992650699
 21
166.0792811116
 31
0.0
  0
POINT
  5
4B
330
35
100
AcDbEntity
  8
DV1_0
  6
Continuous
 62
     7
100
AcDbPoint
 10
95.5992650699
 20
196.5364811116
 30
0.0
  0
LINE
  5
4C
330
35
100
AcDbEntity
  8
DV1_0
  6
Continuous
 62
     7
100
AcDbLine
 10
117.5992650699
 20
197.5364811116
 30
0.0
 11
117.5992650699
 21
120.5364811116
 31
0.0
  0
LINE
  5
4D
330
35
100
AcDbEntity
  8
DV1_0
  6
Continuous
 62
     7
100
AcDbLine
 10
126.5992650699
 20
122.1364811116
 30
0.0
 11
127.5992650699
 21
123.1364811116
 31
0.0
  0
LINE
  5
4E
330
35
100
AcDbEntity
  8
DV1_0
  6
Continuous
 62
     7
100
AcDbLine
 10
126.5992650699
 20
145.9364811116
 30
0.0
 11
127.5992650699
 21
144.9364811116
 31
0.0
  0
LINE
  5
4F
330
35
100
AcDbEntity
  8
DV1_0
  6
Continuous
 62
     7
100
AcDbLine
 10
127.5992650699
 20
123.1364811116
 30
0.0
 11
127.5992650699
 21
144.9364811116
 31
0.0
  0
LINE
  5
50
330
35
100
AcDbEntity
  8
DV1_0
  6
Continuous
 62
     7
100
AcDbLine
 10
126.5992650699
 20
122.1364811116
 30
0.0
 11
120.0992650699
 21
122.1364811116
 31
0.0
  0
LINE
  5
51
330
35
100
AcDbEntity
  8
DV1_0
  6
Continuous
 62
     7
100
AcDbLine
 10
119.0992650699
 20
144.9364811116
 30
0.0
 11
120.0992650699
 21
145.9364811116
 31
0.0
  0
LINE
  5
52
330
35
100
AcDbEntity
  8
DV1_0
  6
Continuous
 62
     7
100
AcDbLine
 10
119.0992650699
 20
144.0364811116
 30
0.0
 11
117.5992650699
 21
144.0364811116
 31
0.0
  0
LINE
  5
53
330
35
100
AcDbEntity
  8
DV1_0
  6
Continuous
 62
     7
100
AcDbLine
 10
119.0992650699
 20
123.1364811116
 30
0.0
 11
120.0992650699
 21
122.1364811116
 31
0.0
  0
LINE
  5
54
330
35
100
AcDbEntity
  8
DV1_0
  6
Continuous
 62
     7
100
AcDbLine
 10
119.0992650699
 20
144.9364811116
 30
0.0
 11
119.0992650699
 21
123.1364811116
 31
0.0
  0
LINE
  5
55
330
35
100
AcDbEntity
  8
DV1_0
  6
Continuous
 62
     7
100
AcDbLine
 10
119.0992650699
 20
124.0364811116
 30
0.0
 11
117.5992650699
 21
124.0364811116
 31
0.0
  0
LINE
  5
56
330
35
100
AcDbEntity
  8
DV1_0
  6
Continuous
 62
     7
100
AcDbLine
 10
95.2374650699
 20
164.0272811116
 30
0.0
 11
87.1664650699
 21
141.8524811116
 31
0.0
  0
LINE
  5
58
330
35
100
AcDbEntity
  8
DV1_0
  6
CENTER2
 62
     7
100
AcDbLine
 10
130.5992650699
 20
184.0364811116
 30
0.0
 11
95.5992650699
 21
184.0364811116
 31
0.0
  0
LINE
  5
59
330
35
100
AcDbEntity
  8
DV1_0
  6
Continuous
 62
     7
100
AcDbLine
 10
130.5992650699
 20
196.0944811116
 30
0.0
 11
130.5992650699
 21
171.9778811116
 31
0.0
  0
LINE
  5
5A
330
35
100
AcDbEntity
  8
DV1_0
  6
Continuous
 62
     7
100
AcDbLine
 10
117.5992650699
 20
197.2564811116
 30
0.0
 11
129.4372650699
 21
197.2564811116
 31
0.0
  0
LINE
  5
5B
330
35
100
AcDbEntity
  8
DV1_0
  6
Continuous
 62
     7
100
AcDbLine
 10
117.5992650699
 20
170.8160811116
 30
0.0
 11
129.4372650699
 21
170.8160811116
 31
0.0
  0
LINE
  5
5C
330
35
100
AcDbEntity
  8
DV1_0
  6
Continuous
 62
     7
100
AcDbLine
 10
120.5992650699
 20
196.0944811116
 30
0.0
 11
130.5992650699
 21
196.0944811116
 31
0.0
  0
LINE
  5
5D
330
35
100
AcDbEntity
  8
DV1_0
  6
Continuous
 62
     7
100
AcDbLine
 10
120.5992650699
 20
171.9778811116
 30
0.0
 11
130.5992650699
 21
171.9778811116
 31
0.0
  0
LINE
  5
5E
330
35
100
AcDbEntity
  8
DV1_0
  6
Continuous
 62
     7
100
AcDbLine
 10
130.5992650699
 20
171.9780811116
 30
0.0
 11
129.4372650699
 21
170.8160811116
 31
0.0
  0
LINE
  5
5F
330
35
100
AcDbEntity
  8
DV1_0
  6
Continuous
 62
     7
100
AcDbLine
 10
129.4372650699
 20
197.2564811116
 30
0.0
 11
130.5992650699
 21
196.0944811116
 31
0.0
  0
LINE
  5
60
330
35
100
AcDbEntity
  8
DV1_0
  6
Continuous
 62
     7
100
AcDbLine
 10
120.5992650699
 20
197.2564811116
 30
0.0
 11
120.5992650699
 21
170.8160811116
 31
0.0
  0
LINE
  5
61
330
35
100
AcDbEntity
  8
DV1_0
  6
Continuous
 62
     7
100
AcDbLine
 10
120.5992650699
 20
171.9778811116
 30
0.0
 11
118.5866650699
 21
170.8158811116
 31
0.0
  0
LINE
  5
62
330
35
100
AcDbEntity
  8
DV1_0
  6
Continuous
 62
     7
100
AcDbLine
 10
118.5866650699
 20
197.2564811116
 30
0.0
 11
120.5992650699
 21
196.0944811116
 31
0.0
  0
LINE
  5
63
330
35
100
AcDbEntity
  8
DV1_0
  6
Continuous
 62
     7
100
AcDbLine
 10
129.4372650699
 20
197.2564811116
 30
0.0
 11
129.4372650699
 21
170.8160811116
 31
0.0
  0
LINE
  5
64
330
35
100
AcDbEntity
  8
DV1_0
  6
Continuous
 62
     7
100
AcDbLine
 10
126.5992650699
 20
122.1364811116
 30
0.0
 11
126.5992650699
 21
145.9364811116
 31
0.0
  0
LINE
  5
65
330
35
100
AcDbEntity
  8
DV1_0
  6
Continuous
 62
     7
100
AcDbLine
 10
120.0992650699
 20
122.1364811116
 30
0.0
 11
120.0992650699
 21
145.9364811116
 31
0.0
  0
LINE
  5
66
330
35
100
AcDbEntity
  8
DV1_0
  6
Continuous
 62
     7
100
AcDbLine
 10
126.5992650699
 20
145.9364811116
 30
0.0
 11
120.0992650699
 21
145.9364811116
 31
0.0
  0
LINE
  5
67
330
35
100
AcDbEntity
  8
DV1_0
  6
CENTER2
 62
     7
100
AcDbLine
 10
53.5992650699
 20
134.0364811116
 30
0.0
 11
127.5992650699
 21
134.0364811116
 31
0.0
  0
LINE
  5
68
330
35
100
AcDbEntity
  8
DV1_0
  6
Continuous
 62
     7
100
AcDbLine
 10
54.7612650699
 20
144.5140811116
 30
0.0
 11
54.7612650699
 21
123.5590811116
 31
0.0
  0
ARC
  5
69
330
35
100
AcDbEntity
  8
DV1_0
  6
Continuous
 62
     7
100
AcDbCircle
 10
70.6988430699
 20
164.5364811116
 30
0.0
 40
2.000000000000002
100
AcDbArc
 50
19.999856
 51
89.999935
  0
ARC
  5
6A
330
35
100
AcDbEntity
  8
DV1_0
  6
Continuous
 62
     7
100
AcDbCircle
 10
70.6988430699
 20
103.5364971116
 30
0.0
 40
2.000000000000002
100
AcDbArc
 50
270.000065
 51
340.000144
  0
ARC
  5
6B
330
35
100
AcDbEntity
  8
DV1_0
  6
Continuous
 62
     7
100
AcDbCircle
 10
80.5992650699
 20
147.5364811116
 30
0.0
 40
1.000000000000001
100
AcDbArc
 50
89.999921
 51
180.0
  0
ARC
  5
6C
330
35
100
AcDbEntity
  8
DV1_0
  6
Continuous
 62
     7
100
AcDbCircle
 10
80.5992650699
 20
120.5364811116
 30
0.0
 40
1.000000000000001
100
AcDbArc
 50
180.0
 51
270.000079
  0
ARC
  5
6D
330
35
100
AcDbEntity
  8
DV1_0
  6
Continuous
 62
     7
100
AcDbCircle
 10
96.5992650699
 20
196.5364811116
 30
0.0
 40
1.000000000000001
100
AcDbArc
 50
89.999921
 51
180.0
  0
ARC
  5
6E
330
35
100
AcDbEntity
  8
DV1_0
  6
Continuous
 62
     7
100
AcDbCircle
 10
89.5992650699
 20
166.0793131116
 30
0.0
 40
6.000000000000005
100
AcDbArc
 50
339.99983
 51
359.999857
  0
ARC
  5
6F
330
35
100
AcDbEntity
  8
DV1_0
  6
Continuous
 62
     7
100
AcDbCircle
 10
88.1988430699
 20
150.5364811116
 30
0.0
 40
2.000000000000002
100
AcDbArc
 50
270.000079
 51
340.00013
  0
ARC
  5
70
330
35
100
AcDbEntity
  8
DV1_0
  6
Continuous
 62
     7
100
AcDbCircle
 10
116.5992650699
 20
120.5364811116
 30
0.0
 40
1.000000000000001
100
AcDbArc
 50
269.999771
 51
359.999857
  0
ARC
  5
71
330
35
100
AcDbEntity
  8
DV1_0
  6
Continuous
 62
     7
100
AcDbCircle
 10
85.2870850699
 20
142.5364811116
 30
0.0
 40
2.000000000000002
100
AcDbArc
 50
270.000079
 51
340.00013
  0
LINE
  5
72
330
35
100
AcDbEntity
  8
DV1_0
  6
Continuous
 62
     7
100
AcDbLine
 10
23.5992650699
 20
134.0364811116
 30
0.0
 11
28.5992650699
 21
134.0364811116
 31
0.0
  0
LINE
  5
74
330
35
100
AcDbEntity
  8
$DDT_AUDIT_GENERATED_(73)
  6
Continuous
 62
     7
100
AcDbLine
 10
87.0992650699
 20
181.3361811116
 30
0.0
 11
87.0992650699
 21
186.7361811116
 31
0.0
  0
LINE
  5
75
330
35
100
AcDbEntity
  8
$DDT_AUDIT_GENERATED_(73)
  6
Continuous
 62
     7
100
AcDbLine
 10
87.3992650699
 20
187.0361811116
 30
0.0
 11
87.3992650699
 21
181.0361811116
 31
0.0
  0
LINE
  5
76
330
35
100
AcDbEntity
  8
$DDT_AUDIT_GENERATED_(73)
  6
Continuous
 62
     7
100
AcDbLine
 10
87.3992650699
 20
181.0361811116
 30
0.0
 11
91.0992650699
 21
181.0361811116
 31
0.0
  0
LINE
  5
77
330
35
100
AcDbEntity
  8
$DDT_AUDIT_GENERATED_(73)
  6
Continuous
 62
     7
100
AcDbLine
 10
91.0992650699
 20
187.0361811116
 30
0.0
 11
87.3992650699
 21
187.0361811116
 31
0.0
  0
LINE
  5
78
330
35
100
AcDbEntity
  8
$DDT_AUDIT_GENERATED_(73)
  6
Continuous
 62
     7
100
AcDbLine
 10
87.3992650699
 20
187.0361811116
 30
0.0
 11
87.0992650699
 21
186.7361811116
 31
0.0
  0
LINE
  5
79
330
35
100
AcDbEntity
  8
$DDT_AUDIT_GENERATED_(73)
  6
Continuous
 62
     7
100
AcDbLine
 10
87.0992650699
 20
181.3361811116
 30
0.0
 11
87.3992650699
 21
181.0361811116
 31
0.0
  0
LINE
  5
7A
330
35
100
AcDbEntity
  8
$DDT_AUDIT_GENERATED_(73)
  6
Continuous
 62
     7
100
AcDbLine
 10
91.0992650699
 20
178.7861811116
 30
0.0
 11
91.0992650699
 21
189.2861811116
 31
0.0
  0
LINE
  5
7B
330
35
100
AcDbEntity
  8
$DDT_AUDIT_GENERATED_(73)
  6
Continuous
 62
     7
100
AcDbLine
 10
91.0992650699
 20
189.2861811116
 30
0.0
 11
91.0992650699
 21
194.5361811116
 31
0.0
  0
LINE
  5
7C
330
35
100
AcDbEntity
  8
$DDT_AUDIT_GENERATED_(73)
  6
Continuous
 62
     7
100
AcDbLine
 10
91.7343503661
 20
193.5561342729
 30
0.0
 11
91.7343503661
 21
194.5361811116
 31
0.0
  0
LINE
  5
7D
330
35
100
AcDbEntity
  8
$DDT_AUDIT_GENERATED_(73)
  6
Continuous
 62
     7
100
AcDbLine
 10
91.7343503661
 20
194.5361811116
 30
0.0
 11
95.5992650699
 21
194.5361811116
 31
0.0
  0
LINE
  5
7E
330
35
100
AcDbEntity
  8
$DDT_AUDIT_GENERATED_(73)
  6
Continuous
 62
     7
100
AcDbLine
 10
95.5992650699
 20
193.5561342729
 30
0.0
 11
91.7343503661
 21
193.5561342729
 31
0.0
  0
LINE
  5
7F
330
35
100
AcDbEntity
  8
$DDT_AUDIT_GENERATED_(73)
  6
Continuous
 62
     7
100
AcDbLine
 10
91.7343503661
 20
183.0561342729
 30
0.0
 11
91.7343503661
 21
185.0162279503
 31
0.0
  0
LINE
  5
80
330
35
100
AcDbEntity
  8
$DDT_AUDIT_GENERATED_(73)
  6
Continuous
 62
     7
100
AcDbLine
 10
91.7343503661
 20
185.0162279503
 30
0.0
 11
95.5992650699
 21
185.0162279503
 31
0.0
  0
LINE
  5
81
330
35
100
AcDbEntity
  8
$DDT_AUDIT_GENERATED_(73)
  6
Continuous
 62
     7
100
AcDbLine
 10
95.5992650699
 20
183.0561342729
 30
0.0
 11
91.7343503661
 21
183.0561342729
 31
0.0
  0
LINE
  5
82
330
35
100
AcDbEntity
  8
$DDT_AUDIT_GENERATED_(73)
  6
Continuous
 62
     7
100
AcDbLine
 10
91.7343503661
 20
173.5361811116
 30
0.0
 11
91.7343503661
 21
174.5162279503
 31
0.0
  0
LINE
  5
83
330
35
100
AcDbEntity
  8
$DDT_AUDIT_GENERATED_(73)
  6
Continuous
 62
     7
100
AcDbLine
 10
91.7343503661
 20
174.5162279503
 30
0.0
 11
95.5992650699
 21
174.5162279503
 31
0.0
  0
LINE
  5
84
330
35
100
AcDbEntity
  8
$DDT_AUDIT_GENERATED_(73)
  6
Continuous
 62
     7
100
AcDbLine
 10
95.5992650699
 20
173.5361811116
 30
0.0
 11
91.7343503661
 21
173.5361811116
 31
0.0
  0
LINE
  5
85
330
35
100
AcDbEntity
  8
$DDT_AUDIT_GENERATED_(73)
  6
Continuous
 62
     7
100
AcDbLine
 10
91.0992650699
 20
194.5361811116
 30
0.0
 11
91.7343503661
 21
194.5361811116
 31
0.0
  0
ARC
  5
86
330
35
100
AcDbEntity
  8
$DDT_AUDIT_GENERATED_(73)
  6
Continuous
 62
     7
100
AcDbCircle
 10
106.6024422496
 20
189.1625443448
 30
0.0
 40
15.50367016914657
100
AcDbArc
 50
163.5373462018
 51
179.5430798039
  0
ARC
  5
87
330
35
100
AcDbEntity
  8
$DDT_AUDIT_GENERATED_(73)
  6
Continuous
 62
     7
100
AcDbCircle
 10
106.604297871
 20
189.4100938715
 30
0.0
 40
15.50552793472458
100
AcDbArc
 50
180.4578853279
 51
196.4616886664
  0
ARC
  5
88
330
35
100
AcDbEntity
  8
$DDT_AUDIT_GENERATED_(73)
  6
Continuous
 62
     7
100
AcDbCircle
 10
106.6024422496
 20
178.6625443448
 30
0.0
 40
15.50367016914663
100
AcDbArc
 50
163.5373462018
 51
179.5430798039
  0
LINE
  5
89
330
35
100
AcDbEntity
  8
$DDT_AUDIT_GENERATED_(73)
  6
Continuous
 62
     7
100
AcDbLine
 10
91.0992650699
 20
173.5361811116
 30
0.0
 11
91.0992650699
 21
178.7861811116
 31
0.0
  0
ARC
  5
8A
330
35
100
AcDbEntity
  8
$DDT_AUDIT_GENERATED_(73)
  6
Continuous
 62
     7
100
AcDbCircle
 10
106.604297871
 20
178.9100938715
 30
0.0
 40
15.5055279347247
100
AcDbArc
 50
180.4578853279
 51
196.4616886664
  0
LINE
  5
8B
330
35
100
AcDbEntity
  8
$DDT_AUDIT_GENERATED_(73)
  6
Continuous
 62
     7
100
AcDbLine
 10
91.7343503661
 20
173.5361811116
 30
0.0
 11
91.0992650699
 21
173.5361811116
 31
0.0
  0
ENDBLK
  5
8D
330
35
100
AcDbEntity
  8
0
100
AcDbBlockEnd
  0
BLOCK
  5
91
330
90
100
AcDbEntity
  8
0
100
AcDbBlockBegin
  2
_Oblique
 70
     0
 71
     0
 10
0.0
 20
0.0
 30
0.0
  3
_Oblique
  1

  0
LINE
  5
93
330
90
100
AcDbEntity
  8
0
  6
ByBlock
 62
     0
370
    -2
100
AcDbLine
 10
-0.5
 20
-0.5
 30
0.0
 11
0.5
 21
0.5
 31
0.0
  0
ENDBLK
  5
92
330
90
100
AcDbEntity
  8
0
100
AcDbBlockEnd
  0
BLOCK
  5
95
330
94
100
AcDbEntity
  8
0
100
AcDbBlockBegin
  2
_Dot
 70
     0
 71
     0
 10
0.0
 20
0.0
 30
0.0
  3
_Dot
  1

  0
LWPOLYLINE
  5
97
330
94
100
AcDbEntity
  8
0
  6
ByBlock
 62
     0
100
AcDbPolyline
 90
        2
 70
     1
 43
0.5
 10
-0.25
 20
0.0
 42
1.0
 10
0.25
 20
0.0
 42
1.0
  0
LINE
  5
98
330
94
100
AcDbEntity
  8
0
  6
ByBlock
 62
     0
370
    -2
100
AcDbLine
 10
-0.5
 20
0.0
 30
0.0
 11
-1.0
 21
0.0
 31
0.0
  0
ENDBLK
  5
96
330
94
100
AcDbEntity
  8
0
100
AcDbBlockEnd
  0
BLOCK
  5
9C
330
99
100
AcDbEntity
  8
0
100
AcDbBlockBegin
  2
_SE_FILLED
 70
     0
 71
     0
 10
0.0
 20
0.0
 30
0.0
  3
_SE_FILLED
  1

  0
SOLID
  5
9A
330
99
100
AcDbEntity
  8
0
 62
     0
100
AcDbTrace
 10
0.0
 20
0.0
 30
0.0
 11
-1.0
 21
-0.1665
 31
0.0
 12
-1.0
 22
0.1665
 32
0.0
 13
0.0
 23
0.0
 33
0.0
  0
LINE
  5
9B
330
99
100
AcDbEntity
  8
0
 62
     0
100
AcDbLine
 10
0.0
 20
0.0
 30
0.0
 11
-1.0
 21
0.0
 31
0.0
  0
ENDBLK
  5
9D
330
99
100
AcDbEntity
  8
0
100
AcDbBlockEnd
  0
BLOCK
  5
A9
330
A1
100
AcDbEntity
  8
0
100
AcDbBlockBegin
  2
DMBLK1
 70
     0
 71
     0
 10
0.0
 20
0.0
 30
0.0
  3
DMBLK1
  1

  0
HATCH
  5
A2
330
A1
100
AcDbEntity
  8
Default
  6
Continuous
 62
   136
370
    30
100
AcDbHatch
 10
0.0
 20
0.0
 30
0.0
210
0.0
220
0.0
230
1.0
  2
SOLID
 70
     1
 71
     0
 91
        1
 92
        1
 93
        3
 72
     1
 10
41.40168596750089
 20
150.5140811637612
 11
42.40168597619324
 21
144.5140811116071
 72
     1
 10
42.40168597619324
 20
144.5140811116071
 11
43.40168598488558
 21
150.5140811637612
 72
     1
 10
43.40168598488558
 20
150.5140811637612
 11
41.40168596750089
 21
150.5140811637612
 97
        0
 75
     0
 76
     1
 98
        0
  0
HATCH
  5
A3
330
A1
100
AcDbEntity
  8
Default
  6
Continuous
 62
   136
370
    30
100
AcDbHatch
 10
0.0
 20
0.0
 30
0.0
210
0.0
220
0.0
230
1.0
  2
SOLID
 70
     1
 71
     0
 91
        1
 92
        1
 93
        3
 72
     1
 10
41.40168596750089
 20
117.5590810594531
 11
43.40168598488558
 21
117.5590810594531
 72
     1
 10
43.40168598488558
 20
117.5590810594531
 11
42.40168597619324
 21
123.5590811116072
 72
     1
 10
42.40168597619324
 20
123.5590811116072
 11
41.40168596750089
 21
117.5590810594531
 97
        0
 75
     0
 76
     1
 98
        0
  0
LINE
  5
A4
330
A1
100
AcDbEntity
  8
Default
  6
Continuous
 62
   136
370
    30
100
AcDbLine
 10
54.7612650699
 20
144.5140811116
 30
0.0
 11
39.4016859501
 21
144.5140811116
 31
0.0
  0
LINE
  5
A5
330
A1
100
AcDbEntity
  8
Default
  6
Continuous
 62
   136
370
    30
100
AcDbLine
 10
54.7612650699
 20
123.5590811116
 30
0.0
 11
39.4016859501
 21
123.5590811116
 31
0.0
  0
LINE
  5
A6
330
A1
100
AcDbEntity
  8
Default
  6
Continuous
 62
   136
370
    30
100
AcDbLine
 10
42.4016859762
 20
156.5140812159
 30
0.0
 11
42.4016859762
 21
144.5140811116
 31
0.0
  0
LINE
  5
A7
330
A1
100
AcDbEntity
  8
Default
  6
Continuous
 62
   136
370
    30
100
AcDbLine
 10
42.4016859762
 20
123.5590811116
 30
0.0
 11
42.4016859762
 21
111.5590810073
 31
0.0
  0
TEXT
  5
A8
330
A1
100
AcDbEntity
  8
Default
  6
Continuous
 62
   136
370
    30
100
AcDbText
 10
29.540816411
 20
131.0365810752
 30
0.0
 40
6.0
  1
PJ1/2
  7
SEACAD_arial_ttf
 11
29.540816411
 21
137.0365810752
 31
0.0
100
AcDbText
 73
     3
  0
ENDBLK
  5
AA
330
A1
100
AcDbEntity
  8
0
100
AcDbBlockEnd
  0
BLOCK
  5
B6
330
AD
100
AcDbEntity
  8
0
100
AcDbBlockBegin
  2
DMBLK2
 70
     0
 71
     0
 10
0.0
 20
0.0
 30
0.0
  3
DMBLK2
  1

  0
HATCH
  5
AE
330
AD
100
AcDbEntity
  8
Default
  6
Continuous
 62
   136
370
    30
100
AcDbHatch
 10
0.0
 20
0.0
 30
0.0
210
0.0
220
0.0
230
1.0
  2
SOLID
 70
     1
 71
     0
 91
        1
 92
        1
 93
        3
 72
     1
 10
18.88734235608165
 20
160.5364810594531
 11
20.88734237346634
 21
160.5364810594531
 72
     1
 10
20.88734237346634
 20
160.5364810594531
 11
19.88734236477399
 21
166.5364811116071
 72
     1
 10
19.88734236477399
 20
166.5364811116071
 11
18.88734235608165
 21
160.5364810594531
 97
        0
 75
     0
 76
     1
 98
        0
  0
HATCH
  5
AF
330
AD
100
AcDbEntity
  8
Default
  6
Continuous
 62
   136
370
    30
100
AcDbHatch
 10
0.0
 20
0.0
 30
0.0
210
0.0
220
0.0
230
1.0
  2
SOLID
 70
     1
 71
     0
 91
        1
 92
        1
 93
        3
 72
     1
 10
18.88734235608165
 20
107.5364811637612
 11
19.88734236477399
 21
101.5364811116071
 72
     1
 10
19.88734236477399
 20
101.5364811116071
 11
20.88734237346634
 21
107.5364811637612
 72
     1
 10
20.88734237346634
 20
107.5364811637612
 11
18.88734235608165
 21
107.5364811637612
 97
        0
 75
     0
 76
     1
 98
        0
  0
LINE
  5
B0
330
AD
100
AcDbEntity
  8
Default
  6
Continuous
 62
   136
370
    30
100
AcDbLine
 10
67.0992650699
 20
166.5364811116
 30
0.0
 11
16.8873423387
 21
166.5364811116
 31
0.0
  0
LINE
  5
B1
330
AD
100
AcDbEntity
  8
Default
  6
Continuous
 62
   136
370
    30
100
AcDbLine
 10
67.0992650699
 20
101.5364811116
 30
0.0
 11
16.8873423387
 21
101.5364811116
 31
0.0
  0
LINE
  5
B2
330
AD
100
AcDbEntity
  8
Default
  6
Continuous
 62
   136
370
    30
100
AcDbLine
 10
19.8873423648
 20
166.5364811116
 30
0.0
 11
19.8873423648
 21
123.5143029981
 31
0.0
  0
LINE
  5
B3
330
AD
100
AcDbEntity
  8
Default
  6
Continuous
 62
   136
370
    30
100
AcDbLine
 10
19.8873423648
 20
113.3143021085
 30
0.0
 11
19.8873423648
 21
101.5364811116
 31
0.0
  0
TEXT
  5
B4
330
AD
100
AcDbEntity
  8
Default
  6
Continuous
 62
   136
370
    30
100
AcDbText
 10
20.7127428224
 20
115.4143023485
 30
0.0
 40
6.0
  1
65
  7
SEACAD_arial_ttf
 11
20.7127428224
 21
121.4143023485
 31
0.0
100
AcDbText
 73
     3
  0
TEXT
  5
B5
330
AD
100
AcDbEntity
  8
Default
  6
Continuous
 62
   136
370
    30
100
AcDbText
 10
9.6706375593
 20
115.4143023485
 30
0.0
 40
6.0
  1
O
  7
SEACAD_semeca1_ttf
 11
9.6706375593
 21
121.4143023485
 31
0.0
100
AcDbText
 73
     3
  0
ENDBLK
  5
B7
330
AD
100
AcDbEntity
  8
0
100
AcDbBlockEnd
  0
BLOCK
  5
C1
330
B9
100
AcDbEntity
  8
0
100
AcDbBlockBegin
  2
DMBLK3
 70
     0
 71
     0
 10
0.0
 20
0.0
 30
0.0
  3
DMBLK3
  1

  0
HATCH
  5
BA
330
B9
100
AcDbEntity
  8
Default
  6
Continuous
 62
   136
370
    30
100
AcDbHatch
 10
0.0
 20
0.0
 30
0.0
210
0.0
220
0.0
230
1.0
  2
SOLID
 70
     1
 71
     0
 91
        1
 92
        1
 93
        3
 72
     1
 10
145.1512462674736
 20
191.2564810594531
 11
144.1512462587812
 21
197.2564811116071
 72
     1
 10
144.1512462587812
 20
197.2564811116071
 11
143.1512462500889
 21
191.2564810594531
 72
     1
 10
143.1512462500889
 20
191.2564810594531
 11
145.1512462674736
 21
191.2564810594531
 97
        0
 75
     0
 76
     1
 98
        0
  0
HATCH
  5
BB
330
B9
100
AcDbEntity
  8
Default
  6
Continuous
 62
   136
370
    30
100
AcDbHatch
 10
0.0
 20
0.0
 30
0.0
210
0.0
220
0.0
230
1.0
  2
SOLID
 70
     1
 71
     0
 91
        1
 92
        1
 93
        3
 72
     1
 10
145.1512462674736
 20
176.8160811637612
 11
143.1512462500889
 21
176.8160811637612
 72
     1
 10
143.1512462500889
 20
176.8160811637612
 11
144.1512462587812
 21
170.8160811116071
 72
     1
 10
144.1512462587812
 20
170.8160811116071
 11
145.1512462674736
 21
176.8160811637612
 97
        0
 75
     0
 76
     1
 98
        0
  0
LINE
  5
BC
330
B9
100
AcDbEntity
  8
Default
  6
Continuous
 62
   136
370
    30
100
AcDbLine
 10
129.4372650699
 20
197.2564811116
 30
0.0
 11
147.1512462849
 21
197.2564811116
 31
0.0
  0
LINE
  5
BD
330
B9
100
AcDbEntity
  8
Default
  6
Continuous
 62
   136
370
    30
100
AcDbLine
 10
129.4372650699
 20
170.8160811116
 30
0.0
 11
147.1512462849
 21
170.8160811116
 31
0.0
  0
LINE
  5
BE
330
B9
100
AcDbEntity
  8
Default
  6
Continuous
 62
   136
370
    30
100
AcDbLine
 10
144.1512462588
 20
197.2564811116
 30
0.0
 11
144.1512462588
 21
189.1362805149
 31
0.0
  0
LINE
  5
BF
330
B9
100
AcDbEntity
  8
Default
  6
Continuous
 62
   136
370
    30
100
AcDbLine
 10
144.1512462588
 20
178.936280777
 30
0.0
 11
144.1512462588
 21
170.8160811116
 31
0.0
  0
TEXT
  5
C0
330
B9
100
AcDbEntity
  8
Default
  6
Continuous
 62
   136
370
    30
100
AcDbText
 10
132.9208114762
 20
181.0362807965
 30
0.0
 40
6.0
  1
G3/4
  7
SEACAD_arial_ttf
 11
132.9208114762
 21
187.0362807965
 31
0.0
100
AcDbText
 73
     3
  0
ENDBLK
  5
C2
330
B9
100
AcDbEntity
  8
0
100
AcDbBlockEnd
  0
BLOCK
  5
CC
330
C4
100
AcDbEntity
  8
0
100
AcDbBlockBegin
  2
DMBLK4
 70
     0
 71
     0
 10
0.0
 20
0.0
 30
0.0
  3
DMBLK4
  1

  0
HATCH
  5
C5
330
C4
100
AcDbEntity
  8
Default
  6
Continuous
 62
   136
370
    30
100
AcDbHatch
 10
0.0
 20
0.0
 30
0.0
210
0.0
220
0.0
230
1.0
  2
SOLID
 70
     1
 71
     0
 91
        1
 92
        1
 93
        3
 72
     1
 10
73.09926512210154
 20
68.92088856360434
 11
73.09926512210154
 21
70.92088858098901
 72
     1
 10
73.09926512210154
 20
70.92088858098903
 11
67.09926506994748
 21
69.92088857229669
 72
     1
 10
67.09926506994748
 20
69.92088857229669
 11
73.09926512210154
 21
68.92088856360435
 97
        0
 75
     0
 76
     1
 98
        0
  0
HATCH
  5
C6
330
C4
100
AcDbEntity
  8
Default
  6
Continuous
 62
   136
370
    30
100
AcDbHatch
 10
0.0
 20
0.0
 30
0.0
210
0.0
220
0.0
230
1.0
  2
SOLID
 70
     1
 71
     0
 91
        1
 92
        1
 93
        3
 72
     1
 10
124.5992650177935
 20
68.92088856360434
 11
130.5992650699476
 21
69.92088857229668
 72
     1
 10
130.5992650699476
 20
69.92088857229669
 11
124.5992650177935
 21
70.92088858098903
 72
     1
 10
124.5992650177935
 20
70.92088858098903
 11
124.5992650177935
 21
68.92088856360435
 97
        0
 75
     0
 76
     1
 98
        0
  0
LINE
  5
C7
330
C4
100
AcDbEntity
  8
Default
  6
Continuous
 62
   136
370
    30
100
AcDbLine
 10
67.0992650699
 20
101.5364811116
 30
0.0
 11
67.0992650699
 21
66.9208885462
 31
0.0
  0
LINE
  5
C8
330
C4
100
AcDbEntity
  8
Default
  6
Continuous
 62
   136
370
    30
100
AcDbLine
 10
130.5992650699
 20
171.9778811116
 30
0.0
 11
130.5992650699
 21
66.9208885462
 31
0.0
  0
LINE
  5
C9
330
C4
100
AcDbEntity
  8
Default
  6
Continuous
 62
   136
370
    30
100
AcDbLine
 10
67.0992650699
 20
69.9208885723
 30
0.0
 11
92.0536138725
 21
69.9208885723
 31
0.0
  0
LINE
  5
CA
330
C4
100
AcDbEntity
  8
Default
  6
Continuous
 62
   136
370
    30
100
AcDbLine
 10
105.64491813
 20
69.9208885723
 30
0.0
 11
130.5992650699
 21
69.9208885723
 31
0.0
  0
TEXT
  5
CB
330
C4
100
AcDbEntity
  8
Default
  6
Continuous
 62
   136
370
    30
100
AcDbText
 10
94.1536139093
 20
66.9208885723
 30
0.0
 40
6.0
  1
64
  7
SEACAD_arial_ttf
 11
94.1536139093
 21
72.9208885723
 31
0.0
100
AcDbText
 73
     3
  0
ENDBLK
  5
CD
330
C4
100
AcDbEntity
  8
0
100
AcDbBlockEnd
  0
BLOCK
  5
D7
330
CF
100
AcDbEntity
  8
0
100
AcDbBlockBegin
  2
DMBLK5
 70
     0
 71
     0
 10
0.0
 20
0.0
 30
0.0
  3
DMBLK5
  1

  0
HATCH
  5
D0
330
CF
100
AcDbEntity
  8
Default
  6
Continuous
 62
   136
370
    30
100
AcDbHatch
 10
0.0
 20
0.0
 30
0.0
210
0.0
220
0.0
230
1.0
  2
SOLID
 70
     1
 71
     0
 91
        1
 92
        1
 93
        3
 72
     1
 10
61.09926501779342
 20
86.9208896513891
 11
67.09926506994748
 21
87.92088966008144
 72
     1
 10
67.09926506994748
 20
87.92088966008146
 11
61.09926501779341
 21
88.9208896687738
 72
     1
 10
61.09926501779342
 20
88.9208896687738
 11
61.09926501779342
 21
86.92088965138912
 97
        0
 75
     0
 76
     1
 98
        0
  0
HATCH
  5
D1
330
CF
100
AcDbEntity
  8
Default
  6
Continuous
 62
   136
370
    30
100
AcDbHatch
 10
0.0
 20
0.0
 30
0.0
210
0.0
220
0.0
230
1.0
  2
SOLID
 70
     1
 71
     0
 91
        1
 92
        1
 93
        3
 72
     1
 10
85.59926512210161
 20
86.9208896513891
 11
85.59926512210161
 21
88.92088966877378
 72
     1
 10
85.59926512210161
 20
88.9208896687738
 11
79.59926506994755
 21
87.92088966008146
 72
     1
 10
79.59926506994755
 20
87.92088966008146
 11
85.59926512210161
 21
86.92088965138912
 97
        0
 75
     0
 76
     1
 98
        0
  0
LINE
  5
D2
330
CF
100
AcDbEntity
  8
Default
  6
Continuous
 62
   136
370
    30
100
AcDbLine
 10
67.0992650699
 20
101.5364811116
 30
0.0
 11
67.0992650699
 21
84.920889634
 31
0.0
  0
LINE
  5
D3
330
CF
100
AcDbEntity
  8
Default
  6
Continuous
 62
   136
370
    30
100
AcDbLine
 10
79.5992650699
 20
120.5364811116
 30
0.0
 11
79.5992650699
 21
84.920889634
 31
0.0
  0
LINE
  5
D4
330
CF
100
AcDbEntity
  8
Default
  6
Continuous
 62
   136
370
    30
100
AcDbLine
 10
55.0992649656
 20
87.9208896601
 30
0.0
 11
67.0992650699
 21
87.9208896601
 31
0.0
  0
LINE
  5
D5
330
CF
100
AcDbEntity
  8
Default
  6
Continuous
 62
   136
370
    30
100
AcDbLine
 10
79.5992650699
 20
87.9208896601
 30
0.0
 11
101.1224352431
 21
87.9208896601
 31
0.0
  0
TEXT
  5
D6
330
CF
100
AcDbEntity
  8
Default
  6
Continuous
 62
   136
370
    30
100
AcDbText
 10
82.5876519975
 20
89.4208896601
 30
0.0
 40
6.0
  1
12.5
  7
SEACAD_arial_ttf
 11
82.5876519975
 21
95.4208896601
 31
0.0
100
AcDbText
 73
     3
  0
ENDBLK
  5
D8
330
CF
100
AcDbEntity
  8
0
100
AcDbBlockEnd
  0
BLOCK
  5
E1
330
DA
100
AcDbEntity
  8
0
100
AcDbBlockBegin
  2
DMBLK6
 70
     0
 71
     0
 10
0.0
 20
0.0
 30
0.0
  3
DMBLK6
  1

  0
HATCH
  5
DB
330
DA
100
AcDbEntity
  8
Default
  6
Continuous
 62
   136
370
    30
100
AcDbHatch
 10
0.0
 20
0.0
 30
0.0
210
0.0
220
0.0
230
1.0
  2
SOLID
 70
     1
 71
     0
 91
        1
 92
        1
 93
        3
 72
     1
 10
24.85185434662891
 20
178.0364810594531
 11
26.85185436401359
 21
178.0364810594531
 72
     1
 10
26.85185436401359
 20
178.0364810594531
 11
25.85185435532125
 21
184.0364811116071
 72
     1
 10
25.85185435532125
 20
184.0364811116071
 11
24.85185434662891
 21
178.0364810594531
 97
        0
 75
     0
 76
     1
 98
        0
  0
HATCH
  5
DC
330
DA
100
AcDbEntity
  8
Default
  6
Continuous
 62
   136
370
    30
100
AcDbHatch
 10
0.0
 20
0.0
 30
0.0
210
0.0
220
0.0
230
1.0
  2
SOLID
 70
     1
 71
     0
 91
        1
 92
        1
 93
        3
 72
     1
 10
24.85185434662891
 20
140.0364811637612
 11
25.85185435532125
 21
134.0364811116071
 72
     1
 10
25.85185435532125
 20
134.0364811116071
 11
26.85185436401359
 21
140.0364811637612
 72
     1
 10
26.85185436401359
 20
140.0364811637612
 11
24.85185434662891
 21
140.0364811637612
 97
        0
 75
     0
 76
     1
 98
        0
  0
LINE
  5
DD
330
DA
100
AcDbEntity
  8
Default
  6
Continuous
 62
   136
370
    30
100
AcDbLine
 10
95.5992650699
 20
184.0364811116
 30
0.0
 11
22.8518543292
 21
184.0364811116
 31
0.0
  0
LINE
  5
DE
330
DA
100
AcDbEntity
  8
Default
  6
Continuous
 62
   136
370
    30
100
AcDbLine
 10
25.8518543553
 20
184.0364811116
 30
0.0
 11
25.8518543553
 21
176.9422818081
 31
0.0
  0
LINE
  5
DF
330
DA
100
AcDbEntity
  8
Default
  6
Continuous
 62
   136
370
    30
100
AcDbLine
 10
25.8518543553
 20
166.7422798568
 30
0.0
 11
25.8518543553
 21
134.0364811116
 31
0.0
  0
TEXT
  5
E0
330
DA
100
AcDbEntity
  8
Default
  6
Continuous
 62
   136
370
    30
100
AcDbText
 10
21.1562021814
 20
168.842281624
 30
0.0
 40
6.0
  1
50
  7
SEACAD_arial_ttf
 11
21.1562021814
 21
174.842281624
 31
0.0
100
AcDbText
 73
     3
  0
ENDBLK
  5
E2
330
DA
100
AcDbEntity
  8
0
100
AcDbBlockEnd
  0
BLOCK
  5
108
330
E3
100
AcDbEntity
  8
0
100
AcDbBlockBegin
  2
SE1
 70
     0
 71
     0
 10
0.0
 20
0.0
 30
0.0
  3
SE1
  1

  0
ARC
  5
E6
330
E3
100
AcDbEntity
  8
$DDT_AUDIT_GENERATED_(E5)
  6
Continuous
 62
     7
100
AcDbCircle
 10
170.5992650699
 20
134.0361811116
 30
0.0
 40
32.49999999999999
100
AcDbArc
 50
115.3511931693
 51
360.0
  0
ARC
  5
E7
330
E3
100
AcDbEntity
  8
$DDT_AUDIT_GENERATED_(E5)
  6
Continuous
 62
     7
100
AcDbCircle
 10
170.5992650699
 20
134.0361811116
 30
0.0
 40
32.49999999999999
100
AcDbArc
 50
0.0
 51
64.6488068307
  0
CIRCLE
  5
E8
330
E3
100
AcDbEntity
  8
$DDT_AUDIT_GENERATED_(E5)
  6
Continuous
 62
     7
100
AcDbCircle
 10
170.5992650699
 20
184.0361811116
 30
0.0
 40
7.5
  0
CIRCLE
  5
E9
330
E3
100
AcDbEntity
  8
$DDT_AUDIT_GENERATED_(E5)
  6
Continuous
 62
     7
100
AcDbCircle
 10
170.5992650699
 20
184.0361811116
 30
0.0
 40
1.2
  0
CIRCLE
  5
EA
330
E3
100
AcDbEntity
  8
$DDT_AUDIT_GENERATED_(E5)
  6
Continuous
 62
     7
100
AcDbCircle
 10
170.5992650699
 20
184.0361811116
 30
0.0
 40
0.9000000000000032
  0
CIRCLE
  5
EB
330
E3
100
AcDbEntity
  8
$DDT_AUDIT_GENERATED_(E5)
  6
Continuous
 62
     7
100
AcDbCircle
 10
170.5992650699
 20
184.0361811116
 30
0.0
 40
4.499999999999985
  0
CIRCLE
  5
EC
330
E3
100
AcDbEntity
  8
$DDT_AUDIT_GENERATED_(E5)
  6
Continuous
 62
     7
100
AcDbCircle
 10
170.5992650699
 20
184.0361811116
 30
0.0
 40
3.999999999999985
  0
CIRCLE
  5
ED
330
E3
100
AcDbEntity
  8
$DDT_AUDIT_GENERATED_(E5)
  6
Continuous
 62
     7
100
AcDbCircle
 10
170.5992650699
 20
184.0361811116
 30
0.0
 40
6.0
  0
ARC
  5
EE
330
E3
100
AcDbEntity
  8
$DDT_AUDIT_GENERATED_(E5)
  6
Continuous
 62
     7
100
AcDbCircle
 10
168.8492650699
 20
175.5123187721
 30
0.0
 40
1.750000000000002
100
AcDbArc
 50
36.1125554346
 51
120.6835443528
  0
ARC
  5
EF
330
E3
100
AcDbEntity
  8
$DDT_AUDIT_GENERATED_(E5)
  6
Continuous
 62
     7
100
AcDbCircle
 10
175.1590597754
 20
176.6249058214
 30
0.0
 40
1.749999999999999
100
AcDbArc
 50
79.3164556472
 51
163.8874445654
  0
ARC
  5
F0
330
E3
100
AcDbEntity
  8
$DDT_AUDIT_GENERATED_(E5)
  6
Continuous
 62
     7
100
AcDbCircle
 10
170.5992650699
 20
134.0361811116
 30
0.0
 40
3.99999999999999
100
AcDbArc
 50
284.4775121859
 51
75.5224878141
  0
ARC
  5
F1
330
E3
100
AcDbEntity
  8
$DDT_AUDIT_GENERATED_(E5)
  6
Continuous
 62
     7
100
AcDbCircle
 10
170.5992650699
 20
134.0361811116
 30
0.0
 40
3.499999999999992
100
AcDbArc
 50
106.601549599
 51
253.398450401
  0
LINE
  5
F2
330
E3
100
AcDbEntity
  8
$DDT_AUDIT_GENERATED_(E5)
  6
Continuous
 62
     7
100
AcDbLine
 10
169.5992650699
 20
137.3902830779
 30
0.0
 11
169.5992650699
 21
137.9091644578
 31
0.0
  0
LINE
  5
F3
330
E3
100
AcDbEntity
  8
$DDT_AUDIT_GENERATED_(E5)
  6
Continuous
 62
     7
100
AcDbLine
 10
171.5992650699
 20
137.9091644578
 30
0.0
 11
171.5992650699
 21
137.3902830779
 31
0.0
  0
LINE
  5
F4
330
E3
100
AcDbEntity
  8
$DDT_AUDIT_GENERATED_(E5)
  6
Continuous
 62
     7
100
AcDbLine
 10
171.5992650699
 20
137.3902830779
 30
0.0
 11
171.5992650699
 21
130.6820791454
 31
0.0
  0
LINE
  5
F5
330
E3
100
AcDbEntity
  8
$DDT_AUDIT_GENERATED_(E5)
  6
Continuous
 62
     7
100
AcDbLine
 10
169.5992650699
 20
137.3902830779
 30
0.0
 11
169.5992650699
 21
130.6820791454
 31
0.0
  0
ARC
  5
F6
330
E3
100
AcDbEntity
  8
$DDT_AUDIT_GENERATED_(E5)
  6
Continuous
 62
     7
100
AcDbCircle
 10
170.5992650699
 20
134.0361811116
 30
0.0
 40
3.99999999999999
100
AcDbArc
 50
104.4775121859
 51
255.5224878141
  0
ARC
  5
F7
330
E3
100
AcDbEntity
  8
$DDT_AUDIT_GENERATED_(E5)
  6
Continuous
 62
     7
100
AcDbCircle
 10
170.5992650699
 20
134.0361811116
 30
0.0
 40
3.499999999999992
100
AcDbArc
 50
286.601549599
 51
73.398450401
  0
LINE
  5
F8
330
E3
100
AcDbEntity
  8
$DDT_AUDIT_GENERATED_(E5)
  6
Continuous
 62
     7
100
AcDbLine
 10
171.5992650699
 20
130.1631977654
 30
0.0
 11
171.5992650699
 21
130.6820791454
 31
0.0
  0
LINE
  5
F9
330
E3
100
AcDbEntity
  8
$DDT_AUDIT_GENERATED_(E5)
  6
Continuous
 62
     7
100
AcDbLine
 10
169.5992650699
 20
130.6820791454
 30
0.0
 11
169.5992650699
 21
130.1631977654
 31
0.0
  0
CIRCLE
  5
FA
330
E3
100
AcDbEntity
  8
$DDT_AUDIT_GENERATED_(E5)
  6
Continuous
 62
     7
100
AcDbCircle
 10
170.5992650699
 20
134.0361811116
 30
0.0
 40
13.25
  0
CIRCLE
  5
FB
330
E3
100
AcDbEntity
  8
$DDT_AUDIT_GENERATED_(E5)
  6
Continuous
 62
     7
100
AcDbCircle
 10
170.5992650699
 20
134.0361811116
 30
0.0
 40
4.0
  0
CIRCLE
  5
FC
330
E3
100
AcDbEntity
  8
$DDT_AUDIT_GENERATED_(E5)
  6
Continuous
 62
     7
100
AcDbCircle
 10
170.5992650699
 20
134.0361811116
 30
0.0
 40
4.500000000000001
  0
CIRCLE
  5
FD
330
E3
100
AcDbEntity
  8
$DDT_AUDIT_GENERATED_(E5)
  6
Continuous
 62
     7
100
AcDbCircle
 10
170.5992650699
 20
134.0361811116
 30
0.0
 40
12.0
  0
CIRCLE
  5
FE
330
E3
100
AcDbEntity
  8
$DDT_AUDIT_GENERATED_(E5)
  6
Continuous
 62
     7
100
AcDbCircle
 10
170.5992650699
 20
134.0361811116
 30
0.0
 40
11.25
  0
ARC
  5
FF
330
E3
100
AcDbEntity
  8
$DDT_AUDIT_GENERATED_(E5)
  6
Continuous
 62
     7
100
AcDbCircle
 10
170.5992650699
 20
184.0361811116
 30
0.0
 40
13.5
100
AcDbArc
 50
16.7884630114
 51
163.2115369886
  0
LINE
  5
100
330
E3
100
AcDbEntity
  8
$DDT_AUDIT_GENERATED_(E5)
  6
Continuous
 62
     7
100
AcDbLine
 10
156.10216536
 20
134.3261811116
 30
0.0
 11
157.10196534
 21
184.3061811116
 31
0.0
  0
ARC
  5
101
330
E3
100
AcDbEntity
  8
$DDT_AUDIT_GENERATED_(E5)
  6
Continuous
 62
     7
100
AcDbCircle
 10
170.5992650699
 20
184.0361811116
 30
0.0
 40
13.50000000000057
100
AcDbArc
 50
1.1459919984
 51
16.7884630114
  0
ARC
  5
102
330
E3
100
AcDbEntity
  8
$DDT_AUDIT_GENERATED_(E5)
  6
Continuous
 62
     7
100
AcDbCircle
 10
170.5992650699
 20
184.0361811116
 30
0.0
 40
13.50000000000002
100
AcDbArc
 50
163.2115369886
 51
178.8540080016
  0
LINE
  5
103
330
E3
100
AcDbEntity
  8
$DDT_AUDIT_GENERATED_(E5)
  6
Continuous
 62
     7
100
AcDbLine
 10
184.0965647999
 20
184.3061811116
 30
0.0
 11
185.0963647799
 21
134.3261811116
 31
0.0
  0
ARC
  5
104
330
E3
100
AcDbEntity
  8
$DDT_AUDIT_GENERATED_(E5)
  6
Continuous
 62
     7
100
AcDbCircle
 10
170.5992650699
 20
134.0361811116
 30
0.0
 40
14.50000000000001
100
AcDbArc
 50
178.8540080016
 51
1.1459919984
  0
CIRCLE
  5
105
330
E3
100
AcDbEntity
  8
$DDT_AUDIT_GENERATED_(E5)
  6
Continuous
 62
     7
100
AcDbCircle
 10
170.5992650699
 20
184.0361811116
 30
0.0
 40
13.22
  0
CIRCLE
  5
106
330
E3
100
AcDbEntity
  8
$DDT_AUDIT_GENERATED_(E5)
  6
Continuous
 62
     7
100
AcDbCircle
 10
170.5992650699
 20
134.0361811116
 30
0.0
 40
13.5
  0
CIRCLE
  5
107
330
E3
100
AcDbEntity
  8
$DDT_AUDIT_GENERATED_(E5)
  6
Continuous
 62
     7
100
AcDbCircle
 10
170.5992650699
 20
184.0361811116
 30
0.0
 40
12.06
  0
ENDBLK
  5
109
330
E3
100
AcDbEntity
  8
0
100
AcDbBlockEnd
  0
BLOCK
  5
16C
330
10A
100
AcDbEntity
  8
0
100
AcDbBlockBegin
  2
SE2
 70
     0
 71
     0
 10
0.0
 20
0.0
 30
0.0
  3
SE2
  1

  0
LINE
  5
10D
330
10A
100
AcDbEntity
  8
$DDT_AUDIT_GENERATED_(10C)
  6
Continuous
 62
     7
100
AcDbLine
 10
79.5009966723
 20
222.2782265679
 30
0.0
 11
79.5009966723
 21
245.7941356553
 31
0.0
  0
LINE
  5
10E
330
10A
100
AcDbEntity
  8
$DDT_AUDIT_GENERATED_(10C)
  6
Continuous
 62
     7
100
AcDbLine
 10
70.9101124483
 20
201.5361811116
 30
0.0
 11
70.9101124483
 21
266.5361811116
 31
0.0
  0
LINE
  5
10F
330
10A
100
AcDbEntity
  8
$DDT_AUDIT_GENERATED_(10C)
  6
Continuous
 62
     7
100
AcDbLine
 10
66.5992650699
 20
201.5361811116
 30
0.0
 11
66.5992650699
 21
266.5361811116
 31
0.0
  0
ARC
  5
110
330
10A
100
AcDbEntity
  8
$DDT_AUDIT_GENERATED_(10C)
  6
Continuous
 62
     7
100
AcDbCircle
 10
78.0992650699
 20
222.8122195593
 30
0.0
 40
1.499999999999998
100
AcDbArc
 50
339.1455419604
 51
360.0
  0
ARC
  5
111
330
10A
100
AcDbEntity
  8
$DDT_AUDIT_GENERATED_(10C)
  6
Continuous
 62
     7
100
AcDbCircle
 10
78.0992650699
 20
245.2601426639
 30
0.0
 40
1.500000000000001
100
AcDbArc
 50
0.0
 51
20.8544580396
  0
LINE
  5
112
330
10A
100
AcDbEntity
  8
$DDT_AUDIT_GENERATED_(10C)
  6
Continuous
 62
     7
100
AcDbLine
 10
71.8446001832
 20
202.180185784
 30
0.0
 11
79.5009966723
 21
222.2782265679
 31
0.0
  0
LINE
  5
113
330
10A
100
AcDbEntity
  8
$DDT_AUDIT_GENERATED_(10C)
  6
Continuous
 62
     7
100
AcDbLine
 10
79.5009966723
 20
245.7941356553
 30
0.0
 11
71.8446001832
 21
265.8921764392
 31
0.0
  0
ARC
  5
114
330
10A
100
AcDbEntity
  8
$DDT_AUDIT_GENERATED_(10C)
  6
Continuous
 62
     7
100
AcDbCircle
 10
70.9101124483
 20
202.5361811116
 30
0.0
 40
1.000000000000008
100
AcDbArc
 50
270.0
 51
339.1455419604
  0
ARC
  5
115
330
10A
100
AcDbEntity
  8
$DDT_AUDIT_GENERATED_(10C)
  6
Continuous
 62
     7
100
AcDbCircle
 10
70.9101124483
 20
265.5361811116
 30
0.0
 40
1.00000000000001
100
AcDbArc
 50
20.8544580396
 51
90.0
  0
LINE
  5
116
330
10A
100
AcDbEntity
  8
$DDT_AUDIT_GENERATED_(10C)
  6
Continuous
 62
     7
100
AcDbLine
 10
66.5992650699
 20
201.5361811116
 30
0.0
 11
70.9101124483
 21
201.5361811116
 31
0.0
  0
LINE
  5
117
330
10A
100
AcDbEntity
  8
$DDT_AUDIT_GENERATED_(10C)
  6
Continuous
 62
     7
100
AcDbLine
 10
70.9101124483
 20
266.5361811116
 30
0.0
 11
66.5992650699
 21
266.5361811116
 31
0.0
  0
LINE
  5
118
330
10A
100
AcDbEntity
  8
$DDT_AUDIT_GENERATED_(10C)
  6
Continuous
 62
     7
100
AcDbLine
 10
87.0992650699
 20
236.7361811116
 30
0.0
 11
87.0992650699
 21
231.3361811116
 31
0.0
  0
LINE
  5
119
330
10A
100
AcDbEntity
  8
$DDT_AUDIT_GENERATED_(10C)
  6
Continuous
 62
     7
100
AcDbLine
 10
87.3992650699
 20
231.0361811116
 30
0.0
 11
87.3992650699
 21
237.0361811116
 31
0.0
  0
LINE
  5
11A
330
10A
100
AcDbEntity
  8
$DDT_AUDIT_GENERATED_(10C)
  6
Continuous
 62
     7
100
AcDbLine
 10
87.3992650699
 20
231.0361811116
 30
0.0
 11
91.0992650699
 21
231.0361811116
 31
0.0
  0
LINE
  5
11B
330
10A
100
AcDbEntity
  8
$DDT_AUDIT_GENERATED_(10C)
  6
Continuous
 62
     7
100
AcDbLine
 10
91.0992650699
 20
237.0361811116
 30
0.0
 11
87.3992650699
 21
237.0361811116
 31
0.0
  0
LINE
  5
11C
330
10A
100
AcDbEntity
  8
$DDT_AUDIT_GENERATED_(10C)
  6
Continuous
 62
     7
100
AcDbLine
 10
87.3992650699
 20
237.0361811116
 30
0.0
 11
87.0992650699
 21
236.7361811116
 31
0.0
  0
LINE
  5
11D
330
10A
100
AcDbEntity
  8
$DDT_AUDIT_GENERATED_(10C)
  6
Continuous
 62
     7
100
AcDbLine
 10
87.0992650699
 20
231.3361811116
 30
0.0
 11
87.3992650699
 21
231.0361811116
 31
0.0
  0
LINE
  5
11E
330
10A
100
AcDbEntity
  8
$DDT_AUDIT_GENERATED_(10C)
  6
Continuous
 62
     7
100
AcDbLine
 10
91.0992650699
 20
224.9429143719
 30
0.0
 11
91.0992650699
 21
223.5361811116
 31
0.0
  0
LINE
  5
11F
330
10A
100
AcDbEntity
  8
$DDT_AUDIT_GENERATED_(10C)
  6
Continuous
 62
     7
100
AcDbLine
 10
91.0992650699
 20
243.1294478513
 30
0.0
 11
91.0992650699
 21
244.5361811116
 31
0.0
  0
LINE
  5
120
330
10A
100
AcDbEntity
  8
$DDT_AUDIT_GENERATED_(10C)
  6
Continuous
 62
     7
100
AcDbLine
 10
91.0992650699
 20
234.0361811116
 30
0.0
 11
91.0992650699
 21
243.1294478513
 31
0.0
  0
LINE
  5
121
330
10A
100
AcDbEntity
  8
$DDT_AUDIT_GENERATED_(10C)
  6
Continuous
 62
     7
100
AcDbLine
 10
91.0992650699
 20
224.9429143719
 30
0.0
 11
91.0992650699
 21
234.0361811116
 31
0.0
  0
LINE
  5
122
330
10A
100
AcDbEntity
  8
$DDT_AUDIT_GENERATED_(10C)
  6
Continuous
 62
     7
100
AcDbLine
 10
95.5992650699
 20
245.5947064585
 30
0.0
 11
91.7343503661
 21
245.5947064585
 31
0.0
  0
LINE
  5
123
330
10A
100
AcDbEntity
  8
$DDT_AUDIT_GENERATED_(10C)
  6
Continuous
 62
     7
100
AcDbLine
 10
91.7343503661
 20
245.5947064585
 30
0.0
 11
91.7343503661
 21
245.6361811116
 31
0.0
  0
LINE
  5
124
330
10A
100
AcDbEntity
  8
$DDT_AUDIT_GENERATED_(10C)
  6
Continuous
 62
     7
100
AcDbLine
 10
91.7343503661
 20
238.9666983259
 30
0.0
 11
91.7343503661
 21
240.6641892442
 31
0.0
  0
LINE
  5
125
330
10A
100
AcDbEntity
  8
$DDT_AUDIT_GENERATED_(10C)
  6
Continuous
 62
     7
100
AcDbLine
 10
91.7343503661
 20
240.6641892442
 30
0.0
 11
95.5992650699
 21
240.6641892442
 31
0.0
  0
LINE
  5
126
330
10A
100
AcDbEntity
  8
$DDT_AUDIT_GENERATED_(10C)
  6
Continuous
 62
     7
100
AcDbLine
 10
95.5992650699
 20
238.9666983259
 30
0.0
 11
91.7343503661
 21
238.9666983259
 31
0.0
  0
LINE
  5
127
330
10A
100
AcDbEntity
  8
$DDT_AUDIT_GENERATED_(10C)
  6
Continuous
 62
     7
100
AcDbLine
 10
91.7343503661
 20
227.408172979
 30
0.0
 11
91.7343503661
 21
229.1056638974
 31
0.0
  0
LINE
  5
128
330
10A
100
AcDbEntity
  8
$DDT_AUDIT_GENERATED_(10C)
  6
Continuous
 62
     7
100
AcDbLine
 10
91.7343503661
 20
229.1056638974
 30
0.0
 11
95.5992650699
 21
229.1056638974
 31
0.0
  0
LINE
  5
129
330
10A
100
AcDbEntity
  8
$DDT_AUDIT_GENERATED_(10C)
  6
Continuous
 62
     7
100
AcDbLine
 10
95.5992650699
 20
227.408172979
 30
0.0
 11
91.7343503661
 21
227.408172979
 31
0.0
  0
LINE
  5
12A
330
10A
100
AcDbEntity
  8
$DDT_AUDIT_GENERATED_(10C)
  6
Continuous
 62
     7
100
AcDbLine
 10
91.7343503661
 20
222.4776557647
 30
0.0
 11
91.7343503661
 21
222.4361811116
 31
0.0
  0
LINE
  5
12B
330
10A
100
AcDbEntity
  8
$DDT_AUDIT_GENERATED_(10C)
  6
Continuous
 62
     7
100
AcDbLine
 10
91.7343503661
 20
222.4776557647
 30
0.0
 11
95.5992650699
 21
222.4776557647
 31
0.0
  0
ARC
  5
12C
330
10A
100
AcDbEntity
  8
$DDT_AUDIT_GENERATED_(10C)
  6
Continuous
 62
     7
100
AcDbCircle
 10
96.6492014775
 20
243.0141389181
 30
0.0
 40
5.551134143426531
100
AcDbArc
 50
152.298053312
 51
178.8097584658
  0
ARC
  5
12D
330
10A
100
AcDbEntity
  8
$DDT_AUDIT_GENERATED_(10C)
  6
Continuous
 62
     7
100
AcDbCircle
 10
96.6502006583
 20
243.2450141876
 30
0.0
 40
5.552138460460138
100
AcDbArc
 50
181.1926830698
 51
207.6995051524
  0
SPLINE
  5
12E
330
10A
100
AcDbEntity
  8
$DDT_AUDIT_GENERATED_(10C)
  6
Continuous
 62
     7
100
AcDbSpline
210
0.0
220
0.0
230
1.0
 70
     8
 71
     3
 72
    12
 73
     8
 74
     0
 42
0.0000000020059399
 43
0.0000000001
 40
0.0
 40
0.0
 40
0.0
 40
0.0
 40
0.4999999999999999
 40
0.4999999999999999
 40
0.75
 40
0.75
 40
1.0
 40
1.0
 40
1.0
 40
1.0
 10
91.73435036605618
 20
238.9666983258555
 30
0.0
 10
91.53769392518782
 20
238.1653260527136
 30
0.0
 10
91.37777735087235
 20
237.3539223088481
 30
0.0
 10
91.21274237500873
 20
236.1163823749129
 30
0.0
 10
91.17015245362798
 20
235.6988567795008
 30
0.0
 10
91.11347582505361
 20
234.8659511662908
 30
0.0
 10
91.09926506994759
 20
234.4505414982116
 30
0.0
 10
91.09926506994759
 20
234.0361811116071
 30
0.0
  0
SPLINE
  5
12F
330
10A
100
AcDbEntity
  8
$DDT_AUDIT_GENERATED_(10C)
  6
Continuous
 62
     7
100
AcDbSpline
210
0.0
220
0.0
230
1.0
 70
     8
 71
     3
 72
    12
 73
     8
 74
     0
 42
0.0000000020057704
 43
0.0000000001
 40
0.0
 40
0.0
 40
0.0
 40
0.0
 40
0.5000000000000002
 40
0.5000000000000002
 40
0.7500000000000002
 40
0.7500000000000002
 40
1.0
 40
1.0
 40
1.0
 40
1.0
 10
91.09926506994759
 20
234.0361811116071
 30
0.0
 10
91.09926506994758
 20
233.2064230609645
 30
0.0
 10
91.15673610974557
 20
232.3809085073734
 30
0.0
 10
91.32012647381688
 20
231.148335708141
 30
0.0
 10
91.38732197990598
 20
230.7384182066231
 30
0.0
 10
91.54456810453213
 20
229.920270759661
 30
0.0
 10
91.63486069768648
 20
229.5110829181826
 30
0.0
 10
91.73435036605618
 20
229.1056638973587
 30
0.0
  0
ARC
  5
130
330
10A
100
AcDbEntity
  8
$DDT_AUDIT_GENERATED_(10C)
  6
Continuous
 62
     7
100
AcDbCircle
 10
96.6492014775
 20
224.8276054386
 30
0.0
 40
5.551134143426413
100
AcDbArc
 50
152.298053312
 51
178.8097584658
  0
ARC
  5
131
330
10A
100
AcDbEntity
  8
$DDT_AUDIT_GENERATED_(10C)
  6
Continuous
 62
     7
100
AcDbCircle
 10
96.6502006583
 20
225.0584807081
 30
0.0
 40
5.552138460460006
100
AcDbArc
 50
181.1926830698
 51
207.6995051524
  0
LINE
  5
132
330
10A
100
AcDbEntity
  8
$DDT_AUDIT_GENERATED_(10C)
  6
Continuous
 62
     7
100
AcDbLine
 10
95.5992650699
 20
245.6361811116
 30
0.0
 11
91.7343503661
 21
245.6361811116
 31
0.0
  0
LINE
  5
133
330
10A
100
AcDbEntity
  8
$DDT_AUDIT_GENERATED_(10C)
  6
Continuous
 62
     7
100
AcDbLine
 10
91.7343503661
 20
222.4361811116
 30
0.0
 11
95.5992650699
 21
222.4361811116
 31
0.0
  0
LINE
  5
134
330
10A
100
AcDbEntity
  8
$DDT_AUDIT_GENERATED_(10C)
  6
Continuous
 62
     7
100
AcDbLine
 10
91.7343503661
 20
245.6361811116
 30
0.0
 11
91.0992650699
 21
244.5361811116
 31
0.0
  0
LINE
  5
135
330
10A
100
AcDbEntity
  8
$DDT_AUDIT_GENERATED_(10C)
  6
Continuous
 62
     7
100
AcDbLine
 10
91.0992650699
 20
223.5361811116
 30
0.0
 11
91.7343503661
 21
222.4361811116
 31
0.0
  0
SPLINE
  5
136
330
10A
100
AcDbEntity
  8
$DDT_AUDIT_GENERATED_(10C)
  6
Continuous
 62
     7
100
AcDbSpline
210
0.0
220
0.0
230
1.0
 70
    12
 71
     2
 72
     6
 73
     3
 74
     0
 42
0.0000000006035747
 43
0.0000000001
 40
0.0
 40
0.0
 40
0.0
 40
1.0
 40
1.0
 40
1.0
 10
81.31345130544341
 20
219.5390814016651
 30
0.0
 41
1.0
 10
86.21090989569657
 20
219.7756220780427
 30
0.0
 41
0.7749151089165844
 10
87.09926506994759
 20
231.4065369192926
 30
0.0
 41
1.0
  0
SPLINE
  5
137
330
10A
100
AcDbEntity
  8
$DDT_AUDIT_GENERATED_(10C)
  6
Continuous
 62
     7
100
AcDbSpline
210
0.0
220
0.0
230
1.0
 70
    12
 71
     2
 72
     6
 73
     3
 74
     0
 42
0.0000000006035747
 43
0.0000000001
 40
0.0
 40
0.0
 40
0.0
 40
1.0
 40
1.0
 40
1.0
 10
87.09926506994759
 20
236.6658253039216
 30
0.0
 41
1.0
 10
86.21090989569667
 20
248.2967401451703
 30
0.0
 41
0.774915108916614
 10
81.313451305444
 20
248.5332808215491
 30
0.0
 41
1.0
  0
LINE
  5
138
330
10A
100
AcDbEntity
  8
$DDT_AUDIT_GENERATED_(10C)
  6
Continuous
 62
     7
100
AcDbLine
 10
96.0992650699
 20
247.5334808416
 30
0.0
 11
117.0992650699
 21
247.5334808416
 31
0.0
  0
ARC
  5
139
330
10A
100
AcDbEntity
  8
$DDT_AUDIT_GENERATED_(10C)
  6
Continuous
 62
     7
100
AcDbCircle
 10
81.1317032978
 20
240.5085062806
 30
0.0
 40
20.97021249514887
100
AcDbArc
 50
270.4965864866
 51
284.3875268631
  0
ARC
  5
13A
330
10A
100
AcDbEntity
  8
$DDT_AUDIT_GENERATED_(10C)
  6
Continuous
 62
     7
100
AcDbCircle
 10
81.1317032978
 20
227.5638559426
 30
0.0
 40
20.97021249514875
100
AcDbArc
 50
75.6124731369
 51
89.5034135134
  0
LINE
  5
13B
330
10A
100
AcDbEntity
  8
$DDT_AUDIT_GENERATED_(10C)
  6
Continuous
 62
     7
100
AcDbLine
 10
96.0992650699
 20
220.5388813817
 30
0.0
 11
117.0992650699
 21
220.5388813817
 31
0.0
  0
LINE
  5
13C
330
10A
100
AcDbEntity
  8
$DDT_AUDIT_GENERATED_(10C)
  6
Continuous
 62
     7
100
AcDbLine
 10
86.3423612176
 20
220.195976745
 30
0.0
 11
95.2374207947
 21
220.6848540369
 31
0.0
  0
LINE
  5
13D
330
10A
100
AcDbEntity
  8
$DDT_AUDIT_GENERATED_(10C)
  6
Continuous
 62
     7
100
AcDbLine
 10
95.2374207947
 20
247.3875081863
 30
0.0
 11
86.3423612176
 21
247.8763854782
 31
0.0
  0
SPLINE
  5
13E
330
10A
100
AcDbEntity
  8
$DDT_AUDIT_GENERATED_(10C)
  6
Continuous
 62
     7
100
AcDbSpline
210
0.0
220
0.0
230
1.0
 70
    12
 71
     2
 72
     6
 73
     3
 74
     0
 42
0.0000000259462477
 43
0.0000000001
 40
0.0
 40
0.0
 40
0.0
 40
1.0
 40
1.0
 40
1.0
 10
95.23742079466304
 20
220.6848540368885
 30
0.0
 41
1.0
 10
95.59926506994738
 20
220.7063984573438
 30
0.0
 41
0.9848077530127426
 10
95.59926506994758
 20
220.7293255507132
 30
0.0
 41
1.0
  0
SPLINE
  5
13F
330
10A
100
AcDbEntity
  8
$DDT_AUDIT_GENERATED_(10C)
  6
Continuous
 62
     7
100
AcDbSpline
210
0.0
220
0.0
230
1.0
 70
    12
 71
     2
 72
     6
 73
     3
 74
     0
 42
0.0000000259462477
 43
0.0000000001
 40
0.0
 40
0.0
 40
0.0
 40
1.0
 40
1.0
 40
1.0
 10
95.59926506994759
 20
247.343036672501
 30
0.0
 41
1.0
 10
95.59926506994759
 20
247.3659637658704
 30
0.0
 41
0.9848077530161937
 10
95.23742079466304
 20
247.3875081863257
 30
0.0
 41
1.0
  0
LINE
  5
140
330
10A
100
AcDbEntity
  8
$DDT_AUDIT_GENERATED_(10C)
  6
Continuous
 62
     7
100
AcDbLine
 10
95.5992650699
 20
221.0387813717
 30
0.0
 11
95.5992650699
 21
247.0335808516
 31
0.0
  0
LINE
  5
141
330
10A
100
AcDbEntity
  8
$DDT_AUDIT_GENERATED_(10C)
  6
Continuous
 62
     7
100
AcDbLine
 10
95.5992650699
 20
220.7293255507
 30
0.0
 11
95.5992650699
 21
221.0387813717
 31
0.0
  0
LINE
  5
142
330
10A
100
AcDbEntity
  8
$DDT_AUDIT_GENERATED_(10C)
  6
Continuous
 62
     7
100
AcDbLine
 10
95.5992650699
 20
247.0335808516
 30
0.0
 11
95.5992650699
 21
247.3430366725
 31
0.0
  0
SPLINE
  5
143
330
10A
100
AcDbEntity
  8
$DDT_AUDIT_GENERATED_(10C)
  6
Continuous
 62
     7
100
AcDbSpline
210
0.0
220
0.0
230
1.0
 70
    12
 71
     2
 72
     6
 73
     3
 74
     0
 42
0.0000000100010002
 43
0.0000000001
 40
0.0
 40
0.0
 40
0.0
 40
1.0
 40
1.0
 40
1.0
 10
95.59926506994749
 20
221.0387813716591
 30
0.0
 41
1.0
 10
95.59926506994749
 20
220.5388813816612
 30
0.0
 41
0.7071067811865122
 10
96.09926506994759
 20
220.5388813816612
 30
0.0
 41
1.0
  0
SPLINE
  5
144
330
10A
100
AcDbEntity
  8
$DDT_AUDIT_GENERATED_(10C)
  6
Continuous
 62
     7
100
AcDbSpline
210
0.0
220
0.0
230
1.0
 70
    12
 71
     2
 72
     6
 73
     3
 74
     0
 42
0.0000000100010002
 43
0.0000000001
 40
0.0
 40
0.0
 40
0.0
 40
1.0
 40
1.0
 40
1.0
 10
96.09926506994759
 20
247.5334808415531
 30
0.0
 41
1.0
 10
95.5992650699514
 20
247.5334808415531
 30
0.0
 41
0.707106781189161
 10
95.59926506994762
 20
247.0335808515589
 30
0.0
 41
1.0
  0
LINE
  5
145
330
10A
100
AcDbEntity
  8
$DDT_AUDIT_GENERATED_(10C)
  6
Continuous
 62
     7
100
AcDbLine
 10
117.5992650699
 20
246.9607797527
 30
0.0
 11
117.5992650699
 21
221.1115824706
 31
0.0
  0
LINE
  5
146
330
10A
100
AcDbEntity
  8
$DDT_AUDIT_GENERATED_(10C)
  6
Continuous
 62
     7
100
AcDbLine
 10
117.5992650699
 20
220.0361811116
 30
0.0
 11
117.5992650699
 21
220.0389813917
 31
0.0
  0
LINE
  5
147
330
10A
100
AcDbEntity
  8
$DDT_AUDIT_GENERATED_(10C)
  6
Continuous
 62
     7
100
AcDbLine
 10
117.5992650699
 20
248.0333808316
 30
0.0
 11
117.5992650699
 21
248.0361811116
 31
0.0
  0
LINE
  5
148
330
10A
100
AcDbEntity
  8
$DDT_AUDIT_GENERATED_(10C)
  6
Continuous
 62
     7
100
AcDbLine
 10
117.5992650699
 20
248.0333808316
 30
0.0
 11
117.5992650699
 21
247.2561811116
 31
0.0
  0
LINE
  5
149
330
10A
100
AcDbEntity
  8
$DDT_AUDIT_GENERATED_(10C)
  6
Continuous
 62
     7
100
AcDbLine
 10
117.5992650699
 20
221.1115824706
 30
0.0
 11
117.5992650699
 21
221.0868163589
 31
0.0
  0
ARC
  5
14A
330
10A
100
AcDbEntity
  8
$DDT_AUDIT_GENERATED_(10C)
  6
Continuous
 62
     7
100
AcDbCircle
 10
117.0249552677
 20
246.9639897474
 30
0.0
 40
0.5743187729876421
100
AcDbArc
 50
359.6797595376
 51
82.5657869919
  0
ARC
  5
14B
330
10A
100
AcDbEntity
  8
$DDT_AUDIT_GENERATED_(10C)
  6
Continuous
 62
     7
100
AcDbCircle
 10
117.0249552677
 20
221.1083724758
 30
0.0
 40
0.5743187729876429
100
AcDbArc
 50
277.4342130081
 51
0.3202404624
  0
LINE
  5
14C
330
10A
100
AcDbEntity
  8
$DDT_AUDIT_GENERATED_(10C)
  6
Continuous
 62
     7
100
AcDbLine
 10
117.0992650699
 20
248.5361811116
 30
0.0
 11
117.0992650699
 21
248.5332808215
 31
0.0
  0
LINE
  5
14D
330
10A
100
AcDbEntity
  8
$DDT_AUDIT_GENERATED_(10C)
  6
Continuous
 62
     7
100
AcDbLine
 10
117.0992650699
 20
219.5390814017
 30
0.0
 11
117.0992650699
 21
219.5361811116
 31
0.0
  0
SPLINE
  5
14E
330
10A
100
AcDbEntity
  8
$DDT_AUDIT_GENERATED_(10C)
  6
Continuous
 62
     7
100
AcDbSpline
210
0.0
220
0.0
230
1.0
 70
    12
 71
     2
 72
     6
 73
     3
 74
     0
 42
0.0000000100010002
 43
0.0000000001
 40
0.0
 40
0.0
 40
0.0
 40
1.0
 40
1.0
 40
1.0
 10
117.5992650699474
 20
248.0333808315603
 30
0.0
 41
1.0
 10
117.5992650699382
 20
248.5332808215493
 30
0.0
 41
0.707106781193
 10
117.0992650699476
 20
248.5332808215493
 30
0.0
 41
1.0
  0
SPLINE
  5
14F
330
10A
100
AcDbEntity
  8
$DDT_AUDIT_GENERATED_(10C)
  6
Continuous
 62
     7
100
AcDbSpline
210
0.0
220
0.0
230
1.0
 70
    12
 71
     2
 72
     6
 73
     3
 74
     0
 42
0.0000000100010002
 43
0.0000000001
 40
0.0
 40
0.0
 40
0.0
 40
1.0
 40
1.0
 40
1.0
 10
117.0992650699476
 20
219.5390814016652
 30
0.0
 41
1.0
 10
117.5992650699505
 20
219.5390814016652
 30
0.0
 41
0.707106781184498
 10
117.5992650699477
 20
220.0389813916659
 30
0.0
 41
1.0
  0
LINE
  5
150
330
10A
100
AcDbEntity
  8
$DDT_AUDIT_GENERATED_(10C)
  6
Continuous
 62
     7
100
AcDbLine
 10
79.5992650699
 20
220.0361811116
 30
0.0
 11
79.5992650699
 21
248.0361811116
 31
0.0
  0
LINE
  5
151
330
10A
100
AcDbEntity
  8
$DDT_AUDIT_GENERATED_(10C)
  6
Continuous
 62
     7
100
AcDbLine
 10
117.5992650699
 20
220.8161811116
 30
0.0
 11
117.5992650699
 21
220.0389813917
 31
0.0
  0
LINE
  5
152
330
10A
100
AcDbEntity
  8
$DDT_AUDIT_GENERATED_(10C)
  6
Continuous
 62
     7
100
AcDbLine
 10
117.5992650699
 20
246.9855458643
 30
0.0
 11
117.5992650699
 21
246.9607797527
 31
0.0
  0
SPLINE
  5
153
330
10A
100
AcDbEntity
  8
$DDT_AUDIT_GENERATED_(10C)
  6
Continuous
 62
     7
100
AcDbSpline
210
0.0
220
0.0
230
1.0
 70
     8
 71
     3
 72
    12
 73
     8
 74
     0
 42
0.0000000358449095
 43
0.0000000001
 40
0.0
 40
0.0
 40
0.0
 40
0.0
 40
0.4493240842173172
 40
0.4493240842173172
 40
0.8986481684346345
 40
0.8986481684346345
 40
1.0
 40
1.0
 40
1.0
 40
1.0
 10
117.5992650699476
 20
246.9855458643062
 30
0.0
 10
117.5992650699476
 20
247.0669632136196
 30
0.0
 10
117.5840865532183
 20
247.1296982240751
 30
0.0
 10
117.558539457325
 20
247.2188108273174
 30
0.0
 10
117.5483640424979
 20
247.2451853495849
 30
0.0
 10
117.5482423950452
 20
247.2552547530281
 30
0.0
 10
117.5487348821205
 20
247.2561841485868
 30
0.0
 10
117.5496585396591
 20
247.2561846563568
 30
0.0
  0
SPLINE
  5
154
330
10A
100
AcDbEntity
  8
$DDT_AUDIT_GENERATED_(10C)
  6
Continuous
 62
     7
100
AcDbSpline
210
0.0
220
0.0
230
1.0
 70
     8
 71
     3
 72
    12
 73
     8
 74
     0
 42
0.0000000358455793
 43
0.0000000001
 40
0.0
 40
0.0
 40
0.0
 40
0.0
 40
0.0969129071815637
 40
0.0969129071815637
 40
0.5484564535907819
 40
0.5484564535907819
 40
1.0
 40
1.0
 40
1.0
 40
1.0
 10
117.5496472140015
 20
220.8161778471961
 30
0.0
 10
117.5487715415655
 20
220.8161783462263
 30
0.0
 10
117.5482860876283
 20
220.8170169339664
 30
0.0
 10
117.5481655259886
 20
220.8265044431926
 30
0.0
 10
117.5581857681334
 20
220.8525042903734
 30
0.0
 10
117.5838781220492
 20
220.9417543864273
 30
0.0
 10
117.5992650699476
 20
221.0051313395466
 30
0.0
 10
117.5992650699476
 20
221.086816358908
 30
0.0
  0
LINE
  5
155
330
10A
100
AcDbEntity
  8
$DDT_AUDIT_GENERATED_(10C)
  6
Continuous
 62
     7
100
AcDbLine
 10
53.5992650699
 20
224.7161811116
 30
0.0
 11
53.5992650699
 21
243.3561811116
 31
0.0
  0
LINE
  5
156
330
10A
100
AcDbEntity
  8
$DDT_AUDIT_GENERATED_(10C)
  6
Continuous
 62
     7
100
AcDbLine
 10
54.7592650699
 20
244.5161811116
 30
0.0
 11
54.7592650699
 21
223.5561811116
 31
0.0
  0
LINE
  5
157
330
10A
100
AcDbEntity
  8
$DDT_AUDIT_GENERATED_(10C)
  6
Continuous
 62
     7
100
AcDbLine
 10
129.4392650699
 20
247.2561811116
 30
0.0
 11
129.4392650699
 21
220.8161811116
 31
0.0
  0
LINE
  5
158
330
10A
100
AcDbEntity
  8
$DDT_AUDIT_GENERATED_(10C)
  6
Continuous
 62
     7
100
AcDbLine
 10
130.5992650699
 20
221.9761811116
 30
0.0
 11
130.5992650699
 21
246.0961811116
 31
0.0
  0
LINE
  5
159
330
10A
100
AcDbEntity
  8
$DDT_AUDIT_GENERATED_(10C)
  6
Continuous
 62
     7
100
AcDbLine
 10
117.0992650699
 20
248.5361811116
 30
0.0
 11
80.0992650699
 21
248.5361811116
 31
0.0
  0
LINE
  5
15A
330
10A
100
AcDbEntity
  8
$DDT_AUDIT_GENERATED_(10C)
  6
Continuous
 62
     7
100
AcDbLine
 10
80.0992650699
 20
219.5361811116
 30
0.0
 11
117.0992650699
 21
219.5361811116
 31
0.0
  0
ARC
  5
15B
330
10A
100
AcDbEntity
  8
$DDT_AUDIT_GENERATED_(10C)
  6
Continuous
 62
     7
100
AcDbCircle
 10
117.0992650699
 20
220.0361811116
 30
0.0
 40
0.5000000000000004
100
AcDbArc
 50
270.0
 51
360.0
  0
ARC
  5
15C
330
10A
100
AcDbEntity
  8
$DDT_AUDIT_GENERATED_(10C)
  6
Continuous
 62
     7
100
AcDbCircle
 10
117.0992650699
 20
248.0361811116
 30
0.0
 40
0.5000000000000004
100
AcDbArc
 50
0.0
 51
90.0
  0
ARC
  5
15D
330
10A
100
AcDbEntity
  8
$DDT_AUDIT_GENERATED_(10C)
  6
Continuous
 62
     7
100
AcDbCircle
 10
80.0992650699
 20
220.0361811116
 30
0.0
 40
0.5000000000000004
100
AcDbArc
 50
180.0
 51
270.0
  0
ARC
  5
15E
330
10A
100
AcDbEntity
  8
$DDT_AUDIT_GENERATED_(10C)
  6
Continuous
 62
     7
100
AcDbCircle
 10
80.0992650699
 20
248.0361811116
 30
0.0
 40
0.5000000000000004
100
AcDbArc
 50
90.0
 51
180.0
  0
LINE
  5
15F
330
10A
100
AcDbEntity
  8
$DDT_AUDIT_GENERATED_(10C)
  6
Continuous
 62
     7
100
AcDbLine
 10
129.4392650699
 20
247.2561811116
 30
0.0
 11
117.5546301677
 21
247.2561811116
 31
0.0
  0
LINE
  5
160
330
10A
100
AcDbEntity
  8
$DDT_AUDIT_GENERATED_(10C)
  6
Continuous
 62
     7
100
AcDbLine
 10
117.5523893961
 20
220.8161811116
 30
0.0
 11
129.4392650699
 21
220.8161811116
 31
0.0
  0
LINE
  5
161
330
10A
100
AcDbEntity
  8
$DDT_AUDIT_GENERATED_(10C)
  6
Continuous
 62
     7
100
AcDbLine
 10
54.7592650699
 20
223.5561811116
 30
0.0
 11
66.5992650699
 21
223.5561811116
 31
0.0
  0
LINE
  5
162
330
10A
100
AcDbEntity
  8
$DDT_AUDIT_GENERATED_(10C)
  6
Continuous
 62
     7
100
AcDbLine
 10
66.5992650699
 20
244.5161811116
 30
0.0
 11
54.7592650699
 21
244.5161811116
 31
0.0
  0
LINE
  5
163
330
10A
100
AcDbEntity
  8
$DDT_AUDIT_GENERATED_(10C)
  6
Continuous
 62
     7
100
AcDbLine
 10
54.7592650699
 20
244.5161811116
 30
0.0
 11
53.5992650699
 21
243.3561811116
 31
0.0
  0
LINE
  5
164
330
10A
100
AcDbEntity
  8
$DDT_AUDIT_GENERATED_(10C)
  6
Continuous
 62
     7
100
AcDbLine
 10
53.5992650699
 20
224.7161811116
 30
0.0
 11
54.7592650699
 21
223.5561811116
 31
0.0
  0
LINE
  5
165
330
10A
100
AcDbEntity
  8
$DDT_AUDIT_GENERATED_(10C)
  6
Continuous
 62
     7
100
AcDbLine
 10
129.4392650699
 20
220.8161811116
 30
0.0
 11
130.5992650699
 21
221.9761811116
 31
0.0
  0
LINE
  5
166
330
10A
100
AcDbEntity
  8
$DDT_AUDIT_GENERATED_(10C)
  6
Continuous
 62
     7
100
AcDbLine
 10
130.5992650699
 20
246.0961811116
 30
0.0
 11
129.4392650699
 21
247.2561811116
 31
0.0
  0
LINE
  5
167
330
10A
100
AcDbEntity
  8
$DDT_AUDIT_GENERATED_(10C)
  6
Continuous
 62
     7
100
AcDbLine
 10
130.5992650699
 20
221.9761811116
 30
0.0
 11
120.5992650699
 21
221.9761811116
 31
0.0
  0
LINE
  5
168
330
10A
100
AcDbEntity
  8
$DDT_AUDIT_GENERATED_(10C)
  6
Continuous
 62
     7
100
AcDbLine
 10
130.5992650699
 20
246.0961811116
 30
0.0
 11
120.5992650699
 21
246.0961811116
 31
0.0
  0
LINE
  5
169
330
10A
100
AcDbEntity
  8
$DDT_AUDIT_GENERATED_(10C)
  6
Continuous
 62
     7
100
AcDbLine
 10
120.5992650699
 20
247.2561811116
 30
0.0
 11
120.5992650699
 21
220.8161811116
 31
0.0
  0
LINE
  5
16A
330
10A
100
AcDbEntity
  8
$DDT_AUDIT_GENERATED_(10C)
  6
Continuous
 62
     7
100
AcDbLine
 10
53.5992650699
 20
243.3561811116
 30
0.0
 11
66.5992650699
 21
243.3561811116
 31
0.0
  0
LINE
  5
16B
330
10A
100
AcDbEntity
  8
$DDT_AUDIT_GENERATED_(10C)
  6
Continuous
 62
     7
100
AcDbLine
 10
53.5992650699
 20
224.7161811116
 30
0.0
 11
66.5992650699
 21
224.7161811116
 31
0.0
  0
ENDBLK
  5
16D
330
10A
100
AcDbEntity
  8
0
100
AcDbBlockEnd
  0
ENDSEC
  0
SECTION
  2
ENTITIES
  0
TEXT
  5
2B
330
1F
100
AcDbEntity
  8
Layer1
  6
Continuous
 62
     7
100
AcDbText
 10
12.1444444444
 20
31.9333333333
 30
0.0
 40
4.0
  1
1:1
  7
SEACAD_arial_ttfB
 11
12.1444444444
 21
35.9333333333
 31
0.0
100
AcDbText
 73
     3
  0
TEXT
  5
2D
330
1F
100
AcDbEntity
  8
Layer1
  6
Continuous
 62
     7
100
AcDbText
 10
18.9611111111
 20
8.6666666667
 30
0.0
 40
5.0
  1
x
  7
SEACAD_arial_ttfB
 11
18.9611111111
 21
13.6666666667
 31
0.0
100
AcDbText
 73
     3
  0
TEXT
  5
2E
330
1F
100
AcDbEntity
  8
Layer1
  6
Continuous
 62
     7
100
AcDbText
 10
175.0888888889
 20
13.9333333333
 30
0.0
 40
4.0
  1
JP6.028.00
  7
SEACAD_arial_ttfB
 11
175.0888888889
 21
17.9333333333
 31
0.0
100
AcDbText
 73
     3
  0
TEXT
  5
2F
330
1F
100
AcDbEntity
  8
Bogenauslauf_55grad_unten
  6
Continuous
 62
     7
100
AcDbText
 10
51.2222222222
 20
41.4666666667
 30
0.0
 40
2.0
  1
J2005
  7
SEACAD_arial_ttfB
 11
51.2222222222
 21
43.4666666667
 31
0.0
100
AcDbText
 73
     3
  0
TEXT
  5
31
330
1F
100
AcDbEntity
  8
Bogenauslauf_55grad_unten
  6
Continuous
 62
     7
100
AcDbText
 10
49.7111111111
 20
36.9666666667
 30
0.0
 40
2.0
  1
05.12.20
  7
SEACAD_arial_ttfB
 11
49.7111111111
 21
38.9666666667
 31
0.0
100
AcDbText
 73
     3
  0
TEXT
  5
32
330
1F
100
AcDbEntity
  8
Bogenauslauf_55grad_unten
  6
Continuous
 62
     7
100
AcDbText
 10
52.8666666667
 20
31.9666666667
 30
0.0
 40
2.0
  1
Sm
  7
SEACAD_arial_ttfB
 11
52.8666666667
 21
33.9666666667
 31
0.0
100
AcDbText
 73
     3
  0
TEXT
  5
33
330
1F
100
AcDbEntity
  8
Layer3
  6
Continuous
 62
     7
100
AcDbText
 10
47.4
 20
17.9333333333
 30
0.0
 40
4.0
  1
12.045.000
  7
SEACAD_arial_ttfB
 11
47.4
 21
21.9333333333
 31
0.0
100
AcDbText
 73
     3
  0
INSERT
  5
36
330
1F
100
AcDbEntity
  8
0
100
AcDbBlockReference
  2
SE
 10
0.0
 20
0.0
 30
0.0
  0
DIMENSION
  5
A0
330
1F
100
AcDbEntity
  8
Default
  6
Continuous
 62
   136
370
    30
100
AcDbDimension
  2
DMBLK1
 10
42.4016859762
 20
144.5140811116
 30
0.0
 11
42.4016859762
 21
134.0365810752
 31
0.0
 70
   161
  1
\A1;PJ1/2 {}
 71
     5
 42
-1.0
  3
JIS
100
AcDbAlignedDimension
 13
54.7612650699
 23
144.5140811116
 33
0.0
 14
54.7612650699
 24
123.5590811116
 34
0.0
  0
DIMENSION
  5
AB
330
1F
100
AcDbEntity
  8
Default
  6
Continuous
 62
   136
370
    30
100
AcDbDimension
  2
DMBLK2
 10
19.8873423648
 20
166.5364811116
 30
0.0
 11
19.8873423648
 21
118.4143023485
 31
0.0
 70
   161
  1
\A1;%%C <>
 71
     5
 42
-1.0
  3
JIS
100
AcDbAlignedDimension
 13
67.0992650699
 23
166.5364811116
 33
0.0
 14
67.0992650699
 24
101.5364811116
 34
0.0
1001
ACAD
1000
DSTYLE
1002
{
1070
   172
1070
     1
1070
     0
1002
}
  0
DIMENSION
  5
B8
330
1F
100
AcDbEntity
  8
Default
  6
Continuous
 62
   136
370
    30
100
AcDbDimension
  2
DMBLK3
 10
144.1512462588
 20
197.2564811116
 30
0.0
 11
144.1512462588
 21
184.0362807965
 31
0.0
 70
   161
  1
\A1;G3/4 {}
 71
     5
 42
-1.0
  3
JIS
100
AcDbAlignedDimension
 13
129.4372650699
 23
197.2564811116
 33
0.0
 14
129.4372650699
 24
170.8160811116
 34
0.0
  0
DIMENSION
  5
C3
330
1F
100
AcDbEntity
  8
Default
  6
Continuous
 62
   136
370
    30
100
AcDbDimension
  2
DMBLK4
 10
130.5992650699
 20
69.9208885723
 30
0.0
 11
98.8492660832
 21
69.9208885723
 31
0.0
 70
   160
  1
\A1;<>
 71
     5
 42
-1.0
  3
JIS
100
AcDbAlignedDimension
 13
67.0992650699
 23
101.5364811116
 33
0.0
 14
130.5992650699
 24
171.9778811116
 34
0.0
100
AcDbRotatedDimension
1001
ACAD
1000
DSTYLE
1002
{
1070
    73
1070
     0
1070
    74
1070
     0
1070
   172
1070
     1
1070
   271
1070
     0
1070
   272
1070
     0
1070
     0
1002
}
  0
DIMENSION
  5
CE
330
1F
100
AcDbEntity
  8
Default
  6
Continuous
 62
   136
370
    30
100
AcDbDimension
  2
DMBLK5
 10
79.5992650699
 20
87.9208896601
 30
0.0
 11
80.4876519975
 21
87.9208896601
 31
0.0
 70
   160
  1
\A1;<>
 71
     5
 42
-1.0
  3
JIS
100
AcDbAlignedDimension
 13
67.0992650699
 23
101.5364811116
 33
0.0
 14
79.5992650699
 24
120.5364811116
 34
0.0
100
AcDbRotatedDimension
1001
ACAD
1000
DSTYLE
1002
{
1070
    73
1070
     0
1070
    74
1070
     0
1070
    77
1070
     1
1070
     0
1002
}
  0
DIMENSION
  5
D9
330
1F
100
AcDbEntity
  8
Default
  6
Continuous
 62
   136
370
    30
100
AcDbDimension
  2
DMBLK6
 10
25.8518543553
 20
134.0364811116
 30
0.0
 11
25.8518543553
 21
171.842281624
 31
0.0
 70
   160
  1
\A1;<>
 71
     5
 42
-1.0
  3
JIS
100
AcDbAlignedDimension
 13
95.5992650699
 23
184.0364811116
 33
0.0
 14
28.5992650699
 24
134.0364811116
 34
0.0
 50
90.0
100
AcDbRotatedDimension
1001
ACAD
1000
DSTYLE
1002
{
1070
   172
1070
     1
1070
     0
1002
}
  0
INSERT
  5
E4
330
1F
100
AcDbEntity
  8
Default
100
AcDbBlockReference
  2
SE1
 10
0.0
 20
0.0
 30
0.0
  0
INSERT
  5
10B
330
1F
100
AcDbEntity
  8
Default
100
AcDbBlockReference
  2
SE2
 10
0.0
 20
0.0
 30
0.0
  0
LINE
  5
16F
330
1F
100
AcDbEntity
  8
MDS_Layer_90
  6
Continuous
 62
     7
100
AcDbLine
 10
6.6
 20
291.0
 30
0.0
 11
205.0
 21
291.0
 31
0.0
  0
LINE
  5
170
330
1F
100
AcDbEntity
  8
MDS_Layer_90
  6
Continuous
 62
     7
100
AcDbLine
 10
6.6
 20
291.0
 30
0.0
 11
6.6
 21
45.0
 31
0.0
  0
LINE
  5
172
330
1F
100
AcDbEntity
  8
MDS_Layer_94
  6
Continuous
 62
     7
100
AcDbLine
 10
85.0
 20
30.0
 30
0.0
 11
105.0
 21
30.0
 31
0.0
  0
LINE
  5
173
330
1F
100
AcDbEntity
  8
MDS_Layer_94
  6
Continuous
 62
     7
100
AcDbLine
 10
125.0
 20
35.0
 30
0.0
 11
145.0
 21
35.0
 31
0.0
  0
LINE
  5
174
330
1F
100
AcDbEntity
  8
MDS_Layer_94
  6
Continuous
 62
     7
100
AcDbLine
 10
105.0
 20
30.0
 30
0.0
 11
125.0
 21
30.0
 31
0.0
  0
LINE
  5
175
330
1F
100
AcDbEntity
  8
MDS_Layer_94
  6
Continuous
 62
     7
100
AcDbLine
 10
105.0
 20
25.0
 30
0.0
 11
105.0
 21
45.0
 31
0.0
  0
LINE
  5
176
330
1F
100
AcDbEntity
  8
MDS_Layer_94
  6
Continuous
 62
     7
100
AcDbLine
 10
25.6
 20
45.0
 30
0.0
 11
25.6
 21
25.0
 31
0.0
  0
LINE
  5
177
330
1F
100
AcDbEntity
  8
MDS_Layer_94
  6
Continuous
 62
     7
100
AcDbLine
 10
85.0
 20
25.0
 30
0.0
 11
105.0
 21
25.0
 31
0.0
  0
LINE
  5
178
330
1F
100
AcDbEntity
  8
MDS_Layer_94
  6
Continuous
 62
     7
100
AcDbLine
 10
125.0
 20
30.0
 30
0.0
 11
145.0
 21
30.0
 31
0.0
  0
LINE
  5
179
330
1F
100
AcDbEntity
  8
MDS_Layer_94
  6
Continuous
 62
     7
100
AcDbLine
 10
105.0
 20
25.0
 30
0.0
 11
125.0
 21
25.0
 31
0.0
  0
LINE
  5
17A
330
1F
100
AcDbEntity
  8
MDS_Layer_94
  6
Continuous
 62
     7
100
AcDbLine
 10
125.0
 20
25.0
 30
0.0
 11
125.0
 21
45.0
 31
0.0
  0
LINE
  5
17B
330
1F
100
AcDbEntity
  8
MDS_Layer_94
  6
Continuous
 62
     7
100
AcDbLine
 10
145.0
 20
25.0
 30
0.0
 11
145.0
 21
45.0
 31
0.0
  0
LINE
  5
17C
330
1F
100
AcDbEntity
  8
MDS_Layer_94
  6
Continuous
 62
     7
100
AcDbLine
 10
125.0
 20
25.0
 30
0.0
 11
145.0
 21
25.0
 31
0.0
  0
LINE
  5
17D
330
1F
100
AcDbEntity
  8
MDS_Layer_94
  6
Continuous
 62
     7
100
AcDbLine
 10
85.0
 20
40.0
 30
0.0
 11
105.0
 21
40.0
 31
0.0
  0
LINE
  5
17E
330
1F
100
AcDbEntity
  8
MDS_Layer_94
  6
Continuous
 62
     7
100
AcDbLine
 10
105.0
 20
40.0
 30
0.0
 11
125.0
 21
40.0
 31
0.0
  0
LINE
  5
17F
330
1F
100
AcDbEntity
  8
MDS_Layer_94
  6
Continuous
 62
     7
100
AcDbLine
 10
125.0
 20
40.0
 30
0.0
 11
145.0
 21
40.0
 31
0.0
  0
LINE
  5
180
330
1F
100
AcDbEntity
  8
MDS_Layer_94
  6
Continuous
 62
     7
100
AcDbLine
 10
25.6
 20
35.0
 30
0.0
 11
45.0
 21
35.0
 31
0.0
  0
LINE
  5
181
330
1F
100
AcDbEntity
  8
MDS_Layer_94
  6
Continuous
 62
     7
100
AcDbLine
 10
85.0
 20
35.0
 30
0.0
 11
105.0
 21
35.0
 31
0.0
  0
LINE
  5
182
330
1F
100
AcDbEntity
  8
MDS_Layer_94
  6
Continuous
 62
     7
100
AcDbLine
 10
105.0
 20
35.0
 30
0.0
 11
125.0
 21
35.0
 31
0.0
  0
LINE
  5
183
330
1F
100
AcDbEntity
  8
MDS_Layer_94
  6
Continuous
 62
     7
100
AcDbLine
 10
6.6
 20
5.0168024536
 30
0.0
 11
6.6
 21
25.0
 31
0.0
  0
LINE
  5
184
330
1F
100
AcDbEntity
  8
MDS_Layer_94
  6
Continuous
 62
     7
100
AcDbLine
 10
16.1
 20
20.0
 30
0.0
 11
16.1
 21
5.0168024536
 31
0.0
  0
LINE
  5
185
330
1F
100
AcDbEntity
  8
MDS_Layer_94
  6
Continuous
 62
     7
100
AcDbLine
 10
6.6
 20
5.0
 30
0.0
 11
45.0
 21
5.0
 31
0.0
  0
LINE
  5
186
330
1F
100
AcDbEntity
  8
MDS_Layer_94
  6
Continuous
 62
     7
100
AcDbLine
 10
6.6
 20
39.999
 30
0.0
 11
45.0
 21
39.999
 31
0.0
  0
LINE
  5
187
330
1F
100
AcDbEntity
  8
MDS_Layer_94
  6
Continuous
 62
     7
100
AcDbLine
 10
6.6
 20
40.0
 30
0.0
 11
45.0
 21
40.0
 31
0.0
  0
LINE
  5
188
330
1F
100
AcDbEntity
  8
MDS_Layer_94
  6
Continuous
 62
     7
100
AcDbLine
 10
6.6
 20
39.998
 30
0.0
 11
45.0
 21
39.998
 31
0.0
  0
POINT
  5
189
330
1F
100
AcDbEntity
  8
MDS_Layer_94
  6
Continuous
 62
     7
100
AcDbPoint
 10
45.0
 20
5.0
 30
0.0
  0
LINE
  5
18A
330
1F
100
AcDbEntity
  8
MDS_Layer_94
  6
Continuous
 62
     7
100
AcDbLine
 10
45.0
 20
5.0
 30
0.0
 11
45.0
 21
25.0
 31
0.0
  0
LINE
  5
18B
330
1F
100
AcDbEntity
  8
MDS_Layer_94
  6
Continuous
 62
     7
100
AcDbLine
 10
45.0
 20
15.0
 30
0.0
 11
77.0
 21
15.0
 31
0.0
  0
LINE
  5
18C
330
1F
100
AcDbEntity
  8
MDS_Layer_94
  6
Continuous
 62
     7
100
AcDbLine
 10
77.0
 20
15.0
 30
0.0
 11
109.0
 21
15.0
 31
0.0
  0
LINE
  5
18D
330
1F
100
AcDbEntity
  8
MDS_Layer_94
  6
Continuous
 62
     7
100
AcDbLine
 10
25.6
 20
5.0168024536
 30
0.0
 11
25.6
 21
25.0
 31
0.0
  0
LINE
  5
18E
330
1F
100
AcDbEntity
  8
MDS_Layer_94
  6
Continuous
 62
     7
100
AcDbLine
 10
45.0
 20
5.0
 30
0.0
 11
77.0
 21
5.0
 31
0.0
  0
LINE
  5
18F
330
1F
100
AcDbEntity
  8
MDS_Layer_94
  6
Continuous
 62
     7
100
AcDbLine
 10
165.0
 20
25.0
 30
0.0
 11
185.0
 21
25.0
 31
0.0
  0
LINE
  5
190
330
1F
100
AcDbEntity
  8
MDS_Layer_94
  6
Continuous
 62
     7
100
AcDbLine
 10
141.0
 20
15.0
 30
0.0
 11
173.0
 21
15.0
 31
0.0
  0
LINE
  5
191
330
1F
100
AcDbEntity
  8
MDS_Layer_94
  6
Continuous
 62
     7
100
AcDbLine
 10
205.0
 20
25.0
 30
0.0
 11
205.0
 21
45.0
 31
0.0
  0
LINE
  5
192
330
1F
100
AcDbEntity
  8
MDS_Layer_94
  6
Continuous
 62
     7
100
AcDbLine
 10
185.0
 20
30.0
 30
0.0
 11
205.0
 21
30.0
 31
0.0
  0
LINE
  5
193
330
1F
100
AcDbEntity
  8
MDS_Layer_94
  6
Continuous
 62
     7
100
AcDbLine
 10
185.0
 20
35.0
 30
0.0
 11
205.0
 21
35.0
 31
0.0
  0
LINE
  5
194
330
1F
100
AcDbEntity
  8
MDS_Layer_94
  6
Continuous
 62
     7
100
AcDbLine
 10
185.0
 20
40.0
 30
0.0
 11
205.0
 21
40.0
 31
0.0
  0
LINE
  5
195
330
1F
100
AcDbEntity
  8
MDS_Layer_94
  6
Continuous
 62
     7
100
AcDbLine
 10
185.0
 20
25.0
 30
0.0
 11
185.0
 21
45.0
 31
0.0
  0
LINE
  5
196
330
1F
100
AcDbEntity
  8
MDS_Layer_94
  6
Continuous
 62
     7
100
AcDbLine
 10
165.0
 20
30.0
 30
0.0
 11
185.0
 21
30.0
 31
0.0
  0
LINE
  5
197
330
1F
100
AcDbEntity
  8
MDS_Layer_94
  6
Continuous
 62
     7
100
AcDbLine
 10
165.0
 20
35.0
 30
0.0
 11
185.0
 21
35.0
 31
0.0
  0
LINE
  5
198
330
1F
100
AcDbEntity
  8
MDS_Layer_94
  6
Continuous
 62
     7
100
AcDbLine
 10
165.0
 20
40.0
 30
0.0
 11
185.0
 21
40.0
 31
0.0
  0
LINE
  5
199
330
1F
100
AcDbEntity
  8
MDS_Layer_94
  6
Continuous
 62
     7
100
AcDbLine
 10
145.0
 20
35.0
 30
0.0
 11
165.0
 21
35.0
 31
0.0
  0
LINE
  5
19A
330
1F
100
AcDbEntity
  8
MDS_Layer_94
  6
Continuous
 62
     7
100
AcDbLine
 10
165.0
 20
25.0
 30
0.0
 11
165.0
 21
45.0
 31
0.0
  0
LINE
  5
19B
330
1F
100
AcDbEntity
  8
MDS_Layer_94
  6
Continuous
 62
     7
100
AcDbLine
 10
145.0
 20
40.0
 30
0.0
 11
165.0
 21
40.0
 31
0.0
  0
LINE
  5
19C
330
1F
100
AcDbEntity
  8
MDS_Layer_94
  6
Continuous
 62
     7
100
AcDbLine
 10
45.0
 20
45.0
 30
0.0
 11
205.0
 21
45.0
 31
0.0
  0
LINE
  5
19D
330
1F
100
AcDbEntity
  8
MDS_Layer_94
  6
Continuous
 62
     7
100
AcDbLine
 10
25.6
 20
30.0
 30
0.0
 11
45.0
 21
30.0
 31
0.0
  0
LINE
  5
19E
330
1F
100
AcDbEntity
  8
MDS_Layer_94
  6
Continuous
 62
     7
100
AcDbLine
 10
6.6
 20
20.0
 30
0.0
 11
25.6
 21
20.0
 31
0.0
  0
LINE
  5
19F
330
1F
100
AcDbEntity
  8
MDS_Layer_94
  6
Continuous
 62
     7
100
AcDbLine
 10
6.6
 20
15.0
 30
0.0
 11
25.6
 21
15.0
 31
0.0
  0
LINE
  5
1A0
330
1F
100
AcDbEntity
  8
MDS_Layer_94
  6
Continuous
 62
     7
100
AcDbLine
 10
6.6
 20
25.0
 30
0.0
 11
45.0
 21
25.0
 31
0.0
  0
LINE
  5
1A1
330
1F
100
AcDbEntity
  8
MDS_Layer_94
  6
Continuous
 62
     7
100
AcDbLine
 10
45.0
 20
25.0
 30
0.0
 11
45.0
 21
45.0
 31
0.0
  0
LINE
  5
1A2
330
1F
100
AcDbEntity
  8
MDS_Layer_94
  6
Continuous
 62
     7
100
AcDbLine
 10
45.0
 20
40.0
 30
0.0
 11
65.0
 21
40.0
 31
0.0
  0
LINE
  5
1A3
330
1F
100
AcDbEntity
  8
MDS_Layer_94
  6
Continuous
 62
     7
100
AcDbLine
 10
45.0
 20
35.0
 30
0.0
 11
65.0
 21
35.0
 31
0.0
  0
LINE
  5
1A4
330
1F
100
AcDbEntity
  8
MDS_Layer_94
  6
Continuous
 62
     7
100
AcDbLine
 10
45.0
 20
30.0
 30
0.0
 11
65.0
 21
30.0
 31
0.0
  0
LINE
  5
1A5
330
1F
100
AcDbEntity
  8
MDS_Layer_94
  6
Continuous
 62
     7
100
AcDbLine
 10
65.0
 20
25.0
 30
0.0
 11
65.0
 21
45.0
 31
0.0
  0
LINE
  5
1A6
330
1F
100
AcDbEntity
  8
MDS_Layer_94
  6
Continuous
 62
     7
100
AcDbLine
 10
45.0
 20
25.0
 30
0.0
 11
65.0
 21
25.0
 31
0.0
  0
LINE
  5
1A7
330
1F
100
AcDbEntity
  8
MDS_Layer_94
  6
Continuous
 62
     7
100
AcDbLine
 10
65.0
 20
40.0
 30
0.0
 11
85.0
 21
40.0
 31
0.0
  0
LINE
  5
1A8
330
1F
100
AcDbEntity
  8
MDS_Layer_94
  6
Continuous
 62
     7
100
AcDbLine
 10
65.0
 20
35.0
 30
0.0
 11
85.0
 21
35.0
 31
0.0
  0
LINE
  5
1A9
330
1F
100
AcDbEntity
  8
MDS_Layer_94
  6
Continuous
 62
     7
100
AcDbLine
 10
65.0
 20
30.0
 30
0.0
 11
85.0
 21
30.0
 31
0.0
  0
LINE
  5
1AA
330
1F
100
AcDbEntity
  8
MDS_Layer_94
  6
Continuous
 62
     7
100
AcDbLine
 10
85.0
 20
25.0
 30
0.0
 11
85.0
 21
45.0
 31
0.0
  0
LINE
  5
1AB
330
1F
100
AcDbEntity
  8
MDS_Layer_94
  6
Continuous
 62
     7
100
AcDbLine
 10
65.0
 20
25.0
 30
0.0
 11
85.0
 21
25.0
 31
0.0
  0
LINE
  5
1AC
330
1F
100
AcDbEntity
  8
MDS_Layer_94
  6
Continuous
 62
     7
100
AcDbLine
 10
45.0
 20
45.0
 30
0.0
 11
6.6
 21
45.0
 31
0.0
  0
LINE
  5
1AD
330
1F
100
AcDbEntity
  8
MDS_Layer_94
  6
Continuous
 62
     7
100
AcDbLine
 10
6.6
 20
45.0
 30
0.0
 11
6.6
 21
25.0
 31
0.0
  0
LINE
  5
1AE
330
1F
100
AcDbEntity
  8
MDS_Layer_94
  6
Continuous
 62
     7
100
AcDbLine
 10
185.0
 20
25.0
 30
0.0
 11
205.0
 21
25.0
 31
0.0
  0
LINE
  5
1AF
330
1F
100
AcDbEntity
  8
MDS_Layer_94
  6
Continuous
 62
     7
100
AcDbLine
 10
77.0
 20
5.0
 30
0.0
 11
109.0
 21
5.0
 31
0.0
  0
LINE
  5
1B0
330
1F
100
AcDbEntity
  8
MDS_Layer_94
  6
Continuous
 62
     7
100
AcDbLine
 10
145.0
 20
30.0
 30
0.0
 11
165.0
 21
30.0
 31
0.0
  0
LINE
  5
1B1
330
1F
100
AcDbEntity
  8
MDS_Layer_94
  6
Continuous
 62
     7
100
AcDbLine
 10
109.0
 20
5.0
 30
0.0
 11
109.0
 21
25.0
 31
0.0
  0
LINE
  5
1B2
330
1F
100
AcDbEntity
  8
MDS_Layer_94
  6
Continuous
 62
     7
100
AcDbLine
 10
109.0
 20
15.0
 30
0.0
 11
141.0
 21
15.0
 31
0.0
  0
LINE
  5
1B3
330
1F
100
AcDbEntity
  8
MDS_Layer_94
  6
Continuous
 62
     7
100
AcDbLine
 10
145.0
 20
25.0
 30
0.0
 11
165.0
 21
25.0
 31
0.0
  0
LINE
  5
1B4
330
1F
100
AcDbEntity
  8
MDS_Layer_94
  6
Continuous
 62
     7
100
AcDbLine
 10
77.0
 20
5.0
 30
0.0
 11
77.0
 21
25.0
 31
0.0
  0
LINE
  5
1B5
330
1F
100
AcDbEntity
  8
MDS_Layer_94
  6
Continuous
 62
     7
100
AcDbLine
 10
205.0
 20
5.0
 30
0.0
 11
205.0
 21
25.0
 31
0.0
  0
LINE
  5
1B6
330
1F
100
AcDbEntity
  8
MDS_Layer_94
  6
Continuous
 62
     7
100
AcDbLine
 10
173.0
 20
5.0
 30
0.0
 11
205.0
 21
5.0
 31
0.0
  0
LINE
  5
1B7
330
1F
100
AcDbEntity
  8
MDS_Layer_94
  6
Continuous
 62
     7
100
AcDbLine
 10
173.0
 20
5.0
 30
0.0
 11
173.0
 21
25.0
 31
0.0
  0
LINE
  5
1B8
330
1F
100
AcDbEntity
  8
MDS_Layer_94
  6
Continuous
 62
     7
100
AcDbLine
 10
141.0
 20
5.0
 30
0.0
 11
173.0
 21
5.0
 31
0.0
  0
LINE
  5
1B9
330
1F
100
AcDbEntity
  8
MDS_Layer_94
  6
Continuous
 62
     7
100
AcDbLine
 10
109.0
 20
5.0
 30
0.0
 11
141.0
 21
5.0
 31
0.0
  0
LINE
  5
1BA
330
1F
100
AcDbEntity
  8
MDS_Layer_94
  6
Continuous
 62
     7
100
AcDbLine
 10
141.0
 20
5.0
 30
0.0
 11
141.0
 21
25.0
 31
0.0
  0
TEXT
  5
1BC
330
1F
100
AcDbEntity
  8
MDS_Layer_94
  6
Continuous
 62
     7
100
AcDbText
 10
27.2
 20
14.0913731012
 30
0.0
 40
2.5
  1
und
  7
SEACAD_seiso_ttf
 11
27.2
 21
16.5913731012
 31
0.0
100
AcDbText
 73
     3
  0
TEXT
  5
1BD
330
1F
100
AcDbEntity
  8
MDS_Layer_94
  6
Continuous
 62
     7
100
AcDbText
 10
27.2
 20
9.0913731012
 30
0.0
 40
2.5
  1
Varianten
  7
SEACAD_seiso_ttf
 11
27.2
 21
11.5913731012
 31
0.0
100
AcDbText
 73
     3
  0
TEXT
  5
1BE
330
1F
100
AcDbEntity
  8
MDS_Layer_94
  6
Continuous
 62
     7
100
AcDbText
 10
7.1240657125
 20
21.5397731012
 30
0.0
 40
2.5
  1
Dateiformat
  7
SEACAD_seiso_ttf
 11
7.1240657125
 21
24.0397731012
 31
0.0
100
AcDbText
 73
     3
  0
TEXT
  5
1BF
330
1F
100
AcDbEntity
  8
MDS_Layer_94
  6
Continuous
 62
     7
100
AcDbText
 10
7.4059642026
 20
16.5238108871
 30
0.0
 40
2.0
  1
Raster
  7
SEACAD_arial_ttf
 11
7.4059642026
 21
18.5238108871
 31
0.0
100
AcDbText
 73
     3
  0
TEXT
  5
1C0
330
1F
100
AcDbEntity
  8
MDS_Layer_94
  6
Continuous
 62
     7
100
AcDbText
 10
16.9707887071
 20
16.3869274332
 30
0.0
 40
2.0
  1
Vektor
  7
SEACAD_arial_ttf
 11
16.9707887071
 21
18.3869274332
 31
0.0
100
AcDbText
 73
     3
  0
TEXT
  5
1C1
330
1F
100
AcDbEntity
  8
MDS_Layer_94
  6
Continuous
 62
     7
100
AcDbText
 10
27.2
 20
31.4228985666
 30
0.0
 40
2.5
  1
Name
  7
SEACAD_seiso_ttf
 11
27.2
 21
33.9228985666
 31
0.0
100
AcDbText
 73
     3
  0
TEXT
  5
1C2
330
1F
100
AcDbEntity
  8
MDS_Layer_94
  6
Continuous
 62
     7
100
AcDbText
 10
27.2
 20
19.0913831012
 30
0.0
 40
2.5
  1
Prod.-Nr.
  7
SEACAD_seiso_ttf
 11
27.2
 21
21.5913831012
 31
0.0
100
AcDbText
 73
     3
  0
TEXT
  5
1C3
330
1F
100
AcDbEntity
  8
MDS_Layer_94
  6
Continuous
 62
     7
100
AcDbText
 10
27.266739169
 20
26.5531113353
 30
0.0
 40
2.5
  1
Gepruft
  7
SEACAD_seiso_ttf
 11
27.266739169
 21
29.0531113353
 31
0.0
100
AcDbText
 73
     3
  0
TEXT
  5
1C4
330
1F
100
AcDbEntity
  8
MDS_Layer_94
  6
Continuous
 62
     7
100
AcDbText
 10
9.468641411
 20
41.4915690176
 30
0.0
 40
2.5
  1
Masstab
  7
SEACAD_seiso_ttf
 11
9.468641411
 21
43.9915690176
 31
0.0
100
AcDbText
 73
     3
  0
TEXT
  5
1C5
330
1F
100
AcDbEntity
  8
MDS_Layer_94
  6
Continuous
 62
     7
100
AcDbText
 10
27.2010851897
 20
36.4228985666
 30
0.0
 40
2.5
  1
Datum
  7
SEACAD_seiso_ttf
 11
27.2010851897
 21
38.9228985666
 31
0.0
100
AcDbText
 73
     3
  0
TEXT
  5
1C6
330
1F
100
AcDbEntity
  8
MDS_Layer_94
  6
Continuous
 62
     7
100
AcDbText
 10
27.2
 20
41.4250689461
 30
0.0
 40
2.5
  1
And.-Mitt.
  7
SEACAD_seiso_ttf
 11
27.2
 21
43.9250689461
 31
0.0
100
AcDbText
 73
     3
  0
LINE
  5
1C7
330
1F
100
AcDbEntity
  8
MDS_Layer_90
  6
Continuous
 62
     7
100
AcDbLine
 10
205.0
 20
291.0
 30
0.0
 11
205.0
 21
45.0
 31
0.0
  0
ENDSEC
  0
SECTION
  2
OBJECTS
  0
DICTIONARY
  5
C
330
0
100
AcDbDictionary
281
     1
  3
ACAD_GROUP
350
D
  3
ACAD_LAYOUT
350
1A
  3
ACAD_MLINESTYLE
350
17
  3
ACAD_PLOTSETTINGS
350
19
  3
ACAD_PLOTSTYLENAME
350
E
  0
DICTIONARY
  5
D
102
{ACAD_REACTORS
330
C
102
}
330
C
100
AcDbDictionary
281
     1
  0
DICTIONARY
  5
1A
102
{ACAD_REACTORS
330
C
102
}
330
C
100
AcDbDictionary
281
     1
  3
Layout1
350
1E
  3
Model
350
22
  0
DICTIONARY
  5
17
102
{ACAD_REACTORS
330
C
102
}
330
C
100
AcDbDictionary
281
     1
  3
Standard
350
18
  0
DICTIONARY
  5
19
102
{ACAD_REACTORS
330
C
102
}
330
C
100
AcDbDictionary
281
     1
  0
ACDBDICTIONARYWDFLT
  5
E
102
{ACAD_REACTORS
330
C
102
}
330
C
100
AcDbDictionary
281
     1
  3
Normal
350
F
100
AcDbDictionaryWithDefault
340
F
  0
LAYOUT
  5
1E
102
{ACAD_REACTORS
330
1A
102
}
330
1A
100
AcDbPlotSettings
  1

  2
none_device
  4

  6

 40
0.0
 41
0.0
 42
0.0
 43
0.0
 44
0.0
 45
0.0
 46
0.0
 47
0.0
 48
0.0
 49
0.0
140
0.0
141
0.0
142
1.0
143
1.0
 70
   688
 72
     0
 73
     0
 74
     5
  7

 75
    16
147
1.0
148
0.0
149
0.0
100
AcDbLayout
  1
Layout1
 70
     1
 71
     1
 10
0.0
 20
0.0
 11
210.0
 21
297.0
 12
0.0
 22
0.0
 32
0.0
 14
0.0
 24
0.0
 34
0.0
 15
210.0
 25
297.0
 35
0.0
146
0.0
 13
0.0
 23
0.0
 33
0.0
 16
1.0
 26
0.0
 36
0.0
 17
0.0
 27
1.0
 37
0.0
 76
     0
330
1B
  0
LAYOUT
  5
22
102
{ACAD_REACTORS
330
1A
102
}
330
1A
100
AcDbPlotSettings
  1

  2
none_device
  4

  6

 40
0.0
 41
0.0
 42
0.0
 43
0.0
 44
0.0
 45
0.0
 46
0.0
 47
0.0
 48
0.0
 49
0.0
140
0.0
141
0.0
142
1.0
143
1.0
 70
  1712
 72
     0
 73
     0
 74
     0
  7

 75
     0
147
1.0
148
0.0
149
0.0
100
AcDbLayout
  1
Model
 70
     1
 71
     0
 10
0.0
 20
0.0
 11
210.0
 21
297.0
 12
0.0
 22
0.0
 32
0.0
 14
0.0
 24
0.0
 34
0.0
 15
210.0
 25
297.0
 35
0.0
146
0.0
 13
0.0
 23
0.0
 33
0.0
 16
1.0
 26
0.0
 36
0.0
 17
0.0
 27
1.0
 37
0.0
 76
     0
330
1F
  0
MLINESTYLE
  5
18
102
{ACAD_REACTORS
330
17
102
}
330
17
100
AcDbMlineStyle
  2
Standard
 70
     0
  3

 62
   256
 51
90.0
 52
90.0
 71
     2
 49
0.5
 62
   256
  6
BYLAYER
 49
-0.5
 62
   256
  6
BYLAYER
  0
ACDBPLACEHOLDER
  5
F
102
{ACAD_REACTORS
330
E
102
}
330
E
  0
ENDSEC
  0
EOF
