  0
SECTION
  2
HEADER
  9
$ACADVER
  1
AC1009
  9
$INSBASE
 10
0.0
 20
0.0
 30
0.0
  9
$EXTMIN
 10
-0.036816110462496
 20
-0.0362532231533805
 30
-0.0000000349181948
  9
$EXTMAX
 10
603.25958959691161
 20
594.03625875537841
 30
0.0000000814935746
  9
$LIMMIN
 10
0.0
 20
0.0
  9
$LIMMAX
 10
420.0
 20
594.0
  9
$ORTHOMODE
 70
     1
  9
$REGENMODE
 70
     0
  9
$FILLMODE
 70
     1
  9
$QTEXTMODE
 70
     0
  9
$MIRRTEXT
 70
     0
  9
$DRAGMODE
 70
     2
  9
$LTSCALE
 40
16.0
  9
$OSMODE
 70
  1007
  9
$ATTMODE
 70
     1
  9
$TEXTSIZE
 40
4.0
  9
$TRACEWID
 40
0.05
  9
$TEXTSTYLE
  7
MSP明朝
  9
$CLAYER
  8
0
  9
$CELTYPE
  6
BYLAYER
  9
$CECOLOR
 62
   256
  9
$DIMSCALE
 40
2.0
  9
$DIMASZ
 40
1.5
  9
$DIMEXO
 40
0.5
  9
$DIMDLI
 40
10.0
  9
$DIMRND
 40
0.0
  9
$DIMDLE
 40
0.0
  9
$DIMEXE
 40
2.0
  9
$DIMTP
 40
0.0
  9
$DIMTM
 40
0.000000001
  9
$DIMTXT
 40
4.0
  9
$DIMCEN
 40
0.0
  9
$DIMTSZ
 40
0.0
  9
$DIMTOL
 70
     0
  9
$DIMLIM
 70
     0
  9
$DIMTIH
 70
     0
  9
$DIMTOH
 70
     0
  9
$DIMSE1
 70
     0
  9
$DIMSE2
 70
     0
  9
$DIMTAD
 70
     3
  9
$DIMZIN
 70
     8
  9
$DIMBLK
  1
YAZ1
  9
$DIMASO
 70
     1
  9
$DIMSHO
 70
     1
  9
$DIMPOST
  1

  9
$DIMAPOST
  1

  9
$DIMALT
 70
     0
  9
$DIMALTD
 70
     2
  9
$DIMALTF
 40
25.399999999999999
  9
$DIMLFAC
 40
1.0
  9
$DIMTOFL
 70
     1
  9
$DIMTVP
 40
0.0
  9
$DIMTIX
 70
     0
  9
$DIMSOXD
 70
     0
  9
$DIMSAH
 70
     0
  9
$DIMBLK1
  1

  9
$DIMBLK2
  1

  9
$DIMSTYLE
  2
STANDARD
  9
$DIMCLRD
 70
     0
  9
$DIMCLRE
 70
     0
  9
$DIMCLRT
 70
     0
  9
$DIMTFAC
 40
1.0
  9
$DIMGAP
 40
1.0
  9
$LUNITS
 70
     2
  9
$LUPREC
 70
     2
  9
$SKETCHINC
 40
0.1
  9
$FILLETRAD
 40
0.0
  9
$AUNITS
 70
     0
  9
$AUPREC
 70
     2
  9
$MENU
  1
amecex
  9
$ELEVATION
 40
0.0
  9
$PELEVATION
 40
0.0
  9
$THICKNESS
 40
0.0
  9
$LIMCHECK
 70
     0
  9
$BLIPMODE
 70
     0
  9
$CHAMFERA
 40
0.5
  9
$CHAMFERB
 40
0.5
  9
$SKPOLY
 70
     0
  9
$TDCREATE
 40
2455266.571175023
  9
$TDUPDATE
 40
2457207.6848208108
  9
$TDINDWG
 40
0.1543260995
  9
$TDUSRTIMER
 40
0.1543255903
  9
$USRTIMER
 70
     1
  9
$ANGBASE
 50
0.0
  9
$ANGDIR
 70
     0
  9
$PDMODE
 70
     2
  9
$PDSIZE
 40
2.0
  9
$PLINEWID
 40
0.0
  9
$COORDS
 70
     1
  9
$SPLFRAME
 70
     0
  9
$SPLINETYPE
 70
     6
  9
$SPLINESEGS
 70
     8
  9
$ATTDIA
 70
     0
  9
$ATTREQ
 70
     0
  9
$HANDLING
 70
     1
  9
$HANDSEED
  5
28A0
  9
$SURFTAB1
 70
     6
  9
$SURFTAB2
 70
     6
  9
$SURFTYPE
 70
     6
  9
$SURFU
 70
     6
  9
$SURFV
 70
     6
  9
$UCSNAME
  2

  9
$UCSORG
 10
0.0
 20
0.0
 30
0.0
  9
$UCSXDIR
 10
1.0
 20
0.0
 30
0.0
  9
$UCSYDIR
 10
0.0
 20
1.0
 30
0.0
  9
$PUCSNAME
  2

  9
$PUCSORG
 10
0.0
 20
0.0
 30
0.0
  9
$PUCSXDIR
 10
1.0
 20
0.0
 30
0.0
  9
$PUCSYDIR
 10
0.0
 20
1.0
 30
0.0
  9
$USERI1
 70
     1
  9
$USERI2
 70
     2
  9
$USERI3
 70
     0
  9
$USERI4
 70
     0
  9
$USERI5
 70
     0
  9
$USERR1
 40
2004.01
  9
$USERR2
 40
0.0
  9
$USERR3
 40
0.0
  9
$USERR4
 40
0.0
  9
$USERR5
 40
0.0
  9
$WORLDVIEW
 70
     1
  9
$SHADEDGE
 70
     3
  9
$SHADEDIF
 70
    70
  9
$TILEMODE
 70
     1
  9
$MAXACTVP
 70
    16
  9
$PLIMCHECK
 70
     0
  9
$PEXTMIN
 10
25.699999999999989
 20
19.5
 30
0.0
  9
$PEXTMAX
 10
231.30000000000001
 20
175.5
 30
0.0
  9
$PLIMMIN
 10
-20.0
 20
-7.5
  9
$PLIMMAX
 10
277.0
 20
202.5
  9
$UNITMODE
 70
     0
  9
$VISRETAIN
 70
     0
  9
$PLINEGEN
 70
     0
  9
$PSLTSCALE
 70
     1
  0
ENDSEC
  0
SECTION
  2
TABLES
  0
TABLE
  2
VPORT
 70
     1
  0
VPORT
  2
*ACTIVE
 70
     0
 10
0.0
 20
0.0
 11
1.0
 21
1.0
 12
301.61138674322461
 22
297.00000276611252
 13
0.0
 23
0.0
 14
1.0
 24
1.0
 15
0.0
 25
0.0
 16
0.0
 26
0.0
 36
1.0
 17
0.0
 27
0.0
 37
0.0
 40
598.73190422934385
 41
2.3416230366492141
 42
50.0
 43
0.0
 44
0.0
 50
0.0
 51
0.0
 71
     0
 72
  1000
 73
     1
 74
     1
 75
     0
 76
     0
 77
     0
 78
     0
  0
ENDTAB
  0
TABLE
  2
LTYPE
 70
     6
  0
LTYPE
  2
CONTINUOUS
 70
     0
  3
Solid line
 72
    65
 73
     0
 40
0.0
  0
LTYPE
  2
CENTER2
 70
     0
  3
___ _ ___ _ ___ _ ___ _ ___ _ ___ _ ___ _ ___ _
 72
    65
 73
     4
 40
1.125
 49
0.75
 49
-0.125
 49
0.125
 49
-0.125
  0
LTYPE
  2
DASHED2
 70
     0
  3
_ _ _ _ _ _ _ _ _ _ _ _ _ _ _ _ _ _ _ _ _ _ _ _
 72
    65
 73
     2
 40
0.375
 49
0.25
 49
-0.125
  0
LTYPE
  2
PHANTOM2
 70
     0
  3
___ _ _ ___ _ _ ___ _ _ ___ _ _ ___ _ _ ___ _ _
 72
    65
 73
     6
 40
1.25
 49
0.625
 49
-0.125
 49
0.125
 49
-0.125
 49
0.125
 49
-0.125
  0
LTYPE
  2
CENTER
 70
     0
  3
____ _ ____ _ ____ _ ____ _ ____ _ ____ _ ____ 
 72
    65
 73
     4
 40
50.799999999999997
 49
31.75
 49
-6.3499999999999979
 49
6.3499999999999979
 49
-6.3499999999999979
  0
ENDTAB
  0
TABLE
  2
LAYER
 70
    17
  0
LAYER
  2
0
 70
     0
 62
     7
  6
CONTINUOUS
  0
LAYER
  2
DEFPOINTS
 70
     0
 62
     7
  6
CONTINUOUS
  0
LAYER
  2
CENTER
 70
     0
 62
     1
  6
CENTER2
  0
LAYER
  2
HOJYO
 70
     0
 62
    -6
  6
CONTINUOUS
  0
LAYER
  2
SCALE
 70
     0
 62
     4
  6
CONTINUOUS
  0
LAYER
  2
TXT1
 70
     0
 62
     3
  6
CONTINUOUS
  0
LAYER
  2
DRAHAT
 70
     0
 62
     1
  6
CONTINUOUS
  0
LAYER
  2
GAIKEI
 70
     0
 62
     2
  6
CONTINUOUS
  0
LAYER
  2
ZOKUSEI
 70
     0
 62
     3
  6
CONTINUOUS
  0
LAYER
  2
WBLK
 70
     5
 62
    -6
  6
CONTINUOUS
  0
LAYER
  2
HASEN
 70
     0
 62
     7
  6
DASHED2
  0
LAYER
  2
NITENSASEN
 70
     0
 62
     7
  6
PHANTOM2
  0
LAYER
  2
図枠
 70
     0
 62
     7
  6
CONTINUOUS
  0
LAYER
  2
BLKDRA
 70
     0
 62
     7
  6
CONTINUOUS
  0
LAYER
  2
印
 70
     0
 62
     1
  6
CONTINUOUS
  0
LAYER
  2
BLKDOT
 70
     0
 62
    -6
  6
CONTINUOUS
  0
LAYER
  2
BLKDIM
 70
     0
 62
     2
  6
CONTINUOUS
  0
ENDTAB
  0
TABLE
  2
STYLE
 70
     3
  0
STYLE
  2
STANDARD
 70
     0
 40
0.0
 41
0.7
 50
0.0
 71
     0
 42
8.0
  3
romans.shx
  4
extfont.shx
  0
STYLE
  2
MSP明朝
 70
     0
 40
0.0
 41
1.0
 50
0.0
 71
     0
 42
4.0
  3
txt
  4

  0
ENDTAB
  0
TABLE
  2
VIEW
 70
     8
  0
VIEW
  2
ZOOM_ALL
 70
     0
 40
597.64376250360067
 10
210.00000097788879
 20
297.00000138301402
 41
922.80556641893406
 11
0.0
 21
0.0
 31
1.0
 12
0.0
 22
0.0
 32
0.0
 42
50.0
 43
0.0
 44
0.0
 50
0.0
 71
     0
  0
ENDTAB
  0
TABLE
  2
UCS
 70
     0
  0
ENDTAB
  0
TABLE
  2
APPID
 70
    14
  0
APPID
  2
ACAD
 70
     0
  0
APPID
  2
EX_DIM
 70
     0
  0
APPID
  2
EX_ETC
 70
     0
  0
APPID
  2
EX_TSTY
 70
     0
  0
APPID
  2
EX_TSTYL
 70
     0
  0
APPID
  2
EX_TCON
 70
     0
  0
APPID
  2
EX_TCONL
 70
     0
  0
APPID
  2
DCO15
 70
     0
  0
APPID
  2
AB_PARTS
 70
     0
  0
APPID
  2
SW_PARTS
 70
     0
  0
APPID
  2
ACAD_EXEMPT_FROM_CAD_STANDARDS
 70
     0
  0
APPID
  2
ACAD_MLEADERVER
 70
     0
  0
APPID
  2
ACAD_PSEXT
 70
     0
  0
APPID
  2
CONTENTBLOCKICON
 70
     0
  0
ENDTAB
  0
TABLE
  2
DIMSTYLE
 70
     3
  0
DIMSTYLE
  2
STANDARD
 70
     0
  3

  4

  5
YAZ1
  6

  7

 40
1.0
 41
1.5
 42
0.5
 43
10.0
 44
2.0
 45
0.0
 46
0.0
 47
0.0
 48
0.000000001
140
4.0
141
0.0
142
0.0
143
25.399999999999999
144
1.0
145
0.0
146
1.0
147
1.0
 71
     0
 72
     0
 73
     0
 74
     0
 75
     0
 76
     0
 77
     3
 78
     8
170
     0
171
     2
172
     1
173
     0
174
     0
175
     0
176
     0
177
     0
178
     0
  0
DIMSTYLE
  2
GISA1-2
 70
     0
  3

  4

  5
SW_ARROW
  6

  7

 40
1.0
 41
4.0
 42
4.0
 43
10.0
 44
2.0
 45
0.0
 46
0.0
 47
0.0
 48
0.0
140
5.0
141
0.09
142
0.0
143
25.399999999999999
144
1.0
145
0.0
146
1.0
147
0.09
 71
     0
 72
     0
 73
     0
 74
     0
 75
     0
 76
     0
 77
     1
 78
     0
170
     0
171
     2
172
     0
173
     0
174
     0
175
     0
176
     0
177
     0
178
     0
  0
ENDTAB
  0
ENDSEC
  0
SECTION
  2
BLOCKS
  0
BLOCK
  8
0
  2
$MODEL_SPACE
 70
     0
 10
0.0
 20
0.0
 30
0.0
  3
$MODEL_SPACE
  1

  0
ENDBLK
  5
21
  8
0
  0
BLOCK
 67
     1
  8
0
  2
$PAPER_SPACE
 70
     0
 10
0.0
 20
0.0
 30
0.0
  3
$PAPER_SPACE
  1

  0
ENDBLK
  5
1F
 67
     1
  8
0
  0
BLOCK
  8
0
  2
YAZ1
 70
     0
 10
0.0
 20
0.0
 30
0.0
  3
YAZ1
  1

  0
LINE
  5
47
  8
0
 62
     0
 10
-1.0
 20
0.0
 30
0.0
 11
0.0
 21
0.0
 31
0.0
  0
LINE
  5
48
  8
0
 62
     0
 10
0.0
 20
0.0
 30
0.0
 11
-1.0
 21
0.2679491924311037
 31
0.0
  0
LINE
  5
49
  8
0
 62
     0
 10
0.0
 20
0.0
 30
0.0
 11
-1.0
 21
-0.2679491924311037
 31
0.0
  0
ENDBLK
  5
4A
  8
0
  0
BLOCK
  8
0
  2
YAZ3
 70
     0
 10
0.0
 20
0.0
 30
0.0
  3
YAZ3
  1

  0
LINE
  5
CD
  8
0
 62
     0
 10
-1.0
 20
0.0
 30
0.0
 11
0.0
 21
0.0
 31
0.0
  0
LINE
  5
CE
  8
0
 62
     0
 10
0.0
 20
0.0
 30
0.0
 11
-1.0
 21
0.2679491924311037
 31
0.0
  0
LINE
  5
CF
  8
0
 62
     0
 10
0.0
 20
0.0
 30
0.0
 11
-1.0
 21
-0.2679491924311037
 31
0.0
  0
SOLID
  5
D0
  8
0
 62
     0
 10
0.0
 20
0.0
 30
0.0
 11
-1.0
 21
0.2679491924311037
 31
0.0
 12
-1.0
 22
-0.2679491924311037
 32
0.0
 13
-1.0
 23
-0.2679491924311037
 33
0.0
  0
ENDBLK
  5
D1
  8
0
  0
BLOCK
  8
0
  2
DOT1
 70
     0
 10
0.0
 20
0.0
 30
0.0
  3
DOT1
  1

  0
POLYLINE
  5
D4
  8
0
 62
     0
 66
     1
 10
0.0
 20
0.0
 30
0.0
 70
     1
 40
0.25
 41
0.25
  0
VERTEX
  5
281E
  8
0
 62
     0
 10
-0.125
 20
0.0
 30
0.0
 42
1.0
  0
VERTEX
  5
281F
  8
0
 62
     0
 10
0.125
 20
0.0
 30
0.0
 42
1.0
  0
SEQEND
  5
2820
  8
0
 62
     0
  0
LINE
  5
D5
  8
0
 62
     0
 10
-1.0
 20
0.0
 30
0.0
 11
0.0
 21
0.0
 31
0.0
  0
ENDBLK
  5
D6
  8
0
  0
BLOCK
  8
0
  2
TICK
 70
     0
 10
0.0
 20
0.0
 30
0.0
  3
TICK
  1

  0
LINE
  5
D9
  8
0
 62
     0
 10
0.5
 20
0.5
 30
0.0
 11
-0.5
 21
-0.5
 31
0.0
  0
LINE
  5
DA
  8
0
 62
     0
 10
0.0
 20
0.0
 30
0.0
 11
-1.0
 21
0.0
 31
0.0
  0
ENDBLK
  5
DB
  8
0
  0
BLOCK
  8
0
  2
YAZ0
 70
     0
 10
0.0
 20
0.0
 30
0.0
  3
YAZ0
  1

  0
LINE
  5
DE
  8
0
 62
     0
 10
0.0
 20
0.0
 30
0.0
 11
-1.0
 21
0.0
 31
0.0
  0
ENDBLK
  5
DF
  8
0
  0
BLOCK
  8
0
  2
YAZ6
 70
     0
 10
0.0
 20
0.0
 30
0.0
  3
YAZ6
  1

  0
LINE
  5
E2
  8
0
 62
     0
 10
0.0000000000000213
 20
0.0
 30
0.0
 11
1.0000000000000211
 21
-0.2679491924311037
 31
0.0
  0
LINE
  5
E3
  8
0
 62
     0
 10
1.0000000000000211
 20
0.0
 30
0.0
 11
0.0000000000000213
 21
0.0
 31
0.0
  0
LINE
  5
E4
  8
0
 62
     0
 10
0.0000000000000213
 20
0.0
 30
0.0
 11
1.0000000000000211
 21
0.2679491924311037
 31
0.0
  0
LINE
  5
E5
  8
0
 62
     0
 10
-0.9999999999999785
 20
0.0
 30
0.0
 11
0.0000000000000213
 21
0.0
 31
0.0
  0
ENDBLK
  5
E6
  8
0
  0
BLOCK
  8
0
  2
YAZ8
 70
     0
 10
0.0
 20
0.0
 30
0.0
  3
YAZ8
  1

  0
SOLID
  5
E9
  8
0
 62
     0
 10
-0.0000000000000142
 20
0.0
 30
0.0
 11
0.9999999999999856
 21
0.2679491924311037
 31
0.0
 12
0.9999999999999856
 22
-0.2679491924311037
 32
0.0
 13
0.9999999999999856
 23
0.2679491924311037
 33
0.0
  0
LINE
  5
EA
  8
0
 62
     0
 10
-0.0000000000000142
 20
0.0
 30
0.0
 11
0.9999999999999856
 21
-0.2679491924311037
 31
0.0
  0
LINE
  5
EB
  8
0
 62
     0
 10
-0.0000000000000142
 20
0.0
 30
0.0
 11
0.9999999999999856
 21
0.2679491924311037
 31
0.0
  0
LINE
  5
EC
  8
0
 62
     0
 10
-1.0000000000000131
 20
0.0
 30
0.0
 11
-0.0000000000000142
 21
0.0
 31
0.0
  0
ENDBLK
  5
ED
  8
0
  0
BLOCK
  8
0
  2
HYBASE
 70
     0
 10
0.0
 20
0.0
 30
0.0
  3
HYBASE
  1

  0
ENDBLK
  5
F0
  8
0
  0
BLOCK
  8
0
  2
HYW1
 70
     2
 10
0.0
 20
0.0
 30
0.0
  3
HYW1
  1

  0
LINE
  5
F3
  8
0
 10
0.0
 20
0.0
 30
0.0
 11
1.0
 21
0.0
 31
0.0
  0
LINE
  5
F4
  8
0
 10
1.0
 20
0.0
 30
0.0
 11
1.0
 21
1.0
 31
0.0
  0
LINE
  5
F5
  8
0
 10
1.0
 20
1.0
 30
0.0
 11
0.0000000000000001
 21
1.0
 31
0.0
  0
LINE
  5
F6
  8
0
 10
0.0000000000000001
 20
1.0
 30
0.0
 11
0.0
 21
0.0
 31
0.0
  0
ATTDEF
  5
F7
  8
0
 10
-0.2486376891619071
 20
0.3700653978223733
 30
0.0
 40
0.1
  1

  3

  2
HKCT
 70
     1
  0
ATTDEF
  5
F8
  8
0
 10
-0.2486376891619071
 20
0.2500653978223733
 30
0.0
 40
0.1
  1

  3

  2
HMTL
 70
     1
  0
ATTDEF
  5
F9
  8
0
 10
-0.2486376891619071
 20
0.1300653978223733
 30
0.0
 40
0.1
  1

  3

  2
HKWL
 70
     1
  0
ATTDEF
  5
FA
  8
0
 10
-0.2486376891619071
 20
0.0100653978223733
 30
0.0
 40
0.1
  1

  3

  2
HKML
 70
     1
  0
ENDBLK
  5
FB
  8
0
  0
BLOCK
  8
0
  2
HYW2
 70
     0
 10
0.0
 20
0.0
 30
0.0
  3
HYW2
  1

  0
LINE
  5
FE
  8
0
 10
1.0
 20
0.0
 30
0.0
 11
1.0
 21
1.0
 31
0.0
  0
ENDBLK
  5
FF
  8
0
  0
BLOCK
  8
0
  2
HYW3
 70
     0
 10
0.0
 20
0.0
 30
0.0
  3
HYW3
  1

  0
LINE
  5
102
  8
0
 10
1.0
 20
1.0
 30
0.0
 11
0.0000000000000001
 21
1.0
 31
0.0
  0
ENDBLK
  5
103
  8
0
  0
BLOCK
  8
0
  2
INSLYTXT
 70
     0
 10
0.0
 20
0.0
 30
0.0
  3
INSLYTXT
  1

  0
ENDBLK
  5
106
  8
0
1001
EX_TSTYL
1002
{
1000
TYP1
1040
4.0
1040
0.0
1040
0.0
1040
0.0
1040
7.0
1040
0.0
1040
0.0
1040
0.0
1040
10.0
1040
0.0
1040
0.0
1040
0.0
1040
15.0
1040
0.0
1040
0.0
1040
0.0
1040
15.0
1040
0.0
1040
0.0
1040
0.0
1040
20.0
1040
0.0
1040
0.0
1040
0.0
1040
30.0
1040
0.0
1040
0.0
1040
0.0
1040
40.0
1040
0.0
1040
0.0
1040
0.0
1040
50.0
1040
0.0
1040
0.0
1040
0.0
1002
}
1001
EX_TCONL
1002
{
1000
BNO1
1000
SRD-
1000

1000
01
1070
     1
1000
PROJ-
1000
A
1000
100
1070
     1
1000
PROJ-
1000
B
1000
200
1070
     1
1000
PROJ-
1000
C
1000
300
1070
    10
1000
PROJ-
1000
C
1000
300
1070
    10
1002
}
1001
EX_DIM
1002
{
1070
     0
1040
10.0
1040
4.0
1000

1000
1
1040
0.0
1070
     1
1070
     0
1000
YAZ0
1070
     0
1002
}
1001
EX_ETC
1002
{
1040
1.0
1040
3.0
1000
ACAD
1070
    10
1070
     1
1070
     1
1070
     4
1070
     5
1070
    97
1070
     1
1002
}
1001
EX_TSTY
1002
{
1000
TYP1
1040
4.0
1040
7.0
1040
10.0
1040
15.0
1040
15.0
1040
0.0
1040
0.0
1040
0.0
1040
0.0
1040
0.0
1010
0.0
1020
0.0
1030
0.0
1010
0.0
1020
0.0
1030
0.0
1010
0.0
1020
0.0
1030
0.0
1010
0.0
1020
0.0
1030
0.0
1010
0.0
1020
0.0
1030
0.0
1002
}
1001
EX_TCON
1002
{
1000
BNO1
1000
SRD-
1000
PROJ-
1000
PROJ-
1000
PROJ-
1000
PROJ-
1000

1000
A
1000
B
1000
C
1000
C
1000
01
1000
100
1000
200
1000
300
1000
300
1070
     1
1070
     1
1070
     1
1070
    10
1070
    10
1002
}
  0
BLOCK
  8
0
  2
MTWBLK
 70
     0
 10
0.0
 20
0.0
 30
0.0
  3
MTWBLK
  1

  0
LINE
  5
6C5
  8
0
 10
-13.71326758209989
 20
128.25496564782631
 30
0.0
 11
-3.7132675820998879
 21
128.25496564782631
 31
0.0
  0
DIMENSION
  5
6C6
  8
SCALE
  2
*D13
 10
-4.625238393966697
 20
97.112581688549227
 30
0.0
 11
-9.6252221355823764
 21
100.1125816885492
 31
0.0
 12
-35.0
 22
-8.0
 32
0.0
  3
STANDARD
 13
-14.62520587719805
 23
88.917217857592206
 33
0.0
 14
-4.625238393966697
 24
88.917217857592206
 34
0.0
  0
LINE
  5
6C7
  8
ZOKUSEI
 10
-13.71326758209989
 20
123.66556232298269
 30
0.0
 11
-3.7132675820998911
 21
123.66556232298269
 31
0.0
  0
LINE
  5
6C8
  8
GAIKEI
 10
-13.71326758209989
 20
117.4370848303069
 30
0.0
 11
-3.7132675820998911
 21
117.4370848303069
 31
0.0
  0
LINE
  5
6C9
  8
DRAHAT
 10
-13.71326758209989
 20
112.5198665317327
 30
0.0
 11
-3.7132675820998911
 21
112.5198665317327
 31
0.0
  0
TEXT
  5
6CA
  8
TXT1
 10
-11.51214832750383
 20
82.688741065736906
 30
0.0
 40
4.0
  1
111
 41
0.7
  0
LINE
  5
6CB
  8
CENTER
 10
-13.71326758209989
 20
106.9470189865179
 30
0.0
 11
-3.7132675820998879
 21
106.9470189865179
 31
0.0
  0
INSERT
  5
6CC
  8
WBLK
  2
HYW3
 10
-11.67544169931204
 20
8.1126637146639364
 30
0.0
 50
270.0
  0
INSERT
  5
6CD
  8
WBLK
  2
HYW2
 10
-11.67544169931204
 20
18.112663714663942
 30
0.0
 50
270.0
  0
INSERT
  5
6CE
  8
WBLK
 66
     1
  2
HYW1
 10
-11.67544169931204
 20
28.112663714663942
 30
0.0
 50
270.0
  0
ATTRIB
  5
6CF
  8
0
 10
-11.30537630148967
 20
28.361301403825848
 30
0.0
 40
0.1
  1

 50
270.0
  2
HKCT
 70
     1
  0
ATTRIB
  5
6D0
  8
0
 10
-11.425376301489679
 20
28.361301403825848
 30
0.0
 40
0.1
  1

 50
270.0
  2
HMTL
 70
     1
  0
ATTRIB
  5
6D1
  8
0
 10
-11.54537630148968
 20
28.361301403825848
 30
0.0
 40
0.1
  1

 50
270.0
  2
HKWL
 70
     1
  0
ATTRIB
  5
6D2
  8
0
 10
-11.66537630148968
 20
28.361301403825848
 30
0.0
 40
0.1
  1

 50
270.0
  2
HKML
 70
     1
  0
SEQEND
  5
6D3
  8
WBLK
  0
INSERT
  5
6D4
  8
WBLK
  2
DOT1
 10
-11.67544169931204
 20
48.112663714663938
 30
0.0
 50
270.0
  0
INSERT
  5
6D5
  8
WBLK
  2
YAZ6
 10
-6.675441699312044
 20
18.112663714663942
 30
0.0
 50
270.0
  0
TEXT
  5
6D6
  8
WBLK
 10
-20.69469490555332
 20
61.708608677338759
 30
0.0
 40
4.0
  1
MechBlk
 41
0.7
  0
POINT
  5
6D7
  8
WBLK
 10
-11.67544169931204
 20
8.1126637146639364
 30
0.0
  0
POINT
  5
6D8
  8
WBLK
 10
-11.67544169931204
 20
18.112663714663942
 30
0.0
  0
POINT
  5
6D9
  8
WBLK
 10
-11.67544169931204
 20
28.112663714663942
 30
0.0
  0
POINT
  5
6DA
  8
WBLK
 10
-11.67544169931204
 20
38.112663714663938
 30
0.0
  0
POINT
  5
6DB
  8
WBLK
 10
-11.67544169931204
 20
48.112663714663938
 30
0.0
  0
POINT
  5
6DC
  8
WBLK
 10
-11.67544169931204
 20
58.112663714663938
 30
0.0
  0
INSERT
  5
6DD
  8
WBLK
  2
YAZ8
 10
-11.67544169931204
 20
58.112663714663938
 30
0.0
 50
270.0
  0
INSERT
  5
6DE
  8
WBLK
  2
YAZ3
 10
-6.675441699312044
 20
8.1126637146639364
 30
0.0
 50
270.0
  0
INSERT
  5
6DF
  8
WBLK
  2
YAZ1
 10
-6.675441699312044
 20
28.112663714663942
 30
0.0
 50
270.0
  0
INSERT
  5
6E0
  8
WBLK
  2
YAZ0
 10
-6.675441699312044
 20
38.112663714663938
 30
0.0
 50
270.0
  0
INSERT
  5
6E1
  8
WBLK
  2
TICK
 10
-6.675441699312044
 20
48.112663714663938
 30
0.0
 50
270.0
  0
POINT
  5
6E2
  8
WBLK
 10
-6.675441699312044
 20
8.1126637146639364
 30
0.0
  0
POINT
  5
6E3
  8
WBLK
 10
-6.675441699312044
 20
18.112663714663942
 30
0.0
  0
POINT
  5
6E4
  8
WBLK
 10
-6.675441699312044
 20
18.112663714663942
 30
0.0
  0
POINT
  5
6E5
  8
WBLK
 10
-6.675441699312044
 20
28.112663714663942
 30
0.0
  0
POINT
  5
6E6
  8
WBLK
 10
-6.675441699312044
 20
38.112663714663938
 30
0.0
  0
POINT
  5
6E7
  8
WBLK
 10
-6.675441699312044
 20
48.112663714663938
 30
0.0
  0
POINT
  5
6E8
  8
WBLK
 10
-6.675441699312044
 20
58.112663714663938
 30
0.0
  0
LINE
  5
6E9
  8
NITENSASEN
 10
-13.71326758209989
 20
147.4304630499613
 30
0.0
 11
-3.7132675820998831
 21
147.4304630499613
 31
0.0
  0
LINE
  5
6EA
  8
HASEN
 10
-13.71326758209989
 20
152.43046304996139
 30
0.0
 11
-3.7132675820998831
 21
152.43046304996139
 31
0.0
  0
TEXT
  5
6EB
  8
WBLK
 10
-13.47983624538824
 20
137.4337743999746
 30
0.0
 40
4.0
  1
Line
 41
0.7
  0
TEXT
  5
6EC
  8
WBLK
 10
-15.44752527374351
 20
131.5331118810293
 30
0.0
 40
4.0
  1
Layer
 41
0.7
  0
ENDBLK
  5
6ED
  8
0
  0
BLOCK
  8
0
  2
*D13
 70
     1
 10
0.0
 20
0.0
 30
0.0
  3
*D13
  1

  0
LINE
  5
6F0
  8
0
  6
BYBLOCK
 10
20.374794122801951
 20
97.417217857592235
 30
0.0
 11
20.374794122801951
 21
107.1125816885492
 31
0.0
  0
LINE
  5
6F1
  8
0
  6
BYBLOCK
 10
30.374761606033299
 20
97.417217857592235
 30
0.0
 11
30.374761606033299
 21
107.1125816885492
 31
0.0
  0
LINE
  5
6F2
  8
0
  6
BYBLOCK
 10
21.874794122801951
 20
105.1125816885492
 30
0.0
 11
28.87476160603331
 21
105.1125816885492
 31
0.0
  0
INSERT
  5
6F3
  8
0
  6
BYBLOCK
  2
YAZ1
 10
20.374794122801951
 20
105.1125816885492
 30
0.0
 41
1.5
 42
1.5
 43
1.5
 50
180.0
  0
INSERT
  5
6F4
  8
0
  6
BYBLOCK
  2
YAZ1
 10
30.374761606033299
 20
105.1125816885492
 30
0.0
 41
1.5
 42
1.5
 43
1.5
  0
INSERT
  5
6F5
  8
0
  2
*U28
 10
0.0
 20
0.0
 30
0.0
  0
POINT
  5
6F6
  8
DEFPOINTS
  6
BYBLOCK
 62
     0
 10
20.374794122801951
 20
96.91721785759222
 30
0.0
  0
POINT
  5
6F7
  8
DEFPOINTS
  6
BYBLOCK
 62
     0
 10
30.374761606033299
 20
96.91721785759222
 30
0.0
  0
POINT
  5
6F8
  8
DEFPOINTS
  6
BYBLOCK
 62
     0
 10
30.374761606033299
 20
105.1125816885492
 30
0.0
  0
ENDBLK
  5
6F9
  8
0
  0
BLOCK
  8
0
  2
NITTO_CERA社名
 70
     0
 10
0.0
 20
0.0
 30
0.0
  3
NITTO_CERA社名
  1

  0
TEXT
  5
B58
  8
図枠
 10
17.653674138379301
 20
0.9283468251990319
 30
0.0
 40
13.49578927781894
  1
NITTO CERA
  7
MSP明朝
  0
TEXT
  5
B59
  8
図枠
 10
0.2018934974229012
 20
2.4158714410070261
 30
0.0
 40
10.1699999999596
  1
㈱
  7
MSP明朝
  0
ENDBLK
  5
AF5
  8
0
  0
BLOCK
  8
0
  2
NITTO_CERA図枠A4R
 70
     0
 10
0.0
 20
0.0
 30
0.0
  3
NITTO_CERA図枠A4R
  1

  0
INSERT
  5
B5E
  8
0
  2
NITTO_CERA社名
 10
214.14840616705331
 20
2.4227155681868591
 30
0.0
  0
TEXT
  5
B5F
  8
図枠
 10
1.708571428571428
 20
1.9999999999999429
 30
0.0
 40
6.0
  1
考
 41
0.75
  7
MSP明朝
 72
     1
 11
5.0
 21
4.9999999999999432
 31
0.0
 73
     2
  0
TEXT
  5
B60
  8
図枠
 10
1.708571428571428
 20
11.99999999999994
 30
0.0
 40
6.0
  1
備
 41
0.75
  7
MSP明朝
 72
     1
 11
5.0
 21
14.99999999999994
 31
0.0
 73
     2
  0
TEXT
  5
B61
  8
図枠
 10
181.70857142857139
 20
21.99999999999995
 30
0.0
 40
6.0
  1
名
 41
0.75
  7
MSP明朝
 72
     1
 11
185.0
 21
24.99999999999995
 31
0.0
 73
     2
  0
TEXT
  5
B62
  8
図枠
 10
181.70857142857139
 20
31.99999999999995
 30
0.0
 40
6.0
  1
品
 41
0.75
  7
MSP明朝
 72
     1
 11
185.0
 21
34.99999999999995
 31
0.0
 73
     2
  0
TEXT
  5
B63
  8
図枠
 10
1.708571428571428
 20
21.99999999999995
 30
0.0
 40
6.0
  1
番
 41
0.75
  7
MSP明朝
 72
     1
 11
5.0
 21
24.99999999999995
 31
0.0
 73
     2
  0
TEXT
  5
B64
  8
図枠
 10
1.708571428571428
 20
31.99999999999995
 30
0.0
 40
6.0
  1
図
 41
0.75
  7
MSP明朝
 72
     1
 11
5.0
 21
34.99999999999995
 31
0.0
 73
     2
  0
TEXT
  5
B65
  8
図枠
 10
181.70857142857139
 20
41.999999999999929
 30
0.0
 40
6.0
  1
番
 41
0.75
  7
MSP明朝
 72
     1
 11
185.0
 21
44.999999999999929
 31
0.0
 73
     2
  0
TEXT
  5
B66
  8
図枠
 10
181.70857142857139
 20
51.999999999999929
 30
0.0
 40
6.0
  1
品
 41
0.75
  7
MSP明朝
 72
     1
 11
185.0
 21
54.999999999999929
 31
0.0
 73
     2
  0
TEXT
  5
B67
  8
図枠
 10
141.70857142857139
 20
41.999999999999929
 30
0.0
 40
6.0
  1
図
 41
0.75
  7
MSP明朝
 72
     1
 11
145.0
 21
44.999999999999929
 31
0.0
 73
     2
  0
TEXT
  5
B68
  8
図枠
 10
141.70857142857139
 20
51.999999999999929
 30
0.0
 40
6.0
  1
検
 41
0.75
  7
MSP明朝
 72
     1
 11
145.0
 21
54.999999999999929
 31
0.0
 73
     2
  0
TEXT
  5
B69
  8
図枠
 10
101.7085714285714
 20
41.999999999999929
 30
0.0
 40
6.0
  1
図
 41
0.75
  7
MSP明朝
 72
     1
 11
105.0
 21
44.999999999999929
 31
0.0
 73
     2
  0
TEXT
  5
B6A
  8
図枠
 10
101.7085714285714
 20
51.999999999999929
 30
0.0
 40
6.0
  1
製
 41
0.75
  7
MSP明朝
 72
     1
 11
105.0
 21
54.999999999999929
 31
0.0
 73
     2
  0
TEXT
  5
B6B
  8
図枠
 10
61.708571428571432
 20
41.999999999999929
 30
0.0
 40
6.0
  1
度
 41
0.75
  7
MSP明朝
 72
     1
 11
65.0
 21
44.999999999999929
 31
0.0
 73
     2
  0
TEXT
  5
B6C
  8
図枠
 10
61.708571428571432
 20
51.999999999999929
 30
0.0
 40
6.0
  1
尺
 41
0.75
  7
MSP明朝
 72
     1
 11
65.0
 21
54.999999999999929
 31
0.0
 73
     2
  0
TEXT
  5
B6D
  8
図枠
 10
1.708571428571428
 20
41.999999999999929
 30
0.0
 40
6.0
  1
付
 41
0.75
  7
MSP明朝
 72
     1
 11
5.0
 21
44.999999999999929
 31
0.0
 73
     2
  0
TEXT
  5
B6E
  8
図枠
 10
1.708571428571428
 20
51.999999999999929
 30
0.0
 40
6.0
  1
日
 41
0.75
  7
MSP明朝
 72
     1
 11
5.0
 21
54.999999999999929
 31
0.0
 73
     2
  0
LINE
  5
B6F
  8
図枠
 62
     0
 10
0.0
 20
59.999999999999957
 30
0.0
 11
360.0
 21
59.999999999999929
 31
0.0
  0
LINE
  5
B70
  8
図枠
 62
     0
 10
0.0
 20
39.99999999999995
 30
0.0
 11
360.0
 21
39.99999999999995
 31
0.0
  0
LINE
  5
B71
  8
図枠
 62
     0
 10
0.0
 20
19.99999999999995
 30
0.0
 11
360.0
 21
19.99999999999995
 31
0.0
  0
LINE
  5
B72
  8
図枠
 62
     0
 10
0.0
 20
-0.0000000000000568
 30
0.0
 11
360.0
 21
-0.0000000000000568
 31
0.0
  0
LINE
  5
B73
  8
図枠
 62
     0
 10
0.0
 20
-0.0000000000000568
 30
0.0
 11
0.0
 21
553.99999999999989
 31
0.0
  0
LINE
  5
B74
  8
図枠
 62
     0
 10
10.0
 20
-0.0000000000000568
 30
0.0
 11
10.0
 21
59.999999999999957
 31
0.0
  0
LINE
  5
B75
  8
図枠
 62
     0
 10
180.0
 20
-0.0000000000000568
 30
0.0
 11
180.0
 21
59.999999999999929
 31
0.0
  0
LINE
  5
B76
  8
図枠
 62
     0
 10
190.0
 20
19.99999999999995
 30
0.0
 11
190.0
 21
59.999999999999929
 31
0.0
  0
LINE
  5
B77
  8
図枠
 62
     0
 10
360.0
 20
-0.0000000000000568
 30
0.0
 11
360.0
 21
553.99999999999989
 31
0.0
  0
LINE
  5
B78
  8
図枠
 62
     0
 10
150.0
 20
39.99999999999995
 30
0.0
 11
150.0
 21
59.999999999999929
 31
0.0
  0
LINE
  5
B79
  8
図枠
 62
     0
 10
140.0
 20
39.99999999999995
 30
0.0
 11
140.0
 21
59.999999999999929
 31
0.0
  0
LINE
  5
B7A
  8
図枠
 62
     0
 10
110.0
 20
39.99999999999995
 30
0.0
 11
110.0
 21
59.999999999999929
 31
0.0
  0
LINE
  5
B7B
  8
図枠
 62
     0
 10
100.0
 20
39.99999999999995
 30
0.0
 11
100.0
 21
59.999999999999929
 31
0.0
  0
LINE
  5
B7C
  8
図枠
 62
     0
 10
69.999999999999986
 20
39.99999999999995
 30
0.0
 11
70.0
 21
59.999999999999929
 31
0.0
  0
LINE
  5
B7D
  8
図枠
 62
     0
 10
60.0
 20
39.99999999999995
 30
0.0
 11
60.0
 21
59.999999999999929
 31
0.0
  0
LINE
  5
B7E
  8
図枠
 62
     0
 10
0.0
 20
553.99999999999989
 30
0.0
 11
360.0
 21
553.99999999999989
 31
0.0
  0
ENDBLK
  5
B5D
  8
0
  0
BLOCK
  8
0
  2
SW_ARROW
 70
     0
 10
0.0
 20
0.0
 30
0.0
  3
SW_ARROW
  1

  0
LINE
  5
225B
  8
0
 10
0.0
 20
0.0
 30
0.0
 11
-0.9999999999999982
 21
0.1666666666666652
 31
0.0
  0
LINE
  5
225C
  8
0
 10
0.0
 20
0.0
 30
0.0
 11
-0.9999999999999982
 21
0.0
 31
0.0
  0
LINE
  5
225D
  8
0
 10
0.0
 20
-0.0000000000000027
 30
0.0
 11
-0.9999999999999982
 21
-0.1666666666666634
 31
0.0
  0
ENDBLK
  5
225E
  8
0
  0
BLOCK
  8
0
  2
1
 70
     0
 10
0.0
 20
0.0
 30
0.0
  3
1
  1

  0
LINE
  5
24B6
  8
0
  6
CONTINUOUS
 10
-20.291504
 20
10.0
 30
0.0
 11
20.291504
 21
10.0
 31
0.0
  0
LINE
  5
24B7
  8
0
  6
CONTINUOUS
 10
-20.291504
 20
-2.0
 30
0.0
 11
20.291504
 21
-2.0
 31
0.0
  0
ARC
  5
24B8
  8
0
  6
CONTINUOUS
 10
15.0
 20
4.0
 30
0.0
 40
8.0
 50
311.40960699999999
 51
48.590392999999999
  0
ARC
  5
24B9
  8
0
  6
CONTINUOUS
 10
-6.7348330000000001
 20
4.0
 30
0.0
 40
2.645999999999999
 50
132.89068599999999
 51
227.10931400000001
  0
ARC
  5
24BA
  8
0
  6
CONTINUOUS
 10
6.7348330000000001
 20
4.0
 30
0.0
 40
2.645999999999999
 50
312.89074700000009
 51
47.109313999999998
  0
ARC
  5
24BB
  8
0
  6
CONTINUOUS
 10
0.0
 20
-3.249908
 30
0.0
 40
12.541404
 50
47.109313999999998
 51
132.89068599999999
  0
ARC
  5
24BC
  8
0
  6
CONTINUOUS
 10
0.0
 20
11.249893
 30
0.0
 40
12.541404
 50
227.10931400000001
 51
312.89068600000002
  0
ARC
  5
24BD
  8
0
  6
CONTINUOUS
 10
-18.186592000000001
 20
6.9465029999999981
 30
0.0
 40
2.3450000000000002
 50
77.037932999999995
 51
102.962067
  0
ARC
  5
24BE
  8
0
  6
CONTINUOUS
 10
-18.186592000000001
 20
1.053496999999999
 30
0.0
 40
2.3450000000000002
 50
257.03796399999999
 51
282.96203600000001
  0
ARC
  5
24BF
  8
0
  6
CONTINUOUS
 10
-17.508392000000001
 20
4.0
 30
0.0
 40
5.3685460000000003
 50
102.962067
 51
257.03796399999999
  0
ARC
  5
24C0
  8
0
  6
CONTINUOUS
 10
-18.864792000000001
 20
4.0
 30
0.0
 40
5.3685460000000003
 50
282.96203600000001
 51
77.037932999999995
  0
ARC
  5
24C1
  8
0
  6
CONTINUOUS
 10
18.186592000000001
 20
6.9465029999999981
 30
0.0
 40
2.3450000000000002
 50
77.037932999999995
 51
102.962067
  0
ARC
  5
24C2
  8
0
  6
CONTINUOUS
 10
18.186592000000001
 20
1.053496999999999
 30
0.0
 40
2.3450000000000002
 50
257.03796399999999
 51
282.96203600000001
  0
ARC
  5
24C3
  8
0
  6
CONTINUOUS
 10
17.508392000000001
 20
4.0
 30
0.0
 40
5.3685460000000003
 50
282.96203600000001
 51
77.037932999999995
  0
ARC
  5
24C4
  8
0
  6
CONTINUOUS
 10
18.864792000000001
 20
4.0
 30
0.0
 40
5.3685460000000003
 50
102.962067
 51
257.03796399999999
  0
ARC
  5
24C5
  8
0
  6
CONTINUOUS
 10
-15.0
 20
4.0
 30
0.0
 40
8.0
 50
131.40960699999999
 51
228.59039300000001
  0
ENDBLK
  5
24C6
  8
0
  0
BLOCK
  8
0
  2
2
 70
     0
 10
0.0
 20
0.0
 30
0.0
  3
2
  1

  0
LINE
  5
24C9
  8
0
  6
CONTINUOUS
 10
21.291504
 20
2.0
 30
0.0
 11
-21.291504
 21
2.0
 31
0.0
  0
LINE
  5
24CA
  8
0
  6
CONTINUOUS
 10
-21.291504
 20
-10.0
 30
0.0
 11
21.291504
 21
-10.0
 31
0.0
  0
ARC
  5
24CB
  8
0
  6
CONTINUOUS
 10
-16.0
 20
-4.0
 30
0.0
 40
8.0
 50
131.40960699999999
 51
228.59039300000001
  0
ARC
  5
24CC
  8
0
  6
CONTINUOUS
 10
-6.9456629999999997
 20
-4.0
 30
0.0
 40
2.645999999999999
 50
131.70223999999999
 51
228.297729
  0
ARC
  5
24CD
  8
0
  6
CONTINUOUS
 10
6.9456629999999997
 20
-4.0
 30
0.0
 40
2.645999999999999
 50
311.702271
 51
48.29775999999999
  0
ARC
  5
24CE
  8
0
  6
CONTINUOUS
 10
0.0
 20
3.795020999999998
 30
0.0
 40
13.08653
 50
228.297729
 51
311.702271
  0
ARC
  5
24CF
  8
0
  6
CONTINUOUS
 10
19.052569999999999
 20
-1.106498999999999
 30
0.0
 40
2.3980000000000001
 50
79.296295000000001
 51
100.703705
  0
ARC
  5
24D0
  8
0
  6
CONTINUOUS
 10
19.052569999999999
 20
-6.8935009999999979
 30
0.0
 40
2.3980000000000001
 50
259.29626500000001
 51
280.70373499999999
  0
ARC
  5
24D1
  8
0
  6
CONTINUOUS
 10
19.599495000000001
 20
-4.0
 30
0.0
 40
5.3427410000000002
 50
100.703705
 51
259.29626500000001
  0
ARC
  5
24D2
  8
0
  6
CONTINUOUS
 10
18.505645999999999
 20
-4.0
 30
0.0
 40
5.3427410000000002
 50
280.70373499999999
 51
79.296295000000001
  0
ARC
  5
24D3
  8
0
  6
CONTINUOUS
 10
0.0
 20
-11.795021
 30
0.0
 40
13.08653
 50
48.297728999999997
 51
131.702271
  0
ARC
  5
24D4
  8
0
  6
CONTINUOUS
 10
-19.599495000000001
 20
-4.0
 30
0.0
 40
5.3427410000000002
 50
280.70373499999999
 51
79.296295000000001
  0
ARC
  5
24D5
  8
0
  6
CONTINUOUS
 10
-19.052567
 20
-1.106498999999999
 30
0.0
 40
2.3980000000000001
 50
79.296295000000001
 51
100.703705
  0
ARC
  5
24D6
  8
0
  6
CONTINUOUS
 10
-18.505645999999999
 20
-4.0
 30
0.0
 40
5.3427410000000002
 50
100.703705
 51
259.29626500000001
  0
ARC
  5
24D7
  8
0
  6
CONTINUOUS
 10
-19.052567
 20
-6.8935009999999979
 30
0.0
 40
2.3980000000000001
 50
259.29626500000001
 51
280.70373499999999
  0
ARC
  5
24D8
  8
0
  6
CONTINUOUS
 10
16.0
 20
-4.0
 30
0.0
 40
8.0
 50
311.40960699999999
 51
48.590392999999999
  0
ENDBLK
  5
24D9
  8
0
  0
BLOCK
  8
0
  2
*D19
 70
     1
 10
0.0
 20
0.0
 30
0.0
  3
*D19
  1

  0
LINE
  5
2858
  8
BLKDIM
 62
     0
 10
94.294213815059933
 20
520.89762908900718
 30
0.0
 11
94.294213815059933
 21
534.66838108888294
 31
0.0
  0
LINE
  5
2859
  8
BLKDIM
 62
     0
 10
148.29421381505989
 20
520.89762908900718
 30
0.0
 11
148.29421381505989
 21
534.66838108888294
 31
0.0
  0
LINE
  5
285A
  8
BLKDIM
 62
     0
 10
98.294213815059933
 20
532.66838108888294
 30
0.0
 11
144.29421381505989
 21
532.66838108888294
 31
0.0
  0
INSERT
  5
285B
  8
BLKDIM
 62
     0
  2
SW_ARROW
 10
94.294213815059933
 20
532.66838108888294
 30
0.0
 41
4.0
 42
4.0
 43
4.0
 50
180.0
  0
INSERT
  5
285C
  8
BLKDIM
 62
     0
  2
SW_ARROW
 10
148.29421381505989
 20
532.66838108888294
 30
0.0
 41
4.0
 42
4.0
 43
4.0
  0
TEXT
  8
BLKDIM
  40
5
  5
2899
  62
0
  72
0
  71
0
 10
111.294
 20
528.318
 30
0.000000
  1
%%C54
  0
POINT
  5
285E
  8
DEFPOINTS
 62
     0
 10
94.294213815059933
 20
516.89762908900718
 30
0.0
  0
POINT
  5
285F
  8
DEFPOINTS
 62
     0
 10
148.29421381505989
 20
516.89762908900718
 30
0.0
  0
POINT
  5
2860
  8
DEFPOINTS
 62
     0
 10
148.29421381505989
 20
532.66838108888294
 30
0.0
  0
ENDBLK
  5
263E
  8
0
  0
BLOCK
  8
0
  2
*D20
 70
     1
 10
0.0
 20
0.0
 30
0.0
  3
*D20
  1

  0
LINE
  5
2861
  8
BLKDIM
 62
     0
 10
105.4192138150599
 20
439.19761708900728
 30
0.0
 11
105.4192138150599
 21
425.60372136169798
 31
0.0
  0
LINE
  5
2862
  8
BLKDIM
 62
     0
 10
137.16921381505989
 20
439.19761708900728
 30
0.0
 11
137.16921381505989
 21
425.60372136169798
 31
0.0
  0
LINE
  5
2863
  8
BLKDIM
 62
     0
 10
109.4192138150599
 20
427.60372136169792
 30
0.0
 11
133.16921381505989
 21
427.60372136169792
 31
0.0
  0
INSERT
  5
2864
  8
BLKDIM
 62
     0
  2
SW_ARROW
 10
105.4192138150599
 20
427.60372136169792
 30
0.0
 41
4.0
 42
4.0
 43
4.0
 50
180.0
  0
INSERT
  5
2865
  8
BLKDIM
 62
     0
  2
SW_ARROW
 10
137.16921381505989
 20
427.60372136169792
 30
0.0
 41
4.0
 42
4.0
 43
4.0
  0
TEXT
  8
BLKDIM
  40
5
  5
289A
  62
0
  72
0
  71
0
 10
111.294
 20
423.254
 30
0.000000
  1
%%C31.75
  0
POINT
  5
2867
  8
DEFPOINTS
 62
     0
 10
105.4192138150599
 20
443.19761708900728
 30
0.0
  0
POINT
  5
2868
  8
DEFPOINTS
 62
     0
 10
137.16921381505989
 20
443.19761708900728
 30
0.0
  0
POINT
  5
2869
  8
DEFPOINTS
 62
     0
 10
137.16921381505989
 20
427.60372136169792
 30
0.0
  0
ENDBLK
  5
264A
  8
0
  0
BLOCK
  8
0
  2
*D21
 70
     1
 10
0.0
 20
0.0
 30
0.0
  3
*D21
  1

  0
LINE
  5
286A
  8
BLKDIM
 62
     0
 10
125.2942138150599
 20
517.8976290890073
 30
0.0
 11
322.1730114766836
 21
517.89762908900707
 31
0.0
  0
LINE
  5
286B
  8
BLKDIM
 62
     0
 10
239.29421381505989
 20
367.89762208900731
 30
0.0
 11
322.17301147668348
 21
367.89762208900731
 31
0.0
  0
LINE
  5
286C
  8
BLKDIM
 62
     0
 10
320.17301147668348
 20
513.89762908900707
 30
0.0
 11
320.17301147668348
 21
371.89762208900731
 31
0.0
  0
INSERT
  5
286D
  8
BLKDIM
 62
     0
  2
SW_ARROW
 10
320.17301147668348
 20
517.89762908900707
 30
0.0
 41
4.0
 42
4.0
 43
4.0
 50
90.0
  0
INSERT
  5
286E
  8
BLKDIM
 62
     0
  2
SW_ARROW
 10
320.17301147668348
 20
367.89762208900731
 30
0.0
 41
4.0
 42
4.0
 43
4.0
 50
270.0
  0
TEXT
  8
BLKDIM
  40
5
  5
289B
  62
0
  72
0
  71
0
 10
305.673
 20
434.048
 30
0.000000
  1
131～190
  0
POINT
  5
2870
  8
DEFPOINTS
 62
     0
 10
121.2942138150599
 20
517.8976290890073
 30
0.0
  0
POINT
  5
2871
  8
DEFPOINTS
 62
     0
 10
235.29421381505989
 20
367.89762208900731
 30
0.0
  0
POINT
  5
2872
  8
DEFPOINTS
 62
     0
 10
320.17301147668348
 20
367.89762208900731
 30
0.0
  0
ENDBLK
  5
2656
  8
0
  0
BLOCK
  8
0
  2
*D22
 70
     1
 10
0.0
 20
0.0
 30
0.0
  3
*D22
  1

  0
LINE
  5
2873
  8
BLKDIM
 62
     0
 10
257.41921381505989
 20
208.5688250890075
 30
0.0
 11
257.41921381505989
 21
189.56855847375141
 31
0.0
  0
LINE
  5
2874
  8
BLKDIM
 62
     0
 10
289.16921381505989
 20
208.5688250890075
 30
0.0
 11
289.16921381505989
 21
189.56855847375141
 31
0.0
  0
LINE
  5
2875
  8
BLKDIM
 62
     0
 10
261.41921381505989
 20
191.56855847375141
 30
0.0
 11
285.16921381505989
 21
191.56855847375141
 31
0.0
  0
INSERT
  5
2876
  8
BLKDIM
 62
     0
  2
SW_ARROW
 10
257.41921381505989
 20
191.56855847375141
 30
0.0
 41
4.0
 42
4.0
 43
4.0
 50
180.0
  0
INSERT
  5
2877
  8
BLKDIM
 62
     0
  2
SW_ARROW
 10
289.16921381505989
 20
191.56855847375141
 30
0.0
 41
4.0
 42
4.0
 43
4.0
  0
TEXT
  8
BLKDIM
  40
5
  5
289C
  62
0
  72
0
  71
0
 10
263.294
 20
187.219
 30
0.000000
  1
%%C31.75
  0
POINT
  5
2879
  8
DEFPOINTS
 62
     0
 10
257.41921381505989
 20
212.5688250890075
 30
0.0
  0
POINT
  5
287A
  8
DEFPOINTS
 62
     0
 10
289.16921381505989
 20
212.5688250890075
 30
0.0
  0
POINT
  5
287B
  8
DEFPOINTS
 62
     0
 10
289.16921381505989
 20
191.56855847375141
 30
0.0
  0
ENDBLK
  5
2662
  8
0
  0
BLOCK
  8
0
  2
*D23
 70
     1
 10
0.0
 20
0.0
 30
0.0
  3
*D23
  1

  0
LINE
  5
287C
  8
BLKDIM
 62
     0
 10
121.2942138150599
 20
308.89762208900743
 30
0.0
 11
121.2942138150599
 21
243.59784008900741
 31
0.0
  0
LINE
  5
287D
  8
BLKDIM
 62
     0
 10
197.29421381505989
 20
311.59784008900749
 30
0.0
 11
197.29421381505989
 21
243.59784008900741
 31
0.0
  0
LINE
  5
287E
  8
BLKDIM
 62
     0
 10
125.2942138150599
 20
245.59784008900741
 30
0.0
 11
193.29421381505989
 21
245.59784008900741
 31
0.0
  0
INSERT
  5
287F
  8
BLKDIM
 62
     0
  2
SW_ARROW
 10
121.2942138150599
 20
245.59784008900741
 30
0.0
 41
4.0
 42
4.0
 43
4.0
 50
180.0
  0
INSERT
  5
2880
  8
BLKDIM
 62
     0
  2
SW_ARROW
 10
197.29421381505989
 20
245.59784008900741
 30
0.0
 41
4.0
 42
4.0
 43
4.0
  0
TEXT
  8
BLKDIM
  40
5
  5
289D
  62
0
  72
0
  71
0
 10
149.294
 20
241.248
 30
0.000000
  1
76
  0
POINT
  5
2882
  8
DEFPOINTS
 62
     0
 10
121.2942138150599
 20
312.89762208900743
 30
0.0
  0
POINT
  5
2883
  8
DEFPOINTS
 62
     0
 10
197.29421381505989
 20
315.59784008900749
 30
0.0
  0
POINT
  5
2884
  8
DEFPOINTS
 62
     0
 10
197.29421381505989
 20
245.59784008900741
 30
0.0
  0
ENDBLK
  5
266E
  8
0
  0
BLOCK
  8
0
  2
*D24
 70
     1
 10
0.0
 20
0.0
 30
0.0
  3
*D24
  1

  0
LINE
  5
2885
  8
BLKDIM
 62
     0
 10
197.29421381505989
 20
311.59784008900749
 30
0.0
 11
197.29421381505989
 21
243.59784008900741
 31
0.0
  0
LINE
  5
2886
  8
BLKDIM
 62
     0
 10
273.29421381505989
 20
259.42231185289239
 30
0.0
 11
273.29421381505989
 21
243.59784008900741
 31
0.0
  0
LINE
  5
2887
  8
BLKDIM
 62
     0
 10
201.29421381505989
 20
245.59784008900741
 30
0.0
 11
269.29421381505989
 21
245.59784008900741
 31
0.0
  0
INSERT
  5
2888
  8
BLKDIM
 62
     0
  2
SW_ARROW
 10
197.29421381505989
 20
245.59784008900741
 30
0.0
 41
4.0
 42
4.0
 43
4.0
 50
180.0
  0
INSERT
  5
2889
  8
BLKDIM
 62
     0
  2
SW_ARROW
 10
273.29421381505989
 20
245.59784008900741
 30
0.0
 41
4.0
 42
4.0
 43
4.0
  0
TEXT
  8
BLKDIM
  40
5
  5
289E
  62
0
  72
0
  71
0
 10
225.294
 20
241.248
 30
0.000000
  1
76
  0
POINT
  5
288B
  8
DEFPOINTS
 62
     0
 10
197.29421381505989
 20
315.59784008900749
 30
0.0
  0
POINT
  5
288C
  8
DEFPOINTS
 62
     0
 10
273.29421381505989
 20
263.42231185289239
 30
0.0
  0
POINT
  5
288D
  8
DEFPOINTS
 62
     0
 10
273.29421381505989
 20
245.59784008900741
 30
0.0
  0
ENDBLK
  5
267A
  8
0
  0
BLOCK
  8
0
  2
*D25
 70
     1
 10
0.0
 20
0.0
 30
0.0
  3
*D25
  1

  0
LINE
  5
288E
  8
BLKDIM
 62
     0
 10
239.7593093062253
 20
367.8947757479869
 30
0.0
 11
322.17301147668348
 21
367.8947757479869
 31
0.0
  0
LINE
  5
288F
  8
BLKDIM
 62
     0
 10
293.16921381505989
 20
128.89762908900741
 30
0.0
 11
322.17301147668348
 21
128.89762908900741
 31
0.0
  0
LINE
  5
2890
  8
BLKDIM
 62
     0
 10
320.17301147668348
 20
363.8947757479869
 30
0.0
 11
320.17301147668348
 21
132.8976290890073
 31
0.0
  0
INSERT
  5
2891
  8
BLKDIM
 62
     0
  2
SW_ARROW
 10
320.17301147668348
 20
367.8947757479869
 30
0.0
 41
4.0
 42
4.0
 43
4.0
 50
90.0
  0
INSERT
  5
2892
  8
BLKDIM
 62
     0
  2
SW_ARROW
 10
320.17301147668348
 20
128.89762908900741
 30
0.0
 41
4.0
 42
4.0
 43
4.0
 50
270.0
  0
TEXT
  8
BLKDIM
  40
5
  5
289F
  62
0
  72
0
  71
0
 10
305.673
 20
239.546
 30
0.000000
  1
592
  0
POINT
  5
2894
  8
DEFPOINTS
 62
     0
 10
235.7593093062253
 20
367.8947757479869
 30
0.0
  0
POINT
  5
2895
  8
DEFPOINTS
 62
     0
 10
289.16921381505989
 20
128.89762908900741
 30
0.0
  0
POINT
  5
2896
  8
DEFPOINTS
 62
     0
 10
320.17301147668348
 20
128.89762908900741
 30
0.0
  0
ENDBLK
  5
2686
  8
0
  0
BLOCK
  8
0
  2
A$C35D05A30
 70
     0
 10
0.0
 20
0.0
 30
0.0
  3
A$C35D05A30
  1

  0
TEXT
  5
2787
  8
0
 10
-162.94832512684761
 20
5.9999999999999849
 30
0.0
 40
8.0
  1
洗面器用 排水金具 水溜なし仕様 Sトラップ付
 41
0.6
  7
MSP明朝
 11
-162.94832512684761
 21
9.9999999999999858
 31
0.0
 73
     2
  0
ENDBLK
  5
2789
  8
0
  0
BLOCK
  8
0
  2
*U28
 70
     1
 10
0.0
 20
0.0
 30
0.0
  3
*U28
  1

  0
TEXT
  5
2822
  8
0
 10
22.508111197750949
 20
106.1125816885492
 30
0.0
 40
4.0
  1
10
 41
0.7
  0
ENDBLK
  5
2824
  8
0
  0
ENDSEC
  0
SECTION
  2
ENTITIES
  0
INSERT
  5
A53
  8
WBLK
  2
HYBASE
 10
149.86261219327361
 20
146.20198592515791
 30
0.0
 41
2.0
 42
2.0
 43
2.0
  0
LINE
  5
A54
  8
HOJYO
 10
420.00000000000011
 20
594.0
 30
0.0
 11
420.0
 21
0.0
 31
0.0
  0
LINE
  5
A55
  8
HOJYO
 10
420.0
 20
0.0
 30
0.0
 11
0.0
 21
0.0
 31
0.0
  0
LINE
  5
A56
  8
HOJYO
 10
0.0
 20
0.0
 30
0.0
 11
0.0
 21
594.0
 31
0.0
  0
LINE
  5
A57
  8
HOJYO
 10
0.0
 20
594.0
 30
0.0
 11
420.00000000000011
 21
594.0
 31
0.0
  0
INSERT
  5
A92
  8
WBLK
  2
MTWBLK
 10
56.0
 20
13.99999999999994
 30
0.0
 41
2.0
 42
2.0
 43
2.0
  0
INSERT
  5
AEA
  8
0
  2
INSLYTXT
 10
0.0
 20
0.0
 30
0.0
 41
2.0
 42
2.0
 43
2.0
  0
TEXT
  5
B2C
  8
0
 10
109.23999999999999
 20
60.49999999999995
 30
0.0
 40
7.0
  1
1:2
 41
0.75
  7
MSP明朝
 72
     1
 11
115.0
 21
63.99999999999995
 31
0.0
 73
     2
  0
TEXT
  5
B2D
  8
0
 10
229.31501992425501
 20
59.99999999999995
 30
0.0
 40
8.0
  1
JPK09800
  7
MSP明朝
 11
229.31501992425501
 21
63.99999999999995
 31
0.0
 73
     2
  0
TEXT
  5
B2F
  8
0
 10
227.05167487315239
 20
39.999999999999943
 30
0.0
 40
8.0
  1
洗面器用 排水金具 水溜なし仕様 Sトラップ付
 41
0.6
  7
MSP明朝
 11
227.05167487315239
 21
43.999999999999943
 31
0.0
 73
     2
  0
TEXT
  5
B31
  8
0
 10
45.799999999999997
 20
60.49999999999995
 30
0.0
 40
7.0
  1
2015.04.01
 41
0.75
  7
MSP明朝
 72
     1
 11
65.0
 21
63.99999999999995
 31
0.0
 73
     2
  0
POINT
  5
1EAF
  8
BLKDOT
 10
601.22276786832799
 20
335.07903568604502
 30
0.0
  0
LINE
  5
25B8
  8
BLKDRA
  6
CONTINUOUS
 10
213.16921381505989
 20
327.59761908900748
 30
0.0
 11
213.16921381505989
 21
329.89762208900743
 31
0.0
  0
ARC
  5
25B9
  8
BLKDRA
  6
CONTINUOUS
 10
190.34855081506001
 20
321.59784008900738
 30
0.0
 40
2.645999999999999
 50
131.70224000000059
 51
228.29772900000131
  0
ARC
  5
25BA
  8
BLKDRA
  6
CONTINUOUS
 10
204.23987681505989
 20
321.59784008900738
 30
0.0
 40
2.645999999999999
 50
311.7022709999988
 51
48.297759999999371
  0
ARC
  5
25BB
  8
BLKDRA
  6
CONTINUOUS
 10
216.3467808150599
 20
324.49134108900739
 30
0.0
 40
2.3980000000000001
 50
79.296295000000811
 51
100.7037049999992
  0
ARC
  5
25BC
  8
BLKDRA
  6
CONTINUOUS
 10
197.29421381505989
 20
313.80281908900753
 30
0.0
 40
13.08653
 50
48.297729000001262
 51
131.70227099999869
  0
ARC
  5
25BD
  8
BLKDRA
  6
CONTINUOUS
 10
235.29421381505989
 20
329.89762208900743
 30
0.0
 40
22.125
 50
0.0
 51
180.0
  0
ARC
  5
25BE
  8
BLKDRA
  6
CONTINUOUS
 10
235.29421381505989
 20
329.89762208900743
 30
0.0
 40
22.125
 50
0.0
 51
180.0
  0
LINE
  5
25BF
  8
BLKDRA
  6
CONTINUOUS
 10
213.16921381505989
 20
312.89762208900743
 30
0.0
 11
213.16921381505989
 21
315.59761908900748
 31
0.0
  0
ARC
  5
25C0
  8
BLKDRA
  6
CONTINUOUS
 10
216.3467808150599
 20
318.70433908900748
 30
0.0
 40
2.3980000000000001
 50
259.29626500000143
 51
280.70373499999857
  0
LINE
  5
25C1
  8
BLKDRA
  6
CENTER
 10
197.29421381505989
 20
329.89762208900743
 30
0.0
 11
197.29421381505989
 21
312.89762208900743
 31
0.0
  0
ARC
  5
25C2
  8
BLKDRA
  6
CONTINUOUS
 10
197.29421381505989
 20
329.39286108900751
 30
0.0
 40
13.08653
 50
228.29772900000131
 51
311.7022709999988
  0
ARC
  5
25C3
  8
BLKDRA
  6
CONTINUOUS
 10
216.89370881505991
 20
321.59784008900738
 30
0.0
 40
5.3427410000000002
 50
100.7037049999992
 51
259.29626500000143
  0
ARC
  5
25C4
  8
BLKDRA
  6
CONTINUOUS
 10
215.79985981505999
 20
321.59784008900738
 30
0.0
 40
5.3427410000000002
 50
280.70373499999857
 51
79.296295000000811
  0
ARC
  5
25C5
  8
BLKDRA
  6
CONTINUOUS
 10
213.29421381505989
 20
321.59784008900738
 30
0.0
 40
8.0
 50
311.40960699999852
 51
48.590393000001441
  0
ARC
  5
25C6
  8
BLKDRA
  6
CENTER
 10
235.29421381505989
 20
329.89762208900743
 30
0.0
 40
38.0
 50
0.0
 51
180.0
  0
LINE
  5
25C7
  8
BLKDRA
  6
CONTINUOUS
 10
137.79421381505989
 20
503.8976290890073
 30
0.0
 11
137.79421381505989
 21
485.3976290890073
 31
0.0
  0
LINE
  5
25C8
  8
BLKDRA
  6
CONTINUOUS
 10
130.23674881505991
 20
503.8976290890073
 30
0.0
 11
121.2942138150599
 21
503.8976290890073
 31
0.0
  0
LINE
  5
25C9
  8
BLKDRA
  6
CONTINUOUS
 10
129.8958408150599
 20
483.8976290890073
 30
0.0
 11
121.2942138150599
 21
483.8976290890073
 31
0.0
  0
LINE
  5
25CA
  8
BLKDRA
  6
CONTINUOUS
 10
145.4378638150599
 20
514.8976290890073
 30
0.0
 11
148.29421381505989
 21
516.89766008900733
 31
0.0
  0
LINE
  5
25CB
  8
BLKDRA
  6
CONTINUOUS
 10
137.79421381505989
 20
503.29158108900731
 30
0.0
 11
138.9621448150599
 21
508.8976290890073
 31
0.0
  0
LINE
  5
25CC
  8
BLKDRA
  6
CONTINUOUS
 10
132.3951968150599
 20
486.34080608900729
 30
0.0
 11
132.73610481505989
 21
501.34082108900748
 31
0.0
  0
LINE
  5
25CD
  8
BLKDRA
  6
CONTINUOUS
 10
146.29421381505989
 20
514.8976290890073
 30
0.0
 11
146.29421381505989
 21
508.8976290890073
 31
0.0
  0
ARC
  5
25CE
  8
BLKDRA
  6
CONTINUOUS
 10
147.29421381505989
 20
516.89762908900718
 30
0.0
 40
1.0
 50
0.0
 51
90.0
  0
ARC
  5
25CF
  8
BLKDRA
  6
CONTINUOUS
 10
130.23674881505991
 20
501.3976290890073
 30
0.0
 40
2.5
 50
358.6981200000011
 51
90.0
  0
ARC
  5
25D0
  8
BLKDRA
  6
CONTINUOUS
 10
129.8958408150599
 20
486.39759908900731
 30
0.0
 40
2.5
 50
270.00457800000061
 51
358.6981200000011
  0
LINE
  5
25D1
  8
BLKDRA
  6
CONTINUOUS
 10
151.29421381505989
 20
469.5226290890073
 30
0.0
 11
151.29421381505989
 21
464.5226290890073
 31
0.0
  0
LINE
  5
25D2
  8
BLKDRA
  6
CONTINUOUS
 10
140.29421381505989
 20
478.5226290890073
 30
0.0
 11
147.4942188150599
 21
469.5226290890073
 31
0.0
  0
LINE
  5
25D3
  8
BLKDRA
  6
CONTINUOUS
 10
140.29421381505989
 20
455.19761708900728
 30
0.0
 11
140.29421381505989
 21
458.0226290890073
 31
0.0
  0
LINE
  5
25D4
  8
BLKDRA
  6
CONTINUOUS
 10
145.29421381505989
 20
464.5226290890073
 30
0.0
 11
145.29421381505989
 21
459.46598908900728
 31
0.0
  0
LINE
  5
25D5
  8
BLKDRA
  6
CONTINUOUS
 10
142.79424081505999
 20
458.0226290890073
 30
0.0
 11
145.29421381505989
 21
459.46598908900728
 31
0.0
  0
LINE
  5
25D6
  8
BLKDRA
  6
CONTINUOUS
 10
133.69421581505989
 20
464.5226290890073
 30
0.0
 11
133.69421581505989
 21
459.4660040890073
 31
0.0
  0
LINE
  5
25D7
  8
BLKDRA
  6
CONTINUOUS
 10
134.69421581505989
 20
464.5226290890073
 30
0.0
 11
134.69421581505989
 21
459.4660040890073
 31
0.0
  0
LINE
  5
25D8
  8
BLKDRA
  6
CONTINUOUS
 10
134.69421581505989
 20
459.4660040890073
 30
0.0
 11
133.69421581505989
 21
459.4660040890073
 31
0.0
  0
LINE
  5
25D9
  8
BLKDRA
  6
CONTINUOUS
 10
139.27822281505991
 20
455.19761708900728
 30
0.0
 11
139.27822281505991
 21
458.0226290890073
 31
0.0
  0
ARC
  5
25DA
  8
BLKDRA
  6
CONTINUOUS
 10
139.99421881506001
 20
468.47508308900728
 30
0.0
 40
10.452442
 50
239.53186000000079
 51
300.0
  0
LINE
  5
25DB
  8
BLKDRA
  6
CONTINUOUS
 10
140.29421381505989
 20
482.8976290890073
 30
0.0
 11
140.29421381505989
 21
478.5226290890073
 31
0.0
  0
LINE
  5
25DC
  8
BLKDRA
  6
CONTINUOUS
 10
139.27822281505991
 20
483.11338908900728
 30
0.0
 11
139.27822281505991
 21
478.5226290890073
 31
0.0
  0
ARC
  5
25DD
  8
BLKDRA
  6
CONTINUOUS
 10
140.29421381505989
 20
485.3976290890073
 30
0.0
 40
2.5
 50
180.0
 51
270.0
  0
LINE
  5
25DE
  8
BLKDRA
  6
CONTINUOUS
 10
104.7942138150599
 20
485.3976290890073
 30
0.0
 11
104.7942138150599
 21
503.29158108900731
 31
0.0
  0
LINE
  5
25DF
  8
BLKDRA
  6
CONTINUOUS
 10
94.294244815059983
 20
516.89762908900718
 30
0.0
 11
97.150536815059922
 21
514.8976290890073
 31
0.0
  0
LINE
  5
25E0
  8
BLKDRA
  6
CONTINUOUS
 10
110.19323081505991
 20
486.34080608900729
 30
0.0
 11
109.8523268150599
 21
501.34082108900748
 31
0.0
  0
LINE
  5
25E1
  8
BLKDRA
  6
CONTINUOUS
 10
104.7942138150599
 20
503.29158108900731
 30
0.0
 11
103.62628281505989
 21
508.8976290890073
 31
0.0
  0
LINE
  5
25E2
  8
BLKDRA
  6
CONTINUOUS
 10
96.294213815059948
 20
514.8976290890073
 30
0.0
 11
96.294213815059948
 21
508.8976290890073
 31
0.0
  0
ARC
  5
25E3
  8
BLKDRA
  6
CONTINUOUS
 10
95.294213815059948
 20
516.89762908900718
 30
0.0
 40
1.0
 50
90.0
 51
180.0
  0
ARC
  5
25E4
  8
BLKDRA
  6
CONTINUOUS
 10
112.3516788150599
 20
501.3976290890073
 30
0.0
 40
2.5
 50
90.0
 51
181.30187999999879
  0
ARC
  5
25E5
  8
BLKDRA
  6
CONTINUOUS
 10
112.6925898150599
 20
486.39759908900731
 30
0.0
 40
2.5
 50
181.30187999999879
 51
269.99542199999951
  0
LINE
  5
25E6
  8
BLKDRA
  6
CONTINUOUS
 10
102.2942138150599
 20
478.5226290890073
 30
0.0
 11
95.094216815059966
 21
469.5226290890073
 31
0.0
  0
LINE
  5
25E7
  8
BLKDRA
  6
CONTINUOUS
 10
102.2942138150599
 20
455.19761708900728
 30
0.0
 11
102.2942138150599
 21
458.0226290890073
 31
0.0
  0
LINE
  5
25E8
  8
BLKDRA
  6
CONTINUOUS
 10
97.294213815059948
 20
464.5226290890073
 30
0.0
 11
97.294213815059948
 21
459.4660040890073
 31
0.0
  0
LINE
  5
25E9
  8
BLKDRA
  6
CONTINUOUS
 10
91.294213815059948
 20
469.5226290890073
 30
0.0
 11
91.294213815059948
 21
464.5226290890073
 31
0.0
  0
LINE
  5
25EA
  8
BLKDRA
  6
CONTINUOUS
 10
97.294213815059948
 20
459.4660040890073
 30
0.0
 11
99.794213815059948
 21
458.02264508900748
 31
0.0
  0
LINE
  5
25EB
  8
BLKDRA
  6
CONTINUOUS
 10
108.89421181506
 20
464.5226290890073
 30
0.0
 11
108.89421181506
 21
459.4660040890073
 31
0.0
  0
LINE
  5
25EC
  8
BLKDRA
  6
CONTINUOUS
 10
107.89421181506
 20
464.5226290890073
 30
0.0
 11
107.89421181506
 21
459.4660040890073
 31
0.0
  0
LINE
  5
25ED
  8
BLKDRA
  6
CONTINUOUS
 10
107.89421181506
 20
459.4660040890073
 30
0.0
 11
108.89421181506
 21
459.4660040890073
 31
0.0
  0
LINE
  5
25EE
  8
BLKDRA
  6
CONTINUOUS
 10
103.3102048150599
 20
455.19761708900728
 30
0.0
 11
103.3102048150599
 21
458.0226290890073
 31
0.0
  0
ARC
  5
25EF
  8
BLKDRA
  6
CONTINUOUS
 10
102.59421681505989
 20
468.47497608900733
 30
0.0
 40
10.452344
 50
239.53155499999821
 51
300.4683839999982
  0
LINE
  5
25F0
  8
BLKDRA
  6
CONTINUOUS
 10
102.2942138150599
 20
482.8976290890073
 30
0.0
 11
102.2942138150599
 21
478.5226290890073
 31
0.0
  0
LINE
  5
25F1
  8
BLKDRA
  6
CONTINUOUS
 10
103.3102048150599
 20
483.11338908900728
 30
0.0
 11
103.3102048150599
 21
478.5226290890073
 31
0.0
  0
ARC
  5
25F2
  8
BLKDRA
  6
CONTINUOUS
 10
102.2942138150599
 20
485.3976290890073
 30
0.0
 40
2.5
 50
270.0
 51
0.0
  0
LINE
  5
25F3
  8
BLKDRA
  6
CONTINUOUS
 10
147.29421381505989
 20
517.8976290890073
 30
0.0
 11
95.294213815059948
 21
517.8976290890073
 31
0.0
  0
LINE
  5
25F4
  8
BLKDRA
  6
CONTINUOUS
 10
94.294213815059933
 20
516.89762908900718
 30
0.0
 11
148.29421381505989
 21
516.89762908900718
 31
0.0
  0
LINE
  5
25F5
  8
BLKDRA
  6
CONTINUOUS
 10
102.2942138150599
 20
482.8976290890073
 30
0.0
 11
140.29421381505989
 21
482.8976290890073
 31
0.0
  0
LINE
  5
25F6
  8
BLKDRA
  6
CONTINUOUS
 10
112.3516788150599
 20
503.8976290890073
 30
0.0
 11
121.2942138150599
 21
503.8976290890073
 31
0.0
  0
LINE
  5
25F7
  8
BLKDRA
  6
CONTINUOUS
 10
112.6925898150599
 20
483.8976290890073
 30
0.0
 11
121.2942138150599
 21
483.8976290890073
 31
0.0
  0
LINE
  5
25F8
  8
BLKDRA
  6
CONTINUOUS
 10
96.294213815059948
 20
508.8976290890073
 30
0.0
 11
146.29421381505989
 21
508.8976290890073
 31
0.0
  0
LINE
  5
25F9
  8
BLKDRA
  6
CONTINUOUS
 10
146.29421381505989
 20
514.8976290890073
 30
0.0
 11
96.294213815059948
 21
514.8976290890073
 31
0.0
  0
LINE
  5
25FA
  8
BLKDRA
  6
CONTINUOUS
 10
140.29421381505989
 20
478.5226290890073
 30
0.0
 11
102.2942138150599
 21
478.5226290890073
 31
0.0
  0
LINE
  5
25FB
  8
BLKDRA
  6
CONTINUOUS
 10
151.29421381505989
 20
464.5226290890073
 30
0.0
 11
91.294213815059948
 21
464.5226290890073
 31
0.0
  0
LINE
  5
25FC
  8
BLKDRA
  6
CONTINUOUS
 10
91.294213815059948
 20
469.5226290890073
 30
0.0
 11
151.29421381505989
 21
469.5226290890073
 31
0.0
  0
LINE
  5
25FD
  8
BLKDRA
  6
CONTINUOUS
 10
99.794221815059927
 20
458.0226290890073
 30
0.0
 11
142.79424081505999
 21
458.0226290890073
 31
0.0
  0
ARC
  5
25FE
  8
BLKDRA
  6
CONTINUOUS
 10
121.29422881505999
 20
512.00865208900734
 30
0.0
 40
53.986027
 50
256.72119099999958
 51
283.27874800000069
  0
INSERT
  5
25FF
  8
BLKDRA
  2
1
 10
121.2942138150599
 20
445.19761708900728
 30
0.0
  0
DIMENSION
  5
2600
  8
BLKDIM
  2
*D19
 10
148.29421381505989
 20
532.66838108888294
 30
0.0
 11
121.2942138150599
 21
537.16838108888294
 31
0.0
 70
     0
  1
%%C54
 13
94.294213815059933
 23
516.89762908900718
 33
0.0
 14
148.29421381505989
 24
516.89762908900718
 34
0.0
1001
ACAD
1000
DSTYLE
1002
{
1070
   287
1070
     3
1070
   147
1040
2.0
1070
   272
1070
     1
1070
   279
1070
     0
1002
}
  0
LINE
  5
2601
  8
BLKDRA
  6
CONTINUOUS
 10
138.69614181505989
 20
397.89762208900748
 30
0.0
 11
141.29421381505989
 21
399.3976140890075
 31
0.0
  0
LINE
  5
2602
  8
BLKDRA
  6
CONTINUOUS
 10
101.2942448150599
 20
399.39762208900731
 30
0.0
 11
103.8923278150599
 21
397.89762208900748
 31
0.0
  0
LINE
  5
2603
  8
BLKDRA
  6
CONTINUOUS
 10
138.69614181505989
 20
397.89762208900748
 30
0.0
 11
103.8923278150599
 21
397.89762208900748
 31
0.0
  0
INSERT
  5
2604
  8
BLKDRA
  2
2
 10
121.2942138150599
 20
409.3976220890072
 30
0.0
  0
LINE
  5
2605
  8
BLKDRA
  6
CONTINUOUS
 10
181.41921381505989
 20
327.59761908900748
 30
0.0
 11
181.41921381505989
 21
329.89762208900743
 31
0.0
  0
ARC
  5
2606
  8
BLKDRA
  6
CONTINUOUS
 10
178.24164381505989
 20
324.49134108900739
 30
0.0
 40
2.3980000000000001
 50
79.296295000000811
 51
100.7037049999992
  0
ARC
  5
2607
  8
BLKDRA
  6
CONTINUOUS
 10
139.16921381505989
 20
350.19762508900732
 30
0.0
 40
2.0
 50
140.24179099999921
 51
180.0
  0
ARC
  5
2608
  8
BLKDRA
  6
CONTINUOUS
 10
136.09421281505999
 20
352.75582208900749
 30
0.0
 40
2.0
 50
320.24182099999842
 51
0.0
  0
LINE
  5
2609
  8
BLKDRA
  6
CONTINUOUS
 10
181.41921381505989
 20
312.89762208900743
 30
0.0
 11
181.41921381505989
 21
315.59761908900748
 31
0.0
  0
ARC
  5
260A
  8
BLKDRA
  6
CONTINUOUS
 10
178.24164381505989
 20
318.70433908900748
 30
0.0
 40
2.3980000000000001
 50
259.29626500000143
 51
280.70373499999857
  0
ARC
  5
260B
  8
BLKDRA
  6
CONTINUOUS
 10
159.29421381505989
 20
312.89762208900743
 30
0.0
 40
22.125
 50
180.0
 51
0.0
  0
LINE
  5
260C
  8
BLKDRA
  6
CONTINUOUS
 10
137.16921381505989
 20
312.89762208900743
 30
0.0
 11
137.16921381505989
 21
350.19762508900732
 31
0.0
  0
ARC
  5
260D
  8
BLKDRA
  6
CONTINUOUS
 10
181.29421381505989
 20
321.59784008900738
 30
0.0
 40
8.0
 50
131.40960699999849
 51
228.59039300000151
  0
ARC
  5
260E
  8
BLKDRA
  6
CONTINUOUS
 10
177.69471881506001
 20
321.59784008900738
 30
0.0
 40
5.3427410000000002
 50
280.70373499999857
 51
79.296295000000811
  0
ARC
  5
260F
  8
BLKDRA
  6
CONTINUOUS
 10
178.78856781505979
 20
321.59784008900738
 30
0.0
 40
5.3427410000000002
 50
100.7037049999992
 51
259.29626500000143
  0
ARC
  5
2610
  8
BLKDRA
  6
CONTINUOUS
 10
103.4192138150599
 20
350.19762508900732
 30
0.0
 40
2.0
 50
0.0
 51
39.758209000000747
  0
ARC
  5
2611
  8
BLKDRA
  6
CONTINUOUS
 10
106.4942108150599
 20
352.75582208900749
 30
0.0
 40
2.0
 50
180.0
 51
219.75817900000149
  0
LINE
  5
2612
  8
BLKDRA
  6
CONTINUOUS
 10
105.4192138150599
 20
312.89762208900743
 30
0.0
 11
105.4192138150599
 21
350.19762508900732
 31
0.0
  0
LINE
  5
2613
  8
BLKDRA
  6
CONTINUOUS
 10
136.70650281505991
 20
351.47672308900752
 30
0.0
 11
105.6248798150599
 21
351.47672308900752
 31
0.0
  0
LINE
  5
2614
  8
BLKDRA
  6
CONTINUOUS
 10
104.4942108150599
 20
397.89762208900748
 30
0.0
 11
104.4942108150599
 21
352.75582208900749
 31
0.0
  0
LINE
  5
2615
  8
BLKDRA
  6
CONTINUOUS
 10
138.09421281505999
 20
397.89762208900748
 30
0.0
 11
138.09421281505999
 21
352.75582208900749
 31
0.0
  0
LINE
  5
2616
  8
BLKDRA
  6
CENTER
 10
121.2942138150599
 20
312.89762208900743
 30
0.0
 11
121.2942138150599
 21
425.13264586888829
 31
0.0
  0
LINE
  5
2617
  8
BLKDRA
  6
CENTER
 10
121.2942138150599
 20
438.08074321912659
 30
0.0
 11
121.2942138150599
 21
523.59899864563511
 31
0.0
  0
DIMENSION
  5
2618
  8
BLKDIM
  2
*D20
 10
137.16921381505989
 20
427.60372136169792
 30
0.0
 11
121.2942138150599
 21
432.10372136169792
 31
0.0
 70
     0
  1
%%C31.75
 13
105.4192138150599
 23
443.19761708900728
 33
0.0
 14
137.16921381505989
 24
443.19761708900728
 34
0.0
1001
ACAD
1000
DSTYLE
1002
{
1070
   287
1070
     3
1070
   147
1040
2.0
1070
   272
1070
     1
1070
   279
1070
     0
1002
}
  0
LINE
  5
2619
  8
BLKDRA
  6
CONTINUOUS
 10
105.4192138150599
 20
443.19761708900728
 30
0.0
 11
105.4192138150599
 21
411.39762208900731
 31
0.0
  0
LINE
  5
261A
  8
BLKDRA
  6
CONTINUOUS
 10
137.16921381505989
 20
443.19761708900728
 30
0.0
 11
137.16921381505989
 21
411.39762208900731
 31
0.0
  0
DIMENSION
  5
261B
  8
BLKDIM
  2
*D21
 10
320.17301147668348
 20
367.89762208900731
 30
0.0
 11
315.67301147668343
 21
442.89762558900742
 31
0.0
 70
     0
  1
131～190
 13
121.2942138150599
 23
517.8976290890073
 33
0.0
 14
235.29421381505989
 24
367.89762208900731
 34
0.0
 50
90.0
1001
ACAD
1000
DSTYLE
1002
{
1070
   287
1070
     3
1070
   147
1040
2.0
1070
   272
1070
     1
1070
   279
1070
     0
1002
}
  0
ARC
  5
261C
  8
BLKDRA
  6
CONTINUOUS
 10
235.29421381505989
 20
329.89762208900743
 30
0.0
 40
53.875
 50
0.0
 51
180.0
  0
LINE
  5
261D
  8
BLKDRA
  6
CONTINUOUS
 10
218.58571781506001
 20
327.59784008900738
 30
0.0
 11
176.00270981505989
 21
327.59784008900738
 31
0.0
  0
LINE
  5
261E
  8
BLKDRA
  6
CONTINUOUS
 10
176.00270981505989
 20
315.59784008900749
 30
0.0
 11
218.58571781506001
 21
315.59784008900749
 31
0.0
  0
LINE
  5
261F
  8
BLKDRA
  6
CONTINUOUS
 10
265.63887181505987
 20
216.01542708900749
 30
0.0
 11
275.73594081506002
 21
218.34552108900749
 31
0.0
  0
LINE
  5
2620
  8
BLKDRA
  6
CONTINUOUS
 10
275.73594081506002
 20
218.34552108900749
 30
0.0
 11
281.17281481505989
 21
216.01542708900749
 31
0.0
  0
LINE
  5
2621
  8
BLKDRA
  6
CONTINUOUS
 10
281.17281481505989
 20
216.01542708900749
 30
0.0
 11
289.16921381505989
 21
217.5688250890075
 31
0.0
  0
LINE
  5
2622
  8
BLKDRA
  6
CONTINUOUS
 10
281.17281481505989
 20
211.0154270890074
 30
0.0
 11
289.16921381505989
 21
212.5688250890075
 31
0.0
  0
LINE
  5
2623
  8
BLKDRA
  6
CONTINUOUS
 10
265.63887181505987
 20
211.0154270890074
 30
0.0
 11
275.73594081506002
 21
213.34552108900749
 31
0.0
  0
LINE
  5
2624
  8
BLKDRA
  6
CONTINUOUS
 10
275.73594081506002
 20
213.34552108900749
 30
0.0
 11
281.17281481505989
 21
211.0154270890074
 31
0.0
  0
LINE
  5
2625
  8
BLKDRA
  6
CONTINUOUS
 10
257.41921381505989
 20
217.5688250890075
 30
0.0
 11
265.63887181505987
 21
216.01542708900749
 31
0.0
  0
LINE
  5
2626
  8
BLKDRA
  6
CONTINUOUS
 10
257.41921381505989
 20
212.5688250890075
 30
0.0
 11
265.63887181505987
 21
211.0154270890074
 31
0.0
  0
LINE
  5
2627
  8
BLKDRA
  6
CONTINUOUS
 10
306.29421381505989
 20
157.89762908900741
 30
0.0
 11
306.29421381505989
 21
154.89762908900741
 31
0.0
  0
ARC
  5
2628
  8
BLKDRA
  6
CONTINUOUS
 10
293.29421381506
 20
157.89762908900741
 30
0.0
 40
13.0
 50
0.0
 51
90.0
  0
LINE
  5
2629
  8
BLKDRA
  6
CENTER
 10
273.29421381505989
 20
189.38428149926241
 30
0.0
 11
273.29421381505989
 21
123.9415398577365
 31
0.0
  0
LINE
  5
262A
  8
BLKDRA
  6
CONTINUOUS
 10
289.16921381505989
 20
128.89762908900741
 30
0.0
 11
289.16921381505989
 21
154.89762908900741
 31
0.0
  0
LINE
  5
262B
  8
BLKDRA
  6
CONTINUOUS
 10
240.29421381505989
 20
157.89762908900741
 30
0.0
 11
240.29421381505989
 21
154.89762908900741
 31
0.0
  0
ARC
  5
262C
  8
BLKDRA
  6
CONTINUOUS
 10
253.29421381506
 20
157.89762908900741
 30
0.0
 40
13.0
 50
90.0
 51
180.0
  0
LINE
  5
262D
  8
BLKDRA
  6
CONTINUOUS
 10
257.41921381505989
 20
128.89762908900741
 30
0.0
 11
257.41921381505989
 21
154.89762908900741
 31
0.0
  0
LINE
  5
262E
  8
BLKDRA
  6
CONTINUOUS
 10
257.41921381505989
 20
128.89762908900741
 30
0.0
 11
289.16921381505989
 21
128.89762908900741
 31
0.0
  0
LINE
  5
262F
  8
BLKDRA
  6
CONTINUOUS
 10
293.29421381506
 20
170.89762908900741
 30
0.0
 11
253.29421381506
 21
170.89762908900741
 31
0.0
  0
LINE
  5
2630
  8
BLKDRA
  6
CONTINUOUS
 10
240.29421381505989
 20
154.89762908900741
 30
0.0
 11
306.29421381505989
 21
154.89762908900741
 31
0.0
  0
DIMENSION
  5
2631
  8
BLKDIM
  2
*D22
 10
289.16921381505989
 20
191.56855847375141
 30
0.0
 11
273.29421381505989
 21
196.06855847375141
 31
0.0
 70
     0
  1
%%C31.75
 13
257.41921381505989
 23
212.5688250890075
 33
0.0
 14
289.16921381505989
 24
212.5688250890075
 34
0.0
1001
ACAD
1000
DSTYLE
1002
{
1070
   287
1070
     3
1070
   147
1040
2.0
1070
   272
1070
     1
1070
   279
1070
     0
1002
}
  0
LINE
  5
2632
  8
BLKDRA
  6
CONTINUOUS
 10
257.41921381505989
 20
212.5688250890075
 30
0.0
 11
257.41921381505989
 21
170.89762908900741
 31
0.0
  0
LINE
  5
2633
  8
BLKDRA
  6
CONTINUOUS
 10
289.16921381505989
 20
212.5688250890075
 30
0.0
 11
289.16921381505989
 21
170.89762908900741
 31
0.0
  0
DIMENSION
  5
2634
  8
BLKDIM
  2
*D23
 10
197.29421381505989
 20
245.59784008900741
 30
0.0
 11
159.29421381505989
 21
250.09784008900741
 31
0.0
 70
     0
 13
121.2942138150599
 23
312.89762208900743
 33
0.0
 14
197.29421381505989
 24
315.59784008900749
 34
0.0
1001
ACAD
1000
DSTYLE
1002
{
1070
   287
1070
     3
1070
   147
1040
2.0
1070
   272
1070
     1
1070
   279
1070
     0
1002
}
  0
DIMENSION
  5
2635
  8
BLKDIM
  2
*D24
 10
273.29421381505989
 20
245.59784008900741
 30
0.0
 11
235.29421381505989
 21
250.09784008900741
 31
0.0
 70
     0
 13
197.29421381505989
 23
315.59784008900749
 33
0.0
 14
273.29421381505989
 24
263.42231185289239
 34
0.0
1001
ACAD
1000
DSTYLE
1002
{
1070
   287
1070
     3
1070
   147
1040
2.0
1070
   272
1070
     1
1070
   279
1070
     0
1002
}
  0
LINE
  5
2636
  8
BLKDRA
  6
CENTER
 10
273.29421381505989
 20
329.89762208900743
 30
0.0
 11
273.29421381505989
 21
203.91371998441031
 31
0.0
  0
LINE
  5
2637
  8
BLKDRA
  6
CONTINUOUS
 10
257.41921381505989
 20
329.89762208900743
 30
0.0
 11
257.41921381505989
 21
217.5688250890075
 31
0.0
  0
LINE
  5
2638
  8
BLKDRA
  6
CONTINUOUS
 10
289.16921381505989
 20
329.89762208900743
 30
0.0
 11
289.16921381505989
 21
217.5688250890075
 31
0.0
  0
ARC
  5
2639
  8
BLKDRA
  6
CENTER
 10
159.29421381505989
 20
312.89762208900743
 30
0.0
 40
38.0
 50
180.0
 51
0.0
  0
ARC
  5
263A
  8
BLKDRA
  6
CONTINUOUS
 10
159.29421381505989
 20
312.89762208900743
 30
0.0
 40
53.875
 50
180.0
 51
0.0
  0
DIMENSION
  5
263B
  8
BLKDIM
  2
*D25
 10
320.17301147668348
 20
128.89762908900741
 30
0.0
 11
315.67301147668343
 21
248.39620241849721
 31
0.0
 70
     0
  1
592
 13
235.7593093062253
 23
367.8947757479869
 33
0.0
 14
289.16921381505989
 24
128.89762908900741
 34
0.0
 50
90.0
1001
ACAD
1000
DSTYLE
1002
{
1070
   287
1070
     3
1070
   147
1040
2.0
1070
   272
1070
     1
1070
   279
1070
     0
1002
}
  0
TEXT
  5
278B
  8
0
 10
251.7257142857143
 20
18.49999999999995
 30
0.0
 40
11.0
  1
グローエジャパン(株)
 41
0.6
  7
MSP明朝
 72
     1
 11
300.0
 21
23.99999999999995
 31
0.0
 73
     2
  0
TEXT
  5
2795
  8
図枠
 10
31.708571428571432
 20
15.99999999999994
 30
0.0
 40
6.0
  1
考
 41
0.75
  7
MSP明朝
 72
     1
 11
35.0
 21
18.99999999999994
 31
0.0
 73
     2
  0
TEXT
  5
2796
  8
図枠
 10
31.708571428571432
 20
25.99999999999994
 30
0.0
 40
6.0
  1
備
 41
0.75
  7
MSP明朝
 72
     1
 11
35.0
 21
28.99999999999994
 31
0.0
 73
     2
  0
TEXT
  5
2797
  8
図枠
 10
211.70857142857139
 20
35.999999999999943
 30
0.0
 40
6.0
  1
名
 41
0.75
  7
MSP明朝
 72
     1
 11
215.0
 21
38.99999999999995
 31
0.0
 73
     2
  0
TEXT
  5
2798
  8
図枠
 10
211.70857142857139
 20
45.99999999999995
 30
0.0
 40
6.0
  1
品
 41
0.75
  7
MSP明朝
 72
     1
 11
215.0
 21
48.99999999999995
 31
0.0
 73
     2
  0
TEXT
  5
2799
  8
図枠
 10
31.708571428571432
 20
35.999999999999943
 30
0.0
 40
6.0
  1
番
 41
0.75
  7
MSP明朝
 72
     1
 11
35.0
 21
38.99999999999995
 31
0.0
 73
     2
  0
TEXT
  5
279A
  8
図枠
 10
31.708571428571432
 20
45.99999999999995
 30
0.0
 40
6.0
  1
図
 41
0.75
  7
MSP明朝
 72
     1
 11
35.0
 21
48.99999999999995
 31
0.0
 73
     2
  0
TEXT
  5
279B
  8
図枠
 10
211.70857142857139
 20
55.999999999999943
 30
0.0
 40
6.0
  1
番
 41
0.75
  7
MSP明朝
 72
     1
 11
215.0
 21
58.999999999999943
 31
0.0
 73
     2
  0
TEXT
  5
279C
  8
図枠
 10
211.70857142857139
 20
65.999999999999943
 30
0.0
 40
6.0
  1
品
 41
0.75
  7
MSP明朝
 72
     1
 11
215.0
 21
68.999999999999943
 31
0.0
 73
     2
  0
TEXT
  5
279D
  8
図枠
 10
171.70857142857139
 20
55.999999999999943
 30
0.0
 40
6.0
  1
図
 41
0.75
  7
MSP明朝
 72
     1
 11
175.0
 21
58.999999999999943
 31
0.0
 73
     2
  0
TEXT
  5
279E
  8
図枠
 10
171.70857142857139
 20
65.999999999999943
 30
0.0
 40
6.0
  1
検
 41
0.75
  7
MSP明朝
 72
     1
 11
175.0
 21
68.999999999999943
 31
0.0
 73
     2
  0
TEXT
  5
279F
  8
図枠
 10
131.70857142857139
 20
55.999999999999943
 30
0.0
 40
6.0
  1
図
 41
0.75
  7
MSP明朝
 72
     1
 11
135.0
 21
58.999999999999943
 31
0.0
 73
     2
  0
TEXT
  5
27A0
  8
図枠
 10
131.70857142857139
 20
65.999999999999943
 30
0.0
 40
6.0
  1
製
 41
0.75
  7
MSP明朝
 72
     1
 11
135.0
 21
68.999999999999943
 31
0.0
 73
     2
  0
TEXT
  5
27A1
  8
図枠
 10
91.708571428571418
 20
55.999999999999943
 30
0.0
 40
6.0
  1
度
 41
0.75
  7
MSP明朝
 72
     1
 11
95.0
 21
58.999999999999943
 31
0.0
 73
     2
  0
TEXT
  5
27A2
  8
図枠
 10
91.708571428571418
 20
65.999999999999943
 30
0.0
 40
6.0
  1
尺
 41
0.75
  7
MSP明朝
 72
     1
 11
95.0
 21
68.999999999999943
 31
0.0
 73
     2
  0
TEXT
  5
27A3
  8
図枠
 10
31.708571428571432
 20
55.999999999999943
 30
0.0
 40
6.0
  1
付
 41
0.75
  7
MSP明朝
 72
     1
 11
35.0
 21
58.999999999999943
 31
0.0
 73
     2
  0
TEXT
  5
27A4
  8
図枠
 10
31.708571428571432
 20
65.999999999999943
 30
0.0
 40
6.0
  1
日
 41
0.75
  7
MSP明朝
 72
     1
 11
35.0
 21
68.999999999999943
 31
0.0
 73
     2
  0
LINE
  5
27A5
  8
図枠
 62
     0
 10
30.0
 20
73.999999999999972
 30
0.0
 11
390.0
 21
73.999999999999943
 31
0.0
  0
LINE
  5
27A6
  8
図枠
 62
     0
 10
30.0
 20
53.99999999999995
 30
0.0
 11
390.0
 21
53.99999999999995
 31
0.0
  0
LINE
  5
27A7
  8
図枠
 62
     0
 10
30.0
 20
33.99999999999995
 30
0.0
 11
390.0
 21
33.99999999999995
 31
0.0
  0
LINE
  5
27A8
  8
図枠
 62
     0
 10
30.0
 20
13.99999999999994
 30
0.0
 11
390.0
 21
13.99999999999994
 31
0.0
  0
LINE
  5
27A9
  8
図枠
 62
     0
 10
30.0
 20
13.99999999999994
 30
0.0
 11
30.0
 21
567.99999999999977
 31
0.0
  0
LINE
  5
27AA
  8
図枠
 62
     0
 10
40.0
 20
13.99999999999994
 30
0.0
 11
40.0
 21
73.999999999999972
 31
0.0
  0
LINE
  5
27AB
  8
図枠
 62
     0
 10
210.0
 20
13.99999999999994
 30
0.0
 11
210.0
 21
73.999999999999943
 31
0.0
  0
LINE
  5
27AC
  8
図枠
 62
     0
 10
220.0
 20
33.99999999999995
 30
0.0
 11
220.0
 21
73.999999999999943
 31
0.0
  0
LINE
  5
27AD
  8
図枠
 62
     0
 10
390.0
 20
13.99999999999994
 30
0.0
 11
390.0
 21
567.99999999999977
 31
0.0
  0
LINE
  5
27AE
  8
図枠
 62
     0
 10
180.0
 20
53.99999999999995
 30
0.0
 11
180.0
 21
73.999999999999943
 31
0.0
  0
LINE
  5
27AF
  8
図枠
 62
     0
 10
170.0
 20
53.99999999999995
 30
0.0
 11
170.0
 21
73.999999999999943
 31
0.0
  0
LINE
  5
27B0
  8
図枠
 62
     0
 10
140.0
 20
53.99999999999995
 30
0.0
 11
140.0
 21
73.999999999999943
 31
0.0
  0
LINE
  5
27B1
  8
図枠
 62
     0
 10
130.0
 20
53.99999999999995
 30
0.0
 11
130.0
 21
73.999999999999943
 31
0.0
  0
LINE
  5
27B2
  8
図枠
 62
     0
 10
100.0
 20
53.99999999999995
 30
0.0
 11
100.0
 21
73.999999999999943
 31
0.0
  0
LINE
  5
27B3
  8
図枠
 62
     0
 10
90.0
 20
53.99999999999995
 30
0.0
 11
90.0
 21
73.999999999999943
 31
0.0
  0
LINE
  5
27B4
  8
図枠
 62
     0
 10
30.0
 20
567.99999999999977
 30
0.0
 11
390.0
 21
567.99999999999977
 31
0.0
  0
VIEWPORT
  5
275E
 67
     1
  8
0
 10
128.5
 20
97.500000000000014
 30
0.0
 40
368.15823837388359
 41
157.2235294117647
 68
     1
 69
     1
1001
ACAD
1000
MVIEW
1002
{
1070
    16
1010
0.0
1020
0.0
1030
0.0
1010
0.0
1020
0.0
1030
1.0
1040
0.0
1040
157.2235294117647
1040
128.5
1040
97.500000000000014
1040
50.0
1040
0.0
1040
0.0
1070
     0
1070
  1000
1070
     1
1070
     1
1070
     0
1070
     0
1070
     0
1070
     0
1040
0.0
1040
0.0
1040
0.0
1040
10.0
1040
10.0
1040
10.0
1040
10.0
1070
     0
1002
{
1002
}
1002
}
  0
VIEWPORT
  5
2763
 67
     1
  8
0
 10
128.5
 20
97.5
 30
0.0
 40
205.59999999999999
 41
156.0
 68
     2
 69
     2
1001
ACAD
1000
MVIEW
1002
{
1070
    16
1010
0.0
1020
0.0
1030
0.0
1010
0.0
1020
0.0
1030
1.0
1040
0.0
1040
600.66168224299065
1040
301.611383934164
1040
297.0
1040
50.0
1040
0.0
1040
0.0
1070
     0
1070
  1000
1070
     1
1070
     1
1070
     0
1070
     0
1070
     0
1070
     0
1040
0.0
1040
0.0
1040
0.0
1040
1.0
1040
1.0
1040
0.0
1040
0.0
1070
     1
1002
{
1002
}
1002
}
  0
ENDSEC
  0
EOF
