  0
SECTION
  2
HEADER
  9
$ACADVER
  1
AC1009
  9
$INSBASE
 10
0.0
 20
0.0
 30
0.0
  9
$EXTMIN
 10
-0.018407493479117
 20
-0.0181260584133725
 30
-0.0015258207003583
  9
$EXTMAX
 10
603.24117817078195
 20
594.01812882444142
 30
0.0000000349246037
  9
$LIMMIN
 10
0.0
 20
0.0
  9
$LIMMAX
 10
420.0
 20
594.0
  9
$ORTHOMODE
 70
     1
  9
$REGENMODE
 70
     0
  9
$FILLMODE
 70
     1
  9
$QTEXTMODE
 70
     0
  9
$MIRRTEXT
 70
     0
  9
$DRAGMODE
 70
     2
  9
$LTSCALE
 40
16.0
  9
$OSMODE
 70
  1007
  9
$ATTMODE
 70
     1
  9
$TEXTSIZE
 40
4.0
  9
$TRACEWID
 40
0.05
  9
$TEXTSTYLE
  7
MSP明朝
  9
$CLAYER
  8
0
  9
$CELTYPE
  6
BYLAYER
  9
$CECOLOR
 62
   256
  9
$DIMSCALE
 40
2.0
  9
$DIMASZ
 40
1.5
  9
$DIMEXO
 40
0.5
  9
$DIMDLI
 40
10.0
  9
$DIMRND
 40
0.0
  9
$DIMDLE
 40
0.0
  9
$DIMEXE
 40
2.0
  9
$DIMTP
 40
0.0
  9
$DIMTM
 40
0.000000001
  9
$DIMTXT
 40
4.0
  9
$DIMCEN
 40
0.0
  9
$DIMTSZ
 40
0.0
  9
$DIMTOL
 70
     0
  9
$DIMLIM
 70
     0
  9
$DIMTIH
 70
     0
  9
$DIMTOH
 70
     0
  9
$DIMSE1
 70
     0
  9
$DIMSE2
 70
     0
  9
$DIMTAD
 70
     3
  9
$DIMZIN
 70
     8
  9
$DIMBLK
  1
YAZ1
  9
$DIMASO
 70
     1
  9
$DIMSHO
 70
     1
  9
$DIMPOST
  1

  9
$DIMAPOST
  1

  9
$DIMALT
 70
     0
  9
$DIMALTD
 70
     2
  9
$DIMALTF
 40
25.399999999999999
  9
$DIMLFAC
 40
1.0
  9
$DIMTOFL
 70
     1
  9
$DIMTVP
 40
0.0
  9
$DIMTIX
 70
     0
  9
$DIMSOXD
 70
     0
  9
$DIMSAH
 70
     0
  9
$DIMBLK1
  1

  9
$DIMBLK2
  1

  9
$DIMSTYLE
  2
STANDARD
  9
$DIMCLRD
 70
     0
  9
$DIMCLRE
 70
     0
  9
$DIMCLRT
 70
     0
  9
$DIMTFAC
 40
1.0
  9
$DIMGAP
 40
1.0
  9
$LUNITS
 70
     2
  9
$LUPREC
 70
     2
  9
$SKETCHINC
 40
0.1
  9
$FILLETRAD
 40
0.0
  9
$AUNITS
 70
     0
  9
$AUPREC
 70
     2
  9
$MENU
  1
amecex
  9
$ELEVATION
 40
0.0
  9
$PELEVATION
 40
0.0
  9
$THICKNESS
 40
0.0
  9
$LIMCHECK
 70
     0
  9
$BLIPMODE
 70
     0
  9
$CHAMFERA
 40
0.5
  9
$CHAMFERB
 40
0.5
  9
$SKPOLY
 70
     0
  9
$TDCREATE
 40
2455266.571175023
  9
$TDUPDATE
 40
2457207.7107667709
  9
$TDINDWG
 40
0.1393620949
  9
$TDUSRTIMER
 40
0.1393617245
  9
$USRTIMER
 70
     1
  9
$ANGBASE
 50
0.0
  9
$ANGDIR
 70
     0
  9
$PDMODE
 70
     2
  9
$PDSIZE
 40
2.0
  9
$PLINEWID
 40
0.0
  9
$COORDS
 70
     1
  9
$SPLFRAME
 70
     0
  9
$SPLINETYPE
 70
     6
  9
$SPLINESEGS
 70
     8
  9
$ATTDIA
 70
     0
  9
$ATTREQ
 70
     0
  9
$HANDLING
 70
     1
  9
$HANDSEED
  5
267E
  9
$SURFTAB1
 70
     6
  9
$SURFTAB2
 70
     6
  9
$SURFTYPE
 70
     6
  9
$SURFU
 70
     6
  9
$SURFV
 70
     6
  9
$UCSNAME
  2

  9
$UCSORG
 10
0.0
 20
0.0
 30
0.0
  9
$UCSXDIR
 10
1.0
 20
0.0
 30
0.0
  9
$UCSYDIR
 10
0.0
 20
1.0
 30
0.0
  9
$PUCSNAME
  2

  9
$PUCSORG
 10
0.0
 20
0.0
 30
0.0
  9
$PUCSXDIR
 10
1.0
 20
0.0
 30
0.0
  9
$PUCSYDIR
 10
0.0
 20
1.0
 30
0.0
  9
$USERI1
 70
     1
  9
$USERI2
 70
     2
  9
$USERI3
 70
     0
  9
$USERI4
 70
     0
  9
$USERI5
 70
     0
  9
$USERR1
 40
2004.01
  9
$USERR2
 40
0.0
  9
$USERR3
 40
0.0
  9
$USERR4
 40
0.0
  9
$USERR5
 40
0.0
  9
$WORLDVIEW
 70
     1
  9
$SHADEDGE
 70
     3
  9
$SHADEDIF
 70
    70
  9
$TILEMODE
 70
     1
  9
$MAXACTVP
 70
    16
  9
$PLIMCHECK
 70
     0
  9
$PEXTMIN
 10
25.699999999999989
 20
19.5
 30
0.0
  9
$PEXTMAX
 10
231.30000000000001
 20
175.5
 30
0.0
  9
$PLIMMIN
 10
-20.0
 20
-7.5
  9
$PLIMMAX
 10
277.0
 20
202.5
  9
$UNITMODE
 70
     0
  9
$VISRETAIN
 70
     0
  9
$PLINEGEN
 70
     0
  9
$PSLTSCALE
 70
     1
  0
ENDSEC
  0
SECTION
  2
TABLES
  0
TABLE
  2
VPORT
 70
     1
  0
VPORT
  2
*ACTIVE
 70
     0
 10
0.0
 20
0.0
 11
1.0
 21
1.0
 12
301.61138533865142
 22
297.00000138301408
 13
0.0
 23
0.0
 14
1.0
 24
1.0
 15
0.0
 25
0.0
 16
0.0
 26
0.0
 36
1.0
 17
0.0
 27
0.0
 37
0.0
 40
598.69536276428903
 41
2.3416230366492141
 42
50.0
 43
0.0
 44
0.0
 50
0.0
 51
0.0
 71
     0
 72
  1000
 73
     1
 74
     1
 75
     0
 76
     0
 77
     0
 78
     0
  0
ENDTAB
  0
TABLE
  2
LTYPE
 70
     5
  0
LTYPE
  2
CONTINUOUS
 70
     0
  3
Solid line
 72
    65
 73
     0
 40
0.0
  0
LTYPE
  2
CENTER2
 70
     0
  3
___ _ ___ _ ___ _ ___ _ ___ _ ___ _ ___ _ ___ _
 72
    65
 73
     4
 40
1.125
 49
0.75
 49
-0.125
 49
0.125
 49
-0.125
  0
LTYPE
  2
DASHED2
 70
     0
  3
_ _ _ _ _ _ _ _ _ _ _ _ _ _ _ _ _ _ _ _ _ _ _ _
 72
    65
 73
     2
 40
0.375
 49
0.25
 49
-0.125
  0
LTYPE
  2
PHANTOM2
 70
     0
  3
___ _ _ ___ _ _ ___ _ _ ___ _ _ ___ _ _ ___ _ _
 72
    65
 73
     6
 40
1.25
 49
0.625
 49
-0.125
 49
0.125
 49
-0.125
 49
0.125
 49
-0.125
  0
LTYPE
  2
CENTER
 70
     0
  3
____ _ ____ _ ____ _ ____ _ ____ _ ____ _ ____ 
 72
    65
 73
     4
 40
50.799999999999997
 49
31.75
 49
-6.3499999999999979
 49
6.3499999999999979
 49
-6.3499999999999979
  0
ENDTAB
  0
TABLE
  2
LAYER
 70
    17
  0
LAYER
  2
0
 70
     0
 62
     7
  6
CONTINUOUS
  0
LAYER
  2
DEFPOINTS
 70
     0
 62
     7
  6
CONTINUOUS
  0
LAYER
  2
CENTER
 70
     0
 62
     1
  6
CENTER2
  0
LAYER
  2
HOJYO
 70
     0
 62
    -6
  6
CONTINUOUS
  0
LAYER
  2
SCALE
 70
     0
 62
     4
  6
CONTINUOUS
  0
LAYER
  2
TXT1
 70
     0
 62
     3
  6
CONTINUOUS
  0
LAYER
  2
DRAHAT
 70
     0
 62
     1
  6
CONTINUOUS
  0
LAYER
  2
GAIKEI
 70
     0
 62
     2
  6
CONTINUOUS
  0
LAYER
  2
ZOKUSEI
 70
     0
 62
     3
  6
CONTINUOUS
  0
LAYER
  2
WBLK
 70
     5
 62
    -6
  6
CONTINUOUS
  0
LAYER
  2
HASEN
 70
     0
 62
     7
  6
DASHED2
  0
LAYER
  2
NITENSASEN
 70
     0
 62
     7
  6
PHANTOM2
  0
LAYER
  2
図枠
 70
     0
 62
     7
  6
CONTINUOUS
  0
LAYER
  2
BLKDRA
 70
     0
 62
     7
  6
CONTINUOUS
  0
LAYER
  2
印
 70
     0
 62
     1
  6
CONTINUOUS
  0
LAYER
  2
BLKDOT
 70
     0
 62
    -6
  6
CONTINUOUS
  0
LAYER
  2
BLKDIM
 70
     0
 62
     2
  6
CONTINUOUS
  0
ENDTAB
  0
TABLE
  2
STYLE
 70
     3
  0
STYLE
  2
STANDARD
 70
     0
 40
0.0
 41
0.7
 50
0.0
 71
     0
 42
8.0
  3
romans.shx
  4
extfont.shx
  0
STYLE
  2
MSP明朝
 70
     0
 40
0.0
 41
1.0
 50
0.0
 71
     0
 42
4.0
  3
txt
  4

  0
ENDTAB
  0
TABLE
  2
VIEW
 70
     4
  0
VIEW
  2
ZOOM_ALL
 70
     0
 40
597.64376250360067
 10
210.00000097788879
 20
297.00000138301402
 41
922.80556641893406
 11
0.0
 21
0.0
 31
1.0
 12
0.0
 22
0.0
 32
0.0
 42
50.0
 43
0.0
 44
0.0
 50
0.0
 71
     0
  0
ENDTAB
  0
TABLE
  2
UCS
 70
     0
  0
ENDTAB
  0
TABLE
  2
APPID
 70
    15
  0
APPID
  2
ACAD
 70
     0
  0
APPID
  2
EX_DIM
 70
     0
  0
APPID
  2
EX_ETC
 70
     0
  0
APPID
  2
EX_TSTY
 70
     0
  0
APPID
  2
EX_TSTYL
 70
     0
  0
APPID
  2
EX_TCON
 70
     0
  0
APPID
  2
EX_TCONL
 70
     0
  0
APPID
  2
DCO15
 70
     0
  0
APPID
  2
AB_PARTS
 70
     0
  0
APPID
  2
SW_PARTS
 70
     0
  0
APPID
  2
ACAD_EXEMPT_FROM_CAD_STANDARDS
 70
     0
  0
APPID
  2
CIR2ARC
 70
     0
  0
APPID
  2
ACAD_MLEADERVER
 70
     0
  0
APPID
  2
ACAD_PSEXT
 70
     0
  0
APPID
  2
CONTENTBLOCKICON
 70
     0
  0
ENDTAB
  0
TABLE
  2
DIMSTYLE
 70
     3
  0
DIMSTYLE
  2
STANDARD
 70
     0
  3

  4

  5
YAZ1
  6

  7

 40
1.0
 41
1.5
 42
0.5
 43
10.0
 44
2.0
 45
0.0
 46
0.0
 47
0.0
 48
0.000000001
140
4.0
141
0.0
142
0.0
143
25.399999999999999
144
1.0
145
0.0
146
1.0
147
1.0
 71
     0
 72
     0
 73
     0
 74
     0
 75
     0
 76
     0
 77
     3
 78
     8
170
     0
171
     2
172
     1
173
     0
174
     0
175
     0
176
     0
177
     0
178
     0
  0
DIMSTYLE
  2
GISA1-2
 70
     0
  3

  4

  5
SW_ARROW
  6

  7

 40
1.0
 41
4.0
 42
4.0
 43
10.0
 44
2.0
 45
0.0
 46
0.0
 47
0.0
 48
0.0
140
5.0
141
0.09
142
0.0
143
25.399999999999999
144
1.0
145
0.0
146
1.0
147
0.09
 71
     0
 72
     0
 73
     0
 74
     0
 75
     0
 76
     0
 77
     1
 78
     0
170
     0
171
     2
172
     0
173
     0
174
     0
175
     0
176
     0
177
     0
178
     0
  0
ENDTAB
  0
ENDSEC
  0
SECTION
  2
BLOCKS
  0
BLOCK
  8
0
  2
$MODEL_SPACE
 70
     0
 10
0.0
 20
0.0
 30
0.0
  3
$MODEL_SPACE
  1

  0
ENDBLK
  5
21
  8
0
  0
BLOCK
 67
     1
  8
0
  2
$PAPER_SPACE
 70
     0
 10
0.0
 20
0.0
 30
0.0
  3
$PAPER_SPACE
  1

  0
ENDBLK
  5
1F
 67
     1
  8
0
  0
BLOCK
  8
0
  2
YAZ1
 70
     0
 10
0.0
 20
0.0
 30
0.0
  3
YAZ1
  1

  0
LINE
  5
47
  8
0
 62
     0
 10
-1.0
 20
0.0
 30
0.0
 11
0.0
 21
0.0
 31
0.0
  0
LINE
  5
48
  8
0
 62
     0
 10
0.0
 20
0.0
 30
0.0
 11
-1.0
 21
0.2679491924311037
 31
0.0
  0
LINE
  5
49
  8
0
 62
     0
 10
0.0
 20
0.0
 30
0.0
 11
-1.0
 21
-0.2679491924311037
 31
0.0
  0
ENDBLK
  5
4A
  8
0
  0
BLOCK
  8
0
  2
YAZ3
 70
     0
 10
0.0
 20
0.0
 30
0.0
  3
YAZ3
  1

  0
LINE
  5
CD
  8
0
 62
     0
 10
-1.0
 20
0.0
 30
0.0
 11
0.0
 21
0.0
 31
0.0
  0
LINE
  5
CE
  8
0
 62
     0
 10
0.0
 20
0.0
 30
0.0
 11
-1.0
 21
0.2679491924311037
 31
0.0
  0
LINE
  5
CF
  8
0
 62
     0
 10
0.0
 20
0.0
 30
0.0
 11
-1.0
 21
-0.2679491924311037
 31
0.0
  0
SOLID
  5
D0
  8
0
 62
     0
 10
0.0
 20
0.0
 30
0.0
 11
-1.0
 21
0.2679491924311037
 31
0.0
 12
-1.0
 22
-0.2679491924311037
 32
0.0
 13
-1.0
 23
-0.2679491924311037
 33
0.0
  0
ENDBLK
  5
D1
  8
0
  0
BLOCK
  8
0
  2
DOT1
 70
     0
 10
0.0
 20
0.0
 30
0.0
  3
DOT1
  1

  0
POLYLINE
  5
D4
  8
0
 62
     0
 66
     1
 10
0.0
 20
0.0
 30
0.0
 70
     1
 40
0.25
 41
0.25
  0
VERTEX
  5
2606
  8
0
 62
     0
 10
-0.125
 20
0.0
 30
0.0
 42
1.0
  0
VERTEX
  5
2607
  8
0
 62
     0
 10
0.125
 20
0.0
 30
0.0
 42
1.0
  0
SEQEND
  5
2608
  8
0
 62
     0
  0
LINE
  5
D5
  8
0
 62
     0
 10
-1.0
 20
0.0
 30
0.0
 11
0.0
 21
0.0
 31
0.0
  0
ENDBLK
  5
D6
  8
0
  0
BLOCK
  8
0
  2
TICK
 70
     0
 10
0.0
 20
0.0
 30
0.0
  3
TICK
  1

  0
LINE
  5
D9
  8
0
 62
     0
 10
0.5
 20
0.5
 30
0.0
 11
-0.5
 21
-0.5
 31
0.0
  0
LINE
  5
DA
  8
0
 62
     0
 10
0.0
 20
0.0
 30
0.0
 11
-1.0
 21
0.0
 31
0.0
  0
ENDBLK
  5
DB
  8
0
  0
BLOCK
  8
0
  2
YAZ0
 70
     0
 10
0.0
 20
0.0
 30
0.0
  3
YAZ0
  1

  0
LINE
  5
DE
  8
0
 62
     0
 10
0.0
 20
0.0
 30
0.0
 11
-1.0
 21
0.0
 31
0.0
  0
ENDBLK
  5
DF
  8
0
  0
BLOCK
  8
0
  2
YAZ6
 70
     0
 10
0.0
 20
0.0
 30
0.0
  3
YAZ6
  1

  0
LINE
  5
E2
  8
0
 62
     0
 10
0.0000000000000213
 20
0.0
 30
0.0
 11
1.0000000000000211
 21
-0.2679491924311037
 31
0.0
  0
LINE
  5
E3
  8
0
 62
     0
 10
1.0000000000000211
 20
0.0
 30
0.0
 11
0.0000000000000213
 21
0.0
 31
0.0
  0
LINE
  5
E4
  8
0
 62
     0
 10
0.0000000000000213
 20
0.0
 30
0.0
 11
1.0000000000000211
 21
0.2679491924311037
 31
0.0
  0
LINE
  5
E5
  8
0
 62
     0
 10
-0.9999999999999785
 20
0.0
 30
0.0
 11
0.0000000000000213
 21
0.0
 31
0.0
  0
ENDBLK
  5
E6
  8
0
  0
BLOCK
  8
0
  2
YAZ8
 70
     0
 10
0.0
 20
0.0
 30
0.0
  3
YAZ8
  1

  0
SOLID
  5
E9
  8
0
 62
     0
 10
-0.0000000000000142
 20
0.0
 30
0.0
 11
0.9999999999999856
 21
0.2679491924311037
 31
0.0
 12
0.9999999999999856
 22
-0.2679491924311037
 32
0.0
 13
0.9999999999999856
 23
0.2679491924311037
 33
0.0
  0
LINE
  5
EA
  8
0
 62
     0
 10
-0.0000000000000142
 20
0.0
 30
0.0
 11
0.9999999999999856
 21
-0.2679491924311037
 31
0.0
  0
LINE
  5
EB
  8
0
 62
     0
 10
-0.0000000000000142
 20
0.0
 30
0.0
 11
0.9999999999999856
 21
0.2679491924311037
 31
0.0
  0
LINE
  5
EC
  8
0
 62
     0
 10
-1.0000000000000131
 20
0.0
 30
0.0
 11
-0.0000000000000142
 21
0.0
 31
0.0
  0
ENDBLK
  5
ED
  8
0
  0
BLOCK
  8
0
  2
HYBASE
 70
     0
 10
0.0
 20
0.0
 30
0.0
  3
HYBASE
  1

  0
ENDBLK
  5
F0
  8
0
  0
BLOCK
  8
0
  2
HYW1
 70
     2
 10
0.0
 20
0.0
 30
0.0
  3
HYW1
  1

  0
LINE
  5
F3
  8
0
 10
0.0
 20
0.0
 30
0.0
 11
1.0
 21
0.0
 31
0.0
  0
LINE
  5
F4
  8
0
 10
1.0
 20
0.0
 30
0.0
 11
1.0
 21
1.0
 31
0.0
  0
LINE
  5
F5
  8
0
 10
1.0
 20
1.0
 30
0.0
 11
0.0000000000000001
 21
1.0
 31
0.0
  0
LINE
  5
F6
  8
0
 10
0.0000000000000001
 20
1.0
 30
0.0
 11
0.0
 21
0.0
 31
0.0
  0
ATTDEF
  5
F7
  8
0
 10
-0.2486376891619071
 20
0.3700653978223733
 30
0.0
 40
0.1
  1

  3

  2
HKCT
 70
     1
  0
ATTDEF
  5
F8
  8
0
 10
-0.2486376891619071
 20
0.2500653978223733
 30
0.0
 40
0.1
  1

  3

  2
HMTL
 70
     1
  0
ATTDEF
  5
F9
  8
0
 10
-0.2486376891619071
 20
0.1300653978223733
 30
0.0
 40
0.1
  1

  3

  2
HKWL
 70
     1
  0
ATTDEF
  5
FA
  8
0
 10
-0.2486376891619071
 20
0.0100653978223733
 30
0.0
 40
0.1
  1

  3

  2
HKML
 70
     1
  0
ENDBLK
  5
FB
  8
0
  0
BLOCK
  8
0
  2
HYW2
 70
     0
 10
0.0
 20
0.0
 30
0.0
  3
HYW2
  1

  0
LINE
  5
FE
  8
0
 10
1.0
 20
0.0
 30
0.0
 11
1.0
 21
1.0
 31
0.0
  0
ENDBLK
  5
FF
  8
0
  0
BLOCK
  8
0
  2
HYW3
 70
     0
 10
0.0
 20
0.0
 30
0.0
  3
HYW3
  1

  0
LINE
  5
102
  8
0
 10
1.0
 20
1.0
 30
0.0
 11
0.0000000000000001
 21
1.0
 31
0.0
  0
ENDBLK
  5
103
  8
0
  0
BLOCK
  8
0
  2
INSLYTXT
 70
     0
 10
0.0
 20
0.0
 30
0.0
  3
INSLYTXT
  1

  0
ENDBLK
  5
106
  8
0
1001
EX_TSTYL
1002
{
1000
TYP1
1040
4.0
1040
0.0
1040
0.0
1040
0.0
1040
7.0
1040
0.0
1040
0.0
1040
0.0
1040
10.0
1040
0.0
1040
0.0
1040
0.0
1040
15.0
1040
0.0
1040
0.0
1040
0.0
1040
15.0
1040
0.0
1040
0.0
1040
0.0
1040
20.0
1040
0.0
1040
0.0
1040
0.0
1040
30.0
1040
0.0
1040
0.0
1040
0.0
1040
40.0
1040
0.0
1040
0.0
1040
0.0
1040
50.0
1040
0.0
1040
0.0
1040
0.0
1002
}
1001
EX_TCONL
1002
{
1000
BNO1
1000
SRD-
1000

1000
01
1070
     1
1000
PROJ-
1000
A
1000
100
1070
     1
1000
PROJ-
1000
B
1000
200
1070
     1
1000
PROJ-
1000
C
1000
300
1070
    10
1000
PROJ-
1000
C
1000
300
1070
    10
1002
}
1001
EX_DIM
1002
{
1070
     0
1040
10.0
1040
4.0
1000

1000
1
1040
0.0
1070
     1
1070
     0
1000
YAZ0
1070
     0
1002
}
1001
EX_ETC
1002
{
1040
1.0
1040
3.0
1000
ACAD
1070
    10
1070
     1
1070
     1
1070
     4
1070
     5
1070
    97
1070
     1
1002
}
1001
EX_TSTY
1002
{
1000
TYP1
1040
4.0
1040
7.0
1040
10.0
1040
15.0
1040
15.0
1040
0.0
1040
0.0
1040
0.0
1040
0.0
1040
0.0
1010
0.0
1020
0.0
1030
0.0
1010
0.0
1020
0.0
1030
0.0
1010
0.0
1020
0.0
1030
0.0
1010
0.0
1020
0.0
1030
0.0
1010
0.0
1020
0.0
1030
0.0
1002
}
1001
EX_TCON
1002
{
1000
BNO1
1000
SRD-
1000
PROJ-
1000
PROJ-
1000
PROJ-
1000
PROJ-
1000

1000
A
1000
B
1000
C
1000
C
1000
01
1000
100
1000
200
1000
300
1000
300
1070
     1
1070
     1
1070
     1
1070
    10
1070
    10
1002
}
  0
BLOCK
  8
0
  2
MTWBLK
 70
     0
 10
0.0
 20
0.0
 30
0.0
  3
MTWBLK
  1

  0
LINE
  5
6C5
  8
0
 10
-13.71326758209989
 20
128.25496564782631
 30
0.0
 11
-3.7132675820998879
 21
128.25496564782631
 31
0.0
  0
DIMENSION
  5
6C6
  8
SCALE
  2
*D13
 10
-4.625238393966697
 20
97.112581688549227
 30
0.0
 11
-9.6252221355823764
 21
100.1125816885492
 31
0.0
 12
-35.0
 22
-8.0
 32
0.0
  3
STANDARD
 13
-14.62520587719805
 23
88.917217857592206
 33
0.0
 14
-4.625238393966697
 24
88.917217857592206
 34
0.0
  0
LINE
  5
6C7
  8
ZOKUSEI
 10
-13.71326758209989
 20
123.66556232298269
 30
0.0
 11
-3.7132675820998911
 21
123.66556232298269
 31
0.0
  0
LINE
  5
6C8
  8
GAIKEI
 10
-13.71326758209989
 20
117.4370848303069
 30
0.0
 11
-3.7132675820998911
 21
117.4370848303069
 31
0.0
  0
LINE
  5
6C9
  8
DRAHAT
 10
-13.71326758209989
 20
112.5198665317327
 30
0.0
 11
-3.7132675820998911
 21
112.5198665317327
 31
0.0
  0
TEXT
  5
6CA
  8
TXT1
 10
-11.51214832750383
 20
82.688741065736906
 30
0.0
 40
4.0
  1
111
 41
0.7
  0
LINE
  5
6CB
  8
CENTER
 10
-13.71326758209989
 20
106.9470189865179
 30
0.0
 11
-3.7132675820998879
 21
106.9470189865179
 31
0.0
  0
INSERT
  5
6CC
  8
WBLK
  2
HYW3
 10
-11.67544169931204
 20
8.1126637146639364
 30
0.0
 50
270.0
  0
INSERT
  5
6CD
  8
WBLK
  2
HYW2
 10
-11.67544169931204
 20
18.112663714663942
 30
0.0
 50
270.0
  0
INSERT
  5
6CE
  8
WBLK
 66
     1
  2
HYW1
 10
-11.67544169931204
 20
28.112663714663942
 30
0.0
 50
270.0
  0
ATTRIB
  5
6CF
  8
0
 10
-11.30537630148967
 20
28.361301403825848
 30
0.0
 40
0.1
  1

 50
270.0
  2
HKCT
 70
     1
  0
ATTRIB
  5
6D0
  8
0
 10
-11.425376301489679
 20
28.361301403825848
 30
0.0
 40
0.1
  1

 50
270.0
  2
HMTL
 70
     1
  0
ATTRIB
  5
6D1
  8
0
 10
-11.54537630148968
 20
28.361301403825848
 30
0.0
 40
0.1
  1

 50
270.0
  2
HKWL
 70
     1
  0
ATTRIB
  5
6D2
  8
0
 10
-11.66537630148968
 20
28.361301403825848
 30
0.0
 40
0.1
  1

 50
270.0
  2
HKML
 70
     1
  0
SEQEND
  5
6D3
  8
WBLK
  0
INSERT
  5
6D4
  8
WBLK
  2
DOT1
 10
-11.67544169931204
 20
48.112663714663938
 30
0.0
 50
270.0
  0
INSERT
  5
6D5
  8
WBLK
  2
YAZ6
 10
-6.675441699312044
 20
18.112663714663942
 30
0.0
 50
270.0
  0
TEXT
  5
6D6
  8
WBLK
 10
-20.69469490555332
 20
61.708608677338759
 30
0.0
 40
4.0
  1
MechBlk
 41
0.7
  0
POINT
  5
6D7
  8
WBLK
 10
-11.67544169931204
 20
8.1126637146639364
 30
0.0
  0
POINT
  5
6D8
  8
WBLK
 10
-11.67544169931204
 20
18.112663714663942
 30
0.0
  0
POINT
  5
6D9
  8
WBLK
 10
-11.67544169931204
 20
28.112663714663942
 30
0.0
  0
POINT
  5
6DA
  8
WBLK
 10
-11.67544169931204
 20
38.112663714663938
 30
0.0
  0
POINT
  5
6DB
  8
WBLK
 10
-11.67544169931204
 20
48.112663714663938
 30
0.0
  0
POINT
  5
6DC
  8
WBLK
 10
-11.67544169931204
 20
58.112663714663938
 30
0.0
  0
INSERT
  5
6DD
  8
WBLK
  2
YAZ8
 10
-11.67544169931204
 20
58.112663714663938
 30
0.0
 50
270.0
  0
INSERT
  5
6DE
  8
WBLK
  2
YAZ3
 10
-6.675441699312044
 20
8.1126637146639364
 30
0.0
 50
270.0
  0
INSERT
  5
6DF
  8
WBLK
  2
YAZ1
 10
-6.675441699312044
 20
28.112663714663942
 30
0.0
 50
270.0
  0
INSERT
  5
6E0
  8
WBLK
  2
YAZ0
 10
-6.675441699312044
 20
38.112663714663938
 30
0.0
 50
270.0
  0
INSERT
  5
6E1
  8
WBLK
  2
TICK
 10
-6.675441699312044
 20
48.112663714663938
 30
0.0
 50
270.0
  0
POINT
  5
6E2
  8
WBLK
 10
-6.675441699312044
 20
8.1126637146639364
 30
0.0
  0
POINT
  5
6E3
  8
WBLK
 10
-6.675441699312044
 20
18.112663714663942
 30
0.0
  0
POINT
  5
6E4
  8
WBLK
 10
-6.675441699312044
 20
18.112663714663942
 30
0.0
  0
POINT
  5
6E5
  8
WBLK
 10
-6.675441699312044
 20
28.112663714663942
 30
0.0
  0
POINT
  5
6E6
  8
WBLK
 10
-6.675441699312044
 20
38.112663714663938
 30
0.0
  0
POINT
  5
6E7
  8
WBLK
 10
-6.675441699312044
 20
48.112663714663938
 30
0.0
  0
POINT
  5
6E8
  8
WBLK
 10
-6.675441699312044
 20
58.112663714663938
 30
0.0
  0
LINE
  5
6E9
  8
NITENSASEN
 10
-13.71326758209989
 20
147.4304630499613
 30
0.0
 11
-3.7132675820998831
 21
147.4304630499613
 31
0.0
  0
LINE
  5
6EA
  8
HASEN
 10
-13.71326758209989
 20
152.43046304996139
 30
0.0
 11
-3.7132675820998831
 21
152.43046304996139
 31
0.0
  0
TEXT
  5
6EB
  8
WBLK
 10
-13.47983624538824
 20
137.4337743999746
 30
0.0
 40
4.0
  1
Line
 41
0.7
  0
TEXT
  5
6EC
  8
WBLK
 10
-15.44752527374351
 20
131.5331118810293
 30
0.0
 40
4.0
  1
Layer
 41
0.7
  0
ENDBLK
  5
6ED
  8
0
  0
BLOCK
  8
0
  2
*D13
 70
     1
 10
0.0
 20
0.0
 30
0.0
  3
*D13
  1

  0
LINE
  5
6F0
  8
0
  6
BYBLOCK
 10
20.374794122801951
 20
97.417217857592235
 30
0.0
 11
20.374794122801951
 21
107.1125816885492
 31
0.0
  0
LINE
  5
6F1
  8
0
  6
BYBLOCK
 10
30.374761606033299
 20
97.417217857592235
 30
0.0
 11
30.374761606033299
 21
107.1125816885492
 31
0.0
  0
LINE
  5
6F2
  8
0
  6
BYBLOCK
 10
21.874794122801951
 20
105.1125816885492
 30
0.0
 11
28.87476160603331
 21
105.1125816885492
 31
0.0
  0
INSERT
  5
6F3
  8
0
  6
BYBLOCK
  2
YAZ1
 10
20.374794122801951
 20
105.1125816885492
 30
0.0
 41
1.5
 42
1.5
 43
1.5
 50
180.0
  0
INSERT
  5
6F4
  8
0
  6
BYBLOCK
  2
YAZ1
 10
30.374761606033299
 20
105.1125816885492
 30
0.0
 41
1.5
 42
1.5
 43
1.5
  0
INSERT
  5
6F5
  8
0
  2
*U24
 10
0.0
 20
0.0
 30
0.0
  0
POINT
  5
6F6
  8
DEFPOINTS
  6
BYBLOCK
 62
     0
 10
20.374794122801951
 20
96.91721785759222
 30
0.0
  0
POINT
  5
6F7
  8
DEFPOINTS
  6
BYBLOCK
 62
     0
 10
30.374761606033299
 20
96.91721785759222
 30
0.0
  0
POINT
  5
6F8
  8
DEFPOINTS
  6
BYBLOCK
 62
     0
 10
30.374761606033299
 20
105.1125816885492
 30
0.0
  0
ENDBLK
  5
6F9
  8
0
  0
BLOCK
  8
0
  2
NITTO_CERA社名
 70
     0
 10
0.0
 20
0.0
 30
0.0
  3
NITTO_CERA社名
  1

  0
TEXT
  5
B58
  8
図枠
 10
17.653674138379301
 20
0.9283468251990319
 30
0.0
 40
13.49578927781894
  1
NITTO CERA
  7
MSP明朝
  0
TEXT
  5
B59
  8
図枠
 10
0.2018934974229012
 20
2.4158714410070261
 30
0.0
 40
10.1699999999596
  1
㈱
  7
MSP明朝
  0
ENDBLK
  5
AF5
  8
0
  0
BLOCK
  8
0
  2
NITTO_CERA図枠A4R
 70
     0
 10
0.0
 20
0.0
 30
0.0
  3
NITTO_CERA図枠A4R
  1

  0
INSERT
  5
B5E
  8
0
  2
NITTO_CERA社名
 10
214.14840616705331
 20
2.4227155681868591
 30
0.0
  0
TEXT
  5
B5F
  8
図枠
 10
1.708571428571428
 20
1.9999999999999429
 30
0.0
 40
6.0
  1
考
 41
0.75
  7
MSP明朝
 72
     1
 11
5.0
 21
4.9999999999999432
 31
0.0
 73
     2
  0
TEXT
  5
B60
  8
図枠
 10
1.708571428571428
 20
11.99999999999994
 30
0.0
 40
6.0
  1
備
 41
0.75
  7
MSP明朝
 72
     1
 11
5.0
 21
14.99999999999994
 31
0.0
 73
     2
  0
TEXT
  5
B61
  8
図枠
 10
181.70857142857139
 20
21.99999999999995
 30
0.0
 40
6.0
  1
名
 41
0.75
  7
MSP明朝
 72
     1
 11
185.0
 21
24.99999999999995
 31
0.0
 73
     2
  0
TEXT
  5
B62
  8
図枠
 10
181.70857142857139
 20
31.99999999999995
 30
0.0
 40
6.0
  1
品
 41
0.75
  7
MSP明朝
 72
     1
 11
185.0
 21
34.99999999999995
 31
0.0
 73
     2
  0
TEXT
  5
B63
  8
図枠
 10
1.708571428571428
 20
21.99999999999995
 30
0.0
 40
6.0
  1
番
 41
0.75
  7
MSP明朝
 72
     1
 11
5.0
 21
24.99999999999995
 31
0.0
 73
     2
  0
TEXT
  5
B64
  8
図枠
 10
1.708571428571428
 20
31.99999999999995
 30
0.0
 40
6.0
  1
図
 41
0.75
  7
MSP明朝
 72
     1
 11
5.0
 21
34.99999999999995
 31
0.0
 73
     2
  0
TEXT
  5
B65
  8
図枠
 10
181.70857142857139
 20
41.999999999999929
 30
0.0
 40
6.0
  1
番
 41
0.75
  7
MSP明朝
 72
     1
 11
185.0
 21
44.999999999999929
 31
0.0
 73
     2
  0
TEXT
  5
B66
  8
図枠
 10
181.70857142857139
 20
51.999999999999929
 30
0.0
 40
6.0
  1
品
 41
0.75
  7
MSP明朝
 72
     1
 11
185.0
 21
54.999999999999929
 31
0.0
 73
     2
  0
TEXT
  5
B67
  8
図枠
 10
141.70857142857139
 20
41.999999999999929
 30
0.0
 40
6.0
  1
図
 41
0.75
  7
MSP明朝
 72
     1
 11
145.0
 21
44.999999999999929
 31
0.0
 73
     2
  0
TEXT
  5
B68
  8
図枠
 10
141.70857142857139
 20
51.999999999999929
 30
0.0
 40
6.0
  1
検
 41
0.75
  7
MSP明朝
 72
     1
 11
145.0
 21
54.999999999999929
 31
0.0
 73
     2
  0
TEXT
  5
B69
  8
図枠
 10
101.7085714285714
 20
41.999999999999929
 30
0.0
 40
6.0
  1
図
 41
0.75
  7
MSP明朝
 72
     1
 11
105.0
 21
44.999999999999929
 31
0.0
 73
     2
  0
TEXT
  5
B6A
  8
図枠
 10
101.7085714285714
 20
51.999999999999929
 30
0.0
 40
6.0
  1
製
 41
0.75
  7
MSP明朝
 72
     1
 11
105.0
 21
54.999999999999929
 31
0.0
 73
     2
  0
TEXT
  5
B6B
  8
図枠
 10
61.708571428571432
 20
41.999999999999929
 30
0.0
 40
6.0
  1
度
 41
0.75
  7
MSP明朝
 72
     1
 11
65.0
 21
44.999999999999929
 31
0.0
 73
     2
  0
TEXT
  5
B6C
  8
図枠
 10
61.708571428571432
 20
51.999999999999929
 30
0.0
 40
6.0
  1
尺
 41
0.75
  7
MSP明朝
 72
     1
 11
65.0
 21
54.999999999999929
 31
0.0
 73
     2
  0
TEXT
  5
B6D
  8
図枠
 10
1.708571428571428
 20
41.999999999999929
 30
0.0
 40
6.0
  1
付
 41
0.75
  7
MSP明朝
 72
     1
 11
5.0
 21
44.999999999999929
 31
0.0
 73
     2
  0
TEXT
  5
B6E
  8
図枠
 10
1.708571428571428
 20
51.999999999999929
 30
0.0
 40
6.0
  1
日
 41
0.75
  7
MSP明朝
 72
     1
 11
5.0
 21
54.999999999999929
 31
0.0
 73
     2
  0
LINE
  5
B6F
  8
図枠
 62
     0
 10
0.0
 20
59.999999999999957
 30
0.0
 11
360.0
 21
59.999999999999929
 31
0.0
  0
LINE
  5
B70
  8
図枠
 62
     0
 10
0.0
 20
39.99999999999995
 30
0.0
 11
360.0
 21
39.99999999999995
 31
0.0
  0
LINE
  5
B71
  8
図枠
 62
     0
 10
0.0
 20
19.99999999999995
 30
0.0
 11
360.0
 21
19.99999999999995
 31
0.0
  0
LINE
  5
B72
  8
図枠
 62
     0
 10
0.0
 20
-0.0000000000000568
 30
0.0
 11
360.0
 21
-0.0000000000000568
 31
0.0
  0
LINE
  5
B73
  8
図枠
 62
     0
 10
0.0
 20
-0.0000000000000568
 30
0.0
 11
0.0
 21
553.99999999999989
 31
0.0
  0
LINE
  5
B74
  8
図枠
 62
     0
 10
10.0
 20
-0.0000000000000568
 30
0.0
 11
10.0
 21
59.999999999999957
 31
0.0
  0
LINE
  5
B75
  8
図枠
 62
     0
 10
180.0
 20
-0.0000000000000568
 30
0.0
 11
180.0
 21
59.999999999999929
 31
0.0
  0
LINE
  5
B76
  8
図枠
 62
     0
 10
190.0
 20
19.99999999999995
 30
0.0
 11
190.0
 21
59.999999999999929
 31
0.0
  0
LINE
  5
B77
  8
図枠
 62
     0
 10
360.0
 20
-0.0000000000000568
 30
0.0
 11
360.0
 21
553.99999999999989
 31
0.0
  0
LINE
  5
B78
  8
図枠
 62
     0
 10
150.0
 20
39.99999999999995
 30
0.0
 11
150.0
 21
59.999999999999929
 31
0.0
  0
LINE
  5
B79
  8
図枠
 62
     0
 10
140.0
 20
39.99999999999995
 30
0.0
 11
140.0
 21
59.999999999999929
 31
0.0
  0
LINE
  5
B7A
  8
図枠
 62
     0
 10
110.0
 20
39.99999999999995
 30
0.0
 11
110.0
 21
59.999999999999929
 31
0.0
  0
LINE
  5
B7B
  8
図枠
 62
     0
 10
100.0
 20
39.99999999999995
 30
0.0
 11
100.0
 21
59.999999999999929
 31
0.0
  0
LINE
  5
B7C
  8
図枠
 62
     0
 10
69.999999999999986
 20
39.99999999999995
 30
0.0
 11
70.0
 21
59.999999999999929
 31
0.0
  0
LINE
  5
B7D
  8
図枠
 62
     0
 10
60.0
 20
39.99999999999995
 30
0.0
 11
60.0
 21
59.999999999999929
 31
0.0
  0
LINE
  5
B7E
  8
図枠
 62
     0
 10
0.0
 20
553.99999999999989
 30
0.0
 11
360.0
 21
553.99999999999989
 31
0.0
  0
ENDBLK
  5
B5D
  8
0
  0
BLOCK
  8
0
  2
SW_ARROW
 70
     0
 10
0.0
 20
0.0
 30
0.0
  3
SW_ARROW
  1

  0
LINE
  5
225B
  8
0
 10
0.0
 20
0.0
 30
0.0
 11
-0.9999999999999982
 21
0.1666666666666652
 31
0.0
  0
LINE
  5
225C
  8
0
 10
0.0
 20
0.0
 30
0.0
 11
-0.9999999999999982
 21
0.0
 31
0.0
  0
LINE
  5
225D
  8
0
 10
0.0
 20
-0.0000000000000027
 30
0.0
 11
-0.9999999999999982
 21
-0.1666666666666634
 31
0.0
  0
ENDBLK
  5
225E
  8
0
  0
BLOCK
  8
0
  2
*D17
 70
     1
 10
0.0
 20
0.0
 30
0.0
  3
*D17
  1

  0
LINE
  5
2649
  8
BLKDIM
 62
     0
 10
106.08000696236959
 20
400.06416908012068
 30
0.0
 11
106.08000696236959
 21
386.31357404143358
 31
0.0
  0
LINE
  5
264A
  8
BLKDIM
 62
     0
 10
137.83000696236959
 20
400.06416908012068
 30
0.0
 11
137.83000696236959
 21
386.31357404143358
 31
0.0
  0
LINE
  5
264B
  8
BLKDIM
 62
     0
 10
110.08000696236959
 20
388.31357404143358
 30
0.0
 11
133.83000696236959
 21
388.31357404143358
 31
0.0
  0
INSERT
  5
264C
  8
BLKDIM
 62
     0
  2
SW_ARROW
 10
106.08000696236959
 20
388.31357404143358
 30
0.0
 41
4.0
 42
4.0
 43
4.0
 50
180.0
  0
INSERT
  5
264D
  8
BLKDIM
 62
     0
  2
SW_ARROW
 10
137.83000696236959
 20
388.31357404143358
 30
0.0
 41
4.0
 42
4.0
 43
4.0
  0
TEXT
  8
BLKDIM
  40
5
  5
2678
  62
0
  72
0
  71
0
 10
111.955
 20
383.964
 30
0.000000
  1
%%C31.75
  0
POINT
  5
264F
  8
DEFPOINTS
 62
     0
 10
106.08000696236959
 20
404.06416908012068
 30
0.0
  0
POINT
  5
2650
  8
DEFPOINTS
 62
     0
 10
137.83000696236959
 20
404.06416908012068
 30
0.0
  0
POINT
  5
2651
  8
DEFPOINTS
 62
     0
 10
137.83000696236959
 20
388.31357404143358
 30
0.0
  0
ENDBLK
  5
23F1
  8
0
  0
BLOCK
  8
0
  2
*D18
 70
     1
 10
0.0
 20
0.0
 30
0.0
  3
*D18
  1

  0
LINE
  5
2652
  8
BLKDIM
 62
     0
 10
121.95500696236959
 20
229.76415208012071
 30
0.0
 11
121.95500696236959
 21
161.82467134092491
 31
0.0
  0
LINE
  5
2653
  8
BLKDIM
 62
     0
 10
197.95500696236951
 20
232.46414908012071
 30
0.0
 11
197.95500696236951
 21
161.82467134092491
 31
0.0
  0
LINE
  5
2654
  8
BLKDIM
 62
     0
 10
125.95500696236959
 20
163.82467134092491
 30
0.0
 11
193.95500696236951
 21
163.82467134092491
 31
0.0
  0
INSERT
  5
2655
  8
BLKDIM
 62
     0
  2
SW_ARROW
 10
121.95500696236959
 20
163.82467134092491
 30
0.0
 41
4.0
 42
4.0
 43
4.0
 50
180.0
  0
INSERT
  5
2656
  8
BLKDIM
 62
     0
  2
SW_ARROW
 10
197.95500696236951
 20
163.82467134092491
 30
0.0
 41
4.0
 42
4.0
 43
4.0
  0
TEXT
  8
BLKDIM
  40
5
  5
2679
  62
0
  72
0
  71
0
 10
149.955
 20
159.475
 30
0.000000
  1
76
  0
POINT
  5
2658
  8
DEFPOINTS
 62
     0
 10
121.95500696236959
 20
233.76415208012071
 30
0.0
  0
POINT
  5
2659
  8
DEFPOINTS
 62
     0
 10
197.95500696236951
 20
236.46414908012071
 30
0.0
  0
POINT
  5
265A
  8
DEFPOINTS
 62
     0
 10
197.95500696236951
 20
163.82467134092491
 30
0.0
  0
ENDBLK
  5
23FD
  8
0
  0
BLOCK
  8
0
  2
*D19
 70
     1
 10
0.0
 20
0.0
 30
0.0
  3
*D19
  1

  0
LINE
  5
265B
  8
BLKDIM
 62
     0
 10
121.95500696236959
 20
229.76415208012071
 30
0.0
 11
121.95500696236959
 21
143.24355527792099
 31
0.0
  0
LINE
  5
265C
  8
BLKDIM
 62
     0
 10
342.95500696236968
 20
284.76415108012071
 30
0.0
 11
342.95500696236968
 21
143.24355527792099
 31
0.0
  0
LINE
  5
265D
  8
BLKDIM
 62
     0
 10
125.95500696236959
 20
145.2435552779211
 30
0.0
 11
338.95500696236968
 21
145.2435552779211
 31
0.0
  0
INSERT
  5
265E
  8
BLKDIM
 62
     0
  2
SW_ARROW
 10
121.95500696236959
 20
145.2435552779211
 30
0.0
 41
4.0
 42
4.0
 43
4.0
 50
180.0
  0
INSERT
  5
265F
  8
BLKDIM
 62
     0
  2
SW_ARROW
 10
342.95500696236968
 20
145.2435552779211
 30
0.0
 41
4.0
 42
4.0
 43
4.0
  0
TEXT
  8
BLKDIM
  40
5
  5
267A
  62
0
  72
0
  71
0
 10
222.455
 20
140.894
 30
0.000000
  1
396
  0
POINT
  5
2661
  8
DEFPOINTS
 62
     0
 10
121.95500696236959
 20
233.76415208012071
 30
0.0
  0
POINT
  5
2662
  8
DEFPOINTS
 62
     0
 10
342.95500696236968
 20
288.76415108012071
 30
0.0
  0
POINT
  5
2663
  8
DEFPOINTS
 62
     0
 10
342.95500696236968
 20
145.2435552779211
 30
0.0
  0
ENDBLK
  5
2409
  8
0
  0
BLOCK
  8
0
  2
*D20
 70
     1
 10
0.0
 20
0.0
 30
0.0
  3
*D20
  1

  0
LINE
  5
2664
  8
BLKDIM
 62
     0
 10
125.95500696236959
 20
478.76415108012071
 30
0.0
 11
189.83000696236959
 21
478.7641510801206
 31
0.0
  0
LINE
  5
2665
  8
BLKDIM
 62
     0
 10
231.95500696236959
 20
288.76415108012071
 30
0.0
 11
185.83000696236951
 21
288.76415108012071
 31
0.0
  0
LINE
  5
2666
  8
BLKDIM
 62
     0
 10
187.83000696236959
 20
474.7641510801206
 30
0.0
 11
187.83000696236959
 21
292.76415108012071
 31
0.0
  0
INSERT
  5
2667
  8
BLKDIM
 62
     0
  2
SW_ARROW
 10
187.83000696236959
 20
478.7641510801206
 30
0.0
 41
4.0
 42
4.0
 43
4.0
 50
90.0
  0
INSERT
  5
2668
  8
BLKDIM
 62
     0
  2
SW_ARROW
 10
187.83000696236959
 20
288.76415108012071
 30
0.0
 41
4.0
 42
4.0
 43
4.0
 50
270.0
  0
TEXT
  8
BLKDIM
  40
5
  5
267B
  62
0
  72
0
  71
0
 10
173.330
 20
374.914
 30
0.000000
  1
171～230
  0
POINT
  5
266A
  8
DEFPOINTS
 62
     0
 10
121.95500696236959
 20
478.76415108012071
 30
0.0
  0
POINT
  5
266B
  8
DEFPOINTS
 62
     0
 10
235.95500696236959
 20
288.76415108012071
 30
0.0
  0
POINT
  5
266C
  8
DEFPOINTS
 62
     0
 10
187.83000696236959
 20
288.76415108012071
 30
0.0
  0
ENDBLK
  5
2415
  8
0
  0
BLOCK
  8
0
  2
*D21
 70
     1
 10
0.0
 20
0.0
 30
0.0
  3
*D21
  1

  0
LINE
  5
266D
  8
BLKDIM
 62
     0
 10
320.95500696236962
 20
304.63914908012072
 30
0.0
 11
332.53843604065298
 21
304.63914908012072
 31
0.0
  0
LINE
  5
266E
  8
BLKDIM
 62
     0
 10
320.95500696236962
 20
272.88915208012071
 30
0.0
 11
332.53843604065298
 21
272.88915208012071
 31
0.0
  0
LINE
  5
266F
  8
BLKDIM
 62
     0
 10
330.53843604065298
 20
300.63914908012072
 30
0.0
 11
330.53843604065298
 21
276.88915208012071
 31
0.0
  0
INSERT
  5
2670
  8
BLKDIM
 62
     0
  2
SW_ARROW
 10
330.53843604065298
 20
304.63914908012072
 30
0.0
 41
4.0
 42
4.0
 43
4.0
 50
90.0
  0
INSERT
  5
2671
  8
BLKDIM
 62
     0
  2
SW_ARROW
 10
330.53843604065298
 20
272.88915208012071
 30
0.0
 41
4.0
 42
4.0
 43
4.0
 50
270.0
  0
TEXT
  8
BLKDIM
  40
5
  5
267C
  62
0
  72
0
  71
0
 10
316.038
 20
279.914
 30
0.000000
  1
%%C31.75
  0
POINT
  5
2673
  8
DEFPOINTS
 62
     0
 10
316.95500696236962
 20
304.63914908012072
 30
0.0
  0
POINT
  5
2674
  8
DEFPOINTS
 62
     0
 10
316.95500696236962
 20
272.88915208012071
 30
0.0
  0
POINT
  5
2675
  8
DEFPOINTS
 62
     0
 10
330.53843604065298
 20
272.88915208012071
 30
0.0
  0
ENDBLK
  5
2421
  8
0
  0
BLOCK
  8
0
  2
*D22
 70
     1
 10
0.0
 20
0.0
 30
0.0
  3
*D22
  1

  0
LINE
  5
2640
  8
BLKDIM
 62
     0
 10
94.955006962369694
 20
481.76415108012071
 30
0.0
 11
94.955006962369694
 21
500.76415108012071
 31
0.0
  0
LINE
  5
2641
  8
BLKDIM
 62
     0
 10
148.9549626895689
 20
481.76415108012071
 30
0.0
 11
148.9549626895689
 21
500.76415108012071
 31
0.0
  0
LINE
  5
2642
  8
BLKDIM
 62
     0
 10
98.955006962369694
 20
498.76415108012071
 30
0.0
 11
144.9549626895689
 21
498.76415108012071
 31
0.0
  0
INSERT
  5
2643
  8
BLKDIM
 62
     0
  2
SW_ARROW
 10
94.955006962369694
 20
498.76415108012071
 30
0.0
 41
4.0
 42
4.0
 43
4.0
 50
180.0
  0
INSERT
  5
2644
  8
BLKDIM
 62
     0
  2
SW_ARROW
 10
148.9549626895689
 20
498.76415108012071
 30
0.0
 41
4.0
 42
4.0
 43
4.0
  0
TEXT
  8
BLKDIM
  40
5
  5
267D
  62
0
  72
0
  71
0
 10
111.955
 20
494.414
 30
0.000000
  1
%%C54
  0
POINT
  5
2646
  8
DEFPOINTS
 62
     0
 10
94.955006962369694
 20
477.76415108012071
 30
0.0
  0
POINT
  5
2647
  8
DEFPOINTS
 62
     0
 10
148.9549626895689
 20
477.76415108012071
 30
0.0
  0
POINT
  5
2648
  8
DEFPOINTS
 62
     0
 10
148.9549626895689
 20
498.76415108012071
 30
0.0
  0
ENDBLK
  5
242D
  8
0
  0
BLOCK
  8
0
  2
*U24
 70
     1
 10
0.0
 20
0.0
 30
0.0
  3
*U24
  1

  0
TEXT
  5
260A
  8
0
 10
22.508111197750949
 20
106.1125816885492
 30
0.0
 40
4.0
  1
10
 41
0.7
  0
ENDBLK
  5
260C
  8
0
  0
ENDSEC
  0
SECTION
  2
ENTITIES
  0
INSERT
  5
A53
  8
WBLK
  2
HYBASE
 10
149.86261219327361
 20
146.20198592515791
 30
0.0
 41
2.0
 42
2.0
 43
2.0
  0
LINE
  5
A54
  8
HOJYO
 10
420.00000000000011
 20
594.0
 30
0.0
 11
420.0
 21
0.0
 31
0.0
  0
LINE
  5
A55
  8
HOJYO
 10
420.0
 20
0.0
 30
0.0
 11
0.0
 21
0.0
 31
0.0
  0
LINE
  5
A56
  8
HOJYO
 10
0.0
 20
0.0
 30
0.0
 11
0.0
 21
594.0
 31
0.0
  0
LINE
  5
A57
  8
HOJYO
 10
0.0
 20
594.0
 30
0.0
 11
420.00000000000011
 21
594.0
 31
0.0
  0
INSERT
  5
A92
  8
WBLK
  2
MTWBLK
 10
56.0
 20
13.99999999999994
 30
0.0
 41
2.0
 42
2.0
 43
2.0
  0
INSERT
  5
AEA
  8
0
  2
INSLYTXT
 10
0.0
 20
0.0
 30
0.0
 41
2.0
 42
2.0
 43
2.0
  0
TEXT
  5
B2C
  8
0
 10
109.23999999999999
 20
60.49999999999995
 30
0.0
 40
7.0
  1
1:2
 41
0.75
  7
MSP明朝
 72
     1
 11
115.0
 21
63.99999999999995
 31
0.0
 73
     2
  0
TEXT
  5
B31
  8
0
 10
45.799999999999997
 20
60.49999999999995
 30
0.0
 40
7.0
  1
2015.04.01
 41
0.75
  7
MSP明朝
 72
     1
 11
65.0
 21
63.99999999999995
 31
0.0
 73
     2
  0
POINT
  5
1EAF
  8
BLKDOT
 10
601.22276786832799
 20
335.07903568604502
 30
0.0
  0
LINE
  5
2351
  8
BLKDRA
  6
CONTINUOUS
 10
313.95500696236951
 20
321.76414908012072
 30
0.0
 11
316.95500696236962
 21
321.76414908012072
 31
0.0
  0
LINE
  5
2352
  8
BLKDRA
  6
CONTINUOUS
 10
342.95500696236968
 20
304.63914908012072
 30
0.0
 11
316.95500696236962
 21
304.63914908012072
 31
0.0
  0
LINE
  5
2353
  8
BLKDRA
  6
CONTINUOUS
 10
235.95500696236959
 20
304.63914908012072
 30
0.0
 11
254.5000573489626
 21
304.63914908012072
 31
0.0
  0
LINE
  5
2354
  8
BLKDRA
  6
CONTINUOUS
 10
262.03878390930299
 20
304.63914908012072
 30
0.0
 11
300.95500696236962
 21
304.63914908012072
 31
0.0
  0
ARC
  5
2355
  8
BLKDRA
  6
CONTINUOUS
 10
313.95500696236951
 20
308.76414908012072
 30
0.0
 40
13.0
 50
90.0
 51
180.0
  0
LINE
  5
2356
  8
BLKDRA
  6
CONTINUOUS
 10
130.8975419623697
 20
464.76415908012069
 30
0.0
 11
121.95500696236959
 21
464.76415908012069
 31
0.0
  0
LINE
  5
2357
  8
BLKDRA
  6
CONTINUOUS
 10
146.0986529623697
 20
475.76415108012071
 30
0.0
 11
148.95500696236951
 21
477.76418208012058
 31
0.0
  0
LINE
  5
2358
  8
BLKDRA
  6
CONTINUOUS
 10
138.45500696236951
 20
464.15811008012059
 30
0.0
 11
139.62293696236961
 21
469.76415908012069
 31
0.0
  0
LINE
  5
2359
  8
BLKDRA
  6
CONTINUOUS
 10
146.95500696236951
 20
475.76415108012071
 30
0.0
 11
146.95500696236951
 21
469.76415908012069
 31
0.0
  0
ARC
  5
235A
  8
BLKDRA
  6
CONTINUOUS
 10
147.95500696236951
 20
477.76415108012071
 30
0.0
 40
1.0
 50
0.0
 51
90.0
  0
ARC
  5
235B
  8
BLKDRA
  6
CONTINUOUS
 10
130.8975419623697
 20
462.26415908012058
 30
0.0
 40
2.5
 50
358.69811999999939
 51
90.0
  0
LINE
  5
235C
  8
BLKDRA
  6
CONTINUOUS
 10
94.95503696236959
 20
477.76415108012071
 30
0.0
 11
97.811329962369655
 21
475.76415108012071
 31
0.0
  0
LINE
  5
235D
  8
BLKDRA
  6
CONTINUOUS
 10
105.45500696236969
 20
464.15811008012059
 30
0.0
 11
104.2870759623696
 21
469.76415908012069
 31
0.0
  0
LINE
  5
235E
  8
BLKDRA
  6
CONTINUOUS
 10
96.955006962369694
 20
475.76415108012071
 30
0.0
 11
96.955006962369694
 21
469.76415908012069
 31
0.0
  0
ARC
  5
235F
  8
BLKDRA
  6
CONTINUOUS
 10
95.955006962369694
 20
477.76415108012071
 30
0.0
 40
1.0
 50
90.0
 51
180.0
  0
ARC
  5
2360
  8
BLKDRA
  6
CONTINUOUS
 10
113.0124709623696
 20
462.26415908012058
 30
0.0
 40
2.5
 50
90.0
 51
181.30188000000049
  0
LINE
  5
2361
  8
BLKDRA
  6
CONTINUOUS
 10
147.95500696236951
 20
478.76415108012071
 30
0.0
 11
95.955006962369694
 21
478.76415108012071
 31
0.0
  0
LINE
  5
2362
  8
BLKDRA
  6
CONTINUOUS
 10
94.955006962369694
 20
477.76415108012071
 30
0.0
 11
148.95500696236951
 21
477.76415108012071
 31
0.0
  0
LINE
  5
2363
  8
BLKDRA
  6
CONTINUOUS
 10
113.0124709623696
 20
464.76415908012069
 30
0.0
 11
121.95500696236959
 21
464.76415908012069
 31
0.0
  0
LINE
  5
2364
  8
BLKDRA
  6
CONTINUOUS
 10
96.955006962369694
 20
469.76415908012069
 30
0.0
 11
146.95500696236951
 21
469.76415908012069
 31
0.0
  0
LINE
  5
2365
  8
BLKDRA
  6
CONTINUOUS
 10
146.95500696236951
 20
475.76415108012071
 30
0.0
 11
96.955006962369694
 21
475.76415108012071
 31
0.0
  0
DIMENSION
  5
2366
  8
BLKDIM
  2
*D22
 10
148.9549626895689
 20
498.76415108012071
 30
0.0
 11
121.95498482596931
 21
503.26415108012071
 31
0.0
 70
     0
  1
%%C54
 13
94.955006962369694
 23
477.76415108012071
 33
0.0
 14
148.9549626895689
 24
477.76415108012071
 34
0.0
1001
ACAD
1000
DSTYLE
1002
{
1070
   287
1070
     3
1070
   147
1040
2.0
1070
   279
1070
     0
1002
}
  0
LINE
  5
2367
  8
BLKDRA
  6
CONTINUOUS
 10
140.95500696236959
 20
443.7641660801205
 30
0.0
 11
140.95500696236959
 21
439.38918208012069
 31
0.0
  0
LINE
  5
2368
  8
BLKDRA
  6
CONTINUOUS
 10
130.55662996236961
 20
444.76416608012062
 30
0.0
 11
121.95500696236959
 21
444.76416608012062
 31
0.0
  0
LINE
  5
2369
  8
BLKDRA
  6
CONTINUOUS
 10
140.95500696236959
 20
439.38918208012069
 30
0.0
 11
148.1550109623696
 21
430.38918208012058
 31
0.0
  0
LINE
  5
236A
  8
BLKDRA
  6
CONTINUOUS
 10
145.95500696236951
 20
425.38918208012052
 30
0.0
 11
145.95500696236951
 21
420.33254108012051
 31
0.0
  0
LINE
  5
236B
  8
BLKDRA
  6
CONTINUOUS
 10
151.95500696236951
 20
430.38918208012058
 30
0.0
 11
151.95500696236951
 21
425.38918208012052
 31
0.0
  0
LINE
  5
236C
  8
BLKDRA
  6
CONTINUOUS
 10
134.3550079623696
 20
425.38918208012052
 30
0.0
 11
134.3550079623696
 21
420.33254108012051
 31
0.0
  0
LINE
  5
236D
  8
BLKDRA
  6
CONTINUOUS
 10
135.3550079623696
 20
425.38918208012052
 30
0.0
 11
135.3550079623696
 21
420.33254108012051
 31
0.0
  0
LINE
  5
236E
  8
BLKDRA
  6
CONTINUOUS
 10
135.3550079623696
 20
420.33254108012051
 30
0.0
 11
134.3550079623696
 21
420.33254108012051
 31
0.0
  0
LINE
  5
236F
  8
BLKDRA
  6
CONTINUOUS
 10
139.9390079623696
 20
443.97992608012072
 30
0.0
 11
139.9390079623696
 21
439.38918208012069
 31
0.0
  0
ARC
  5
2370
  8
BLKDRA
  6
CONTINUOUS
 10
130.55662996236961
 20
447.2641510801206
 30
0.0
 40
2.5
 50
270.00457800000061
 51
358.69811999999939
  0
ARC
  5
2371
  8
BLKDRA
  6
CONTINUOUS
 10
140.95500696236959
 20
446.26416608012067
 30
0.0
 40
2.5
 50
180.0
 51
270.0
  0
LINE
  5
2372
  8
BLKDRA
  6
CONTINUOUS
 10
102.95500696236959
 20
443.7641660801205
 30
0.0
 11
102.95500696236959
 21
439.38918208012069
 31
0.0
  0
LINE
  5
2373
  8
BLKDRA
  6
CONTINUOUS
 10
102.95500696236959
 20
439.38918208012069
 30
0.0
 11
95.755009962369627
 21
430.38918208012058
 31
0.0
  0
LINE
  5
2374
  8
BLKDRA
  6
CONTINUOUS
 10
97.955006962369694
 20
425.38918208012052
 30
0.0
 11
97.955006962369694
 21
420.33255608012058
 31
0.0
  0
LINE
  5
2375
  8
BLKDRA
  6
CONTINUOUS
 10
91.955013962369648
 20
430.38918208012058
 30
0.0
 11
91.955013962369648
 21
425.38918208012052
 31
0.0
  0
LINE
  5
2376
  8
BLKDRA
  6
CONTINUOUS
 10
109.55500496236959
 20
425.38918208012052
 30
0.0
 11
109.55500496236959
 21
420.3325490801206
 31
0.0
  0
LINE
  5
2377
  8
BLKDRA
  6
CONTINUOUS
 10
108.55500496236959
 20
425.38918208012052
 30
0.0
 11
108.55500496236959
 21
420.33255608012058
 31
0.0
  0
LINE
  5
2378
  8
BLKDRA
  6
CONTINUOUS
 10
108.55500496236959
 20
420.33255608012058
 30
0.0
 11
109.55500496236959
 21
420.3325490801206
 31
0.0
  0
LINE
  5
2379
  8
BLKDRA
  6
CONTINUOUS
 10
103.97100496236961
 20
443.97992608012072
 30
0.0
 11
103.97100496236961
 21
439.38918208012069
 31
0.0
  0
ARC
  5
237A
  8
BLKDRA
  6
CONTINUOUS
 10
102.95500696236959
 20
446.26416608012067
 30
0.0
 40
2.5
 50
270.0
 51
0.0
  0
ARC
  5
237B
  8
BLKDRA
  6
CONTINUOUS
 10
113.35338296236959
 20
447.2641510801206
 30
0.0
 40
2.5
 50
181.30188000000049
 51
269.99542199999951
  0
LINE
  5
237C
  8
BLKDRA
  6
CONTINUOUS
 10
102.95500696236959
 20
443.7641660801205
 30
0.0
 11
140.95500696236959
 21
443.7641660801205
 31
0.0
  0
LINE
  5
237D
  8
BLKDRA
  6
CONTINUOUS
 10
113.35338296236959
 20
444.76416608012062
 30
0.0
 11
121.95500696236959
 21
444.76416608012062
 31
0.0
  0
LINE
  5
237E
  8
BLKDRA
  6
CONTINUOUS
 10
140.95500696236959
 20
439.38918208012069
 30
0.0
 11
102.95500696236959
 21
439.38918208012069
 31
0.0
  0
LINE
  5
237F
  8
BLKDRA
  6
CONTINUOUS
 10
151.95500696236951
 20
425.38918208012052
 30
0.0
 11
91.955013962369648
 21
425.38918208012052
 31
0.0
  0
LINE
  5
2380
  8
BLKDRA
  6
CONTINUOUS
 10
91.955013962369648
 20
430.38918208012058
 30
0.0
 11
151.95500696236951
 21
430.38918208012058
 31
0.0
  0
LINE
  5
2381
  8
BLKDRA
  6
CONTINUOUS
 10
140.95500696236959
 20
416.06416908012062
 30
0.0
 11
140.95500696236959
 21
418.88918208012069
 31
0.0
  0
LINE
  5
2382
  8
BLKDRA
  6
CONTINUOUS
 10
139.9390079623696
 20
416.06416908012062
 30
0.0
 11
139.9390079623696
 21
418.88918208012069
 31
0.0
  0
ARC
  5
2383
  8
BLKDRA
  6
CONTINUOUS
 10
136.95500696236951
 20
410.06416908012051
 30
0.0
 40
8.0
 50
311.40960699999852
 51
48.590393000001441
  0
ARC
  5
2384
  8
BLKDRA
  6
CONTINUOUS
 10
128.68983896236961
 20
410.06416908012051
 30
0.0
 40
2.645999999999999
 50
312.8907469999989
 51
47.109314000001483
  0
ARC
  5
2385
  8
BLKDRA
  6
CONTINUOUS
 10
140.14159896236961
 20
413.01067208012063
 30
0.0
 40
2.3450000000000002
 50
77.037933000001445
 51
102.9620669999985
  0
ARC
  5
2386
  8
BLKDRA
  6
CONTINUOUS
 10
140.14159896236961
 20
407.11766708012061
 30
0.0
 40
2.3450000000000002
 50
257.03796399999931
 51
282.96203600000058
  0
ARC
  5
2387
  8
BLKDRA
  6
CONTINUOUS
 10
139.46339896236961
 20
410.06416908012051
 30
0.0
 40
5.3685460000000003
 50
282.96203600000058
 51
77.037933000001445
  0
ARC
  5
2388
  8
BLKDRA
  6
CONTINUOUS
 10
140.81979796236959
 20
410.06416908012051
 30
0.0
 40
5.3685460000000003
 50
102.9620669999985
 51
257.03796399999931
  0
LINE
  5
2389
  8
BLKDRA
  6
CONTINUOUS
 10
102.95500696236959
 20
416.06416908012062
 30
0.0
 11
102.95500696236959
 21
418.88918208012069
 31
0.0
  0
LINE
  5
238A
  8
BLKDRA
  6
CONTINUOUS
 10
103.97100496236961
 20
416.06416908012062
 30
0.0
 11
103.97100496236961
 21
418.88918208012069
 31
0.0
  0
ARC
  5
238B
  8
BLKDRA
  6
CONTINUOUS
 10
115.2201739623696
 20
410.06416908012051
 30
0.0
 40
2.645999999999999
 50
132.89068599999851
 51
227.10931400000149
  0
ARC
  5
238C
  8
BLKDRA
  6
CONTINUOUS
 10
103.76841396236961
 20
413.01067208012063
 30
0.0
 40
2.3450000000000002
 50
77.037933000001445
 51
102.9620669999985
  0
ARC
  5
238D
  8
BLKDRA
  6
CONTINUOUS
 10
103.76841396236961
 20
407.11766708012061
 30
0.0
 40
2.3450000000000002
 50
257.03796399999931
 51
282.96203600000058
  0
ARC
  5
238E
  8
BLKDRA
  6
CONTINUOUS
 10
104.4466139623696
 20
410.06416908012051
 30
0.0
 40
5.3685460000000003
 50
102.9620669999985
 51
257.03796399999931
  0
ARC
  5
238F
  8
BLKDRA
  6
CONTINUOUS
 10
103.0902149623696
 20
410.06416908012051
 30
0.0
 40
5.3685460000000003
 50
282.96203600000058
 51
77.037933000001445
  0
ARC
  5
2390
  8
BLKDRA
  6
CONTINUOUS
 10
106.95500696236969
 20
410.06416908012051
 30
0.0
 40
8.0
 50
131.40960699999849
 51
228.59039300000151
  0
DIMENSION
  5
2391
  8
BLKDIM
  2
*D17
 10
137.83000696236959
 20
388.31357404143358
 30
0.0
 11
121.95500696236959
 21
392.8135740414337
 31
0.0
 70
     0
  1
%%C31.75
 13
106.08000696236959
 23
404.06416908012068
 33
0.0
 14
137.83000696236959
 24
404.06416908012068
 34
0.0
1001
ACAD
1000
DSTYLE
1002
{
1070
   287
1070
     3
1070
   147
1040
2.0
1070
   279
1070
     0
1002
}
  0
LINE
  5
2392
  8
BLKDRA
  6
CONTINUOUS
 10
101.66350296236961
 20
416.06416908012062
 30
0.0
 11
142.24650996236969
 21
416.06416908012062
 31
0.0
  0
LINE
  5
2393
  8
BLKDRA
  6
CONTINUOUS
 10
101.66350296236961
 20
404.06416908012068
 30
0.0
 11
142.24650996236969
 21
404.06416908012068
 31
0.0
  0
LINE
  5
2394
  8
BLKDRA
  6
CONTINUOUS
 10
100.45501396236961
 20
418.88918208012069
 30
0.0
 11
143.4550369623696
 21
418.88918208012069
 31
0.0
  0
ARC
  5
2395
  8
BLKDRA
  6
CONTINUOUS
 10
121.95500696236959
 20
402.8142610801205
 30
0.0
 40
12.541404
 50
47.109314000001483
 51
132.89068599999851
  0
ARC
  5
2396
  8
BLKDRA
  6
CONTINUOUS
 10
121.95500696236959
 20
417.3140630801206
 30
0.0
 40
12.541404
 50
227.10931400000149
 51
312.8906859999986
  0
LINE
  5
2397
  8
BLKDRA
  6
CONTINUOUS
 10
97.955006962369694
 20
420.33255608012058
 30
0.0
 11
100.45500696236969
 21
418.88918208012069
 31
0.0
  0
LINE
  5
2398
  8
BLKDRA
  6
CONTINUOUS
 10
143.4550369623696
 20
418.88918208012069
 30
0.0
 11
145.95500696236951
 21
420.33254108012051
 31
0.0
  0
ARC
  5
2399
  8
BLKDRA
  6
CONTINUOUS
 10
121.9550219623696
 20
472.8751970801207
 30
0.0
 40
53.986027
 50
256.72119099999958
 51
283.27874800000069
  0
ARC
  5
239A
  8
BLKDRA
  6
CONTINUOUS
 10
140.6550109623696
 20
429.34162008012072
 30
0.0
 40
10.452442
 50
239.53186000000071
 51
299.99999999999989
  0
ARC
  5
239B
  8
BLKDRA
  6
CONTINUOUS
 10
103.2550099623696
 20
429.34152108012069
 30
0.0
 40
10.452344
 50
239.53155499999829
 51
300.4683839999982
  0
ARC
  5
239C
  8
BLKDRA
  6
CONTINUOUS
 10
137.95500696236951
 20
326.26414908012072
 30
0.0
 40
8.0
 50
311.40960699999852
 51
48.590393000001441
  0
ARC
  5
239D
  8
BLKDRA
  6
CONTINUOUS
 10
140.46065196236961
 20
326.26414908012072
 30
0.0
 40
5.3427410000000002
 50
280.70373499999857
 51
79.296295000000811
  0
ARC
  5
239E
  8
BLKDRA
  6
CONTINUOUS
 10
141.55450096236959
 20
326.26414908012072
 30
0.0
 40
5.3427410000000002
 50
100.7037049999992
 51
259.29626500000143
  0
ARC
  5
239F
  8
BLKDRA
  6
CONTINUOUS
 10
141.00757296236961
 20
323.37064408012071
 30
0.0
 40
2.3980000000000001
 50
259.29626500000143
 51
280.70373499999857
  0
ARC
  5
23A0
  8
BLKDRA
  6
CONTINUOUS
 10
141.00757296236961
 20
329.15765408012061
 30
0.0
 40
2.3980000000000001
 50
79.296295000000811
 51
100.7037049999992
  0
ARC
  5
23A1
  8
BLKDRA
  6
CONTINUOUS
 10
128.90066996236959
 20
326.26414908012072
 30
0.0
 40
2.645999999999999
 50
311.7022709999988
 51
48.297759999999371
  0
LINE
  5
23A2
  8
BLKDRA
  6
CONTINUOUS
 10
139.35693796236961
 20
318.76414908012072
 30
0.0
 11
141.95500696236959
 21
320.26414508012073
 31
0.0
  0
ARC
  5
23A3
  8
BLKDRA
  6
CONTINUOUS
 10
102.9024399623696
 20
323.37064408012071
 30
0.0
 40
2.3980000000000001
 50
259.29626500000143
 51
280.70373499999857
  0
ARC
  5
23A4
  8
BLKDRA
  6
CONTINUOUS
 10
103.4493609623696
 20
326.26414908012072
 30
0.0
 40
5.3427410000000002
 50
100.7037049999992
 51
259.29626500000143
  0
ARC
  5
23A5
  8
BLKDRA
  6
CONTINUOUS
 10
102.9024399623696
 20
329.15765408012061
 30
0.0
 40
2.3980000000000001
 50
79.296295000000811
 51
100.7037049999992
  0
ARC
  5
23A6
  8
BLKDRA
  6
CONTINUOUS
 10
102.3555119623696
 20
326.26414908012072
 30
0.0
 40
5.3427410000000002
 50
280.70373499999857
 51
79.296295000000811
  0
ARC
  5
23A7
  8
BLKDRA
  6
CONTINUOUS
 10
115.0093429623696
 20
326.26414908012072
 30
0.0
 40
2.645999999999999
 50
131.70224000000059
 51
228.29772900000131
  0
ARC
  5
23A8
  8
BLKDRA
  6
CONTINUOUS
 10
105.95500696236959
 20
326.26414908012072
 30
0.0
 40
8.0
 50
131.40960699999849
 51
228.59039300000151
  0
LINE
  5
23A9
  8
BLKDRA
  6
CONTINUOUS
 10
101.9550369623696
 20
320.26414908012072
 30
0.0
 11
104.5531209623696
 21
318.76414908012072
 31
0.0
  0
ARC
  5
23AA
  8
BLKDRA
  6
CONTINUOUS
 10
121.95500696236959
 20
318.46912408012071
 30
0.0
 40
13.08653
 50
48.297729000001262
 51
131.70227099999869
  0
ARC
  5
23AB
  8
BLKDRA
  6
CONTINUOUS
 10
121.95500696236959
 20
334.05917308012067
 30
0.0
 40
13.08653
 50
228.29772900000131
 51
311.7022709999988
  0
LINE
  5
23AC
  8
BLKDRA
  6
CONTINUOUS
 10
139.35693796236961
 20
318.76414908012072
 30
0.0
 11
104.5531209623696
 21
318.76414908012072
 31
0.0
  0
LINE
  5
23AD
  8
BLKDRA
  6
CONTINUOUS
 10
100.66350296236961
 20
320.26414908012072
 30
0.0
 11
143.24650996236969
 21
320.26414908012072
 31
0.0
  0
LINE
  5
23AE
  8
BLKDRA
  6
CONTINUOUS
 10
143.24650996236969
 20
332.26414908012072
 30
0.0
 11
100.66350296236961
 21
332.26414908012072
 31
0.0
  0
LINE
  5
23AF
  8
BLKDRA
  6
CONTINUOUS
 10
106.08000696236959
 20
404.06416908012068
 30
0.0
 11
106.08000696236959
 21
332.26414908012072
 31
0.0
  0
LINE
  5
23B0
  8
BLKDRA
  6
CONTINUOUS
 10
137.83000696236959
 20
404.06416908012068
 30
0.0
 11
137.83000696236959
 21
332.26414908012072
 31
0.0
  0
LINE
  5
23B1
  8
BLKDRA
  6
CONTINUOUS
 10
105.45500696236969
 20
446.26416608012067
 30
0.0
 11
105.45500696236969
 21
464.15811008012059
 31
0.0
  0
LINE
  5
23B2
  8
BLKDRA
  6
CONTINUOUS
 10
138.45500696236951
 20
464.76415908012069
 30
0.0
 11
138.45500696236951
 21
446.26416608012067
 31
0.0
  0
LINE
  5
23B3
  8
BLKDRA
  6
CONTINUOUS
 10
133.05598896236961
 20
447.2073500801207
 30
0.0
 11
133.39689296236961
 21
462.20736608012061
 31
0.0
  0
LINE
  5
23B4
  8
BLKDRA
  6
CONTINUOUS
 10
110.8540239623696
 20
447.2073500801207
 30
0.0
 11
110.5131199623696
 21
462.20736608012061
 31
0.0
  0
LINE
  5
23B5
  8
BLKDRA
  6
CENTER
 10
121.95500696236959
 20
399.02426261457532
 30
0.0
 11
121.95500696236959
 21
483.47792708012071
 31
0.0
  0
LINE
  5
23B6
  8
BLKDRA
  6
CONTINUOUS
 10
313.95500696236951
 20
255.76415208012071
 30
0.0
 11
316.95500696236962
 21
255.76415208012071
 31
0.0
  0
LINE
  5
23B7
  8
BLKDRA
  6
CENTER
 10
332.03113769496372
 20
288.76415108012071
 30
0.0
 11
348.58749096236971
 21
288.76415108012071
 31
0.0
  0
LINE
  5
23B8
  8
BLKDRA
  6
CONTINUOUS
 10
342.95500696236968
 20
272.88915208012071
 30
0.0
 11
316.95500696236962
 21
272.88915208012071
 31
0.0
  0
LINE
  5
23B9
  8
BLKDRA
 10
256.54628666865318
 20
292.6577625280629
 30
0.0
 11
253.96157688036811
 21
282.21566813500391
 31
0.0
  0
LINE
  5
23BA
  8
BLKDRA
 10
253.96157688036811
 20
282.21566813500391
 30
0.0
 11
255.36163317676909
 21
272.88915208012071
 31
0.0
  0
LINE
  5
23BB
  8
BLKDRA
 10
261.50030344070842
 20
282.21566813500391
 30
0.0
 11
262.90035973710951
 21
272.88915208012071
 31
0.0
  0
LINE
  5
23BC
  8
BLKDRA
 10
264.0850132289936
 20
292.6577625280629
 30
0.0
 11
261.50030344070842
 21
282.21566813500391
 31
0.0
  0
LINE
  5
23BD
  8
BLKDRA
  6
CONTINUOUS
 10
235.95500696236959
 20
272.88915208012071
 30
0.0
 11
255.36163317676909
 21
272.88915208012071
 31
0.0
  0
LINE
  5
23BE
  8
BLKDRA
  6
CONTINUOUS
 10
262.90035973710951
 20
272.88915208012071
 30
0.0
 11
300.95500696236962
 21
272.88915208012071
 31
0.0
  0
LINE
  5
23BF
  8
BLKDRA
  6
CENTER
 10
235.95500696236959
 20
288.76415108012071
 30
0.0
 11
320.29384558763911
 21
288.76415108012071
 31
0.0
  0
ARC
  5
23C0
  8
BLKDRA
  6
CONTINUOUS
 10
313.95500696236951
 20
268.76415208012071
 30
0.0
 40
13.0
 50
180.0
 51
270.0
  0
ARC
  5
23C1
  8
BLKDRA
  6
CONTINUOUS
 10
213.95500696236951
 20
242.46414908012071
 30
0.0
 40
8.0
 50
311.40960699999852
 51
48.590393000001441
  0
ARC
  5
23C2
  8
BLKDRA
  6
CONTINUOUS
 10
216.46065196236961
 20
242.46414908012071
 30
0.0
 40
5.3427410000000002
 50
280.70373499999857
 51
79.296295000000811
  0
ARC
  5
23C3
  8
BLKDRA
  6
CONTINUOUS
 10
217.55450096236959
 20
242.46414908012071
 30
0.0
 40
5.3427410000000002
 50
100.7037049999992
 51
259.29626500000143
  0
ARC
  5
23C4
  8
BLKDRA
  6
CONTINUOUS
 10
217.00757296236961
 20
239.57064008012071
 30
0.0
 40
2.3980000000000001
 50
259.29626500000143
 51
280.70373499999857
  0
ARC
  5
23C5
  8
BLKDRA
  6
CONTINUOUS
 10
217.00757296236961
 20
245.3576580801207
 30
0.0
 40
2.3980000000000001
 50
79.296295000000811
 51
100.7037049999992
  0
ARC
  5
23C6
  8
BLKDRA
  6
CONTINUOUS
 10
204.9006699623697
 20
242.46414908012071
 30
0.0
 40
2.645999999999999
 50
311.7022709999988
 51
48.297759999999371
  0
LINE
  5
23C7
  8
BLKDRA
  6
CONTINUOUS
 10
213.83000696236959
 20
233.76415208012071
 30
0.0
 11
213.83000696236959
 21
236.46414908012071
 31
0.0
  0
LINE
  5
23C8
  8
BLKDRA
  6
CONTINUOUS
 10
213.83000696236959
 20
248.46414908012071
 30
0.0
 11
213.83000696236959
 21
250.76415208012071
 31
0.0
  0
LINE
  5
23C9
  8
BLKDRA
  6
CENTER
 10
197.95500696236951
 20
250.76415208012071
 30
0.0
 11
197.95500696236951
 21
233.76415208012071
 31
0.0
  0
ARC
  5
23CA
  8
BLKDRA
  6
CONTINUOUS
 10
178.90243596236951
 20
239.57064008012071
 30
0.0
 40
2.3980000000000001
 50
259.29626500000143
 51
280.70373499999857
  0
ARC
  5
23CB
  8
BLKDRA
  6
CONTINUOUS
 10
179.44936096236961
 20
242.46414908012071
 30
0.0
 40
5.3427410000000002
 50
100.7037049999992
 51
259.29626500000143
  0
ARC
  5
23CC
  8
BLKDRA
  6
CONTINUOUS
 10
178.90243596236951
 20
245.3576580801207
 30
0.0
 40
2.3980000000000001
 50
79.296295000000811
 51
100.7037049999992
  0
ARC
  5
23CD
  8
BLKDRA
  6
CONTINUOUS
 10
178.3555119623696
 20
242.46414908012071
 30
0.0
 40
5.3427410000000002
 50
280.70373499999857
 51
79.296295000000811
  0
ARC
  5
23CE
  8
BLKDRA
  6
CONTINUOUS
 10
191.00934296236969
 20
242.46414908012071
 30
0.0
 40
2.645999999999999
 50
131.70224000000059
 51
228.29772900000131
  0
ARC
  5
23CF
  8
BLKDRA
  6
CONTINUOUS
 10
181.95500696236951
 20
242.46414908012071
 30
0.0
 40
8.0
 50
131.40960699999849
 51
228.59039300000151
  0
LINE
  5
23D0
  8
BLKDRA
  6
CONTINUOUS
 10
182.08000696236951
 20
233.76415208012071
 30
0.0
 11
182.08000696236951
 21
236.46414908012071
 31
0.0
  0
ARC
  5
23D1
  8
BLKDRA
  6
CONTINUOUS
 10
197.95500696236951
 20
234.6691210801207
 30
0.0
 40
13.08653
 50
48.297729000001262
 51
131.70227099999869
  0
ARC
  5
23D2
  8
BLKDRA
  6
CONTINUOUS
 10
197.95500696236951
 20
250.25917808012071
 30
0.0
 40
13.08653
 50
228.29772900000131
 51
311.7022709999988
  0
LINE
  5
23D3
  8
BLKDRA
  6
CONTINUOUS
 10
176.66350296236951
 20
236.46414908012071
 30
0.0
 11
219.24650996236969
 21
236.46414908012071
 31
0.0
  0
LINE
  5
23D4
  8
BLKDRA
  6
CONTINUOUS
 10
219.24650996236969
 20
248.46414908012071
 30
0.0
 11
176.66350296236951
 21
248.46414908012071
 31
0.0
  0
LINE
  5
23D5
  8
BLKDRA
  6
CONTINUOUS
 10
182.08000696236951
 20
255.88915208012071
 30
0.0
 11
182.08000696236951
 21
248.46414908012071
 31
0.0
  0
ARC
  5
23D6
  8
BLKDRA
  6
CONTINUOUS
 10
136.7550099623696
 20
273.62235308012072
 30
0.0
 40
2.0
 50
320.24182099999842
 51
0.0
  0
ARC
  5
23D7
  8
BLKDRA
  6
CONTINUOUS
 10
139.83000696236959
 20
271.06415508012071
 30
0.0
 40
2.0
 50
140.24179100000001
 51
180.0
  0
ARC
  5
23D8
  8
BLKDRA
  6
CONTINUOUS
 10
107.15500296236959
 20
273.62235308012072
 30
0.0
 40
2.0
 50
180.0
 51
219.75817900000149
  0
ARC
  5
23D9
  8
BLKDRA
  6
CONTINUOUS
 10
104.08000696236959
 20
271.06415508012071
 30
0.0
 40
2.0
 50
0.0
 51
39.758209000000022
  0
LINE
  5
23DA
  8
BLKDRA
  6
CONTINUOUS
 10
137.36729096236951
 20
272.34325408012069
 30
0.0
 11
106.28567196236961
 21
272.34325408012069
 31
0.0
  0
LINE
  5
23DB
  8
BLKDRA
  6
CONTINUOUS
 10
106.08000696236959
 20
233.76415208012071
 30
0.0
 11
106.08000696236959
 21
271.06415508012071
 31
0.0
  0
LINE
  5
23DC
  8
BLKDRA
  6
CONTINUOUS
 10
137.83000696236959
 20
233.76415208012071
 30
0.0
 11
137.83000696236959
 21
271.06415508012071
 31
0.0
  0
DIMENSION
  5
23DD
  8
BLKDIM
  2
*D18
 10
197.95500696236951
 20
163.82467134092491
 30
0.0
 11
159.95500696236951
 21
168.32467134092491
 31
0.0
 70
     0
 13
121.95500696236959
 23
233.76415208012071
 33
0.0
 14
197.95500696236951
 24
236.46414908012071
 34
0.0
1001
ACAD
1000
DSTYLE
1002
{
1070
   287
1070
     3
1070
   147
1040
2.0
1070
   279
1070
     0
1002
}
  0
ARC
  5
23DE
  8
BLKDRA
  6
CONTINUOUS
 10
159.95500696236951
 20
233.76415208012071
 30
0.0
 40
53.875
 50
180.0
 51
0.0
  0
ARC
  5
23DF
  8
BLKDRA
  6
CONTINUOUS
 10
159.95500696236951
 20
233.76415208012071
 30
0.0
 40
22.125
 50
180.0
 51
0.0
  0
ARC
  5
23E0
  8
BLKDRA
  6
CENTER
 10
159.95500696236951
 20
233.76415208012071
 30
0.0
 40
38.0
 50
180.0
 51
0.0
  0
ARC
  5
23E1
  8
BLKDRA
  6
CONTINUOUS
 10
235.95500696236959
 20
250.76415208012071
 30
0.0
 40
22.125
 50
90.0
 51
180.0
  0
ARC
  5
23E2
  8
BLKDRA
  6
CENTER
 10
235.95500696236959
 20
250.76415208012071
 30
0.0
 40
38.0
 50
90.0
 51
180.0
  0
DIMENSION
  5
23E3
  8
BLKDIM
  2
*D19
 10
342.95500696236968
 20
145.2435552779211
 30
0.0
 11
232.45500696236959
 21
149.74355527792099
 31
0.0
 70
     0
  1
396
 13
121.95500696236959
 23
233.76415208012071
 33
0.0
 14
342.95500696236968
 24
288.76415108012071
 34
0.0
1001
ACAD
1000
DSTYLE
1002
{
1070
   287
1070
     3
1070
   147
1040
2.0
1070
   279
1070
     0
1002
}
  0
DIMENSION
  5
23E4
  8
BLKDIM
  2
*D20
 10
187.83000696236959
 20
288.76415108012071
 30
0.0
 11
183.33000696236951
 21
383.76415108012083
 31
0.0
 70
     0
  1
171～230
 13
121.95500696236959
 23
478.76415108012071
 33
0.0
 14
235.95500696236959
 24
288.76415108012071
 34
0.0
 50
90.0
1001
ACAD
1000
DSTYLE
1002
{
1070
   287
1070
     3
1070
   147
1040
2.0
1070
   279
1070
     0
1002
}
  0
LINE
  5
23E5
  8
BLKDRA
  6
CENTER
 10
121.95500696236959
 20
233.76415208012071
 30
0.0
 11
121.95500696236959
 21
386.66934508955387
 31
0.0
  0
LINE
  5
23E6
  8
BLKDRA
  6
CONTINUOUS
 10
342.95500696236968
 20
304.63914908012072
 30
0.0
 11
342.95500696236968
 21
272.88915208012071
 31
0.0
  0
DIMENSION
  5
23E7
  8
BLKDIM
  2
*D21
 10
330.53843604065298
 20
272.88915208012071
 30
0.0
 11
326.03843604065293
 21
288.76415058012083
 31
0.0
 70
     0
  1
%%C31.75
 13
316.95500696236962
 23
304.63914908012072
 33
0.0
 14
316.95500696236962
 24
272.88915208012071
 34
0.0
 50
90.0
1001
ACAD
1000
DSTYLE
1002
{
1070
   287
1070
     3
1070
   147
1040
2.0
1070
   279
1070
     0
1002
}
  0
LINE
  5
23E8
  8
BLKDRA
  6
CONTINUOUS
 10
300.95500696236962
 20
268.76415208012071
 30
0.0
 11
300.95500696236962
 21
308.76414908012072
 31
0.0
  0
LINE
  5
23E9
  8
BLKDRA
  6
CONTINUOUS
 10
138.7550099623696
 20
318.76414908012072
 30
0.0
 11
138.7550099623696
 21
273.62235308012072
 31
0.0
  0
LINE
  5
23EA
  8
BLKDRA
  6
CONTINUOUS
 10
105.15500296236959
 20
318.76414908012072
 30
0.0
 11
105.15500296236959
 21
273.62235308012072
 31
0.0
  0
ARC
  5
23EB
  8
BLKDRA
  6
CONTINUOUS
 10
235.95500696236959
 20
250.76415208012071
 30
0.0
 40
53.875
 50
90.0
 51
174.54132099999961
  0
LINE
  5
23EC
  8
BLKDRA
  6
CONTINUOUS
 10
316.95500696236962
 20
321.76414908012072
 30
0.0
 11
316.95500696236962
 21
255.76415208012071
 31
0.0
  0
LINE
  5
23ED
  8
BLKDRA
 10
254.5000573489626
 20
304.63914908012072
 30
0.0
 11
256.54628666865318
 21
292.6577625280629
 31
0.0
  0
LINE
  5
23EE
  8
BLKDRA
 10
262.03878390930299
 20
304.63914908012072
 30
0.0
 11
264.0850132289936
 21
292.6577625280629
 31
0.0
  0
TEXT
  5
255B
  8
図枠
 10
31.708571428571432
 20
15.99999999999994
 30
0.0
 40
6.0
  1
考
 41
0.75
  7
MSP明朝
 72
     1
 11
35.0
 21
18.99999999999994
 31
0.0
 73
     2
  0
TEXT
  5
255C
  8
図枠
 10
31.708571428571432
 20
25.99999999999994
 30
0.0
 40
6.0
  1
備
 41
0.75
  7
MSP明朝
 72
     1
 11
35.0
 21
28.99999999999994
 31
0.0
 73
     2
  0
TEXT
  5
255D
  8
図枠
 10
211.70857142857139
 20
35.999999999999943
 30
0.0
 40
6.0
  1
名
 41
0.75
  7
MSP明朝
 72
     1
 11
215.0
 21
38.99999999999995
 31
0.0
 73
     2
  0
TEXT
  5
255E
  8
図枠
 10
211.70857142857139
 20
45.99999999999995
 30
0.0
 40
6.0
  1
品
 41
0.75
  7
MSP明朝
 72
     1
 11
215.0
 21
48.99999999999995
 31
0.0
 73
     2
  0
TEXT
  5
255F
  8
図枠
 10
31.708571428571432
 20
35.999999999999943
 30
0.0
 40
6.0
  1
番
 41
0.75
  7
MSP明朝
 72
     1
 11
35.0
 21
38.99999999999995
 31
0.0
 73
     2
  0
TEXT
  5
2560
  8
図枠
 10
31.708571428571432
 20
45.99999999999995
 30
0.0
 40
6.0
  1
図
 41
0.75
  7
MSP明朝
 72
     1
 11
35.0
 21
48.99999999999995
 31
0.0
 73
     2
  0
TEXT
  5
2561
  8
図枠
 10
211.70857142857139
 20
55.999999999999943
 30
0.0
 40
6.0
  1
番
 41
0.75
  7
MSP明朝
 72
     1
 11
215.0
 21
58.999999999999943
 31
0.0
 73
     2
  0
TEXT
  5
2562
  8
図枠
 10
211.70857142857139
 20
65.999999999999943
 30
0.0
 40
6.0
  1
品
 41
0.75
  7
MSP明朝
 72
     1
 11
215.0
 21
68.999999999999943
 31
0.0
 73
     2
  0
TEXT
  5
2563
  8
図枠
 10
171.70857142857139
 20
55.999999999999943
 30
0.0
 40
6.0
  1
図
 41
0.75
  7
MSP明朝
 72
     1
 11
175.0
 21
58.999999999999943
 31
0.0
 73
     2
  0
TEXT
  5
2564
  8
図枠
 10
171.70857142857139
 20
65.999999999999943
 30
0.0
 40
6.0
  1
検
 41
0.75
  7
MSP明朝
 72
     1
 11
175.0
 21
68.999999999999943
 31
0.0
 73
     2
  0
TEXT
  5
2565
  8
図枠
 10
131.70857142857139
 20
55.999999999999943
 30
0.0
 40
6.0
  1
図
 41
0.75
  7
MSP明朝
 72
     1
 11
135.0
 21
58.999999999999943
 31
0.0
 73
     2
  0
TEXT
  5
2566
  8
図枠
 10
131.70857142857139
 20
65.999999999999943
 30
0.0
 40
6.0
  1
製
 41
0.75
  7
MSP明朝
 72
     1
 11
135.0
 21
68.999999999999943
 31
0.0
 73
     2
  0
TEXT
  5
2567
  8
図枠
 10
91.708571428571418
 20
55.999999999999943
 30
0.0
 40
6.0
  1
度
 41
0.75
  7
MSP明朝
 72
     1
 11
95.0
 21
58.999999999999943
 31
0.0
 73
     2
  0
TEXT
  5
2568
  8
図枠
 10
91.708571428571418
 20
65.999999999999943
 30
0.0
 40
6.0
  1
尺
 41
0.75
  7
MSP明朝
 72
     1
 11
95.0
 21
68.999999999999943
 31
0.0
 73
     2
  0
TEXT
  5
2569
  8
図枠
 10
31.708571428571432
 20
55.999999999999943
 30
0.0
 40
6.0
  1
付
 41
0.75
  7
MSP明朝
 72
     1
 11
35.0
 21
58.999999999999943
 31
0.0
 73
     2
  0
TEXT
  5
256A
  8
図枠
 10
31.708571428571432
 20
65.999999999999943
 30
0.0
 40
6.0
  1
日
 41
0.75
  7
MSP明朝
 72
     1
 11
35.0
 21
68.999999999999943
 31
0.0
 73
     2
  0
LINE
  5
256B
  8
図枠
 62
     0
 10
30.0
 20
73.999999999999972
 30
0.0
 11
390.0
 21
73.999999999999943
 31
0.0
  0
LINE
  5
256C
  8
図枠
 62
     0
 10
30.0
 20
53.99999999999995
 30
0.0
 11
390.0
 21
53.99999999999995
 31
0.0
  0
LINE
  5
256D
  8
図枠
 62
     0
 10
30.0
 20
33.99999999999995
 30
0.0
 11
390.0
 21
33.99999999999995
 31
0.0
  0
LINE
  5
256E
  8
図枠
 62
     0
 10
30.0
 20
13.99999999999994
 30
0.0
 11
390.0
 21
13.99999999999994
 31
0.0
  0
LINE
  5
256F
  8
図枠
 62
     0
 10
30.0
 20
13.99999999999994
 30
0.0
 11
30.0
 21
567.99999999999977
 31
0.0
  0
LINE
  5
2570
  8
図枠
 62
     0
 10
40.0
 20
13.99999999999994
 30
0.0
 11
40.0
 21
73.999999999999972
 31
0.0
  0
LINE
  5
2571
  8
図枠
 62
     0
 10
210.0
 20
13.99999999999994
 30
0.0
 11
210.0
 21
73.999999999999943
 31
0.0
  0
LINE
  5
2572
  8
図枠
 62
     0
 10
220.0
 20
33.99999999999995
 30
0.0
 11
220.0
 21
73.999999999999943
 31
0.0
  0
LINE
  5
2573
  8
図枠
 62
     0
 10
390.0
 20
13.99999999999994
 30
0.0
 11
390.0
 21
567.99999999999977
 31
0.0
  0
LINE
  5
2574
  8
図枠
 62
     0
 10
180.0
 20
53.99999999999995
 30
0.0
 11
180.0
 21
73.999999999999943
 31
0.0
  0
LINE
  5
2575
  8
図枠
 62
     0
 10
170.0
 20
53.99999999999995
 30
0.0
 11
170.0
 21
73.999999999999943
 31
0.0
  0
LINE
  5
2576
  8
図枠
 62
     0
 10
140.0
 20
53.99999999999995
 30
0.0
 11
140.0
 21
73.999999999999943
 31
0.0
  0
LINE
  5
2577
  8
図枠
 62
     0
 10
130.0
 20
53.99999999999995
 30
0.0
 11
130.0
 21
73.999999999999943
 31
0.0
  0
LINE
  5
2578
  8
図枠
 62
     0
 10
100.0
 20
53.99999999999995
 30
0.0
 11
100.0
 21
73.999999999999943
 31
0.0
  0
LINE
  5
2579
  8
図枠
 62
     0
 10
90.0
 20
53.99999999999995
 30
0.0
 11
90.0
 21
73.999999999999943
 31
0.0
  0
LINE
  5
257A
  8
図枠
 62
     0
 10
30.0
 20
567.99999999999977
 30
0.0
 11
390.0
 21
567.99999999999977
 31
0.0
  0
TEXT
  5
2586
  8
0
 10
229.31501992425501
 20
59.99999999999995
 30
0.0
 40
8.0
  1
JPK09900
  7
MSP明朝
 11
229.31501992425501
 21
63.99999999999995
 31
0.0
 73
     2
  0
TEXT
  5
2587
  8
0
 10
227.05167487315239
 20
39.999999999999943
 30
0.0
 40
8.0
  1
洗面器用 排水金具 水溜なし仕様 Pトラップ付
 41
0.6
  7
MSP明朝
 11
227.05167487315239
 21
43.999999999999943
 31
0.0
 73
     2
  0
TEXT
  5
2588
  8
0
 10
251.7257142857143
 20
18.49999999999995
 30
0.0
 40
11.0
  1
グローエジャパン(株)
 41
0.6
  7
MSP明朝
 72
     1
 11
300.0
 21
23.99999999999995
 31
0.0
 73
     2
  0
VIEWPORT
  5
2547
 67
     1
  8
0
 10
128.5
 20
97.5
 30
0.0
 40
520.26180628272255
 41
222.18000000000001
 68
     1
 69
     1
1001
ACAD
1000
MVIEW
1002
{
1070
    16
1010
0.0
1020
0.0
1030
0.0
1010
0.0
1020
0.0
1030
1.0
1040
0.0
1040
222.18000000000001
1040
128.5
1040
97.5
1040
50.0
1040
0.0
1040
0.0
1070
     0
1070
  1000
1070
     1
1070
     1
1070
     0
1070
     0
1070
     0
1070
     0
1040
0.0
1040
0.0
1040
0.0
1040
10.0
1040
10.0
1040
10.0
1040
10.0
1070
     0
1002
{
1002
}
1002
}
  0
VIEWPORT
  5
254C
 67
     1
  8
0
 10
128.5
 20
97.5
 30
0.0
 40
205.59999999999999
 41
156.0
 68
     2
 69
     2
1001
ACAD
1000
MVIEW
1002
{
1070
    16
1010
0.0
1020
0.0
1030
0.0
1010
0.0
1020
0.0
1030
1.0
1040
0.0
1040
600.66168224299065
1040
301.611383934164
1040
297.0
1040
50.0
1040
0.0
1040
0.0
1070
     0
1070
  1000
1070
     1
1070
     1
1070
     0
1070
     0
1070
     0
1070
     0
1040
0.0
1040
0.0
1040
0.0
1040
1.0
1040
1.0
1040
0.0
1040
0.0
1070
     1
1002
{
1002
}
1002
}
  0
ENDSEC
  0
EOF
