  0
SECTION
  2
HEADER
  9
$ACADVER
  1
AC1021
  9
$ACADMAINTVER
 70
    50
  9
$DWGCODEPAGE
  3
ANSI_932
  9
$LASTSAVEDBY
  1
yamadak36
  9
$INSBASE
 10
0.0
 20
0.0
 30
0.0
  9
$EXTMIN
 10
-645.1377763530908
 20
-460.5983659079047
 30
-0.0015258207003583
  9
$EXTMAX
 10
645.1377943741826
 20
460.5983787741251
 30
0.0000000349246037
  9
$LIMMIN
 10
-630.0
 20
-445.5
  9
$LIMMAX
 10
630.0
 20
445.5
  9
$ORTHOMODE
 70
     0
  9
$REGENMODE
 70
     1
  9
$FILLMODE
 70
     1
  9
$QTEXTMODE
 70
     0
  9
$MIRRTEXT
 70
     1
  9
$LTSCALE
 40
0.75
  9
$ATTMODE
 70
     1
  9
$TEXTSIZE
 40
0.2
  9
$TRACEWID
 40
0.05
  9
$TEXTSTYLE
  7
STANDARD
  9
$CLAYER
  8
0
  9
$CELTYPE
  6
ByLayer
  9
$CECOLOR
 62
   256
  9
$CELTSCALE
 40
1.0
  9
$DISPSILH
 70
     0
  9
$DIMSCALE
 40
1.0
  9
$DIMASZ
 40
9.000005722045898
  9
$DIMEXO
 40
1.0
  9
$DIMDLI
 40
10.0
  9
$DIMRND
 40
0.0
  9
$DIMDLE
 40
0.0
  9
$DIMEXE
 40
1.0
  9
$DIMTP
 40
0.0
  9
$DIMTM
 40
0.0
  9
$DIMTXT
 40
12.0
  9
$DIMCEN
 40
0.0
  9
$DIMTSZ
 40
0.0
  9
$DIMTOL
 70
     0
  9
$DIMLIM
 70
     0
  9
$DIMTIH
 70
     0
  9
$DIMTOH
 70
     0
  9
$DIMSE1
 70
     0
  9
$DIMSE2
 70
     0
  9
$DIMTAD
 70
     1
  9
$DIMZIN
 70
     8
  9
$DIMBLK
  1

  9
$DIMASO
 70
     1
  9
$DIMSHO
 70
     1
  9
$DIMPOST
  1

  9
$DIMAPOST
  1

  9
$DIMALT
 70
     0
  9
$DIMALTD
 70
     2
  9
$DIMALTF
 40
25.4
  9
$DIMLFAC
 40
1.0
  9
$DIMTOFL
 70
     0
  9
$DIMTVP
 40
0.0
  9
$DIMTIX
 70
     0
  9
$DIMSOXD
 70
     0
  9
$DIMSAH
 70
     0
  9
$DIMBLK1
  1

  9
$DIMBLK2
  1

  9
$DIMSTYLE
  2
STANDARD
  9
$DIMCLRD
 70
     0
  9
$DIMCLRE
 70
     0
  9
$DIMCLRT
 70
     0
  9
$DIMTFAC
 40
0.65
  9
$DIMGAP
 40
0.09
  9
$DIMJUST
 70
     0
  9
$DIMSD1
 70
     0
  9
$DIMSD2
 70
     0
  9
$DIMTOLJ
 70
     1
  9
$DIMTZIN
 70
     0
  9
$DIMALTZ
 70
     0
  9
$DIMALTTZ
 70
     0
  9
$DIMUPT
 70
     0
  9
$DIMDEC
 70
     4
  9
$DIMTDEC
 70
     4
  9
$DIMALTU
 70
     2
  9
$DIMALTTD
 70
     2
  9
$DIMTXSTY
  7
STANDARD
  9
$DIMAUNIT
 70
     0
  9
$DIMADEC
 70
     0
  9
$DIMALTRND
 40
0.0
  9
$DIMAZIN
 70
     0
  9
$DIMDSEP
 70
    46
  9
$DIMATFIT
 70
     3
  9
$DIMFRAC
 70
     0
  9
$DIMLDRBLK
  1

  9
$DIMLUNIT
 70
     2
  9
$DIMLWD
 70
    -2
  9
$DIMLWE
 70
    -2
  9
$DIMTMOVE
 70
     0
  9
$DIMFXL
 40
1.0
  9
$DIMFXLON
 70
     0
  9
$DIMJOGANG
 40
0.7853981633974483
  9
$DIMTFILL
 70
     0
  9
$DIMTFILLCLR
 70
     0
  9
$DIMARCSYM
 70
     0
  9
$DIMLTYPE
  6

  9
$DIMLTEX1
  6

  9
$DIMLTEX2
  6

  9
$LUNITS
 70
     2
  9
$LUPREC
 70
     4
  9
$SKETCHINC
 40
0.1
  9
$FILLETRAD
 40
0.5
  9
$AUNITS
 70
     0
  9
$AUPREC
 70
     0
  9
$MENU
  1
.
  9
$ELEVATION
 40
0.0
  9
$PELEVATION
 40
0.0
  9
$THICKNESS
 40
0.0
  9
$LIMCHECK
 70
     0
  9
$CHAMFERA
 40
0.0
  9
$CHAMFERB
 40
0.0
  9
$CHAMFERC
 40
0.0
  9
$CHAMFERD
 40
0.0
  9
$SKPOLY
 70
     0
  9
$TDCREATE
 40
2457417.592426840
  9
$TDUCREATE
 40
2457417.217426840
  9
$TDUPDATE
 40
2457424.764611817
  9
$TDUUPDATE
 40
2457424.389611817
  9
$TDINDWG
 40
0.0033071759
  9
$TDUSRTIMER
 40
0.0033070718
  9
$USRTIMER
 70
     1
  9
$ANGBASE
 50
0.0
  9
$ANGDIR
 70
     0
  9
$PDMODE
 70
     0
  9
$PDSIZE
 40
1.0
  9
$PLINEWID
 40
0.0
  9
$SPLFRAME
 70
     0
  9
$SPLINETYPE
 70
     6
  9
$SPLINESEGS
 70
     8
  9
$HANDSEED
  5
593
  9
$SURFTAB1
 70
     6
  9
$SURFTAB2
 70
     6
  9
$SURFTYPE
 70
     6
  9
$SURFU
 70
     6
  9
$SURFV
 70
     6
  9
$UCSBASE
  2

  9
$UCSNAME
  2

  9
$UCSORG
 10
0.0
 20
0.0
 30
0.0
  9
$UCSXDIR
 10
1.0
 20
0.0
 30
0.0
  9
$UCSYDIR
 10
0.0
 20
1.0
 30
0.0
  9
$UCSORTHOREF
  2

  9
$UCSORTHOVIEW
 70
     0
  9
$UCSORGTOP
 10
0.0
 20
0.0
 30
0.0
  9
$UCSORGBOTTOM
 10
0.0
 20
0.0
 30
0.0
  9
$UCSORGLEFT
 10
0.0
 20
0.0
 30
0.0
  9
$UCSORGRIGHT
 10
0.0
 20
0.0
 30
0.0
  9
$UCSORGFRONT
 10
0.0
 20
0.0
 30
0.0
  9
$UCSORGBACK
 10
0.0
 20
0.0
 30
0.0
  9
$PUCSBASE
  2

  9
$PUCSNAME
  2

  9
$PUCSORG
 10
0.0
 20
0.0
 30
0.0
  9
$PUCSXDIR
 10
1.0
 20
0.0
 30
0.0
  9
$PUCSYDIR
 10
0.0
 20
1.0
 30
0.0
  9
$PUCSORTHOREF
  2

  9
$PUCSORTHOVIEW
 70
     0
  9
$PUCSORGTOP
 10
0.0
 20
0.0
 30
0.0
  9
$PUCSORGBOTTOM
 10
0.0
 20
0.0
 30
0.0
  9
$PUCSORGLEFT
 10
0.0
 20
0.0
 30
0.0
  9
$PUCSORGRIGHT
 10
0.0
 20
0.0
 30
0.0
  9
$PUCSORGFRONT
 10
0.0
 20
0.0
 30
0.0
  9
$PUCSORGBACK
 10
0.0
 20
0.0
 30
0.0
  9
$USERI1
 70
     0
  9
$USERI2
 70
     0
  9
$USERI3
 70
     0
  9
$USERI4
 70
     0
  9
$USERI5
 70
     0
  9
$USERR1
 40
0.0
  9
$USERR2
 40
0.0
  9
$USERR3
 40
0.0
  9
$USERR4
 40
0.0
  9
$USERR5
 40
0.0
  9
$WORLDVIEW
 70
     1
  9
$SHADEDGE
 70
     3
  9
$SHADEDIF
 70
    70
  9
$TILEMODE
 70
     1
  9
$MAXACTVP
 70
    64
  9
$PINSBASE
 10
0.0
 20
0.0
 30
0.0
  9
$PLIMCHECK
 70
     0
  9
$PEXTMIN
 10
1.000000000000000E+20
 20
1.000000000000000E+20
 30
1.000000000000000E+20
  9
$PEXTMAX
 10
-1.000000000000000E+20
 20
-1.000000000000000E+20
 30
-1.000000000000000E+20
  9
$PLIMMIN
 10
0.0
 20
0.0
  9
$PLIMMAX
 10
12.0
 20
9.0
  9
$UNITMODE
 70
     0
  9
$VISRETAIN
 70
     0
  9
$PLINEGEN
 70
     1
  9
$PSLTSCALE
 70
     0
  9
$TREEDEPTH
 70
  3020
  9
$CMLSTYLE
  2
Standard
  9
$CMLJUST
 70
     0
  9
$CMLSCALE
 40
1.0
  9
$PROXYGRAPHICS
 70
     1
  9
$MEASUREMENT
 70
     0
  9
$CELWEIGHT
370
    -1
  9
$ENDCAPS
280
     0
  9
$JOINSTYLE
280
     0
  9
$LWDISPLAY
290
     0
  9
$INSUNITS
 70
     0
  9
$HYPERLINKBASE
  1

  9
$STYLESHEET
  1

  9
$XEDIT
290
     1
  9
$CEPSNTYPE
380
     0
  9
$PSTYLEMODE
290
     1
  9
$FINGERPRINTGUID
  2
{B068EC00-B1FF-4A1A-839A-1592FC7484F3}
  9
$VERSIONGUID
  2
{DEA42DCA-7A8C-4002-A97E-C57778BF2BED}
  9
$EXTNAMES
290
     1
  9
$PSVPSCALE
 40
0.0
  9
$OLESTARTUP
290
     0
  9
$SORTENTS
280
   127
  9
$INDEXCTL
280
     0
  9
$HIDETEXT
280
     0
  9
$XCLIPFRAME
290
     0
  9
$HALOGAP
280
     0
  9
$OBSCOLOR
 70
   257
  9
$OBSLTYPE
280
     0
  9
$INTERSECTIONDISPLAY
280
     0
  9
$INTERSECTIONCOLOR
 70
   257
  9
$DIMASSOC
280
     1
  9
$PROJECTNAME
  1

  9
$CAMERADISPLAY
290
     0
  9
$LENSLENGTH
 40
50.0
  9
$CAMERAHEIGHT
 40
0.0
  9
$STEPSPERSEC
 40
2.0
  9
$STEPSIZE
 40
6.0
  9
$3DDWFPREC
 40
2.0
  9
$PSOLWIDTH
 40
0.25
  9
$PSOLHEIGHT
 40
4.0
  9
$LOFTANG1
 40
1.570796326794896
  9
$LOFTANG2
 40
1.570796326794896
  9
$LOFTMAG1
 40
0.0
  9
$LOFTMAG2
 40
0.0
  9
$LOFTPARAM
 70
     7
  9
$LOFTNORMALS
280
     1
  9
$LATITUDE
 40
37.795
  9
$LONGITUDE
 40
-122.394
  9
$NORTHDIRECTION
 40
0.0
  9
$TIMEZONE
 70
 -8000
  9
$LIGHTGLYPHDISPLAY
280
     1
  9
$TILEMODELIGHTSYNCH
280
     1
  9
$CMATERIAL
347
42B
  9
$SOLIDHIST
280
     1
  9
$SHOWHIST
280
     1
  9
$DWFFRAME
280
     2
  9
$DGNFRAME
280
     0
  9
$REALWORLDSCALE
290
     1
  9
$INTERFERECOLOR
 62
     1
  9
$INTERFEREOBJVS
345
44D
  9
$INTERFEREVPVS
346
44A
  9
$CSHADOW
280
     0
  9
$SHADOWPLANELOCATION
 40
0.0
  0
ENDSEC
  0
SECTION
  2
CLASSES
  0
CLASS
  1
ACDBDICTIONARYWDFLT
  2
AcDbDictionaryWithDefault
  3
ObjectDBX Classes
 90
        0
 91
        1
280
     0
281
     0
  0
CLASS
  1
MATERIAL
  2
AcDbMaterial
  3
ObjectDBX Classes
 90
     1153
 91
        3
280
     0
281
     0
  0
CLASS
  1
VISUALSTYLE
  2
AcDbVisualStyle
  3
ObjectDBX Classes
 90
     4095
 91
       24
280
     0
281
     0
  0
CLASS
  1
SCALE
  2
AcDbScale
  3
ObjectDBX Classes
 90
     1153
 91
       17
280
     0
281
     0
  0
CLASS
  1
TABLESTYLE
  2
AcDbTableStyle
  3
ObjectDBX Classes
 90
     4095
 91
        1
280
     0
281
     0
  0
CLASS
  1
MLEADERSTYLE
  2
AcDbMLeaderStyle
  3
ACDB_MLEADERSTYLE_CLASS
 90
     4095
 91
        1
280
     0
281
     0
  0
CLASS
  1
CELLSTYLEMAP
  2
AcDbCellStyleMap
  3
ObjectDBX Classes
 90
     1152
 91
        2
280
     0
281
     0
  0
CLASS
  1
DICTIONARYVAR
  2
AcDbDictionaryVar
  3
ObjectDBX Classes
 90
        0
 91
       16
280
     0
281
     0
  0
ENDSEC
  0
SECTION
  2
TABLES
  0
TABLE
  2
VPORT
  5
422
330
0
100
AcDbSymbolTable
 70
     1
  0
VPORT
  5
489
330
422
100
AcDbSymbolTableRecord
100
AcDbViewportTableRecord
  2
*ACTIVE
 70
     0
 10
0.0
 20
0.0
 11
1.0
 21
1.0
 12
0.0000090105459662
 22
0.0000064331101157
 13
0.0
 23
0.0
 14
0.5
 24
0.5
 15
0.5
 25
0.5
 16
0.0
 26
0.0
 36
1.0
 17
-0.0000000000000036
 27
0.0000000000001137
 37
0.0
 40
928.3935942498583
 41
2.079530638852672
 42
50.0
 43
0.0
 44
0.0
 50
0.0
 51
0.0
 71
     0
 72
  1000
 73
     1
 74
     1
 75
     0
 76
     0
 77
     0
 78
     0
281
     0
 65
     1
110
0.0
120
0.0
130
0.0
111
1.0
121
0.0
131
0.0
112
0.0
122
1.0
132
0.0
 79
     0
146
0.0
348
449
 60
     3
 61
     5
292
     1
282
     0
141
0.0
142
0.0
 63
   250
421
  3355443
  0
ENDTAB
  0
TABLE
  2
LTYPE
  5
41F
330
0
100
AcDbSymbolTable
 70
    68
  0
LTYPE
  5
474
330
41F
100
AcDbSymbolTableRecord
100
AcDbLinetypeTableRecord
  2
ByBlock
 70
     0
  3

 72
    65
 73
     0
 40
0.0
  0
LTYPE
  5
475
330
41F
100
AcDbSymbolTableRecord
100
AcDbLinetypeTableRecord
  2
ByLayer
 70
     0
  3

 72
    65
 73
     0
 40
0.0
  0
LTYPE
  5
476
330
41F
100
AcDbSymbolTableRecord
100
AcDbLinetypeTableRecord
  2
CONTINUOUS
 70
     0
  3
Solid line
 72
    65
 73
     0
 40
0.0
  0
LTYPE
  5
48A
330
41F
100
AcDbSymbolTableRecord
100
AcDbLinetypeTableRecord
  2
HIDDENX2
 70
     0
  3
Hidden (2x) ____ ____ ____ ____ ____ ____ ____ 
 72
    65
 73
     2
 40
19.05
 49
12.7
 74
     0
 49
-6.349999999999999
 74
     0
  0
LTYPE
  5
48B
330
41F
100
AcDbSymbolTableRecord
100
AcDbLinetypeTableRecord
  2
HIDDEN
 70
     0
  3
Hidden __ __ __ __ __ __ __ __ __ __ __ __ __ __
 72
    65
 73
     2
 40
9.525
 49
6.349999999999999
 74
     0
 49
-3.174999999999999
 74
     0
  0
LTYPE
  5
48C
330
41F
100
AcDbSymbolTableRecord
100
AcDbLinetypeTableRecord
  2
HIDDEN2
 70
     0
  3
Hidden (.5x) _ _ _ _ _ _ _ _ _ _ _ _ _ _ _ _ _ 
 72
    65
 73
     2
 40
4.762499999999998
 49
3.174999999999999
 74
     0
 49
-1.587499999999999
 74
     0
  0
LTYPE
  5
48D
330
41F
100
AcDbSymbolTableRecord
100
AcDbLinetypeTableRecord
  2
DASHED
 70
     0
  3
Dashed __ __ __ __ __ __ __ __ __ __ __ __ __ _
 72
    65
 73
     2
 40
19.05
 49
12.7
 74
     0
 49
-6.349999999999999
 74
     0
  0
LTYPE
  5
48E
330
41F
100
AcDbSymbolTableRecord
100
AcDbLinetypeTableRecord
  2
DASHED2
 70
     0
  3
Dashed (.5x) _ _ _ _ _ _ _ _ _ _ _ _ _ _ _ _ _ 
 72
    65
 73
     2
 40
9.525
 49
6.349999999999999
 74
     0
 49
-3.174999999999999
 74
     0
  0
LTYPE
  5
48F
330
41F
100
AcDbSymbolTableRecord
100
AcDbLinetypeTableRecord
  2
DASHEDX2
 70
     0
  3
Dashed (2x) ____  ____  ____  ____  ____  ___
 72
    65
 73
     2
 40
38.09999999999999
 49
25.4
 74
     0
 49
-12.7
 74
     0
  0
LTYPE
  5
490
330
41F
100
AcDbSymbolTableRecord
100
AcDbLinetypeTableRecord
  2
DOTX2
 70
     0
  3
Dot (2x) .  .  .  .  .  .  .  .  .  .  .  .  .  .
 72
    65
 73
     2
 40
12.7
 49
0.0
 74
     0
 49
-12.7
 74
     0
  0
LTYPE
  5
491
330
41F
100
AcDbSymbolTableRecord
100
AcDbLinetypeTableRecord
  2
DOT
 70
     0
  3
Dot . . . . . . . . . . . . . . . . . . . . . . . .
 72
    65
 73
     2
 40
6.349999999999999
 49
0.0
 74
     0
 49
-6.349999999999999
 74
     0
  0
LTYPE
  5
492
330
41F
100
AcDbSymbolTableRecord
100
AcDbLinetypeTableRecord
  2
DOT2
 70
     0
  3
Dot (.5x) ........................................
 72
    65
 73
     2
 40
3.174999999999999
 49
0.0
 74
     0
 49
-3.174999999999999
 74
     0
  0
LTYPE
  5
493
330
41F
100
AcDbSymbolTableRecord
100
AcDbLinetypeTableRecord
  2
CENTERX2
 70
     0
  3
Center (2x) ________  __  ________  __  _____
 72
    65
 73
     4
 40
101.6
 49
63.5
 74
     0
 49
-12.7
 74
     0
 49
12.7
 74
     0
 49
-12.7
 74
     0
  0
LTYPE
  5
494
330
41F
100
AcDbSymbolTableRecord
100
AcDbLinetypeTableRecord
  2
CENTER
 70
     0
  3
Center ____ _ ____ _ ____ _ ____ _ ____ _ ____
 72
    65
 73
     4
 40
50.8
 49
31.75
 74
     0
 49
-6.349999999999999
 74
     0
 49
6.349999999999999
 74
     0
 49
-6.349999999999999
 74
     0
  0
LTYPE
  5
495
330
41F
100
AcDbSymbolTableRecord
100
AcDbLinetypeTableRecord
  2
CENTER2
 70
     0
  3
Center (.5x) ___ _ ___ _ ___ _ ___ _ ___ _ ___
 72
    65
 73
     4
 40
28.575
 49
19.05
 74
     0
 49
-3.174999999999999
 74
     0
 49
3.174999999999999
 74
     0
 49
-3.174999999999999
 74
     0
  0
LTYPE
  5
496
330
41F
100
AcDbSymbolTableRecord
100
AcDbLinetypeTableRecord
  2
DASHDOTX2
 70
     0
  3
Dash dot (2x) ____  .  ____  .  ____  .  ___
 72
    65
 73
     4
 40
50.8
 49
25.4
 74
     0
 49
-12.7
 74
     0
 49
0.0
 74
     0
 49
-12.7
 74
     0
  0
LTYPE
  5
497
330
41F
100
AcDbSymbolTableRecord
100
AcDbLinetypeTableRecord
  2
DASHDOT
 70
     0
  3
Dash dot __ . __ . __ . __ . __ . __ . __ . __
 72
    65
 73
     4
 40
25.4
 49
12.7
 74
     0
 49
-6.349999999999999
 74
     0
 49
0.0
 74
     0
 49
-6.349999999999999
 74
     0
  0
LTYPE
  5
498
330
41F
100
AcDbSymbolTableRecord
100
AcDbLinetypeTableRecord
  2
DASHDOT2
 70
     0
  3
Dash dot (.5x) _._._._._._._._._._._._._._._.
 72
    65
 73
     4
 40
12.7
 49
6.349999999999999
 74
     0
 49
-3.174999999999999
 74
     0
 49
0.0
 74
     0
 49
-3.174999999999999
 74
     0
  0
LTYPE
  5
499
330
41F
100
AcDbSymbolTableRecord
100
AcDbLinetypeTableRecord
  2
DIVIDEX2
 70
     0
  3
Divide (2x) ________  .  .  ________  .  .  _
 72
    65
 73
     6
 40
63.5
 49
25.4
 74
     0
 49
-12.7
 74
     0
 49
0.0
 74
     0
 49
-12.7
 74
     0
 49
0.0
 74
     0
 49
-12.7
 74
     0
  0
LTYPE
  5
49A
330
41F
100
AcDbSymbolTableRecord
100
AcDbLinetypeTableRecord
  2
DIVIDE
 70
     0
  3
Divide ____ . . ____ . . ____ . . ____ . . ____
 72
    65
 73
     6
 40
31.75
 49
12.7
 74
     0
 49
-6.349999999999999
 74
     0
 49
0.0
 74
     0
 49
-6.349999999999999
 74
     0
 49
0.0
 74
     0
 49
-6.349999999999999
 74
     0
  0
LTYPE
  5
49B
330
41F
100
AcDbSymbolTableRecord
100
AcDbLinetypeTableRecord
  2
DIVIDE2
 70
     0
  3
Divide (.5x) __..__..__..__..__..__..__..__.._
 72
    65
 73
     6
 40
15.875
 49
6.349999999999999
 74
     0
 49
-3.174999999999999
 74
     0
 49
0.0
 74
     0
 49
-3.174999999999999
 74
     0
 49
0.0
 74
     0
 49
-3.174999999999999
 74
     0
  0
LTYPE
  5
49C
330
41F
100
AcDbSymbolTableRecord
100
AcDbLinetypeTableRecord
  2
BORDERX2
 70
     0
  3
Border (2x) ____  ____  .  ____  ____  .  ___
 72
    65
 73
     6
 40
88.89999999999998
 49
25.4
 74
     0
 49
-12.7
 74
     0
 49
25.4
 74
     0
 49
-12.7
 74
     0
 49
0.0
 74
     0
 49
-12.7
 74
     0
  0
LTYPE
  5
49D
330
41F
100
AcDbSymbolTableRecord
100
AcDbLinetypeTableRecord
  2
BORDER
 70
     0
  3
Border __ __ . __ __ . __ __ . __ __ . __ __ .
 72
    65
 73
     6
 40
44.45
 49
12.7
 74
     0
 49
-6.349999999999999
 74
     0
 49
12.7
 74
     0
 49
-6.349999999999999
 74
     0
 49
0.0
 74
     0
 49
-6.349999999999999
 74
     0
  0
LTYPE
  5
49E
330
41F
100
AcDbSymbolTableRecord
100
AcDbLinetypeTableRecord
  2
BORDER2
 70
     0
  3
Border (.5x) __.__.__.__.__.__.__.__.__.__.__.
 72
    65
 73
     6
 40
22.225
 49
6.349999999999999
 74
     0
 49
-3.174999999999999
 74
     0
 49
6.349999999999999
 74
     0
 49
-3.174999999999999
 74
     0
 49
0.0
 74
     0
 49
-3.174999999999999
 74
     0
  0
LTYPE
  5
49F
330
41F
100
AcDbSymbolTableRecord
100
AcDbLinetypeTableRecord
  2
PHANTOMX2
 70
     0
  3
Phantom (2x) ____________    ____    ____   _
 72
    65
 73
     6
 40
127.0
 49
63.5
 74
     0
 49
-12.7
 74
     0
 49
12.7
 74
     0
 49
-12.7
 74
     0
 49
12.7
 74
     0
 49
-12.7
 74
     0
  0
LTYPE
  5
4A0
330
41F
100
AcDbSymbolTableRecord
100
AcDbLinetypeTableRecord
  2
PHANTOM
 70
     0
  3
Phantom ______  __  __  ______  __  __  ______ 
 72
    65
 73
     6
 40
63.5
 49
31.75
 74
     0
 49
-6.349999999999999
 74
     0
 49
6.349999999999999
 74
     0
 49
-6.349999999999999
 74
     0
 49
6.349999999999999
 74
     0
 49
-6.349999999999999
 74
     0
  0
LTYPE
  5
4A1
330
41F
100
AcDbSymbolTableRecord
100
AcDbLinetypeTableRecord
  2
PHANTOM2
 70
     0
  3
Phantom (.5x) ___ _ _ ___ _ _ ___ _ _ ___ _ _
 72
    65
 73
     6
 40
31.75
 49
15.875
 74
     0
 49
-3.174999999999999
 74
     0
 49
3.174999999999999
 74
     0
 49
-3.174999999999999
 74
     0
 49
3.174999999999999
 74
     0
 49
-3.174999999999999
 74
     0
  0
LTYPE
  5
4A2
330
41F
100
AcDbSymbolTableRecord
100
AcDbLinetypeTableRecord
  2
ACAD_ISO06W100
 70
     0
  3
ISO long-dash triple-dot ____ ... ____ ... ____
 72
    65
 73
     8
 40
36.0
 49
24.0
 74
     0
 49
-3.0
 74
     0
 49
0.0
 74
     0
 49
-3.0
 74
     0
 49
0.0
 74
     0
 49
-3.0
 74
     0
 49
0.0
 74
     0
 49
-3.0
 74
     0
  0
LTYPE
  5
4A3
330
41F
100
AcDbSymbolTableRecord
100
AcDbLinetypeTableRecord
  2
ACAD_ISO13W100
 70
     0
  3
ISO double-dash double-dot __ __ . . __ __ . . _
 72
    65
 73
     8
 40
36.0
 49
12.0
 74
     0
 49
-3.0
 74
     0
 49
12.0
 74
     0
 49
-3.0
 74
     0
 49
0.0
 74
     0
 49
-3.0
 74
     0
 49
0.0
 74
     0
 49
-3.0
 74
     0
  0
LTYPE
  5
4A4
330
41F
100
AcDbSymbolTableRecord
100
AcDbLinetypeTableRecord
  2
ACAD_ISO14W100
 70
     0
  3
ISO dash triple-dot __ . . . __ . . . __ . . . _
 72
    65
 73
     8
 40
24.0
 49
12.0
 74
     0
 49
-3.0
 74
     0
 49
0.0
 74
     0
 49
-3.0
 74
     0
 49
0.0
 74
     0
 49
-3.0
 74
     0
 49
0.0
 74
     0
 49
-3.0
 74
     0
  0
LTYPE
  5
4A5
330
41F
100
AcDbSymbolTableRecord
100
AcDbLinetypeTableRecord
  2
ACAD_ISO02W100
 70
     0
  3
ISO dash __ __ __ __ __ __ __ __ __ __ __ __ __
 72
    65
 73
     2
 40
15.0
 49
12.0
 74
     0
 49
-3.0
 74
     0
  0
LTYPE
  5
4A6
330
41F
100
AcDbSymbolTableRecord
100
AcDbLinetypeTableRecord
  2
ACAD_ISO03W100
 70
     0
  3
ISO dash space __    __    __    __    __    __
 72
    65
 73
     2
 40
30.0
 49
12.0
 74
     0
 49
-18.0
 74
     0
  0
LTYPE
  5
4A7
330
41F
100
AcDbSymbolTableRecord
100
AcDbLinetypeTableRecord
  2
ACAD_ISO04W100
 70
     0
  3
ISO long-dash dot ____ . ____ . ____ . ____ . _
 72
    65
 73
     4
 40
30.0
 49
24.0
 74
     0
 49
-3.0
 74
     0
 49
0.0
 74
     0
 49
-3.0
 74
     0
  0
LTYPE
  5
4A8
330
41F
100
AcDbSymbolTableRecord
100
AcDbLinetypeTableRecord
  2
ACAD_ISO05W100
 70
     0
  3
ISO long-dash double-dot ____ .. ____ .. ____ . 
 72
    65
 73
     6
 40
33.0
 49
24.0
 74
     0
 49
-3.0
 74
     0
 49
0.0
 74
     0
 49
-3.0
 74
     0
 49
0.0
 74
     0
 49
-3.0
 74
     0
  0
LTYPE
  5
4A9
330
41F
100
AcDbSymbolTableRecord
100
AcDbLinetypeTableRecord
  2
ACAD_ISO07W100
 70
     0
  3
ISO dot . . . . . . . . . . . . . . . . . . . . 
 72
    65
 73
     2
 40
3.0
 49
0.0
 74
     0
 49
-3.0
 74
     0
  0
LTYPE
  5
4AA
330
41F
100
AcDbSymbolTableRecord
100
AcDbLinetypeTableRecord
  2
ACAD_ISO08W100
 70
     0
  3
ISO long-dash short-dash ____ __ ____ __ ____ _
 72
    65
 73
     4
 40
36.0
 49
24.0
 74
     0
 49
-3.0
 74
     0
 49
6.0
 74
     0
 49
-3.0
 74
     0
  0
LTYPE
  5
4AB
330
41F
100
AcDbSymbolTableRecord
100
AcDbLinetypeTableRecord
  2
ACAD_ISO09W100
 70
     0
  3
ISO long-dash double-short-dash ____ __ __ ____
 72
    65
 73
     6
 40
45.0
 49
24.0
 74
     0
 49
-3.0
 74
     0
 49
6.0
 74
     0
 49
-3.0
 74
     0
 49
6.0
 74
     0
 49
-3.0
 74
     0
  0
LTYPE
  5
4AC
330
41F
100
AcDbSymbolTableRecord
100
AcDbLinetypeTableRecord
  2
ACAD_ISO10W100
 70
     0
  3
ISO dash dot __ . __ . __ . __ . __ . __ . __ . 
 72
    65
 73
     4
 40
18.0
 49
12.0
 74
     0
 49
-3.0
 74
     0
 49
0.0
 74
     0
 49
-3.0
 74
     0
  0
LTYPE
  5
4AD
330
41F
100
AcDbSymbolTableRecord
100
AcDbLinetypeTableRecord
  2
ACAD_ISO11W100
 70
     0
  3
ISO double-dash dot __ __ . __ __ . __ __ . __ _
 72
    65
 73
     6
 40
33.0
 49
12.0
 74
     0
 49
-3.0
 74
     0
 49
12.0
 74
     0
 49
-3.0
 74
     0
 49
0.0
 74
     0
 49
-3.0
 74
     0
  0
LTYPE
  5
4AE
330
41F
100
AcDbSymbolTableRecord
100
AcDbLinetypeTableRecord
  2
ACAD_ISO12W100
 70
     0
  3
ISO dash double-dot __ . . __ . . __ . . __ . . 
 72
    65
 73
     6
 40
21.0
 49
12.0
 74
     0
 49
-3.0
 74
     0
 49
0.0
 74
     0
 49
-3.0
 74
     0
 49
0.0
 74
     0
 49
-3.0
 74
     0
  0
LTYPE
  5
4AF
330
41F
100
AcDbSymbolTableRecord
100
AcDbLinetypeTableRecord
  2
ACAD_ISO15W100
 70
     0
  3
ISO double-dash triple-dot __ __ . . . __ __ . .
 72
    65
 73
    10
 40
39.0
 49
12.0
 74
     0
 49
-3.0
 74
     0
 49
12.0
 74
     0
 49
-3.0
 74
     0
 49
0.0
 74
     0
 49
-3.0
 74
     0
 49
0.0
 74
     0
 49
-3.0
 74
     0
 49
0.0
 74
     0
 49
-3.0
 74
     0
  0
LTYPE
  5
4B0
330
41F
100
AcDbSymbolTableRecord
100
AcDbLinetypeTableRecord
  2
JIS_02_0_7
 70
     0
  3
HIDDEN0.75 _ _ _ _ _ _ _ _ _ _ _ _ _ _ _ _ _ 
 72
    65
 73
     2
 40
1.35
 49
0.75
 74
     0
 49
-0.6
 74
     0
  0
LTYPE
  5
4B1
330
41F
100
AcDbSymbolTableRecord
100
AcDbLinetypeTableRecord
  2
JIS_02_1_0
 70
     0
  3
HIDDEN01 _ _ _ _ _ _ _ _ _ _ _ _ _ _ _ _ _ 
 72
    65
 73
     2
 40
2.0
 49
1.0
 74
     0
 49
-1.0
 74
     0
  0
LTYPE
  5
4B2
330
41F
100
AcDbSymbolTableRecord
100
AcDbLinetypeTableRecord
  2
JIS_02_1_2
 70
     0
  3
HIDDEN01.25  _ _ _ _ _ _ _ _ _ _ _ _ _ _ _ _ _ 
 72
    65
 73
     2
 40
2.5
 49
1.25
 74
     0
 49
-1.25
 74
     0
  0
LTYPE
  5
4B3
330
41F
100
AcDbSymbolTableRecord
100
AcDbLinetypeTableRecord
  2
JIS_02_2_0
 70
     0
  3
HIDDEN02 __ __ __ __ __ __ __ __ __ __ __ 
 72
    65
 73
     2
 40
3.0
 49
2.0
 74
     0
 49
-1.0
 74
     0
  0
LTYPE
  5
4B4
330
41F
100
AcDbSymbolTableRecord
100
AcDbLinetypeTableRecord
  2
JIS_02_4_0
 70
     0
  3
HIDDEN04 ____ ____ ____ ____ ____ ____ ____ 
 72
    65
 73
     2
 40
5.5
 49
4.0
 74
     0
 49
-1.5
 74
     0
  0
LTYPE
  5
4B5
330
41F
100
AcDbSymbolTableRecord
100
AcDbLinetypeTableRecord
  2
JIS_08_11
 70
     0
  3
1SASEN11 ___ _ ___ _ ___ _ ___ _ ___ _ ___
 72
    65
 73
     4
 40
12.8
 49
11.0
 74
     0
 49
-0.6
 74
     0
 49
0.6
 74
     0
 49
-0.6
 74
     0
  0
LTYPE
  5
4B6
330
41F
100
AcDbSymbolTableRecord
100
AcDbLinetypeTableRecord
  2
JIS_08_15
 70
     0
  3
1SASEN15 ____ _ ____ _ ____ _ ____ _ ____ 
 72
    65
 73
     4
 40
17.25
 49
15.0
 74
     0
 49
-0.75
 74
     0
 49
0.75
 74
     0
 49
-0.75
 74
     0
  0
LTYPE
  5
4B7
330
41F
100
AcDbSymbolTableRecord
100
AcDbLinetypeTableRecord
  2
JIS_08_25
 70
     0
  3
1SASEN25 ________  __  ________  __  _____
 72
    65
 73
     4
 40
28.0
 49
25.0
 74
     0
 49
-1.125
 74
     0
 49
0.75
 74
     0
 49
-1.125
 74
     0
  0
LTYPE
  5
4B8
330
41F
100
AcDbSymbolTableRecord
100
AcDbLinetypeTableRecord
  2
JIS_08_37
 70
     0
  3
1SASEN37 ________  __  ________  __  _____
 72
    65
 73
     4
 40
40.49999999999999
 49
37.5
 74
     0
 49
-1.125
 74
     0
 49
0.75
 74
     0
 49
-1.125
 74
     0
  0
LTYPE
  5
4B9
330
41F
100
AcDbSymbolTableRecord
100
AcDbLinetypeTableRecord
  2
JIS_08_50
 70
     0
  3
1SASEN50 _______________  __  ____________
 72
    65
 73
     4
 40
53.0
 49
50.0
 74
     0
 49
-1.125
 74
     0
 49
0.75
 74
     0
 49
-1.125
 74
     0
  0
LTYPE
  5
4BA
330
41F
100
AcDbSymbolTableRecord
100
AcDbLinetypeTableRecord
  2
JIS_09_08
 70
     0
  3
2SASEN8 __ _ _ __ _ _ __ _ _ __ _ _ __ _ _ 
 72
    65
 73
     6
 40
10.75
 49
8.0
 74
     0
 49
-0.55
 74
     0
 49
0.55
 74
     0
 49
-0.55
 74
     0
 49
0.55
 74
     0
 49
-0.55
 74
     0
  0
LTYPE
  5
4BB
330
41F
100
AcDbSymbolTableRecord
100
AcDbLinetypeTableRecord
  2
JIS_09_15
 70
     0
  3
2SASEN15 ___ _ _ ___ _ _ ___ _ _ ___ _ _ ___ 
 72
    65
 73
     6
 40
18.9
 49
15.0
 74
     0
 49
-0.9
 74
     0
 49
0.6
 74
     0
 49
-0.9
 74
     0
 49
0.6
 74
     0
 49
-0.9
 74
     0
  0
LTYPE
  5
4BC
330
41F
100
AcDbSymbolTableRecord
100
AcDbLinetypeTableRecord
  2
JIS_09_29
 70
     0
  3
2SASEN29 ______　__  __  ______　__  __  ___
 72
    65
 73
     6
 40
34.0
 49
29.0
 74
     0
 49
-1.199999999999999
 74
     0
 49
0.7
 74
     0
 49
-1.199999999999999
 74
     0
 49
0.7
 74
     0
 49
-1.199999999999999
 74
     0
  0
LTYPE
  5
4BD
330
41F
100
AcDbSymbolTableRecord
100
AcDbLinetypeTableRecord
  2
JIS_09_50
 70
     0
  3
2SASEN50 ____________　__  __  _____________
 72
    65
 73
     6
 40
55.0
 49
50.0
 74
     0
 49
-1.199999999999999
 74
     0
 49
0.7
 74
     0
 49
-1.199999999999999
 74
     0
 49
0.7
 74
     0
 49
-1.199999999999999
 74
     0
  0
LTYPE
  5
4BE
330
41F
100
AcDbSymbolTableRecord
100
AcDbLinetypeTableRecord
  2
SXF_破線
 70
     0
  3
02 dashed -- -- -- -- -- --
 72
    65
 73
     2
 40
7.5
 49
6.0
 74
     0
 49
-1.5
 74
     0
  0
LTYPE
  5
4BF
330
41F
100
AcDbSymbolTableRecord
100
AcDbLinetypeTableRecord
  2
SXF_跳び破線
 70
     0
  3
03 dashed_spaced --  --  --  --
 72
    65
 73
     2
 40
12.0
 49
6.0
 74
     0
 49
-6.0
 74
     0
  0
LTYPE
  5
4C0
330
41F
100
AcDbSymbolTableRecord
100
AcDbLinetypeTableRecord
  2
SXF_一点長鎖線
 70
     0
  3
04 long_dashed_dotted ---- . ---- . ----
 72
    65
 73
     4
 40
15.25
 49
12.0
 74
     0
 49
-1.5
 74
     0
 49
0.25
 74
     0
 49
-1.5
 74
     0
  0
LTYPE
  5
4C1
330
41F
100
AcDbSymbolTableRecord
100
AcDbLinetypeTableRecord
  2
SXF_二点長鎖線
 70
     0
  3
05 long_dashed_double-dotted ---- . . ---- 
 72
    65
 73
     6
 40
17.0
 49
12.0
 74
     0
 49
-1.5
 74
     0
 49
0.25
 74
     0
 49
-1.5
 74
     0
 49
0.25
 74
     0
 49
-1.5
 74
     0
  0
LTYPE
  5
4C2
330
41F
100
AcDbSymbolTableRecord
100
AcDbLinetypeTableRecord
  2
SXF_三点長鎖線
 70
     0
  3
06 long_dashed_triplicate-dotted ---- ... ---- 
 72
    65
 73
     8
 40
18.75
 49
12.0
 74
     0
 49
-1.5
 74
     0
 49
0.25
 74
     0
 49
-1.5
 74
     0
 49
0.25
 74
     0
 49
-1.5
 74
     0
 49
0.25
 74
     0
 49
-1.5
 74
     0
  0
LTYPE
  5
4C3
330
41F
100
AcDbSymbolTableRecord
100
AcDbLinetypeTableRecord
  2
SXF_点線
 70
     0
  3
07 dotted . . . . . . . . . . . . 
 72
    65
 73
     2
 40
1.75
 49
0.25
 74
     0
 49
-1.5
 74
     0
  0
LTYPE
  5
4C4
330
41F
100
AcDbSymbolTableRecord
100
AcDbLinetypeTableRecord
  2
SXF_一点鎖線
 70
     0
  3
08 chain ---- - --- - --- - ---
 72
    65
 73
     4
 40
18.5
 49
12.0
 74
     0
 49
-1.5
 74
     0
 49
3.5
 74
     0
 49
-1.5
 74
     0
  0
LTYPE
  5
4C5
330
41F
100
AcDbSymbolTableRecord
100
AcDbLinetypeTableRecord
  2
SXF_二点鎖線
 70
     0
  3
09 chain_double_dash ---- - - ---- - - ----
 72
    65
 73
     6
 40
23.5
 49
12.0
 74
     0
 49
-1.5
 74
     0
 49
3.5
 74
     0
 49
-1.5
 74
     0
 49
3.5
 74
     0
 49
-1.5
 74
     0
  0
LTYPE
  5
4C6
330
41F
100
AcDbSymbolTableRecord
100
AcDbLinetypeTableRecord
  2
SXF_一点短鎖線
 70
     0
  3
10 dashed_dotted -- . -- . -- . --
 72
    65
 73
     4
 40
9.25
 49
6.0
 74
     0
 49
-1.5
 74
     0
 49
0.25
 74
     0
 49
-1.5
 74
     0
  0
LTYPE
  5
4C7
330
41F
100
AcDbSymbolTableRecord
100
AcDbLinetypeTableRecord
  2
SXF_一点二短鎖線
 70
     0
  3
11 double-dashed_dotted -- -- . -- --
 72
    65
 73
     6
 40
16.75
 49
6.0
 74
     0
 49
-1.5
 74
     0
 49
6.0
 74
     0
 49
-1.5
 74
     0
 49
0.25
 74
     0
 49
-1.5
 74
     0
  0
LTYPE
  5
4C8
330
41F
100
AcDbSymbolTableRecord
100
AcDbLinetypeTableRecord
  2
SXF_二点短鎖線
 70
     0
  3
12 dashed_double_dotted -- . . -- . . --
 72
    65
 73
     6
 40
11.0
 49
6.0
 74
     0
 49
-1.5
 74
     0
 49
0.25
 74
     0
 49
-1.5
 74
     0
 49
0.25
 74
     0
 49
-1.5
 74
     0
  0
LTYPE
  5
4C9
330
41F
100
AcDbSymbolTableRecord
100
AcDbLinetypeTableRecord
  2
SXF_二点二短鎖線
 70
     0
  3
13 double-dashed_double-dotted -- -- . . -- --
 72
    65
 73
     8
 40
18.5
 49
6.0
 74
     0
 49
-1.5
 74
     0
 49
6.0
 74
     0
 49
-1.5
 74
     0
 49
0.25
 74
     0
 49
-1.5
 74
     0
 49
0.25
 74
     0
 49
-1.5
 74
     0
  0
LTYPE
  5
4CA
330
41F
100
AcDbSymbolTableRecord
100
AcDbLinetypeTableRecord
  2
SXF_三点短鎖線
 70
     0
  3
14 dashed triplicate-dotted -- . . . -- . . . --
 72
    65
 73
     8
 40
12.75
 49
6.0
 74
     0
 49
-1.5
 74
     0
 49
0.25
 74
     0
 49
-1.5
 74
     0
 49
0.25
 74
     0
 49
-1.5
 74
     0
 49
0.25
 74
     0
 49
-1.5
 74
     0
  0
LTYPE
  5
4CB
330
41F
100
AcDbSymbolTableRecord
100
AcDbLinetypeTableRecord
  2
SXF_三点二短鎖線
 70
     0
  3
15 double-dashed triplicate-dotted -- -- . . . -- -- 
 72
    65
 73
    10
 40
20.25
 49
6.0
 74
     0
 49
-1.5
 74
     0
 49
6.0
 74
     0
 49
-1.5
 74
     0
 49
0.25
 74
     0
 49
-1.5
 74
     0
 49
0.25
 74
     0
 49
-1.5
 74
     0
 49
0.25
 74
     0
 49
-1.5
 74
     0
  0
ENDTAB
  0
TABLE
  2
LAYER
  5
41C
330
0
100
AcDbSymbolTable
 70
     4
  0
LAYER
  5
46E
330
41C
100
AcDbSymbolTableRecord
100
AcDbLayerTableRecord
  2
0
 70
     0
 62
     7
  6
CONTINUOUS
370
    -3
390
429
347
43B
  0
LAYER
  5
4CC
330
41C
100
AcDbSymbolTableRecord
100
AcDbLayerTableRecord
  2
LAYER0016
 70
     0
 62
     7
  6
CONTINUOUS
370
    -3
390
429
347
43B
  0
LAYER
  5
4CD
330
41C
100
AcDbSymbolTableRecord
100
AcDbLayerTableRecord
  2
LAYER0240
 70
     0
 62
     7
  6
CONTINUOUS
370
    -3
390
429
347
43B
  0
LAYER
  5
4CE
330
41C
100
AcDbSymbolTableRecord
100
AcDbLayerTableRecord
  2
ZUWAKU
 70
     0
 62
     7
  6
CONTINUOUS
370
    -3
390
429
347
43B
  0
ENDTAB
  0
TABLE
  2
STYLE
  5
41D
330
0
100
AcDbSymbolTable
 70
     3
  0
STYLE
  5
46F
330
41D
100
AcDbSymbolTableRecord
100
AcDbTextStyleTableRecord
  2
STANDARD
 70
     0
 40
0.0
 41
1.0
 50
0.0
 71
     0
 42
0.2
  3
txt.shx
  4
bigfont.shx
  0
STYLE
  5
473
330
41D
100
AcDbSymbolTableRecord
100
AcDbTextStyleTableRecord
  2
Annotative
 70
     0
 40
0.0
 41
1.0
 50
0.0
 71
     0
 42
0.2
  3
txt
  4

1001
AcadAnnotative
1000
AnnotativeData
1002
{
1070
     1
1070
     1
1002
}
  0
STYLE
  5
4CF
330
41D
100
AcDbSymbolTableRecord
100
AcDbTextStyleTableRecord
  2
DCSTYLE0
 70
     0
 40
0.0
 41
0.8000000000000049
 50
0.0
 71
     0
 42
0.2
  3
txt.shx
  4
bigfont
  0
ENDTAB
  0
TABLE
  2
VIEW
  5
420
330
0
100
AcDbSymbolTable
 70
     0
  0
ENDTAB
  0
TABLE
  2
UCS
  5
421
330
0
100
AcDbSymbolTable
 70
     0
  0
ENDTAB
  0
TABLE
  2
APPID
  5
423
330
0
100
AcDbSymbolTable
 70
     5
  0
APPID
  5
470
330
423
100
AcDbSymbolTableRecord
100
AcDbRegAppTableRecord
  2
ACAD
 70
     0
  0
APPID
  5
477
330
423
100
AcDbSymbolTableRecord
100
AcDbRegAppTableRecord
  2
AcadAnnotative
 70
     0
  0
APPID
  5
4D0
330
423
100
AcDbSymbolTableRecord
100
AcDbRegAppTableRecord
  2
DAFUSIONOUT
 70
     0
  0
APPID
  5
514
330
423
100
AcDbSymbolTableRecord
100
AcDbRegAppTableRecord
  2
ACAD_EXEMPT_FROM_CAD_STANDARDS
 70
     0
  0
APPID
  5
592
330
423
100
AcDbSymbolTableRecord
100
AcDbRegAppTableRecord
  2
ACAD_MLEADERVER
 70
     0
  0
ENDTAB
  0
TABLE
  2
DIMSTYLE
  5
424
330
0
100
AcDbSymbolTable
 70
     3
100
AcDbDimStyleTable
 71
     0
  0
DIMSTYLE
105
471
330
424
100
AcDbSymbolTableRecord
100
AcDbDimStyleTableRecord
  2
STANDARD
 70
     0
279
     2
284
     8
285
     8
286
     8
340
46F
  0
DIMSTYLE
105
472
330
424
100
AcDbSymbolTableRecord
100
AcDbDimStyleTableRecord
  2
Annotative
 70
     0
340
46F
1001
AcadAnnotative
1000
AnnotativeData
1002
{
1070
     1
1070
     1
1002
}
  0
DIMSTYLE
105
4D1
102
{ACAD_REACTORS
330
402
330
405
330
40A
330
40B
330
40C
330
40D
330
40E
330
40F
330
410
102
}
330
424
100
AcDbSymbolTableRecord
100
AcDbDimStyleTableRecord
  2
DC_ROTATED
 70
     0
 41
9.000005722045898
 42
3.0
 44
3.0
 73
     0
 74
     0
 77
     3
 78
     8
140
12.0
147
3.0
172
     1
173
     1
176
     9
177
     9
178
     7
279
     2
284
     8
285
     8
286
     8
340
46F
  0
ENDTAB
  0
TABLE
  2
BLOCK_RECORD
  5
41B
330
0
100
AcDbSymbolTable
 70
    30
  0
BLOCK_RECORD
  5
485
330
41B
100
AcDbSymbolTableRecord
100
AcDbBlockTableRecord
  2
*Model_Space
340
488
 70
     0
280
     1
281
     0
  0
BLOCK_RECORD
  5
481
330
41B
100
AcDbSymbolTableRecord
100
AcDbBlockTableRecord
  2
*Paper_Space
340
484
 70
     0
280
     1
281
     0
  0
BLOCK_RECORD
  5
4D4
330
41B
100
AcDbSymbolTableRecord
100
AcDbBlockTableRecord
  2
$MODEL_SPACE
340
0
 70
     0
280
     1
281
     0
  0
BLOCK_RECORD
  5
4D6
330
41B
100
AcDbSymbolTableRecord
100
AcDbBlockTableRecord
  2
$PAPER_SPACE
340
0
 70
     0
280
     1
281
     0
  0
BLOCK_RECORD
  5
4D8
330
41B
100
AcDbSymbolTableRecord
100
AcDbBlockTableRecord
  2
DC_GROUP_1
340
0
102
{BLKREFS
331
3D6
102
}
 70
     0
280
     1
281
     0
  0
BLOCK_RECORD
  5
4DA
330
41B
100
AcDbSymbolTableRecord
100
AcDbBlockTableRecord
  2
DC_GROUP_2
340
0
 70
     0
280
     1
281
     0
  0
BLOCK_RECORD
  5
4DC
330
41B
100
AcDbSymbolTableRecord
100
AcDbBlockTableRecord
  2
DC_GROUP_3
340
0
102
{BLKREFS
331
104
102
}
 70
     0
280
     1
281
     0
  0
BLOCK_RECORD
  5
4DE
330
41B
100
AcDbSymbolTableRecord
100
AcDbBlockTableRecord
  2
DC_GROUP_4
340
0
 70
     0
280
     1
281
     0
  0
BLOCK_RECORD
  5
4E0
330
41B
100
AcDbSymbolTableRecord
100
AcDbBlockTableRecord
  2
DC_GROUP_5
340
0
102
{BLKREFS
331
10C
102
}
 70
     0
280
     1
281
     0
  0
BLOCK_RECORD
  5
4E2
330
41B
100
AcDbSymbolTableRecord
100
AcDbBlockTableRecord
  2
DC_GROUP_6
340
0
 70
     0
280
     1
281
     0
  0
BLOCK_RECORD
  5
4E4
330
41B
100
AcDbSymbolTableRecord
100
AcDbBlockTableRecord
  2
DC_GROUP_7
340
0
102
{BLKREFS
331
113
102
}
 70
     0
280
     1
281
     0
  0
BLOCK_RECORD
  5
4E6
330
41B
100
AcDbSymbolTableRecord
100
AcDbBlockTableRecord
  2
DC_GROUP_8
340
0
102
{BLKREFS
331
3DA
102
}
 70
     0
280
     1
281
     0
  0
BLOCK_RECORD
  5
4E8
330
41B
100
AcDbSymbolTableRecord
100
AcDbBlockTableRecord
  2
DA_IMAGEDIMGROUP_1
340
0
102
{BLKREFS
331
3FF
102
}
 70
     0
280
     1
281
     0
  0
BLOCK_RECORD
  5
4EA
330
41B
100
AcDbSymbolTableRecord
100
AcDbBlockTableRecord
  2
_OPEN30
340
0
102
{BLKREFS
331
128
331
12A
331
14E
331
14F
331
164
331
165
331
188
331
18C
331
18D
331
193
331
1A7
331
1A8
331
1AD
331
1AE
331
1B3
331
1B4
331
1BA
331
1BF
102
}
 70
     0
280
     1
281
     0
  0
BLOCK_RECORD
  5
4EB
330
41B
100
AcDbSymbolTableRecord
100
AcDbBlockTableRecord
  2
DC_GROUP_9
340
0
102
{BLKREFS
331
400
102
}
 70
     0
280
     1
281
     0
  0
BLOCK_RECORD
  5
4ED
330
41B
100
AcDbSymbolTableRecord
100
AcDbBlockTableRecord
  2
DC_GROUP_10
340
0
102
{BLKREFS
331
401
102
}
 70
     0
280
     1
281
     0
  0
BLOCK_RECORD
  5
4EF
330
41B
100
AcDbSymbolTableRecord
100
AcDbBlockTableRecord
  2
*D14
340
0
 70
     0
280
     1
281
     0
  0
BLOCK_RECORD
  5
4F1
330
41B
100
AcDbSymbolTableRecord
100
AcDbBlockTableRecord
  2
DC_GROUP_11
340
0
102
{BLKREFS
331
404
102
}
 70
     0
280
     1
281
     0
  0
BLOCK_RECORD
  5
4F3
330
41B
100
AcDbSymbolTableRecord
100
AcDbBlockTableRecord
  2
*D16
340
0
 70
     0
280
     1
281
     0
  0
BLOCK_RECORD
  5
4F5
330
41B
100
AcDbSymbolTableRecord
100
AcDbBlockTableRecord
  2
DC_GROUP_12
340
0
102
{BLKREFS
331
406
102
}
 70
     0
280
     1
281
     0
  0
BLOCK_RECORD
  5
4F7
330
41B
100
AcDbSymbolTableRecord
100
AcDbBlockTableRecord
  2
DC_GROUP_13
340
0
102
{BLKREFS
331
407
102
}
 70
     0
280
     1
281
     0
  0
BLOCK_RECORD
  5
4F9
330
41B
100
AcDbSymbolTableRecord
100
AcDbBlockTableRecord
  2
DC_GROUP_14
340
0
102
{BLKREFS
331
408
102
}
 70
     0
280
     1
281
     0
  0
BLOCK_RECORD
  5
4FB
330
41B
100
AcDbSymbolTableRecord
100
AcDbBlockTableRecord
  2
DC_GROUP_15
340
0
 70
     0
280
     1
281
     0
  0
BLOCK_RECORD
  5
4FD
330
41B
100
AcDbSymbolTableRecord
100
AcDbBlockTableRecord
  2
*D21
340
0
 70
     0
280
     1
281
     0
  0
BLOCK_RECORD
  5
4FF
330
41B
100
AcDbSymbolTableRecord
100
AcDbBlockTableRecord
  2
*D22
340
0
 70
     0
280
     1
281
     0
  0
BLOCK_RECORD
  5
501
330
41B
100
AcDbSymbolTableRecord
100
AcDbBlockTableRecord
  2
*D23
340
0
 70
     0
280
     1
281
     0
  0
BLOCK_RECORD
  5
503
330
41B
100
AcDbSymbolTableRecord
100
AcDbBlockTableRecord
  2
_DOT
340
0
102
{BLKREFS
331
1A0
102
}
 70
     0
280
     1
281
     0
  0
BLOCK_RECORD
  5
504
330
41B
100
AcDbSymbolTableRecord
100
AcDbBlockTableRecord
  2
*D25
340
0
 70
     0
280
     1
281
     0
  0
BLOCK_RECORD
  5
506
330
41B
100
AcDbSymbolTableRecord
100
AcDbBlockTableRecord
  2
*D26
340
0
 70
     0
280
     1
281
     0
  0
BLOCK_RECORD
  5
508
330
41B
100
AcDbSymbolTableRecord
100
AcDbBlockTableRecord
  2
*D27
340
0
 70
     0
280
     1
281
     0
  0
BLOCK_RECORD
  5
50A
330
41B
100
AcDbSymbolTableRecord
100
AcDbBlockTableRecord
  2
*D28
340
0
 70
     0
280
     1
281
     0
  0
BLOCK_RECORD
  5
50C
330
41B
100
AcDbSymbolTableRecord
100
AcDbBlockTableRecord
  2
DC_GROUP_16
340
0
 70
     0
280
     1
281
     0
  0
ENDTAB
  0
ENDSEC
  0
SECTION
  2
BLOCKS
  0
BLOCK
  5
486
330
485
100
AcDbEntity
  8
0
100
AcDbBlockBegin
  2
*Model_Space
 70
     0
 10
0.0
 20
0.0
 30
0.0
  3
*Model_Space
  1

  0
ENDBLK
  5
487
330
485
100
AcDbEntity
  8
0
100
AcDbBlockEnd
  0
BLOCK
  5
482
330
481
100
AcDbEntity
 67
     1
  8
0
100
AcDbBlockBegin
  2
*Paper_Space
 70
     0
 10
0.0
 20
0.0
 30
0.0
  3
*Paper_Space
  1

  0
ENDBLK
  5
483
330
481
100
AcDbEntity
 67
     1
  8
0
100
AcDbBlockEnd
  0
BLOCK
  5
4D5
330
4D4
100
AcDbEntity
  8
0
100
AcDbBlockBegin
  2
$MODEL_SPACE
 70
     0
 10
0.0
 20
0.0
 30
0.0
  3
$MODEL_SPACE
  1

  0
ENDBLK
  5
21
330
4D4
100
AcDbEntity
  8
0
100
AcDbBlockEnd
  0
BLOCK
  5
4D7
330
4D6
100
AcDbEntity
  8
0
100
AcDbBlockBegin
  2
$PAPER_SPACE
 70
     0
 10
0.0
 20
0.0
 30
0.0
  3
$PAPER_SPACE
  1

  0
ENDBLK
  5
1D
330
4D6
100
AcDbEntity
  8
0
100
AcDbBlockEnd
  0
BLOCK
  5
4D9
330
4D8
100
AcDbEntity
  8
0
100
AcDbBlockBegin
  2
DC_GROUP_1
 70
     0
 10
0.0
 20
0.0
 30
0.0
  3
DC_GROUP_1
  1

  0
LINE
  5
FF
330
4D8
100
AcDbEntity
  8
ZUWAKU
  6
Continuous
 62
     9
100
AcDbLine
 10
-630.0000000000002
 20
-6.9282032302753
 30
0.0
 11
-618.0000000000002
 21
0.0000000000001705
 31
0.0
  0
LINE
  5
100
330
4D8
100
AcDbEntity
  8
ZUWAKU
  6
Continuous
 62
     9
100
AcDbLine
 10
-630.0000000000002
 20
6.928203230275642
 30
0.0
 11
-630.0000000000002
 21
-6.9282032302753
 31
0.0
  0
LINE
  5
101
330
4D8
100
AcDbEntity
  8
ZUWAKU
  6
Continuous
 62
     9
100
AcDbLine
 10
-618.0000000000002
 20
0.0000000000001705
 30
0.0
 11
-630.0000000000002
 21
6.928203230275642
 31
0.0
  0
ENDBLK
  5
B3
330
4D8
100
AcDbEntity
  8
0
100
AcDbBlockEnd
  0
BLOCK
  5
4DB
330
4DA
100
AcDbEntity
  8
0
100
AcDbBlockBegin
  2
DC_GROUP_2
 70
     0
 10
0.0
 20
0.0
 30
0.0
  3
DC_GROUP_2
  1

  0
POINT
  5
102
330
4DA
100
AcDbEntity
  8
ZUWAKU
  6
Continuous
 62
     7
100
AcDbPoint
 10
316.5320811979531
 20
345.1189686903044
 30
0.0
  0
POINT
  5
103
330
4DA
100
AcDbEntity
  8
ZUWAKU
  6
Continuous
 62
     7
100
AcDbPoint
 10
317.5229611037103
 20
352.4999999999999
 30
0.0
  0
INSERT
  5
104
330
4DA
100
AcDbEntity
  8
ZUWAKU
  6
Continuous
100
AcDbBlockReference
  2
DC_GROUP_3
 10
0.0
 20
0.0
 30
0.0
  0
ENDBLK
  5
B6
330
4DA
100
AcDbEntity
  8
0
100
AcDbBlockEnd
  0
BLOCK
  5
4DD
330
4DC
100
AcDbEntity
  8
0
100
AcDbBlockBegin
  2
DC_GROUP_3
 70
     0
 10
0.0
 20
0.0
 30
0.0
  3
DC_GROUP_3
  1

  0
LINE
  5
105
330
4DC
100
AcDbEntity
  8
ZUWAKU
  6
Continuous
 62
     9
100
AcDbLine
 10
298.7879896907218
 20
347.4198729810777
 30
0.0
 11
306.2879896907218
 21
360.4102540378442
 31
0.0
  0
LINE
  5
106
330
4DC
100
AcDbEntity
  8
ZUWAKU
  6
Continuous
 62
     9
100
AcDbLine
 10
298.7879896907218
 20
347.4198729810777
 30
0.0
 11
313.7879896907218
 21
347.4198729810777
 31
0.0
  0
LINE
  5
107
330
4DC
100
AcDbEntity
  8
ZUWAKU
  6
Continuous
 62
     9
100
AcDbLine
 10
306.2879896907218
 20
360.4102540378442
 30
0.0
 11
313.7879896907218
 21
347.4198729810777
 31
0.0
  0
TEXT
  5
109
330
4DC
100
AcDbEntity
  8
ZUWAKU
 62
     4
100
AcDbText
 10
302.6879896907217
 20
347.9999999999998
 30
0.0
 40
9.0
  1
3
 41
1.200000000000026
  7
DCSTYLE0
 72
     5
 11
309.8879896907218
 21
347.9999999999998
 31
0.0
100
AcDbText
  0
ENDBLK
  5
B9
330
4DC
100
AcDbEntity
  8
0
100
AcDbBlockEnd
  0
BLOCK
  5
4DF
330
4DE
100
AcDbEntity
  8
0
100
AcDbBlockBegin
  2
DC_GROUP_4
 70
     0
 10
0.0
 20
0.0
 30
0.0
  3
DC_GROUP_4
  1

  0
POINT
  5
10A
330
4DE
100
AcDbEntity
  8
ZUWAKU
  6
Continuous
 62
     7
100
AcDbPoint
 10
316.5320811979531
 20
381.1189686903043
 30
0.0
  0
POINT
  5
10B
330
4DE
100
AcDbEntity
  8
ZUWAKU
  6
Continuous
 62
     7
100
AcDbPoint
 10
317.5229611037103
 20
388.4999999999998
 30
0.0
  0
INSERT
  5
10C
330
4DE
100
AcDbEntity
  8
ZUWAKU
  6
Continuous
100
AcDbBlockReference
  2
DC_GROUP_5
 10
0.0
 20
0.0
 30
0.0
  0
ENDBLK
  5
BC
330
4DE
100
AcDbEntity
  8
0
100
AcDbBlockEnd
  0
BLOCK
  5
4E1
330
4E0
100
AcDbEntity
  8
0
100
AcDbBlockBegin
  2
DC_GROUP_5
 70
     0
 10
0.0
 20
0.0
 30
0.0
  3
DC_GROUP_5
  1

  0
LINE
  5
10D
330
4E0
100
AcDbEntity
  8
ZUWAKU
  6
Continuous
 62
     9
100
AcDbLine
 10
298.7879896907218
 20
383.4198729810777
 30
0.0
 11
306.2879896907218
 21
396.410254037844
 31
0.0
  0
LINE
  5
10E
330
4E0
100
AcDbEntity
  8
ZUWAKU
  6
Continuous
 62
     9
100
AcDbLine
 10
298.7879896907218
 20
383.4198729810777
 30
0.0
 11
313.7879896907218
 21
383.4198729810777
 31
0.0
  0
LINE
  5
10F
330
4E0
100
AcDbEntity
  8
ZUWAKU
  6
Continuous
 62
     9
100
AcDbLine
 10
306.2879896907218
 20
396.410254037844
 30
0.0
 11
313.7879896907218
 21
383.4198729810777
 31
0.0
  0
TEXT
  5
110
330
4E0
100
AcDbEntity
  8
ZUWAKU
 62
     4
100
AcDbText
 10
302.6879896907217
 20
383.9999999999998
 30
0.0
 40
9.0
  1
1
 41
2.400000000000053
  7
DCSTYLE0
 72
     5
 11
309.8879896907218
 21
383.9999999999998
 31
0.0
100
AcDbText
  0
ENDBLK
  5
BF
330
4E0
100
AcDbEntity
  8
0
100
AcDbBlockEnd
  0
BLOCK
  5
4E3
330
4E2
100
AcDbEntity
  8
0
100
AcDbBlockBegin
  2
DC_GROUP_6
 70
     0
 10
0.0
 20
0.0
 30
0.0
  3
DC_GROUP_6
  1

  0
POINT
  5
111
330
4E2
100
AcDbEntity
  8
ZUWAKU
  6
Continuous
 62
     7
100
AcDbPoint
 10
316.5320811979529
 20
363.1189686903044
 30
0.0
  0
POINT
  5
112
330
4E2
100
AcDbEntity
  8
ZUWAKU
  6
Continuous
 62
     7
100
AcDbPoint
 10
317.5229611037103
 20
370.4999999999998
 30
0.0
  0
INSERT
  5
113
330
4E2
100
AcDbEntity
  8
ZUWAKU
  6
Continuous
100
AcDbBlockReference
  2
DC_GROUP_7
 10
0.0
 20
0.0
 30
0.0
  0
ENDBLK
  5
C2
330
4E2
100
AcDbEntity
  8
0
100
AcDbBlockEnd
  0
BLOCK
  5
4E5
330
4E4
100
AcDbEntity
  8
0
100
AcDbBlockBegin
  2
DC_GROUP_7
 70
     0
 10
0.0
 20
0.0
 30
0.0
  3
DC_GROUP_7
  1

  0
LINE
  5
114
330
4E4
100
AcDbEntity
  8
ZUWAKU
  6
Continuous
 62
     9
100
AcDbLine
 10
298.7879896907217
 20
365.4198729810777
 30
0.0
 11
306.2879896907217
 21
378.4102540378441
 31
0.0
  0
LINE
  5
115
330
4E4
100
AcDbEntity
  8
ZUWAKU
  6
Continuous
 62
     9
100
AcDbLine
 10
298.7879896907217
 20
365.4198729810777
 30
0.0
 11
313.7879896907217
 21
365.4198729810777
 31
0.0
  0
LINE
  5
116
330
4E4
100
AcDbEntity
  8
ZUWAKU
  6
Continuous
 62
     9
100
AcDbLine
 10
306.2879896907217
 20
378.4102540378441
 30
0.0
 11
313.7879896907217
 21
365.4198729810777
 31
0.0
  0
TEXT
  5
117
330
4E4
100
AcDbEntity
  8
ZUWAKU
 62
     4
100
AcDbText
 10
302.6879896907217
 20
365.9999999999998
 30
0.0
 40
9.0
  1
2
 41
1.200000000000007
  7
DCSTYLE0
 72
     5
 11
309.8879896907217
 21
365.9999999999998
 31
0.0
100
AcDbText
  0
ENDBLK
  5
C5
330
4E4
100
AcDbEntity
  8
0
100
AcDbBlockEnd
  0
BLOCK
  5
4E7
330
4E6
100
AcDbEntity
  8
0
100
AcDbBlockBegin
  2
DC_GROUP_8
 70
     0
 10
0.0
 20
0.0
 30
0.0
  3
DC_GROUP_8
  1

  0
POINT
  5
118
330
4E6
100
AcDbEntity
  8
ZUWAKU
  6
Continuous
 62
     2
100
AcDbPoint
 10
445.7879896907216
 20
-352.5
 30
0.0
  0
POINT
  5
119
330
4E6
100
AcDbEntity
  8
ZUWAKU
  6
Continuous
 62
     2
100
AcDbPoint
 10
445.7879896907216
 20
-334.5
 30
0.0
  0
POINT
  5
11A
330
4E6
100
AcDbEntity
  8
ZUWAKU
  6
Continuous
 62
     2
100
AcDbPoint
 10
445.7879896907216
 20
-316.5
 30
0.0
  0
POINT
  5
11B
330
4E6
100
AcDbEntity
  8
ZUWAKU
  6
Continuous
 62
     2
100
AcDbPoint
 10
580.7879896907216
 20
-397.5
 30
0.0
  0
POINT
  5
11C
330
4E6
100
AcDbEntity
  8
ZUWAKU
  6
Continuous
 62
     2
100
AcDbPoint
 10
541.7879896907217
 20
-397.5
 30
0.0
  0
POINT
  5
11D
330
4E6
100
AcDbEntity
  8
ZUWAKU
  6
Continuous
 62
     2
100
AcDbPoint
 10
445.7879896907216
 20
-298.5
 30
0.0
  0
POINT
  5
11E
330
4E6
100
AcDbEntity
  8
ZUWAKU
  6
Continuous
 62
     2
100
AcDbPoint
 10
445.7879896907216
 20
-280.5
 30
0.0
  0
ENDBLK
  5
C8
330
4E6
100
AcDbEntity
  8
0
100
AcDbBlockEnd
  0
BLOCK
  5
4E9
330
4E8
100
AcDbEntity
  8
0
100
AcDbBlockBegin
  2
DA_IMAGEDIMGROUP_1
 70
     0
 10
0.0
 20
0.0
 30
0.0
  3
DA_IMAGEDIMGROUP_1
  1

  0
LINE
  5
11F
330
4E8
100
AcDbEntity
  8
LAYER0016
  6
Continuous
 62
     9
100
AcDbLine
 10
-117.069578471068
 20
197.1892377218251
 30
0.0
 11
-95.36957847106803
 21
197.1892377218251
 31
0.0
  0
LINE
  5
120
330
4E8
100
AcDbEntity
  8
LAYER0016
  6
Continuous
 62
     9
100
AcDbLine
 10
-117.069578471068
 20
155.1892377218251
 30
0.0
 11
-117.069578471068
 21
200.1892377218251
 31
0.0
  0
LINE
  5
121
330
4E8
100
AcDbEntity
  8
LAYER0016
  6
Continuous
 62
     9
100
AcDbLine
 10
-32.67623847106804
 20
197.1892377218251
 30
0.0
 11
-95.36957847106803
 21
197.1892377218251
 31
0.0
  0
INSERT
  5
128
330
4E8
100
AcDbEntity
  8
LAYER0016
 62
     9
100
AcDbBlockReference
  2
_OPEN30
 10
-95.36957847106803
 20
197.1892377218251
 30
0.0
 41
9.000008422845859
 42
8.99996810467093
 50
180.0
  0
LINE
  5
129
330
4E8
100
AcDbEntity
  8
LAYER0016
  6
Continuous
 62
     9
100
AcDbLine
 10
-132.069578471068
 20
197.1892377218251
 30
0.0
 11
-117.069578471068
 21
197.1892377218251
 31
0.0
  0
INSERT
  5
12A
330
4E8
100
AcDbEntity
  8
LAYER0016
 62
     9
100
AcDbBlockReference
  2
_OPEN30
 10
-117.069578471068
 20
197.1892377218251
 30
0.0
 41
9.000008422845859
 42
8.99996810467093
  0
TEXT
  5
12B
330
4E8
100
AcDbEntity
  8
LAYER0016
 62
     7
100
AcDbText
 10
-83.67623847106804
 20
200.1892377218251
 30
0.0
 40
12.0
  1
φ21.7
 41
1.034482758620689
  7
DCSTYLE0
 72
     5
 11
-35.67623847106804
 21
200.1892377218251
 31
0.0
100
AcDbText
  0
LINE
  5
12C
330
4E8
100
AcDbEntity
  8
LAYER0016
  6
Continuous
 62
     9
100
AcDbLine
 10
-95.36957847106803
 20
155.1892377218251
 30
0.0
 11
-95.36957847106803
 21
200.1892377218251
 31
0.0
  0
ENDBLK
  5
CB
330
4E8
100
AcDbEntity
  8
0
100
AcDbBlockEnd
  0
BLOCK
  5
50E
330
4EA
100
AcDbEntity
  8
0
100
AcDbBlockBegin
  2
_OPEN30
 70
     0
 10
0.0
 20
0.0
 30
0.0
  3
_OPEN30
  1

  0
LINE
  5
125
330
4EA
100
AcDbEntity
  8
0
  6
ByBlock
 62
     0
100
AcDbLine
 10
-1.0
 20
0.267949
 30
0.0
 11
0.0
 21
0.0
 31
0.0
  0
LINE
  5
126
330
4EA
100
AcDbEntity
  8
0
  6
ByBlock
 62
     0
100
AcDbLine
 10
0.0
 20
0.0
 30
0.0
 11
-1.0
 21
-0.267949
 31
0.0
  0
LINE
  5
127
330
4EA
100
AcDbEntity
  8
0
  6
ByBlock
 62
     0
100
AcDbLine
 10
0.0
 20
0.0
 30
0.0
 11
-1.0
 21
0.0
 31
0.0
  0
ENDBLK
  5
124
330
4EA
100
AcDbEntity
  8
0
100
AcDbBlockEnd
  0
BLOCK
  5
4EC
330
4EB
100
AcDbEntity
  8
0
100
AcDbBlockBegin
  2
DC_GROUP_9
 70
     0
 10
0.0
 20
0.0
 30
0.0
  3
DC_GROUP_9
  1

  0
LINE
  5
12D
330
4EB
100
AcDbEntity
  8
LAYER0016
  6
Continuous
 62
     3
100
AcDbLine
 10
-79.51638449319943
 20
-205.8107622781749
 30
0.0
 11
-51.51638449319943
 21
-205.8107622781749
 31
0.0
  0
LINE
  5
12E
330
4EB
100
AcDbEntity
  8
LAYER0016
  6
Continuous
 62
     3
100
AcDbLine
 10
-79.51638449319943
 20
-205.8107622781749
 30
0.0
 11
-79.51638449319943
 21
-207.1440956115082
 31
0.0
  0
LINE
  5
12F
330
4EB
100
AcDbEntity
  8
LAYER0016
  6
Continuous
 62
     3
100
AcDbLine
 10
-51.51638449319943
 20
-205.8107622781749
 30
0.0
 11
-51.51638449319943
 21
-207.1440956115082
 31
0.0
  0
LINE
  5
130
330
4EB
100
AcDbEntity
  8
LAYER0016
  6
Continuous
 62
     3
100
AcDbLine
 10
-73.00778166769077
 20
-218.8107622781749
 30
0.0
 11
-58.02498731870821
 21
-218.8107622781749
 31
0.0
  0
LINE
  5
131
330
4EB
100
AcDbEntity
  8
LAYER0016
  6
Continuous
 62
     3
100
AcDbLine
 10
-74.93082956297245
 20
-217.3602045339696
 30
0.0
 11
-76.41492577758572
 21
-212.1658677828229
 31
0.0
  0
LINE
  5
132
330
4EB
100
AcDbEntity
  8
LAYER0016
  6
Continuous
 62
     3
100
AcDbLine
 10
-76.73797367286737
 20
-211.5153100386176
 30
0.0
 11
-79.11638449319944
 21
-208.3440956115082
 31
0.0
  0
ARC
  5
133
330
4EB
100
AcDbEntity
  8
LAYER0016
  6
Continuous
 62
     3
100
AcDbCircle
 10
-73.00778166769077
 20
-216.8107622781749
 30
0.0
 40
2.0
100
AcDbArc
 50
195.9453959009229
 51
270.0
  0
ARC
  5
134
330
4EB
100
AcDbEntity
  8
LAYER0016
  6
Continuous
 62
     3
100
AcDbCircle
 10
-78.33797367286741
 20
-212.7153100386176
 30
0.0
 40
2.0
100
AcDbArc
 50
15.94539590092246
 51
36.86989764584418
  0
ARC
  5
135
330
4EB
100
AcDbEntity
  8
LAYER0016
  6
Continuous
 62
     3
100
AcDbCircle
 10
-77.51638449319944
 20
-207.1440956115082
 30
0.0
 40
2.0
100
AcDbArc
 50
180.0
 51
216.8698976458442
  0
LINE
  5
136
330
4EB
100
AcDbEntity
  8
LAYER0016
  6
Continuous
 62
     3
100
AcDbLine
 10
-56.10193942342654
 20
-217.3602045339696
 30
0.0
 11
-54.61784320881315
 21
-212.1658677828229
 31
0.0
  0
LINE
  5
137
330
4EB
100
AcDbEntity
  8
LAYER0016
  6
Continuous
 62
     3
100
AcDbLine
 10
-54.29479531353149
 20
-211.5153100386176
 30
0.0
 11
-51.91638449319952
 21
-208.3440956115082
 31
0.0
  0
ARC
  5
138
330
4EB
100
AcDbEntity
  8
LAYER0016
  6
Continuous
 62
     3
100
AcDbCircle
 10
-52.69479531353159
 20
-212.7153100386176
 30
0.0
 40
2.0
100
AcDbArc
 50
143.1301023541558
 51
164.0546040990775
  0
ARC
  5
139
330
4EB
100
AcDbEntity
  8
LAYER0016
  6
Continuous
 62
     3
100
AcDbCircle
 10
-58.02498731870821
 20
-216.8107622781749
 30
0.0
 40
2.0
100
AcDbArc
 50
270.0
 51
344.0546040990772
  0
ARC
  5
13A
330
4EB
100
AcDbEntity
  8
LAYER0016
  6
Continuous
 62
     3
100
AcDbCircle
 10
-53.51638449319943
 20
-207.1440956115082
 30
0.0
 40
2.0
100
AcDbArc
 50
323.1301023541558
 51
0.0
  0
POINT
  5
13B
330
4EB
100
AcDbEntity
  8
LAYER0016
  6
Continuous
 62
    30
100
AcDbPoint
 10
-65.51638449319944
 20
-205.8107622781749
 30
0.0
  0
POINT
  5
13C
330
4EB
100
AcDbEntity
  8
LAYER0016
  6
Continuous
 62
    30
100
AcDbPoint
 10
-65.51638449319944
 20
-218.8107622781749
 30
0.0
  0
ENDBLK
  5
CE
330
4EB
100
AcDbEntity
  8
0
100
AcDbBlockEnd
  0
BLOCK
  5
4EE
330
4ED
100
AcDbEntity
  8
0
100
AcDbBlockBegin
  2
DC_GROUP_10
 70
     0
 10
0.0
 20
0.0
 30
0.0
  3
DC_GROUP_10
  1

  0
LINE
  5
13D
330
4ED
100
AcDbEntity
  8
LAYER0016
  6
Continuous
 62
     3
100
AcDbLine
 10
-120.2195784710681
 20
-205.8107622781749
 30
0.0
 11
-92.21957847106807
 21
-205.8107622781749
 31
0.0
  0
LINE
  5
13E
330
4ED
100
AcDbEntity
  8
LAYER0016
  6
Continuous
 62
     3
100
AcDbLine
 10
-120.2195784710681
 20
-205.8107622781749
 30
0.0
 11
-120.2195784710681
 21
-207.1440956115082
 31
0.0
  0
LINE
  5
13F
330
4ED
100
AcDbEntity
  8
LAYER0016
  6
Continuous
 62
     3
100
AcDbLine
 10
-92.21957847106807
 20
-205.8107622781749
 30
0.0
 11
-92.21957847106807
 21
-207.1440956115082
 31
0.0
  0
LINE
  5
140
330
4ED
100
AcDbEntity
  8
LAYER0016
  6
Continuous
 62
     3
100
AcDbLine
 10
-113.7109756455593
 20
-218.8107622781749
 30
0.0
 11
-98.72818129657673
 21
-218.8107622781749
 31
0.0
  0
LINE
  5
141
330
4ED
100
AcDbEntity
  8
LAYER0016
  6
Continuous
 62
     3
100
AcDbLine
 10
-115.634023540841
 20
-217.3602045339696
 30
0.0
 11
-117.1181197554544
 21
-212.1658677828229
 31
0.0
  0
LINE
  5
142
330
4ED
100
AcDbEntity
  8
LAYER0016
  6
Continuous
 62
     3
100
AcDbLine
 10
-117.441167650736
 20
-211.5153100386176
 30
0.0
 11
-119.819578471068
 21
-208.3440956115082
 31
0.0
  0
ARC
  5
143
330
4ED
100
AcDbEntity
  8
LAYER0016
  6
Continuous
 62
     3
100
AcDbCircle
 10
-113.7109756455593
 20
-216.8107622781749
 30
0.0
 40
2.0
100
AcDbArc
 50
195.9453959009229
 51
270.0
  0
ARC
  5
144
330
4ED
100
AcDbEntity
  8
LAYER0016
  6
Continuous
 62
     3
100
AcDbCircle
 10
-119.0411676507359
 20
-212.7153100386176
 30
0.0
 40
2.0
100
AcDbArc
 50
15.94539590092246
 51
36.86989764584418
  0
ARC
  5
145
330
4ED
100
AcDbEntity
  8
LAYER0016
  6
Continuous
 62
     3
100
AcDbCircle
 10
-118.2195784710681
 20
-207.1440956115082
 30
0.0
 40
2.0
100
AcDbArc
 50
180.0
 51
216.8698976458442
  0
LINE
  5
146
330
4ED
100
AcDbEntity
  8
LAYER0016
  6
Continuous
 62
     3
100
AcDbLine
 10
-96.80513340129506
 20
-217.3602045339696
 30
0.0
 11
-95.3210371866818
 21
-212.1658677828229
 31
0.0
  0
LINE
  5
147
330
4ED
100
AcDbEntity
  8
LAYER0016
  6
Continuous
 62
     3
100
AcDbLine
 10
-94.99798929140013
 20
-211.5153100386176
 30
0.0
 11
-92.61957847106804
 21
-208.3440956115082
 31
0.0
  0
ARC
  5
148
330
4ED
100
AcDbEntity
  8
LAYER0016
  6
Continuous
 62
     3
100
AcDbCircle
 10
-93.39798929140012
 20
-212.7153100386176
 30
0.0
 40
2.0
100
AcDbArc
 50
143.1301023541558
 51
164.0546040990775
  0
ARC
  5
149
330
4ED
100
AcDbEntity
  8
LAYER0016
  6
Continuous
 62
     3
100
AcDbCircle
 10
-98.72818129657673
 20
-216.8107622781749
 30
0.0
 40
2.0
100
AcDbArc
 50
270.0
 51
344.0546040990772
  0
ARC
  5
14A
330
4ED
100
AcDbEntity
  8
LAYER0016
  6
Continuous
 62
     3
100
AcDbCircle
 10
-94.21957847106808
 20
-207.1440956115082
 30
0.0
 40
2.0
100
AcDbArc
 50
323.1301023541558
 51
0.0
  0
POINT
  5
14B
330
4ED
100
AcDbEntity
  8
LAYER0016
  6
Continuous
 62
    30
100
AcDbPoint
 10
-106.2195784710681
 20
-205.8107622781749
 30
0.0
  0
POINT
  5
14C
330
4ED
100
AcDbEntity
  8
LAYER0016
  6
Continuous
 62
    30
100
AcDbPoint
 10
-106.2195784710681
 20
-218.8107622781749
 30
0.0
  0
ENDBLK
  5
D1
330
4ED
100
AcDbEntity
  8
0
100
AcDbBlockEnd
  0
BLOCK
  5
4F0
330
4EF
100
AcDbEntity
  8
0
100
AcDbBlockBegin
  2
*D14
 70
     1
 10
0.0
 20
0.0
 30
0.0
  3
*D14
  1

  0
LINE
  5
14D
330
4EF
100
AcDbEntity
  8
LAYER0016
  6
Continuous
 62
     9
100
AcDbLine
 10
-247.219578471068
 20
-218.8107622781749
 30
0.0
 11
-247.219578471068
 21
152.1892377218251
 31
0.0
  0
INSERT
  5
14E
330
4EF
100
AcDbEntity
  8
LAYER0016
 62
     9
100
AcDbBlockReference
  2
_OPEN30
 10
-247.219578471068
 20
-218.8107622781749
 30
0.0
 41
9.000008422845859
 42
8.99996810467093
 50
270.0
  0
INSERT
  5
14F
330
4EF
100
AcDbEntity
  8
LAYER0016
 62
     9
100
AcDbBlockReference
  2
_OPEN30
 10
-247.219578471068
 20
152.1892377218251
 30
0.0
 41
9.000008422845859
 42
8.99996810467093
 50
90.0
  0
TEXT
  5
150
330
4EF
100
AcDbEntity
  8
LAYER0016
 62
     7
100
AcDbText
 10
-250.219578471068
 20
-47.71076227817484
 30
0.0
 40
12.0
  1
371
 50
90.0
 41
1.028571428571427
  7
DCSTYLE0
 72
     5
 11
-250.219578471068
 21
-18.91076227817487
 31
0.0
100
AcDbText
  0
LINE
  5
151
330
4EF
100
AcDbEntity
  8
LAYER0016
  6
Continuous
 62
     9
100
AcDbLine
 10
-156.8868436120222
 20
-218.8107622781749
 30
0.0
 11
-250.219578471068
 21
-218.8107622781749
 31
0.0
  0
LINE
  5
152
330
4EF
100
AcDbEntity
  8
LAYER0016
  6
Continuous
 62
     9
100
AcDbLine
 10
-120.069578471068
 20
152.1892377218251
 30
0.0
 11
-250.219578471068
 21
152.1892377218251
 31
0.0
  0
ENDBLK
  5
D4
330
4EF
100
AcDbEntity
  8
0
100
AcDbBlockEnd
  0
BLOCK
  5
4F2
330
4F1
100
AcDbEntity
  8
0
100
AcDbBlockBegin
  2
DC_GROUP_11
 70
     0
 10
0.0
 20
0.0
 30
0.0
  3
DC_GROUP_11
  1

  0
LINE
  5
153
330
4F1
100
AcDbEntity
  8
LAYER0016
  6
Continuous
 62
     3
100
AcDbLine
 10
-132.9227724489365
 20
-205.8107622781749
 30
0.0
 11
-160.9227724489365
 21
-205.8107622781749
 31
0.0
  0
LINE
  5
154
330
4F1
100
AcDbEntity
  8
LAYER0016
  6
Continuous
 62
     3
100
AcDbLine
 10
-132.9227724489365
 20
-205.8107622781749
 30
0.0
 11
-132.9227724489365
 21
-207.1440956115082
 31
0.0
  0
LINE
  5
155
330
4F1
100
AcDbEntity
  8
LAYER0016
  6
Continuous
 62
     3
100
AcDbLine
 10
-160.9227724489365
 20
-205.8107622781749
 30
0.0
 11
-160.9227724489365
 21
-207.1440956115082
 31
0.0
  0
LINE
  5
156
330
4F1
100
AcDbEntity
  8
LAYER0016
  6
Continuous
 62
     3
100
AcDbLine
 10
-139.4313752744453
 20
-218.8107622781749
 30
0.0
 11
-154.4141696234278
 21
-218.8107622781749
 31
0.0
  0
LINE
  5
157
330
4F1
100
AcDbEntity
  8
LAYER0016
  6
Continuous
 62
     3
100
AcDbLine
 10
-137.5083273791636
 20
-217.3602045339696
 30
0.0
 11
-136.0242311645502
 21
-212.1658677828229
 31
0.0
  0
LINE
  5
158
330
4F1
100
AcDbEntity
  8
LAYER0016
  6
Continuous
 62
     3
100
AcDbLine
 10
-135.7011832692684
 20
-211.5153100386176
 30
0.0
 11
-133.3227724489366
 21
-208.3440956115082
 31
0.0
  0
ARC
  5
159
330
4F1
100
AcDbEntity
  8
LAYER0016
  6
Continuous
 62
     3
100
AcDbCircle
 10
-139.4313752744453
 20
-216.8107622781749
 30
0.0
 40
2.0
100
AcDbArc
 50
270.0
 51
344.0546040990772
  0
ARC
  5
15A
330
4F1
100
AcDbEntity
  8
LAYER0016
  6
Continuous
 62
     3
100
AcDbCircle
 10
-134.1011832692686
 20
-212.7153100386176
 30
0.0
 40
2.0
100
AcDbArc
 50
143.1301023541558
 51
164.0546040990775
  0
ARC
  5
15B
330
4F1
100
AcDbEntity
  8
LAYER0016
  6
Continuous
 62
     3
100
AcDbCircle
 10
-134.9227724489365
 20
-207.1440956115082
 30
0.0
 40
2.0
100
AcDbArc
 50
323.1301023541558
 51
0.0
  0
LINE
  5
15C
330
4F1
100
AcDbEntity
  8
LAYER0016
  6
Continuous
 62
     3
100
AcDbLine
 10
-156.3372175187095
 20
-217.3602045339696
 30
0.0
 11
-157.8213137333228
 21
-212.1658677828229
 31
0.0
  0
LINE
  5
15D
330
4F1
100
AcDbEntity
  8
LAYER0016
  6
Continuous
 62
     3
100
AcDbLine
 10
-158.1443616286044
 20
-211.5153100386176
 30
0.0
 11
-160.5227724489365
 21
-208.3440956115082
 31
0.0
  0
ARC
  5
15E
330
4F1
100
AcDbEntity
  8
LAYER0016
  6
Continuous
 62
     3
100
AcDbCircle
 10
-159.7443616286045
 20
-212.7153100386176
 30
0.0
 40
2.0
100
AcDbArc
 50
15.94539590092246
 51
36.86989764584418
  0
ARC
  5
15F
330
4F1
100
AcDbEntity
  8
LAYER0016
  6
Continuous
 62
     3
100
AcDbCircle
 10
-154.4141696234278
 20
-216.8107622781749
 30
0.0
 40
2.0
100
AcDbArc
 50
195.9453959009229
 51
270.0
  0
ARC
  5
160
330
4F1
100
AcDbEntity
  8
LAYER0016
  6
Continuous
 62
     3
100
AcDbCircle
 10
-158.9227724489365
 20
-207.1440956115082
 30
0.0
 40
2.0
100
AcDbArc
 50
180.0
 51
216.8698976458442
  0
POINT
  5
161
330
4F1
100
AcDbEntity
  8
LAYER0016
  6
Continuous
 62
    30
100
AcDbPoint
 10
-146.9227724489365
 20
-205.8107622781749
 30
0.0
  0
POINT
  5
162
330
4F1
100
AcDbEntity
  8
LAYER0016
  6
Continuous
 62
    30
100
AcDbPoint
 10
-146.9227724489365
 20
-218.8107622781749
 30
0.0
  0
ENDBLK
  5
D7
330
4F1
100
AcDbEntity
  8
0
100
AcDbBlockEnd
  0
BLOCK
  5
4F4
330
4F3
100
AcDbEntity
  8
0
100
AcDbBlockBegin
  2
*D16
 70
     1
 10
0.0
 20
0.0
 30
0.0
  3
*D16
  1

  0
LINE
  5
163
330
4F3
100
AcDbEntity
  8
LAYER0016
  6
Continuous
 62
     9
100
AcDbLine
 10
-217.219578471068
 20
309.8886263167885
 30
0.0
 11
-217.219578471068
 21
356.8886263167885
 31
0.0
  0
INSERT
  5
164
330
4F3
100
AcDbEntity
  8
LAYER0016
 62
     9
100
AcDbBlockReference
  2
_OPEN30
 10
-217.219578471068
 20
309.8886263167885
 30
0.0
 41
9.000008422845859
 42
8.99996810467093
 50
270.0
  0
INSERT
  5
165
330
4F3
100
AcDbEntity
  8
LAYER0016
 62
     9
100
AcDbBlockReference
  2
_OPEN30
 10
-217.219578471068
 20
356.8886263167885
 30
0.0
 41
9.000008422845859
 42
8.99996810467093
 50
90.0
  0
LINE
  5
166
330
4F3
100
AcDbEntity
  8
LAYER0016
  6
Continuous
 62
     9
100
AcDbLine
 10
-108.219578471068
 20
309.8886263167885
 30
0.0
 11
-220.219578471068
 21
309.8886263167885
 31
0.0
  0
TEXT
  5
167
330
4F3
100
AcDbEntity
  8
LAYER0016
 62
     7
100
AcDbText
 10
-220.219578471068
 20
323.7886263167885
 30
0.0
 40
12.0
  1
47
 50
90.0
 41
0.9599999999999935
  7
DCSTYLE0
 72
     5
 11
-220.219578471068
 21
342.9886263167884
 31
0.0
100
AcDbText
  0
LINE
  5
168
330
4F3
100
AcDbEntity
  8
LAYER0016
  6
Continuous
 62
     9
100
AcDbLine
 10
-108.219578471068
 20
356.8886263167885
 30
0.0
 11
-220.219578471068
 21
356.8886263167885
 31
0.0
  0
ENDBLK
  5
DA
330
4F3
100
AcDbEntity
  8
0
100
AcDbBlockEnd
  0
BLOCK
  5
4F6
330
4F5
100
AcDbEntity
  8
0
100
AcDbBlockBegin
  2
DC_GROUP_12
 70
     0
 10
0.0
 20
0.0
 30
0.0
  3
DC_GROUP_12
  1

  0
POINT
  5
169
330
4F5
100
AcDbEntity
  8
LAYER0016
  6
Continuous
 62
    30
100
AcDbPoint
 10
-106.219578471068
 20
-86.81076227817511
 30
0.0
  0
POINT
  5
16A
330
4F5
100
AcDbEntity
  8
LAYER0016
  6
Continuous
 62
    30
100
AcDbPoint
 10
-106.219578471068
 20
-202.8107622781749
 30
0.0
  0
POINT
  5
16B
330
4F5
100
AcDbEntity
  8
LAYER0016
  6
Continuous
 62
    30
100
AcDbPoint
 10
-125.2195784710681
 20
-144.8107622781751
 30
0.0
  0
POINT
  5
16C
330
4F5
100
AcDbEntity
  8
LAYER0016
  6
Continuous
 62
    30
100
AcDbPoint
 10
-87.21957847106796
 20
-144.8107622781751
 30
0.0
  0
LINE
  5
16D
330
4F5
100
AcDbEntity
  8
LAYER0016
  6
DIVIDE
 62
     6
100
AcDbLine
 10
-166.2195784710682
 20
-202.8107622781749
 30
0.0
 11
-166.2195784710681
 21
-86.81076227817511
 31
0.0
  0
LINE
  5
16E
330
4F5
100
AcDbEntity
  8
LAYER0016
  6
DIVIDE
 62
     6
100
AcDbLine
 10
-166.2195784710681
 20
-86.81076227817511
 30
0.0
 11
-46.21957847106796
 21
-86.81076227817511
 31
0.0
  0
LINE
  5
16F
330
4F5
100
AcDbEntity
  8
LAYER0016
  6
DIVIDE
 62
     6
100
AcDbLine
 10
-46.21957847106796
 20
-202.8107622781749
 30
0.0
 11
-166.2195784710682
 21
-202.8107622781749
 31
0.0
  0
LINE
  5
170
330
4F5
100
AcDbEntity
  8
LAYER0016
  6
DIVIDE
 62
     6
100
AcDbLine
 10
-46.21957847106796
 20
-202.8107622781749
 30
0.0
 11
-46.21957847106796
 21
-86.81076227817511
 31
0.0
  0
LINE
  5
171
330
4F5
100
AcDbEntity
  8
LAYER0016
  6
DIVIDE
 62
     6
100
AcDbLine
 10
-125.2195784710681
 20
-202.8107622781749
 30
0.0
 11
-125.2195784710681
 21
-86.81076227817511
 31
0.0
  0
LINE
  5
172
330
4F5
100
AcDbEntity
  8
LAYER0016
  6
DIVIDE
 62
     6
100
AcDbLine
 10
-87.21957847106796
 20
-202.8107622781749
 30
0.0
 11
-87.21957847106796
 21
-86.81076227817511
 31
0.0
  0
ENDBLK
  5
DD
330
4F5
100
AcDbEntity
  8
0
100
AcDbBlockEnd
  0
BLOCK
  5
4F8
330
4F7
100
AcDbEntity
  8
0
100
AcDbBlockBegin
  2
DC_GROUP_13
 70
     0
 10
0.0
 20
0.0
 30
0.0
  3
DC_GROUP_13
  1

  0
POINT
  5
173
330
4F7
100
AcDbEntity
  8
LAYER0016
  6
Continuous
 62
    30
100
AcDbPoint
 10
-106.219578471068
 20
29.18923772182461
 30
0.0
  0
POINT
  5
174
330
4F7
100
AcDbEntity
  8
LAYER0016
  6
Continuous
 62
    30
100
AcDbPoint
 10
-106.219578471068
 20
-86.81076227817511
 30
0.0
  0
POINT
  5
175
330
4F7
100
AcDbEntity
  8
LAYER0016
  6
Continuous
 62
    30
100
AcDbPoint
 10
-125.2195784710681
 20
-28.81076227817539
 30
0.0
  0
POINT
  5
176
330
4F7
100
AcDbEntity
  8
LAYER0016
  6
Continuous
 62
    30
100
AcDbPoint
 10
-87.21957847106796
 20
-28.81076227817539
 30
0.0
  0
LINE
  5
177
330
4F7
100
AcDbEntity
  8
LAYER0016
  6
DIVIDE
 62
     6
100
AcDbLine
 10
-166.2195784710682
 20
-86.81076227817511
 30
0.0
 11
-166.2195784710681
 21
29.18923772182461
 31
0.0
  0
LINE
  5
178
330
4F7
100
AcDbEntity
  8
LAYER0016
  6
DIVIDE
 62
     6
100
AcDbLine
 10
-166.2195784710681
 20
29.18923772182461
 30
0.0
 11
-46.21957847106796
 21
29.18923772182461
 31
0.0
  0
LINE
  5
179
330
4F7
100
AcDbEntity
  8
LAYER0016
  6
DIVIDE
 62
     6
100
AcDbLine
 10
-46.21957847106796
 20
-86.81076227817511
 30
0.0
 11
-166.2195784710682
 21
-86.81076227817511
 31
0.0
  0
LINE
  5
17A
330
4F7
100
AcDbEntity
  8
LAYER0016
  6
DIVIDE
 62
     6
100
AcDbLine
 10
-46.21957847106796
 20
-86.81076227817511
 30
0.0
 11
-46.21957847106796
 21
29.18923772182461
 31
0.0
  0
LINE
  5
17B
330
4F7
100
AcDbEntity
  8
LAYER0016
  6
DIVIDE
 62
     6
100
AcDbLine
 10
-125.2195784710681
 20
-86.81076227817511
 30
0.0
 11
-125.2195784710681
 21
29.18923772182461
 31
0.0
  0
LINE
  5
17C
330
4F7
100
AcDbEntity
  8
LAYER0016
  6
DIVIDE
 62
     6
100
AcDbLine
 10
-87.21957847106796
 20
-86.81076227817511
 30
0.0
 11
-87.21957847106796
 21
29.18923772182461
 31
0.0
  0
ENDBLK
  5
E0
330
4F7
100
AcDbEntity
  8
0
100
AcDbBlockEnd
  0
BLOCK
  5
4FA
330
4F9
100
AcDbEntity
  8
0
100
AcDbBlockBegin
  2
DC_GROUP_14
 70
     0
 10
0.0
 20
0.0
 30
0.0
  3
DC_GROUP_14
  1

  0
POINT
  5
17D
330
4F9
100
AcDbEntity
  8
LAYER0016
  6
Continuous
 62
    30
100
AcDbPoint
 10
-106.219578471068
 20
145.1892377218244
 30
0.0
  0
POINT
  5
17E
330
4F9
100
AcDbEntity
  8
LAYER0016
  6
Continuous
 62
    30
100
AcDbPoint
 10
-106.219578471068
 20
29.18923772182461
 30
0.0
  0
POINT
  5
17F
330
4F9
100
AcDbEntity
  8
LAYER0016
  6
Continuous
 62
    30
100
AcDbPoint
 10
-125.2195784710681
 20
87.18923772182439
 30
0.0
  0
POINT
  5
180
330
4F9
100
AcDbEntity
  8
LAYER0016
  6
Continuous
 62
    30
100
AcDbPoint
 10
-87.21957847106796
 20
87.18923772182439
 30
0.0
  0
LINE
  5
181
330
4F9
100
AcDbEntity
  8
LAYER0016
  6
DIVIDE
 62
     6
100
AcDbLine
 10
-166.2195784710682
 20
29.18923772182461
 30
0.0
 11
-166.2195784710681
 21
145.1892377218244
 31
0.0
  0
LINE
  5
182
330
4F9
100
AcDbEntity
  8
LAYER0016
  6
DIVIDE
 62
     6
100
AcDbLine
 10
-166.2195784710681
 20
145.1892377218244
 30
0.0
 11
-46.21957847106796
 21
145.1892377218244
 31
0.0
  0
LINE
  5
183
330
4F9
100
AcDbEntity
  8
LAYER0016
  6
DIVIDE
 62
     6
100
AcDbLine
 10
-46.21957847106796
 20
29.18923772182461
 30
0.0
 11
-166.2195784710682
 21
29.18923772182461
 31
0.0
  0
LINE
  5
184
330
4F9
100
AcDbEntity
  8
LAYER0016
  6
DIVIDE
 62
     6
100
AcDbLine
 10
-46.21957847106796
 20
29.18923772182461
 30
0.0
 11
-46.21957847106796
 21
145.1892377218244
 31
0.0
  0
LINE
  5
185
330
4F9
100
AcDbEntity
  8
LAYER0016
  6
DIVIDE
 62
     6
100
AcDbLine
 10
-125.2195784710681
 20
29.18923772182461
 30
0.0
 11
-125.2195784710681
 21
145.1892377218244
 31
0.0
  0
LINE
  5
186
330
4F9
100
AcDbEntity
  8
LAYER0016
  6
DIVIDE
 62
     6
100
AcDbLine
 10
-87.21957847106796
 20
29.18923772182461
 30
0.0
 11
-87.21957847106796
 21
145.1892377218244
 31
0.0
  0
ENDBLK
  5
E3
330
4F9
100
AcDbEntity
  8
0
100
AcDbBlockEnd
  0
BLOCK
  5
4FC
330
4FB
100
AcDbEntity
  8
0
100
AcDbBlockBegin
  2
DC_GROUP_15
 70
     0
 10
0.0
 20
0.0
 30
0.0
  3
DC_GROUP_15
  1

  0
LINE
  5
187
330
4FB
100
AcDbEntity
  8
LAYER0016
  6
Continuous
 62
     9
100
AcDbLine
 10
-48.22839033388039
 20
-202.8107622781749
 30
0.0
 11
-27.51798711229027
 21
-172.6776083985298
 31
0.0
  0
INSERT
  5
188
330
4FB
100
AcDbEntity
  8
LAYER0016
 62
     9
100
AcDbBlockReference
  2
_OPEN30
 10
-48.22839033388039
 20
-202.8107622781749
 30
0.0
 41
9.000008422845859
 42
8.99996810467093
 50
235.4994055179731
  0
CIRCLE
  5
189
330
4FB
100
AcDbEntity
  8
LAYER0016
  6
Continuous
 62
     9
100
AcDbCircle
 10
-19.87138747760241
 20
-161.5519841901184
 30
0.0
 40
13.5
  0
TEXT
  5
18A
330
4FB
100
AcDbEntity
  8
LAYER0016
 62
     4
100
AcDbText
 10
-24.67138747760242
 20
-167.5519841901184
 30
0.0
 40
12.0
  1
1
 41
2.4
  7
DCSTYLE0
 72
     5
 11
-15.07138747760241
 21
-167.5519841901184
 31
0.0
100
AcDbText
  0
ENDBLK
  5
E6
330
4FB
100
AcDbEntity
  8
0
100
AcDbBlockEnd
  0
BLOCK
  5
4FE
330
4FD
100
AcDbEntity
  8
0
100
AcDbBlockBegin
  2
*D21
 70
     1
 10
0.0
 20
0.0
 30
0.0
  3
*D21
  1

  0
LINE
  5
18B
330
4FD
100
AcDbEntity
  8
LAYER0016
  6
Continuous
 62
     9
100
AcDbLine
 10
-172.219578471068
 20
-263.8107622781749
 30
0.0
 11
-40.21957847106807
 21
-263.8107622781749
 31
0.0
  0
INSERT
  5
18C
330
4FD
100
AcDbEntity
  8
LAYER0016
 62
     9
100
AcDbBlockReference
  2
_OPEN30
 10
-172.219578471068
 20
-263.8107622781749
 30
0.0
 41
9.000008422845859
 42
8.99996810467093
 50
180.0
  0
INSERT
  5
18D
330
4FD
100
AcDbEntity
  8
LAYER0016
 62
     9
100
AcDbBlockReference
  2
_OPEN30
 10
-40.21957847106807
 20
-263.8107622781749
 30
0.0
 41
9.000008422845859
 42
8.99996810467093
  0
TEXT
  5
18E
330
4FD
100
AcDbEntity
  8
LAYER0016
 62
     7
100
AcDbText
 10
-125.419578471068
 20
-260.8107622781749
 30
0.0
 40
12.0
  1
φ132
 41
0.9056603773584903
  7
DCSTYLE0
 72
     5
 11
-87.01957847106802
 21
-260.8107622781749
 31
0.0
100
AcDbText
  0
LINE
  5
18F
330
4FD
100
AcDbEntity
  8
LAYER0016
  6
Continuous
 62
     9
100
AcDbLine
 10
-172.219578471068
 20
-208.8107622781749
 30
0.0
 11
-172.219578471068
 21
-266.8107622781749
 31
0.0
  0
LINE
  5
190
330
4FD
100
AcDbEntity
  8
LAYER0016
  6
Continuous
 62
     9
100
AcDbLine
 10
-40.21957847106807
 20
-208.8107622781749
 30
0.0
 11
-40.21957847106807
 21
-266.8107622781749
 31
0.0
  0
ENDBLK
  5
E9
330
4FD
100
AcDbEntity
  8
0
100
AcDbBlockEnd
  0
BLOCK
  5
500
330
4FF
100
AcDbEntity
  8
0
100
AcDbBlockBegin
  2
*D22
 70
     1
 10
0.0
 20
0.0
 30
0.0
  3
*D22
  1

  0
LINE
  5
191
330
4FF
100
AcDbEntity
  8
LAYER0016
  6
Continuous
 62
     9
100
AcDbLine
 10
-217.219578471068
 20
-218.8107622781749
 30
0.0
 11
-217.219578471068
 21
-205.8107622781749
 31
0.0
  0
LINE
  5
192
330
4FF
100
AcDbEntity
  8
LAYER0016
  6
Continuous
 62
     9
100
AcDbLine
 10
-217.219578471068
 20
-252.5025750348024
 30
0.0
 11
-217.219578471068
 21
-218.8107622781749
 31
0.0
  0
INSERT
  5
193
330
4FF
100
AcDbEntity
  8
LAYER0016
 62
     9
100
AcDbBlockReference
  2
_OPEN30
 10
-217.219578471068
 20
-218.8107622781749
 30
0.0
 41
9.000008422845859
 42
8.99996810467093
 50
90.0
  0
TEXT
  5
194
330
4FF
100
AcDbEntity
  8
LAYER0016
 62
     7
100
AcDbText
 10
-220.219578471068
 20
-249.5025750348023
 30
0.0
 40
12.0
  1
13
 50
90.0
 41
1.200000000000001
  7
DCSTYLE0
 72
     5
 11
-220.219578471068
 21
-230.3025750348023
 31
0.0
100
AcDbText
  0
LINE
  5
195
330
4FF
100
AcDbEntity
  8
LAYER0016
  6
Continuous
 62
     9
100
AcDbLine
 10
-156.8868436120222
 20
-218.8107622781749
 30
0.0
 11
-220.219578471068
 21
-218.8107622781749
 31
0.0
  0
LINE
  5
196
330
4FF
100
AcDbEntity
  8
LAYER0016
  6
Continuous
 62
     9
100
AcDbLine
 10
-175.219578471068
 20
-205.8107622781749
 30
0.0
 11
-220.219578471068
 21
-205.8107622781749
 31
0.0
  0
ENDBLK
  5
EC
330
4FF
100
AcDbEntity
  8
0
100
AcDbBlockEnd
  0
BLOCK
  5
502
330
501
100
AcDbEntity
  8
0
100
AcDbBlockBegin
  2
*D23
 70
     1
 10
0.0
 20
0.0
 30
0.0
  3
*D23
  1

  0
LINE
  5
197
330
501
100
AcDbEntity
  8
LAYER0016
  6
Continuous
 62
     9
100
AcDbLine
 10
-217.219578471068
 20
-205.8107622781749
 30
0.0
 11
-217.219578471068
 21
-202.8107622781749
 31
0.0
  0
INSERT
  5
1A0
330
501
100
AcDbEntity
  8
LAYER0016
 62
     9
100
AcDbBlockReference
  2
_DOT
 10
-217.219578471068
 20
-205.8107622781749
 30
0.0
 41
7.5
 42
7.5
 50
270.0
  0
LINE
  5
1A1
330
501
100
AcDbEntity
  8
LAYER0016
  6
Continuous
 62
     9
100
AcDbLine
 10
-241.0349589685708
 20
-232.6510414005639
 30
0.0
 11
-217.219578471068
 21
-204.3107622781749
 31
0.0
  0
LINE
  5
1A2
330
501
100
AcDbEntity
  8
LAYER0016
  6
Continuous
 62
     9
100
AcDbLine
 10
-241.0349589685708
 20
-248.2510414005639
 30
0.0
 11
-241.0349589685708
 21
-232.6510414005639
 31
0.0
  0
TEXT
  5
1A3
330
501
100
AcDbEntity
  8
LAYER0016
 62
     7
100
AcDbText
 10
-244.0349589685709
 20
-245.2510414005639
 30
0.0
 40
12.0
  1
3
 50
90.0
 41
1.199999999999999
  7
DCSTYLE0
 72
     5
 11
-244.0349589685709
 21
-235.6510414005639
 31
0.0
100
AcDbText
  0
LINE
  5
1A4
330
501
100
AcDbEntity
  8
LAYER0016
  6
Continuous
 62
     9
100
AcDbLine
 10
-175.219578471068
 20
-205.8107622781749
 30
0.0
 11
-220.219578471068
 21
-205.8107622781749
 31
0.0
  0
LINE
  5
1A5
330
501
100
AcDbEntity
  8
LAYER0016
  6
Continuous
 62
     9
100
AcDbLine
 10
-175.219578471068
 20
-202.8107622781749
 30
0.0
 11
-220.219578471068
 21
-202.8107622781749
 31
0.0
  0
ENDBLK
  5
EF
330
501
100
AcDbEntity
  8
0
100
AcDbBlockEnd
  0
BLOCK
  5
50F
330
503
100
AcDbEntity
  8
0
100
AcDbBlockBegin
  2
_DOT
 70
     0
 10
0.0
 20
0.0
 30
0.0
  3
_DOT
  1

  0
LWPOLYLINE
  5
19B
330
503
100
AcDbEntity
  8
0
  6
ByBlock
 62
     0
100
AcDbPolyline
 90
        2
 70
     1
 43
0.5
 10
-0.25
 20
0.0
 42
1.0
 10
0.25
 20
0.0
 42
1.0
  0
LINE
  5
19C
330
503
100
AcDbEntity
  8
0
  6
ByBlock
 62
     0
100
AcDbLine
 10
-0.5
 20
0.0
 30
0.0
 11
-1.0
 21
0.0
 31
0.0
  0
ENDBLK
  5
19A
330
503
100
AcDbEntity
  8
0
100
AcDbBlockEnd
  0
BLOCK
  5
505
330
504
100
AcDbEntity
  8
0
100
AcDbBlockBegin
  2
*D25
 70
     1
 10
0.0
 20
0.0
 30
0.0
  3
*D25
  1

  0
LINE
  5
1A6
330
504
100
AcDbEntity
  8
LAYER0016
  6
Continuous
 62
     9
100
AcDbLine
 10
-217.219578471068
 20
-202.8107622781749
 30
0.0
 11
-217.219578471068
 21
152.1892377218251
 31
0.0
  0
INSERT
  5
1A7
330
504
100
AcDbEntity
  8
LAYER0016
 62
     9
100
AcDbBlockReference
  2
_OPEN30
 10
-217.219578471068
 20
-202.8107622781749
 30
0.0
 41
9.000008422845859
 42
8.99996810467093
 50
270.0
  0
INSERT
  5
1A8
330
504
100
AcDbEntity
  8
LAYER0016
 62
     9
100
AcDbBlockReference
  2
_OPEN30
 10
-217.219578471068
 20
152.1892377218251
 30
0.0
 41
9.000008422845859
 42
8.99996810467093
 50
90.0
  0
TEXT
  5
1A9
330
504
100
AcDbEntity
  8
LAYER0016
 62
     7
100
AcDbText
 10
-220.219578471068
 20
-39.71076227817489
 30
0.0
 40
12.0
  1
355
 50
90.0
 41
0.9000000000000003
  7
DCSTYLE0
 72
     5
 11
-220.219578471068
 21
-10.91076227817487
 31
0.0
100
AcDbText
  0
LINE
  5
1AA
330
504
100
AcDbEntity
  8
LAYER0016
  6
Continuous
 62
     9
100
AcDbLine
 10
-175.219578471068
 20
-202.8107622781749
 30
0.0
 11
-220.219578471068
 21
-202.8107622781749
 31
0.0
  0
LINE
  5
1AB
330
504
100
AcDbEntity
  8
LAYER0016
  6
Continuous
 62
     9
100
AcDbLine
 10
-120.069578471068
 20
152.1892377218251
 30
0.0
 11
-220.219578471068
 21
152.1892377218251
 31
0.0
  0
ENDBLK
  5
F2
330
504
100
AcDbEntity
  8
0
100
AcDbBlockEnd
  0
BLOCK
  5
507
330
506
100
AcDbEntity
  8
0
100
AcDbBlockBegin
  2
*D26
 70
     1
 10
0.0
 20
0.0
 30
0.0
  3
*D26
  1

  0
LINE
  5
1AC
330
506
100
AcDbEntity
  8
LAYER0016
  6
Continuous
 62
     9
100
AcDbLine
 10
4.780421528932038
 20
309.8886263167885
 30
0.0
 11
4.780421528932038
 21
342.8886263167885
 31
0.0
  0
INSERT
  5
1AD
330
506
100
AcDbEntity
  8
LAYER0016
 62
     9
100
AcDbBlockReference
  2
_OPEN30
 10
4.780421528932038
 20
309.8886263167885
 30
0.0
 41
9.000008422845859
 42
8.99996810467093
 50
270.0
  0
INSERT
  5
1AE
330
506
100
AcDbEntity
  8
LAYER0016
 62
     9
100
AcDbBlockReference
  2
_OPEN30
 10
4.780421528932038
 20
342.8886263167885
 30
0.0
 41
9.000008422845859
 42
8.99996810467093
 50
90.0
  0
TEXT
  5
1AF
330
506
100
AcDbEntity
  8
LAYER0016
 62
     7
100
AcDbText
 10
1.780421528932039
 20
316.7886263167885
 30
0.0
 40
12.0
  1
33
 50
90.0
 41
0.9600000000000052
  7
DCSTYLE0
 72
     5
 11
1.780421528932039
 21
335.9886263167886
 31
0.0
100
AcDbText
  0
LINE
  5
1B0
330
506
100
AcDbEntity
  8
LAYER0016
  6
Continuous
 62
     9
100
AcDbLine
 10
-104.219578471068
 20
309.8886263167885
 30
0.0
 11
7.780421528932037
 21
309.8886263167885
 31
0.0
  0
LINE
  5
1B1
330
506
100
AcDbEntity
  8
LAYER0016
  6
Continuous
 62
     9
100
AcDbLine
 10
-104.219578471068
 20
342.8886263167885
 30
0.0
 11
7.780421528932037
 21
342.8886263167885
 31
0.0
  0
ENDBLK
  5
F5
330
506
100
AcDbEntity
  8
0
100
AcDbBlockEnd
  0
BLOCK
  5
509
330
508
100
AcDbEntity
  8
0
100
AcDbBlockBegin
  2
*D27
 70
     1
 10
0.0
 20
0.0
 30
0.0
  3
*D27
  1

  0
LINE
  5
1B2
330
508
100
AcDbEntity
  8
LAYER0016
  6
Continuous
 62
     9
100
AcDbLine
 10
4.780421528932038
 20
342.8886263167885
 30
0.0
 11
4.780421528932038
 21
370.8886263167885
 31
0.0
  0
INSERT
  5
1B3
330
508
100
AcDbEntity
  8
LAYER0016
 62
     9
100
AcDbBlockReference
  2
_OPEN30
 10
4.780421528932038
 20
342.8886263167885
 30
0.0
 41
9.000008422845859
 42
8.99996810467093
 50
270.0
  0
INSERT
  5
1B4
330
508
100
AcDbEntity
  8
LAYER0016
 62
     9
100
AcDbBlockReference
  2
_OPEN30
 10
4.780421528932038
 20
370.8886263167885
 30
0.0
 41
9.000008422845859
 42
8.99996810467093
 50
90.0
  0
TEXT
  5
1B5
330
508
100
AcDbEntity
  8
LAYER0016
 62
     7
100
AcDbText
 10
1.780421528932039
 20
347.2886263167885
 30
0.0
 40
12.0
  1
28
 50
90.0
 41
0.9600000000000052
  7
DCSTYLE0
 72
     5
 11
1.780421528932039
 21
366.4886263167886
 31
0.0
100
AcDbText
  0
LINE
  5
1B6
330
508
100
AcDbEntity
  8
LAYER0016
  6
Continuous
 62
     9
100
AcDbLine
 10
-104.219578471068
 20
342.8886263167885
 30
0.0
 11
7.780421528932037
 21
342.8886263167885
 31
0.0
  0
LINE
  5
1B7
330
508
100
AcDbEntity
  8
LAYER0016
  6
Continuous
 62
     9
100
AcDbLine
 10
-104.219578471068
 20
370.8886263167885
 30
0.0
 11
7.780421528932037
 21
370.8886263167885
 31
0.0
  0
ENDBLK
  5
F8
330
508
100
AcDbEntity
  8
0
100
AcDbBlockEnd
  0
BLOCK
  5
50B
330
50A
100
AcDbEntity
  8
0
100
AcDbBlockBegin
  2
*D28
 70
     1
 10
0.0
 20
0.0
 30
0.0
  3
*D28
  1

  0
LINE
  5
1B8
330
50A
100
AcDbEntity
  8
LAYER0016
  6
Continuous
 62
     9
100
AcDbLine
 10
4.780421528932038
 20
370.8886263167885
 30
0.0
 11
4.780421528932038
 21
375.8886263167885
 31
0.0
  0
LINE
  5
1B9
330
50A
100
AcDbEntity
  8
LAYER0016
  6
Continuous
 62
     9
100
AcDbLine
 10
4.780421528932039
 20
401.0841863167884
 30
0.0
 11
4.780421528932038
 21
375.8886263167885
 31
0.0
  0
INSERT
  5
1BA
330
50A
100
AcDbEntity
  8
LAYER0016
 62
     9
100
AcDbBlockReference
  2
_OPEN30
 10
4.780421528932038
 20
375.8886263167885
 30
0.0
 41
9.000008422845859
 42
8.99996810467093
 50
270.0
  0
TEXT
  5
1BB
330
50A
100
AcDbEntity
  8
LAYER0016
 62
     7
100
AcDbText
 10
1.780421528932039
 20
388.4841863167885
 30
0.0
 40
12.0
  1
5
 50
90.0
 41
1.199999999999995
  7
DCSTYLE0
 72
     5
 11
1.780421528932039
 21
398.0841863167885
 31
0.0
100
AcDbText
  0
LINE
  5
1BC
330
50A
100
AcDbEntity
  8
LAYER0016
  6
Continuous
 62
     9
100
AcDbLine
 10
-104.219578471068
 20
370.8886263167885
 30
0.0
 11
7.780421528932037
 21
370.8886263167885
 31
0.0
  0
LINE
  5
1BD
330
50A
100
AcDbEntity
  8
LAYER0016
  6
Continuous
 62
     9
100
AcDbLine
 10
-104.219578471068
 20
375.8886263167885
 30
0.0
 11
7.780421528932037
 21
375.8886263167885
 31
0.0
  0
ENDBLK
  5
FB
330
50A
100
AcDbEntity
  8
0
100
AcDbBlockEnd
  0
BLOCK
  5
50D
330
50C
100
AcDbEntity
  8
0
100
AcDbBlockBegin
  2
DC_GROUP_16
 70
     0
 10
0.0
 20
0.0
 30
0.0
  3
DC_GROUP_16
  1

  0
LINE
  5
1BE
330
50C
100
AcDbEntity
  8
LAYER0016
  6
Continuous
 62
     9
100
AcDbLine
 10
-54.72663522821449
 20
-212.5466398507275
 30
0.0
 11
-25.47901890187745
 21
-237.7309552534812
 31
0.0
  0
INSERT
  5
1BF
330
50C
100
AcDbEntity
  8
LAYER0016
 62
     9
100
AcDbBlockReference
  2
_OPEN30
 10
-54.72663522821449
 20
-212.5466398507275
 30
0.0
 41
9.000008422845859
 42
8.99996810467093
 50
139.2691666751108
  0
CIRCLE
  5
1C0
330
50C
100
AcDbEntity
  8
LAYER0016
  6
Continuous
 62
     9
100
AcDbCircle
 10
-15.24894429489405
 20
-246.5397902238706
 30
0.0
 40
13.5
  0
TEXT
  5
1C1
330
50C
100
AcDbEntity
  8
LAYER0016
 62
     4
100
AcDbText
 10
-20.04894429489405
 20
-252.5397902238706
 30
0.0
 40
12.0
  1
2
 41
1.200000000000001
  7
DCSTYLE0
 72
     5
 11
-10.44894429489404
 21
-252.5397902238706
 31
0.0
100
AcDbText
  0
ENDBLK
  5
FE
330
50C
100
AcDbEntity
  8
0
100
AcDbBlockEnd
  0
ENDSEC
  0
SECTION
  2
ENTITIES
  0
LINE
  5
1C2
330
485
100
AcDbEntity
  8
ZUWAKU
  6
Continuous
 62
    56
100
AcDbLine
 10
365.8100966497453
 20
-397.5
 30
0.0
 11
444.2879896907216
 21
-397.5
 31
0.0
  0
LINE
  5
1C3
330
485
100
AcDbEntity
  8
ZUWAKU
  6
Continuous
 62
    56
100
AcDbLine
 10
365.8100966497453
 20
-379.5
 30
0.0
 11
600.2879896907217
 21
-379.5
 31
0.0
  0
LINE
  5
1C4
330
485
100
AcDbEntity
  8
ZUWAKU
  6
Continuous
 62
    56
100
AcDbLine
 10
365.8100966497453
 20
-361.5
 30
0.0
 11
600.2879896907217
 21
-361.5
 31
0.0
  0
LINE
  5
1C5
330
485
100
AcDbEntity
  8
ZUWAKU
  6
Continuous
 62
    56
100
AcDbLine
 10
365.8100966497453
 20
-343.5
 30
0.0
 11
600.2879896907217
 21
-343.5
 31
0.0
  0
LINE
  5
1C6
330
485
100
AcDbEntity
  8
ZUWAKU
  6
Continuous
 62
    56
100
AcDbLine
 10
365.8100966497453
 20
-325.5
 30
0.0
 11
600.2879896907217
 21
-325.5
 31
0.0
  0
LINE
  5
1C7
330
485
100
AcDbEntity
  8
ZUWAKU
  6
Continuous
 62
    56
100
AcDbLine
 10
483.2879896907216
 20
-361.5
 30
0.0
 11
483.2879896907216
 21
-415.5
 31
0.0
  0
LINE
  5
1C8
330
485
100
AcDbEntity
  8
ZUWAKU
  6
Continuous
 62
    56
100
AcDbLine
 10
522.2879896907216
 20
-361.5
 30
0.0
 11
522.2879896907216
 21
-415.5
 31
0.0
  0
LINE
  5
1C9
330
485
100
AcDbEntity
  8
ZUWAKU
  6
Continuous
 62
    56
100
AcDbLine
 10
561.2879896907217
 20
-361.5
 30
0.0
 11
561.2879896907217
 21
-415.5
 31
0.0
  0
LINE
  5
1CA
330
485
100
AcDbEntity
  8
ZUWAKU
  6
Continuous
 62
    56
100
AcDbLine
 10
400.5511591481794
 20
-361.5
 30
0.0
 11
400.5511591481794
 21
-379.5
 31
0.0
  0
LINE
  5
1D4
330
485
100
AcDbEntity
  8
ZUWAKU
  6
Continuous
 62
    56
100
AcDbLine
 10
365.8100966497453
 20
-307.5
 30
0.0
 11
600.2879896907217
 21
-307.5
 31
0.0
  0
LINE
  5
1D5
330
485
100
AcDbEntity
  8
ZUWAKU
  6
Continuous
 62
    56
100
AcDbLine
 10
444.2879896907215
 20
-289.4999999999999
 30
0.0
 11
444.2879896907216
 21
-415.5
 31
0.0
  0
LINE
  5
1DB
330
485
100
AcDbEntity
  8
ZUWAKU
  6
Continuous
 62
    56
100
AcDbLine
 10
365.8100966497453
 20
-289.4999999999999
 30
0.0
 11
365.8100966497453
 21
-415.5
 31
0.0
  0
LINE
  5
1DC
330
485
100
AcDbEntity
  8
ZUWAKU
  6
Continuous
 62
    56
100
AcDbLine
 10
365.8100966497453
 20
-289.5
 30
0.0
 11
600.2879896907217
 21
-289.5
 31
0.0
  0
TEXT
  5
1E9
330
485
100
AcDbEntity
  8
ZUWAKU
 62
    30
100
AcDbText
 10
370.4849336635571
 20
-378.6748726655348
 30
0.0
 40
15.0
  1
尺度
 41
0.75
  7
DCSTYLE0
 72
     5
 11
394.4849336635571
 21
-378.6748726655348
 31
0.0
100
AcDbText
  0
TEXT
  5
1EA
330
485
100
AcDbEntity
  8
ZUWAKU
 62
    30
100
AcDbText
 10
393.9234884005147
 20
-341.6579116954997
 30
0.0
 40
15.0
  1
名称
 41
0.75
  7
DCSTYLE0
 72
     5
 11
417.9234884005146
 21
-341.6579116954997
 31
0.0
100
AcDbText
  0
TEXT
  5
1EB
330
485
100
AcDbEntity
  8
ZUWAKU
 62
    30
100
AcDbText
 10
568.7879896907217
 20
-377.1
 30
0.0
 40
15.0
  1
製図
 41
0.7741935483870969
  7
DCSTYLE0
 72
     5
 11
592.7879896907216
 21
-377.1
 31
0.0
100
AcDbText
  0
TEXT
  5
1EC
330
485
100
AcDbEntity
  8
ZUWAKU
 62
    30
100
AcDbText
 10
529.7879896907216
 20
-377.1
 30
0.0
 40
15.0
  1
改訂
 41
0.75
  7
DCSTYLE0
 72
     5
 11
553.7879896907217
 21
-377.1
 31
0.0
100
AcDbText
  0
TEXT
  5
1ED
330
485
100
AcDbEntity
  8
ZUWAKU
 62
    30
100
AcDbText
 10
490.7879896907216
 20
-377.1
 30
0.0
 40
15.0
  1
検図
 41
0.7741935483870987
  7
DCSTYLE0
 72
     5
 11
514.7879896907217
 21
-377.1
 31
0.0
100
AcDbText
  0
TEXT
  5
1EE
330
485
100
AcDbEntity
  8
ZUWAKU
 62
    30
100
AcDbText
 10
451.7879896907216
 20
-377.1
 30
0.0
 40
15.0
  1
検図
 41
0.7741935483870968
  7
DCSTYLE0
 72
     5
 11
475.7879896907216
 21
-377.1
 31
0.0
100
AcDbText
  0
TEXT
  5
1EF
330
485
100
AcDbEntity
  8
ZUWAKU
 62
    30
100
AcDbText
 10
379.0441771918058
 20
-358.4881458984138
 30
0.0
 40
15.0
  1
図面番号
 41
0.7058823529411763
  7
DCSTYLE0
 72
     5
 11
427.0441771918058
 21
-358.4881458984138
 31
0.0
100
AcDbText
  0
TEXT
  5
1F0
330
485
100
AcDbEntity
  8
ZUWAKU
 62
    30
100
AcDbText
 10
375.0490431702334
 20
-395.7
 30
0.0
 40
15.0
  1
作成年月日
 41
0.7142857142857143
  7
DCSTYLE0
 72
     5
 11
435.0490431702334
 21
-395.7
 31
0.0
100
AcDbText
  0
LINE
  5
361
330
485
100
AcDbEntity
  8
ZUWAKU
  6
Continuous
 62
     8
100
AcDbLine
 10
600.2879896907217
 20
415.4999999999998
 30
0.0
 11
-568.9690721649482
 21
415.5
 31
0.0
  0
LINE
  5
362
330
485
100
AcDbEntity
  8
ZUWAKU
  6
Continuous
 62
     8
100
AcDbLine
 10
600.2879896907217
 20
-415.5
 30
0.0
 11
600.2879896907217
 21
415.4999999999998
 31
0.0
  0
LINE
  5
363
330
485
100
AcDbEntity
  8
ZUWAKU
  6
Continuous
 62
     8
100
AcDbLine
 10
-568.9690721649482
 20
-415.5
 30
0.0
 11
600.2879896907217
 21
-415.5
 31
0.0
  0
LINE
  5
364
330
485
100
AcDbEntity
  8
ZUWAKU
  6
Continuous
 62
     8
100
AcDbLine
 10
-568.9690721649482
 20
415.5
 30
0.0
 11
-568.9690721649482
 21
-415.5
 31
0.0
  0
POINT
  5
369
330
485
100
AcDbEntity
  8
ZUWAKU
  6
Continuous
 62
     9
100
AcDbPoint
 10
405.0490431702335
 20
-406.5
 30
0.0
  0
POINT
  5
36A
330
485
100
AcDbEntity
  8
ZUWAKU
  6
Continuous
 62
     9
100
AcDbPoint
 10
422.4195744194505
 20
-370.5
 30
0.0
  0
POINT
  5
36B
330
485
100
AcDbEntity
  8
ZUWAKU
  6
Continuous
 62
     9
100
AcDbPoint
 10
445.7879896907216
 20
-352.5
 30
0.0
  0
POINT
  5
36C
330
485
100
AcDbEntity
  8
ZUWAKU
  6
Continuous
 62
     9
100
AcDbPoint
 10
445.7879896907216
 20
-334.5
 30
0.0
  0
POINT
  5
36D
330
485
100
AcDbEntity
  8
ZUWAKU
  6
Continuous
 62
     9
100
AcDbPoint
 10
445.7879896907216
 20
-316.5
 30
0.0
  0
POINT
  5
36E
330
485
100
AcDbEntity
  8
ZUWAKU
  6
Continuous
 62
     9
100
AcDbPoint
 10
580.7879896907216
 20
-397.5
 30
0.0
  0
LINE
  5
36F
330
485
100
AcDbEntity
  8
ZUWAKU
  6
Continuous
 62
     9
100
AcDbLine
 10
-629.9999999999998
 20
460.5000000000002
 30
0.0
 11
-629.9999999999998
 21
445.5
 31
0.0
  0
LINE
  5
370
330
485
100
AcDbEntity
  8
ZUWAKU
  6
Continuous
 62
     9
100
AcDbLine
 10
-630.0
 20
445.5
 30
0.0
 11
-645.0
 21
445.5
 31
0.0
  0
LINE
  5
371
330
485
100
AcDbEntity
  8
ZUWAKU
  6
Continuous
 62
     9
100
AcDbLine
 10
630.0000000000001
 20
-460.5
 30
0.0
 11
630.0
 21
-445.5
 31
0.0
  0
LINE
  5
372
330
485
100
AcDbEntity
  8
ZUWAKU
  6
Continuous
 62
     9
100
AcDbLine
 10
-645.0
 20
-445.4999999999998
 30
0.0
 11
-629.9306307180104
 21
-445.4999999999998
 31
0.0
  0
POINT
  5
373
330
485
100
AcDbEntity
  8
ZUWAKU
  6
Continuous
 62
     9
100
AcDbPoint
 10
-630.0
 20
0.0
 30
0.0
  0
LINE
  5
374
330
485
100
AcDbEntity
  8
ZUWAKU
  6
Continuous
 62
     9
100
AcDbLine
 10
-629.6669182372112
 20
-6.735898384867034
 30
0.0
 11
-630.0000000000002
 21
-6.735898384867034
 31
0.0
  0
LINE
  5
375
330
485
100
AcDbEntity
  8
ZUWAKU
  6
Continuous
 62
     9
100
AcDbLine
 10
-629.1473029949407
 20
-6.435898384867052
 30
0.0
 11
-630.0000000000002
 21
-6.435898384867052
 31
0.0
  0
LINE
  5
376
330
485
100
AcDbEntity
  8
ZUWAKU
  6
Continuous
 62
     9
100
AcDbLine
 10
-628.62768775267
 20
-6.135898384867048
 30
0.0
 11
-630.0000000000002
 21
-6.135898384867048
 31
0.0
  0
LINE
  5
377
330
485
100
AcDbEntity
  8
ZUWAKU
  6
Continuous
 62
     9
100
AcDbLine
 10
-628.1080725103992
 20
-5.835898384867043
 30
0.0
 11
-630.0000000000002
 21
-5.835898384867043
 31
0.0
  0
LINE
  5
378
330
485
100
AcDbEntity
  8
ZUWAKU
  6
Continuous
 62
     9
100
AcDbLine
 10
-627.5884572681287
 20
-5.535898384867039
 30
0.0
 11
-630.0000000000002
 21
-5.535898384867039
 31
0.0
  0
LINE
  5
379
330
485
100
AcDbEntity
  8
ZUWAKU
  6
Continuous
 62
     9
100
AcDbLine
 10
-627.0688420258582
 20
-5.235898384867034
 30
0.0
 11
-630.0000000000002
 21
-5.235898384867034
 31
0.0
  0
LINE
  5
37A
330
485
100
AcDbEntity
  8
ZUWAKU
  6
Continuous
 62
     9
100
AcDbLine
 10
-626.5492267835875
 20
-4.93589838486703
 30
0.0
 11
-630.0000000000002
 21
-4.93589838486703
 31
0.0
  0
LINE
  5
37B
330
485
100
AcDbEntity
  8
ZUWAKU
  6
Continuous
 62
     9
100
AcDbLine
 10
-626.0296115413167
 20
-4.635898384867047
 30
0.0
 11
-630.0000000000002
 21
-4.635898384867047
 31
0.0
  0
LINE
  5
37C
330
485
100
AcDbEntity
  8
ZUWAKU
  6
Continuous
 62
     9
100
AcDbLine
 10
-625.5099962990462
 20
-4.335898384867042
 30
0.0
 11
-630.0000000000002
 21
-4.335898384867042
 31
0.0
  0
LINE
  5
37D
330
485
100
AcDbEntity
  8
ZUWAKU
  6
Continuous
 62
     9
100
AcDbLine
 10
-624.9903810567754
 20
-4.035898384867039
 30
0.0
 11
-630.0000000000002
 21
-4.035898384867039
 31
0.0
  0
LINE
  5
37E
330
485
100
AcDbEntity
  8
ZUWAKU
  6
Continuous
 62
     9
100
AcDbLine
 10
-624.4707658145048
 20
-3.735898384867035
 30
0.0
 11
-630.0000000000002
 21
-3.735898384867035
 31
0.0
  0
LINE
  5
37F
330
485
100
AcDbEntity
  8
ZUWAKU
  6
Continuous
 62
     9
100
AcDbLine
 10
-623.9511505722342
 20
-3.435898384867031
 30
0.0
 11
-630.0000000000002
 21
-3.435898384867031
 31
0.0
  0
LINE
  5
380
330
485
100
AcDbEntity
  8
ZUWAKU
  6
Continuous
 62
     9
100
AcDbLine
 10
-623.4315353299632
 20
-3.135898384867048
 30
0.0
 11
-630.0000000000002
 21
-3.135898384867048
 31
0.0
  0
LINE
  5
381
330
485
100
AcDbEntity
  8
ZUWAKU
  6
Continuous
 62
     9
100
AcDbLine
 10
-622.9119200876927
 20
-2.835898384867043
 30
0.0
 11
-630.0000000000002
 21
-2.835898384867043
 31
0.0
  0
LINE
  5
382
330
485
100
AcDbEntity
  8
ZUWAKU
  6
Continuous
 62
     9
100
AcDbLine
 10
-622.3923048454221
 20
-2.535898384867039
 30
0.0
 11
-630.0000000000002
 21
-2.535898384867039
 31
0.0
  0
LINE
  5
383
330
485
100
AcDbEntity
  8
ZUWAKU
  6
Continuous
 62
     9
100
AcDbLine
 10
-621.8726896031514
 20
-2.235898384867035
 30
0.0
 11
-630.0000000000002
 21
-2.235898384867035
 31
0.0
  0
LINE
  5
384
330
485
100
AcDbEntity
  8
ZUWAKU
  6
Continuous
 62
     9
100
AcDbLine
 10
-621.3530743608807
 20
-1.93589838486703
 30
0.0
 11
-630.0000000000002
 21
-1.93589838486703
 31
0.0
  0
LINE
  5
385
330
485
100
AcDbEntity
  8
ZUWAKU
  6
Continuous
 62
     9
100
AcDbLine
 10
-620.8334591186101
 20
-1.635898384867047
 30
0.0
 11
-630.0000000000002
 21
-1.635898384867047
 31
0.0
  0
LINE
  5
386
330
485
100
AcDbEntity
  8
ZUWAKU
  6
Continuous
 62
     9
100
AcDbLine
 10
-620.3138438763393
 20
-1.335898384867042
 30
0.0
 11
-630.0000000000002
 21
-1.335898384867042
 31
0.0
  0
LINE
  5
387
330
485
100
AcDbEntity
  8
ZUWAKU
  6
Continuous
 62
     9
100
AcDbLine
 10
-619.7942286340687
 20
-1.035898384867039
 30
0.0
 11
-630.0000000000002
 21
-1.035898384867039
 31
0.0
  0
LINE
  5
388
330
485
100
AcDbEntity
  8
ZUWAKU
  6
Continuous
 62
     9
100
AcDbLine
 10
-619.2746133917982
 20
-0.7358983848670349
 30
0.0
 11
-630.0000000000002
 21
-0.7358983848670349
 31
0.0
  0
LINE
  5
389
330
485
100
AcDbEntity
  8
ZUWAKU
  6
Continuous
 62
     9
100
AcDbLine
 10
-618.7549981495276
 20
-0.4358983848670306
 30
0.0
 11
-630.0000000000002
 21
-0.4358983848670306
 31
0.0
  0
LINE
  5
38A
330
485
100
AcDbEntity
  8
ZUWAKU
  6
Continuous
 62
     9
100
AcDbLine
 10
-618.2353829072567
 20
-0.1358983848670476
 30
0.0
 11
-630.0000000000002
 21
-0.1358983848670476
 31
0.0
  0
LINE
  5
38B
330
485
100
AcDbEntity
  8
ZUWAKU
  6
Continuous
 62
     9
100
AcDbLine
 10
-618.2842323350143
 20
0.1641016151329566
 30
0.0
 11
-630.0000000000002
 21
0.1641016151329566
 31
0.0
  0
LINE
  5
38C
330
485
100
AcDbEntity
  8
ZUWAKU
  6
Continuous
 62
     9
100
AcDbLine
 10
-618.8038475772849
 20
0.4641016151329609
 30
0.0
 11
-630.0000000000002
 21
0.4641016151329609
 31
0.0
  0
LINE
  5
38D
330
485
100
AcDbEntity
  8
ZUWAKU
  6
Continuous
 62
     9
100
AcDbLine
 10
-619.3234628195555
 20
0.7641016151329652
 30
0.0
 11
-630.0000000000002
 21
0.7641016151329652
 31
0.0
  0
LINE
  5
38E
330
485
100
AcDbEntity
  8
ZUWAKU
  6
Continuous
 62
     9
100
AcDbLine
 10
-619.8430780618263
 20
1.064101615132969
 30
0.0
 11
-630.0000000000002
 21
1.064101615132969
 31
0.0
  0
LINE
  5
38F
330
485
100
AcDbEntity
  8
ZUWAKU
  6
Continuous
 62
     9
100
AcDbLine
 10
-620.3626933040969
 20
1.364101615132952
 30
0.0
 11
-630.0000000000002
 21
1.364101615132952
 31
0.0
  0
LINE
  5
390
330
485
100
AcDbEntity
  8
ZUWAKU
  6
Continuous
 62
     9
100
AcDbLine
 10
-620.8823085463675
 20
1.664101615132956
 30
0.0
 11
-630.0000000000002
 21
1.664101615132956
 31
0.0
  0
LINE
  5
391
330
485
100
AcDbEntity
  8
ZUWAKU
  6
Continuous
 62
     9
100
AcDbLine
 10
-621.4019237886382
 20
1.96410161513296
 30
0.0
 11
-630.0000000000002
 21
1.96410161513296
 31
0.0
  0
LINE
  5
392
330
485
100
AcDbEntity
  8
ZUWAKU
  6
Continuous
 62
     9
100
AcDbLine
 10
-621.9215390309089
 20
2.264101615132964
 30
0.0
 11
-630.0000000000002
 21
2.264101615132964
 31
0.0
  0
LINE
  5
393
330
485
100
AcDbEntity
  8
ZUWAKU
  6
Continuous
 62
     9
100
AcDbLine
 10
-622.4411542731794
 20
2.564101615132969
 30
0.0
 11
-630.0000000000002
 21
2.564101615132969
 31
0.0
  0
LINE
  5
394
330
485
100
AcDbEntity
  8
ZUWAKU
  6
Continuous
 62
     9
100
AcDbLine
 10
-622.9607695154502
 20
2.864101615132952
 30
0.0
 11
-630.0000000000002
 21
2.864101615132952
 31
0.0
  0
LINE
  5
395
330
485
100
AcDbEntity
  8
ZUWAKU
  6
Continuous
 62
     9
100
AcDbLine
 10
-623.4803847577209
 20
3.164101615132957
 30
0.0
 11
-630.0000000000002
 21
3.164101615132957
 31
0.0
  0
LINE
  5
396
330
485
100
AcDbEntity
  8
ZUWAKU
  6
Continuous
 62
     9
100
AcDbLine
 10
-623.9999999999915
 20
3.464101615132961
 30
0.0
 11
-630.0000000000002
 21
3.464101615132961
 31
0.0
  0
LINE
  5
397
330
485
100
AcDbEntity
  8
ZUWAKU
  6
Continuous
 62
     9
100
AcDbLine
 10
-624.5196152422619
 20
3.764101615132964
 30
0.0
 11
-630.0000000000002
 21
3.764101615132964
 31
0.0
  0
LINE
  5
398
330
485
100
AcDbEntity
  8
ZUWAKU
  6
Continuous
 62
     9
100
AcDbLine
 10
-625.0392304845328
 20
4.064101615132969
 30
0.0
 11
-630.0000000000002
 21
4.064101615132969
 31
0.0
  0
LINE
  5
399
330
485
100
AcDbEntity
  8
ZUWAKU
  6
Continuous
 62
     9
100
AcDbLine
 10
-625.5588457268036
 20
4.364101615132951
 30
0.0
 11
-630.0000000000002
 21
4.364101615132951
 31
0.0
  0
LINE
  5
39A
330
485
100
AcDbEntity
  8
ZUWAKU
  6
Continuous
 62
     9
100
AcDbLine
 10
-626.0784609690743
 20
4.664101615132957
 30
0.0
 11
-630.0000000000002
 21
4.664101615132957
 31
0.0
  0
LINE
  5
39B
330
485
100
AcDbEntity
  8
ZUWAKU
  6
Continuous
 62
     9
100
AcDbLine
 10
-626.5980762113449
 20
4.96410161513296
 30
0.0
 11
-630.0000000000002
 21
4.96410161513296
 31
0.0
  0
LINE
  5
39C
330
485
100
AcDbEntity
  8
ZUWAKU
  6
Continuous
 62
     9
100
AcDbLine
 10
-627.1176914536155
 20
5.264101615132965
 30
0.0
 11
-630.0000000000002
 21
5.264101615132965
 31
0.0
  0
LINE
  5
39D
330
485
100
AcDbEntity
  8
ZUWAKU
  6
Continuous
 62
     9
100
AcDbLine
 10
-627.6373066958861
 20
5.564101615132968
 30
0.0
 11
-630.0000000000002
 21
5.564101615132968
 31
0.0
  0
LINE
  5
39E
330
485
100
AcDbEntity
  8
ZUWAKU
  6
Continuous
 62
     9
100
AcDbLine
 10
-628.1569219381569
 20
5.864101615132951
 30
0.0
 11
-630.0000000000002
 21
5.864101615132951
 31
0.0
  0
LINE
  5
39F
330
485
100
AcDbEntity
  8
ZUWAKU
  6
Continuous
 62
     9
100
AcDbLine
 10
-628.6765371804274
 20
6.164101615132956
 30
0.0
 11
-630.0000000000002
 21
6.164101615132956
 31
0.0
  0
LINE
  5
3A0
330
485
100
AcDbEntity
  8
ZUWAKU
  6
Continuous
 62
     9
100
AcDbLine
 10
-629.1961524226981
 20
6.46410161513296
 30
0.0
 11
-630.0000000000002
 21
6.46410161513296
 31
0.0
  0
LINE
  5
3A1
330
485
100
AcDbEntity
  8
ZUWAKU
  6
Continuous
 62
     9
100
AcDbLine
 10
-629.7157676649686
 20
6.764101615132965
 30
0.0
 11
-630.0000000000002
 21
6.764101615132965
 31
0.0
  0
LINE
  5
3A2
330
485
100
AcDbEntity
  8
ZUWAKU
  6
Continuous
 62
     9
100
AcDbLine
 10
-629.9306307180104
 20
-445.6035319519543
 30
0.0
 11
-629.9306307180104
 21
-460.4998395958995
 31
0.0
  0
LINE
  5
3A3
330
485
100
AcDbEntity
  8
ZUWAKU
  6
Continuous
 62
     9
100
AcDbLine
 10
630.0
 20
-445.5
 30
0.0
 11
645.0
 21
-445.5
 31
0.0
  0
LINE
  5
3A4
330
485
100
AcDbEntity
  8
ZUWAKU
  6
Continuous
 62
     9
100
AcDbLine
 10
630.0
 20
445.5
 30
0.0
 11
645.0
 21
445.5
 31
0.0
  0
LINE
  5
3A5
330
485
100
AcDbEntity
  8
ZUWAKU
  6
Continuous
 62
     9
100
AcDbLine
 10
630.0
 20
445.5
 30
0.0
 11
630.0
 21
460.5
 31
0.0
  0
POINT
  5
3A6
330
485
100
AcDbEntity
  8
ZUWAKU
  6
Continuous
 62
     9
100
AcDbPoint
 10
580.7879896907216
 20
-389.4246346437069
 30
0.0
  0
POINT
  5
3A7
330
485
100
AcDbEntity
  8
ZUWAKU
  6
Continuous
 62
     9
100
AcDbPoint
 10
580.7879896907216
 20
-406.5
 30
0.0
  0
POINT
  5
3A8
330
485
100
AcDbEntity
  8
ZUWAKU
  6
Continuous
 62
     9
100
AcDbPoint
 10
541.7879896907217
 20
-397.5
 30
0.0
  0
POINT
  5
3A9
330
485
100
AcDbEntity
  8
ZUWAKU
  6
Continuous
 62
     9
100
AcDbPoint
 10
541.7879896907217
 20
-389.4246346437069
 30
0.0
  0
POINT
  5
3AA
330
485
100
AcDbEntity
  8
ZUWAKU
  6
Continuous
 62
     9
100
AcDbPoint
 10
541.7879896907217
 20
-406.5
 30
0.0
  0
POINT
  5
3AB
330
485
100
AcDbEntity
  8
ZUWAKU
  6
Continuous
 62
     9
100
AcDbPoint
 10
502.7879896907216
 20
-397.5
 30
0.0
  0
POINT
  5
3AC
330
485
100
AcDbEntity
  8
ZUWAKU
  6
Continuous
 62
     9
100
AcDbPoint
 10
502.7879896907216
 20
-389.4246346437069
 30
0.0
  0
POINT
  5
3AD
330
485
100
AcDbEntity
  8
ZUWAKU
  6
Continuous
 62
     9
100
AcDbPoint
 10
502.7879896907216
 20
-406.5
 30
0.0
  0
POINT
  5
3AE
330
485
100
AcDbEntity
  8
ZUWAKU
  6
Continuous
 62
     9
100
AcDbPoint
 10
463.7879896907216
 20
-397.5
 30
0.0
  0
POINT
  5
3AF
330
485
100
AcDbEntity
  8
ZUWAKU
  6
Continuous
 62
     9
100
AcDbPoint
 10
463.7879896907216
 20
-389.4246346437069
 30
0.0
  0
POINT
  5
3B0
330
485
100
AcDbEntity
  8
ZUWAKU
  6
Continuous
 62
     9
100
AcDbPoint
 10
463.7879896907216
 20
-406.5
 30
0.0
  0
POINT
  5
3C8
330
485
100
AcDbEntity
  8
ZUWAKU
  6
Continuous
 62
     9
100
AcDbPoint
 10
445.7879896907216
 20
-298.5
 30
0.0
  0
POINT
  5
3C9
330
485
100
AcDbEntity
  8
ZUWAKU
  6
Continuous
 62
     9
100
AcDbPoint
 10
445.7879896907216
 20
-280.5
 30
0.0
  0
POINT
  5
3CA
330
485
100
AcDbEntity
  8
ZUWAKU
  6
Continuous
 62
     3
100
AcDbPoint
 10
-568.9690721649482
 20
415.5
 30
0.0
  0
INSERT
  5
3D6
330
485
100
AcDbEntity
  8
ZUWAKU
  6
Continuous
100
AcDbBlockReference
  2
DC_GROUP_1
 10
0.0
 20
0.0
 30
0.0
  0
INSERT
  5
3DA
330
485
100
AcDbEntity
  8
ZUWAKU
  6
Continuous
100
AcDbBlockReference
  2
DC_GROUP_8
 10
0.0
 20
0.0
 30
0.0
  0
TEXT
  5
3DC
330
485
100
AcDbEntity
  8
LAYER0240
 62
     4
100
AcDbText
 10
445.7879896907216
 20
-340.5
 30
0.0
 40
12.0
  1
ペーパーストック
 41
0.6956521739130449
  7
DCSTYLE0
 72
     5
 11
522.5879896907217
 21
-340.5
 31
0.0
100
AcDbText
  0
TEXT
  5
3DE
330
485
100
AcDbEntity
  8
LAYER0240
 62
     4
100
AcDbText
 10
445.7879896907216
 20
-322.5
 30
0.0
 40
12.0
  1
JPK50500
 41
0.893023255813955
  7
DCSTYLE0
 72
     5
 11
522.5879896907217
 21
-322.5
 31
0.0
100
AcDbText
  0
TEXT
  5
3DF
330
485
100
AcDbEntity
  8
LAYER0240
 62
     4
100
AcDbText
 10
408.0195744194506
 20
-376.5
 30
0.0
 40
12.0
  1
1/3
 41
1.028571428571427
  7
DCSTYLE0
 72
     5
 11
436.8195744194506
 21
-376.5
 31
0.0
100
AcDbText
  0
TEXT
  5
3E0
330
485
100
AcDbEntity
  8
LAYER0240
 62
     4
100
AcDbText
 10
366.6490431702336
 20
-412.5
 30
0.0
 40
12.0
  1
16.04.01
 41
1.199999999999999
  7
DCSTYLE0
 72
     5
 11
443.4490431702335
 21
-412.5
 31
0.0
100
AcDbText
  0
LINE
  5
3EA
330
485
100
AcDbEntity
  8
LAYER0016
  6
Continuous
 62
     3
100
AcDbLine
 10
-172.219578471068
 20
-202.8107622781749
 30
0.0
 11
-40.21957847106807
 21
-202.8107622781749
 31
0.0
  0
LINE
  5
3EB
330
485
100
AcDbEntity
  8
LAYER0016
  6
Continuous
 62
     3
100
AcDbLine
 10
-172.219578471068
 20
-205.8107622781749
 30
0.0
 11
-40.21957847106807
 21
-205.8107622781749
 31
0.0
  0
LINE
  5
3EC
330
485
100
AcDbEntity
  8
LAYER0016
  6
Continuous
 62
     3
100
AcDbLine
 10
-117.069578471068
 20
-202.8107622781749
 30
0.0
 11
-117.069578471068
 21
152.1892377218251
 31
0.0
  0
LINE
  5
3ED
330
485
100
AcDbEntity
  8
LAYER0016
  6
Continuous
 62
     3
100
AcDbLine
 10
-95.36957847106803
 20
-202.8107622781749
 30
0.0
 11
-95.36957847106803
 21
152.1892377218251
 31
0.0
  0
LINE
  5
3EE
330
485
100
AcDbEntity
  8
LAYER0016
  6
Continuous
 62
     3
100
AcDbLine
 10
-117.069578471068
 20
152.1892377218251
 30
0.0
 11
-95.36957847106803
 21
152.1892377218251
 31
0.0
  0
LINE
  5
3EF
330
485
100
AcDbEntity
  8
LAYER0016
  6
Continuous
 62
     3
100
AcDbLine
 10
-172.219578471068
 20
-205.8107622781749
 30
0.0
 11
-172.219578471068
 21
-202.8107622781749
 31
0.0
  0
LINE
  5
3F0
330
485
100
AcDbEntity
  8
LAYER0016
  6
Continuous
 62
     3
100
AcDbLine
 10
-40.21957847106807
 20
-205.8107622781749
 30
0.0
 11
-40.21957847106807
 21
-202.8107622781749
 31
0.0
  0
CIRCLE
  5
3F1
330
485
100
AcDbEntity
  8
LAYER0016
  6
Continuous
 62
     3
100
AcDbCircle
 10
-106.219578471068
 20
309.8886263167885
 30
0.0
 40
10.85
  0
CIRCLE
  5
3F2
330
485
100
AcDbEntity
  8
LAYER0016
  6
Continuous
 62
     3
100
AcDbCircle
 10
-106.219578471068
 20
309.8886263167885
 30
0.0
 40
66.0
  0
LINE
  5
3F3
330
485
100
AcDbEntity
  8
LAYER0016
  6
CENTER
 62
     9
100
AcDbLine
 10
-106.219578471068
 20
-226.7189542308088
 30
0.0
 11
-106.219578471068
 21
160.0004678849526
 31
0.0
  0
LINE
  5
3F4
330
485
100
AcDbEntity
  8
LAYER0016
  6
CENTER
 62
     9
100
AcDbLine
 10
-120.3566990351544
 20
318.0506966800301
 30
0.0
 11
-44.66096819213419
 21
274.3477461013068
 31
0.0
  0
LINE
  5
3F5
330
485
100
AcDbEntity
  8
LAYER0016
  6
CENTER
 62
     9
100
AcDbLine
 10
-93.91448310774981
 20
316.9929764372043
 30
0.0
 11
-166.8405927143698
 21
274.8890674248701
 31
0.0
  0
LINE
  5
3F6
330
485
100
AcDbEntity
  8
LAYER0016
  6
CENTER
 62
     9
100
AcDbLine
 10
-65.51638449319944
 20
-196.4546905513471
 30
0.0
 11
-65.51638449319944
 21
-223.6304314182014
 31
0.0
  0
ARC
  5
3F7
330
485
100
AcDbEntity
  8
LAYER0016
  6
CENTER
 62
     9
100
AcDbCircle
 10
-106.219578471068
 20
309.8886263167885
 30
0.0
 40
47.0
100
AcDbArc
 50
63.83501634544214
 51
114.9569635040746
  0
ARC
  5
3F8
330
485
100
AcDbEntity
  8
LAYER0016
  6
CENTER
 62
     9
100
AcDbCircle
 10
-106.219578471068
 20
309.8886263167885
 30
0.0
 40
47.0
100
AcDbArc
 50
186.1762977198873
 51
236.6927174832141
  0
ARC
  5
3F9
330
485
100
AcDbEntity
  8
LAYER0016
  6
CENTER
 62
     9
100
AcDbCircle
 10
-106.219578471068
 20
309.8886263167885
 30
0.0
 40
47.0
100
AcDbArc
 50
304.8287517527261
 51
354.3950689549177
  0
LINE
  5
3FA
330
485
100
AcDbEntity
  8
LAYER0016
  6
CENTER
 62
     9
100
AcDbLine
 10
-146.9227724489366
 20
-196.4546905513471
 30
0.0
 11
-146.9227724489366
 21
-223.6304314182014
 31
0.0
  0
LINE
  5
3FB
330
485
100
AcDbEntity
  8
LAYER0016
  6
CENTER
 62
     9
100
AcDbLine
 10
-106.219578471068
 20
383.6815383103284
 30
0.0
 11
-106.219578471068
 21
289.6079144039425
 31
0.0
  0
CIRCLE
  5
3FC
330
485
100
AcDbEntity
  8
LAYER0016
  6
DASHED2
 62
     2
100
AcDbCircle
 10
-65.51638449319944
 20
286.3886263167885
 30
0.0
 40
14.0
  0
CIRCLE
  5
3FD
330
485
100
AcDbEntity
  8
LAYER0016
  6
DASHED2
 62
     2
100
AcDbCircle
 10
-146.9227724489366
 20
286.3886263167885
 30
0.0
 40
14.0
  0
CIRCLE
  5
3FE
330
485
100
AcDbEntity
  8
LAYER0016
  6
DASHED2
 62
     2
100
AcDbCircle
 10
-106.219578471068
 20
356.8886263167885
 30
0.0
 40
14.0
  0
INSERT
  5
3FF
330
485
100
AcDbEntity
  8
LAYER0016
  6
Continuous
100
AcDbBlockReference
  2
DA_IMAGEDIMGROUP_1
 10
0.0
 20
0.0
 30
0.0
  0
INSERT
  5
400
330
485
100
AcDbEntity
  8
LAYER0016
  6
Continuous
100
AcDbBlockReference
  2
DC_GROUP_9
 10
0.0
 20
0.0
 30
0.0
  0
INSERT
  5
401
330
485
100
AcDbEntity
  8
LAYER0016
  6
Continuous
100
AcDbBlockReference
  2
DC_GROUP_10
 10
0.0
 20
0.0
 30
0.0
  0
DIMENSION
  5
402
330
485
100
AcDbEntity
  8
LAYER0016
  6
Continuous
100
AcDbDimension
  2
*D14
 10
-247.219578471068
 20
152.1892377218251
 30
0.0
 11
-247.219578471068
 21
-33.31076227817486
 31
0.0
 70
   160
 71
     5
 42
-1.0
 73
     0
 74
     0
 75
     0
  3
DC_ROTATED
100
AcDbAlignedDimension
 13
-153.8868436120222
 23
-218.8107622781749
 33
0.0
 14
-117.069578471068
 24
152.1892377218251
 34
0.0
 50
90.0
100
AcDbRotatedDimension
1001
ACAD
1000
DSTYLE
1002
{
1070
     7
1000
OPEN30
1070
     6
1000
OPEN30
1070
   274
1070
     4
1070
    41
1040
9.000005722045898
1070
    79
1070
     2
1070
   176
1070
     9
1070
   177
1070
     9
1070
   178
1070
     7
1070
    44
1040
3.0
1070
    42
1040
3.0
1070
   147
1040
3.0
1070
   173
1070
     1
1070
    77
1070
     3
1070
    73
1070
     0
1070
   172
1070
     1
1070
    74
1070
     0
1070
   283
1070
     0
1070
   340
1005
108
1070
   140
1040
12.0
1070
   284
1070
     8
1070
   288
1070
     1
1070
    78
1070
     8
1070
    90
1070
     1
1002
}
  0
INSERT
  5
404
330
485
100
AcDbEntity
  8
LAYER0016
  6
Continuous
100
AcDbBlockReference
  2
DC_GROUP_11
 10
0.0
 20
0.0
 30
0.0
  0
DIMENSION
  5
405
330
485
100
AcDbEntity
  8
LAYER0016
  6
Continuous
100
AcDbDimension
  2
*D16
 10
-217.219578471068
 20
356.8886263167885
 30
0.0
 11
-217.219578471068
 21
333.3886263167885
 31
0.0
 70
   160
 71
     5
 42
-1.0
 73
     0
 74
     0
 75
     0
  3
DC_ROTATED
100
AcDbAlignedDimension
 13
-105.219578471068
 23
309.8886263167885
 33
0.0
 14
-105.219578471068
 24
356.8886263167885
 34
0.0
 50
90.0
100
AcDbRotatedDimension
1001
ACAD
1000
DSTYLE
1002
{
1070
     7
1000
OPEN30
1070
     6
1000
OPEN30
1070
   274
1070
     4
1070
    41
1040
9.000005722045898
1070
    79
1070
     2
1070
   176
1070
     9
1070
   177
1070
     9
1070
   178
1070
     7
1070
    44
1040
3.0
1070
    42
1040
3.0
1070
   147
1040
3.0
1070
   173
1070
     1
1070
    77
1070
     3
1070
    73
1070
     0
1070
   172
1070
     1
1070
    74
1070
     0
1070
   283
1070
     0
1070
   340
1005
108
1070
   140
1040
12.0
1070
   284
1070
     8
1070
   288
1070
     1
1070
    78
1070
     8
1070
    90
1070
     1
1002
}
  0
INSERT
  5
406
330
485
100
AcDbEntity
  8
LAYER0016
  6
Continuous
100
AcDbBlockReference
  2
DC_GROUP_12
 10
0.0
 20
0.0
 30
0.0
  0
INSERT
  5
407
330
485
100
AcDbEntity
  8
LAYER0016
  6
Continuous
100
AcDbBlockReference
  2
DC_GROUP_13
 10
0.0
 20
0.0
 30
0.0
  0
INSERT
  5
408
330
485
100
AcDbEntity
  8
LAYER0016
  6
Continuous
100
AcDbBlockReference
  2
DC_GROUP_14
 10
0.0
 20
0.0
 30
0.0
  0
DIMENSION
  5
40A
330
485
100
AcDbEntity
  8
LAYER0016
  6
Continuous
100
AcDbDimension
  2
*D21
 10
-40.21957847106807
 20
-263.8107622781749
 30
0.0
 11
-106.219578471068
 21
-263.8107622781749
 31
0.0
 70
   160
  1
φ<>
 71
     5
 42
-1.0
 73
     0
 74
     0
 75
     0
  3
DC_ROTATED
100
AcDbAlignedDimension
 13
-172.219578471068
 23
-205.8107622781749
 33
0.0
 14
-40.21957847106807
 24
-205.8107622781749
 34
0.0
100
AcDbRotatedDimension
1001
ACAD
1000
DSTYLE
1002
{
1070
     7
1000
OPEN30
1070
     6
1000
OPEN30
1070
   274
1070
     4
1070
    41
1040
9.000005722045898
1070
    79
1070
     2
1070
   176
1070
     9
1070
   177
1070
     9
1070
   178
1070
     7
1070
    44
1040
3.0
1070
    42
1040
3.0
1070
   147
1040
3.0
1070
   173
1070
     1
1070
    77
1070
     3
1070
    73
1070
     0
1070
   172
1070
     1
1070
    74
1070
     0
1070
   283
1070
     0
1070
   340
1005
108
1070
   140
1040
12.0
1070
   284
1070
     8
1070
   288
1070
     1
1070
    78
1070
     8
1070
    90
1070
     1
1002
}
  0
DIMENSION
  5
40B
330
485
100
AcDbEntity
  8
LAYER0016
  6
Continuous
100
AcDbDimension
  2
*D22
 10
-217.219578471068
 20
-205.8107622781749
 30
0.0
 11
-217.219578471068
 21
-239.9025750348023
 31
0.0
 70
   160
 71
     5
 42
-1.0
 73
     0
 74
     0
 75
     0
  3
DC_ROTATED
100
AcDbAlignedDimension
 13
-153.8868436120222
 23
-218.8107622781749
 33
0.0
 14
-172.219578471068
 24
-205.8107622781749
 34
0.0
 50
90.0
100
AcDbRotatedDimension
1001
ACAD
1000
DSTYLE
1002
{
1070
     7
1000
OPEN30
1070
     6
1000
OPEN30
1070
   274
1070
     4
1070
    41
1040
9.000005722045898
1070
    79
1070
     2
1070
   176
1070
     9
1070
   177
1070
     9
1070
   178
1070
     7
1070
    44
1040
3.0
1070
    42
1040
3.0
1070
   147
1040
3.0
1070
   173
1070
     1
1070
    77
1070
     3
1070
    73
1070
     0
1070
   172
1070
     1
1070
    74
1070
     0
1070
   283
1070
     0
1070
   340
1005
108
1070
   140
1040
12.0
1070
   284
1070
     8
1070
   288
1070
     1
1070
    78
1070
     8
1070
    90
1070
     1
1002
}
  0
DIMENSION
  5
40C
330
485
100
AcDbEntity
  8
LAYER0016
  6
Continuous
100
AcDbDimension
  2
*D23
 10
-217.219578471068
 20
-202.8107622781749
 30
0.0
 11
-217.219578471068
 21
-240.451041400564
 31
0.0
 70
   160
 71
     5
 42
-1.0
 73
     0
 74
     0
 75
     0
  3
DC_ROTATED
100
AcDbAlignedDimension
 13
-172.219578471068
 23
-205.8107622781749
 33
0.0
 14
-172.219578471068
 24
-202.8107622781749
 34
0.0
 50
90.0
100
AcDbRotatedDimension
1001
ACAD
1000
DSTYLE
1002
{
1070
     7
1000
DOT
1070
     6
1000
DOT
1070
   274
1070
     4
1070
    41
1040
7.5
1070
    79
1070
     2
1070
   176
1070
     9
1070
   177
1070
     9
1070
   178
1070
     7
1070
    44
1040
3.0
1070
    42
1040
3.0
1070
   147
1040
26.81538049750282
1070
   173
1070
     1
1070
    77
1070
     3
1070
    73
1070
     0
1070
   172
1070
     1
1070
    74
1070
     0
1070
   283
1070
     0
1070
   340
1005
108
1070
   140
1040
12.0
1070
   284
1070
     8
1070
   288
1070
     1
1070
    78
1070
     8
1070
    90
1070
     1
1002
}
  0
DIMENSION
  5
40D
330
485
100
AcDbEntity
  8
LAYER0016
  6
Continuous
100
AcDbDimension
  2
*D25
 10
-217.219578471068
 20
152.1892377218251
 30
0.0
 11
-217.219578471068
 21
-25.31076227817488
 31
0.0
 70
   160
 71
     5
 42
-1.0
 73
     0
 74
     0
 75
     0
  3
DC_ROTATED
100
AcDbAlignedDimension
 13
-172.219578471068
 23
-202.8107622781749
 33
0.0
 14
-117.069578471068
 24
152.1892377218251
 34
0.0
 50
90.0
100
AcDbRotatedDimension
1001
ACAD
1000
DSTYLE
1002
{
1070
     7
1000
OPEN30
1070
     6
1000
OPEN30
1070
   274
1070
     4
1070
    41
1040
9.000005722045898
1070
    79
1070
     2
1070
   176
1070
     9
1070
   177
1070
     9
1070
   178
1070
     7
1070
    44
1040
3.0
1070
    42
1040
3.0
1070
   147
1040
3.0
1070
   173
1070
     1
1070
    77
1070
     3
1070
    73
1070
     0
1070
   172
1070
     1
1070
    74
1070
     0
1070
   283
1070
     0
1070
   340
1005
108
1070
   140
1040
12.0
1070
   284
1070
     8
1070
   288
1070
     1
1070
    78
1070
     8
1070
    90
1070
     1
1002
}
  0
DIMENSION
  5
40E
330
485
100
AcDbEntity
  8
LAYER0016
  6
Continuous
100
AcDbDimension
  2
*D26
 10
4.780421528932038
 20
342.8886263167885
 30
0.0
 11
4.780421528932038
 21
326.3886263167885
 31
0.0
 70
   160
 71
     5
 42
-1.0
 73
     0
 74
     0
 75
     0
  3
DC_ROTATED
100
AcDbAlignedDimension
 13
-107.219578471068
 23
309.8886263167885
 33
0.0
 14
-107.219578471068
 24
342.8886263167885
 34
0.0
 50
90.0
100
AcDbRotatedDimension
1001
ACAD
1000
DSTYLE
1002
{
1070
     7
1000
OPEN30
1070
     6
1000
OPEN30
1070
   274
1070
     4
1070
    41
1040
9.000005722045898
1070
    79
1070
     2
1070
   176
1070
     9
1070
   177
1070
     9
1070
   178
1070
     7
1070
    44
1040
3.0
1070
    42
1040
3.0
1070
   147
1040
3.0
1070
   173
1070
     1
1070
    77
1070
     3
1070
    73
1070
     0
1070
   172
1070
     1
1070
    74
1070
     0
1070
   283
1070
     0
1070
   340
1005
108
1070
   140
1040
12.0
1070
   284
1070
     8
1070
   288
1070
     1
1070
    78
1070
     8
1070
    90
1070
     1
1002
}
  0
DIMENSION
  5
40F
330
485
100
AcDbEntity
  8
LAYER0016
  6
Continuous
100
AcDbDimension
  2
*D27
 10
4.780421528932038
 20
370.8886263167885
 30
0.0
 11
4.780421528932038
 21
356.8886263167885
 31
0.0
 70
   160
 71
     5
 42
-1.0
 73
     0
 74
     0
 75
     0
  3
DC_ROTATED
100
AcDbAlignedDimension
 13
-107.219578471068
 23
342.8886263167885
 33
0.0
 14
-107.219578471068
 24
370.8886263167885
 34
0.0
 50
90.0
100
AcDbRotatedDimension
1001
ACAD
1000
DSTYLE
1002
{
1070
     7
1000
OPEN30
1070
     6
1000
OPEN30
1070
   274
1070
     4
1070
    41
1040
9.000005722045898
1070
    79
1070
     2
1070
   176
1070
     9
1070
   177
1070
     9
1070
   178
1070
     7
1070
    44
1040
3.0
1070
    42
1040
3.0
1070
   147
1040
3.0
1070
   173
1070
     1
1070
    77
1070
     3
1070
    73
1070
     0
1070
   172
1070
     1
1070
    74
1070
     0
1070
   283
1070
     0
1070
   340
1005
108
1070
   140
1040
12.0
1070
   284
1070
     8
1070
   288
1070
     1
1070
    78
1070
     8
1070
    90
1070
     1
1002
}
  0
DIMENSION
  5
410
330
485
100
AcDbEntity
  8
LAYER0016
  6
Continuous
100
AcDbDimension
  2
*D28
 10
4.780421528932038
 20
375.8886263167885
 30
0.0
 11
4.780421528932038
 21
393.2841863167885
 31
0.0
 70
   160
 71
     5
 42
-1.0
 73
     0
 74
     0
 75
     0
  3
DC_ROTATED
100
AcDbAlignedDimension
 13
-107.219578471068
 23
370.8886263167885
 33
0.0
 14
-107.219578471068
 24
375.8886263167885
 34
0.0
 50
90.0
100
AcDbRotatedDimension
1001
ACAD
1000
DSTYLE
1002
{
1070
     7
1000
OPEN30
1070
     6
1000
OPEN30
1070
   274
1070
     4
1070
    41
1040
9.000005722045898
1070
    79
1070
     2
1070
   176
1070
     9
1070
   177
1070
     9
1070
   178
1070
     7
1070
    44
1040
3.0
1070
    42
1040
3.0
1070
   147
1040
3.0
1070
   173
1070
     1
1070
    77
1070
     3
1070
    73
1070
     0
1070
   172
1070
     1
1070
    74
1070
     0
1070
   283
1070
     0
1070
   340
1005
108
1070
   140
1040
12.0
1070
   284
1070
     8
1070
   288
1070
     1
1070
    78
1070
     8
1070
    90
1070
     1
1002
}
  0
TEXT
  5
513
330
485
100
AcDbEntity
  8
ZUWAKU
 62
    30
100
AcDbText
 10
393.9234884005147
 20
-305.6579116954997
 30
0.0
 40
15.0
  1
社名
 41
0.7741935483870968
  7
DCSTYLE0
 72
     5
 11
417.9234884005146
 21
-305.6579116954997
 31
0.0
100
AcDbText
  0
TEXT
  5
516
330
485
100
AcDbEntity
  8
LAYER0240
 62
     4
100
AcDbText
 10
445.7879896907216
 20
-304.5
 30
0.0
 40
12.0
  1
グローエジャパン(株)
 41
0.5423728813559329
  7
DCSTYLE0
 72
     5
 11
522.5879896907217
 21
-304.5
 31
0.0
100
AcDbText
  0
TEXT
  5
517
330
485
100
AcDbEntity
  8
ZUWAKU
 62
    30
100
AcDbText
 10
393.9234884005147
 20
-323.6579116954997
 30
0.0
 40
15.0
  1
品番
 41
0.75
  7
DCSTYLE0
 72
     5
 11
417.9234884005146
 21
-323.6579116954997
 31
0.0
100
AcDbText
  0
TEXT
  5
518
330
485
100
AcDbEntity
  8
LAYER0240
 62
     4
100
AcDbText
 10
445.7879896907216
 20
-358.5
 30
0.0
 40
12.0
  1
JPK50500
 41
0.893023255813955
  7
DCSTYLE0
 72
     5
 11
522.5879896907217
 21
-358.5
 31
0.0
100
AcDbText
  0
VIEWPORT
  5
B0
330
481
100
AcDbEntity
 67
     1
  8
0
100
AcDbViewport
 10
0.0
 20
0.0000000000001137
 30
0.0
 40
3870.0
 41
2763.000000000002
 68
     1
 69
     1
 12
0.0
 22
0.0000000000001137
 13
0.0
 23
0.0
 14
0.5
 24
0.5
 15
0.0
 25
0.0
 16
0.0
 26
0.0
 36
1.0
 17
0.0
 27
0.0
 37
0.0
 42
50.0
 43
0.0
 44
0.0
 45
2763.000000000002
 50
0.0
 51
0.0
 72
   100
 90
   819296
  1

281
     0
 71
     0
 74
     0
110
0.0
120
0.0
130
0.0
111
1.0
121
0.0
131
0.0
112
0.0
122
1.0
132
0.0
 79
     0
146
0.0
170
     0
 61
     5
348
449
292
     1
282
     1
141
0.0
142
0.0
 63
   250
421
  3355443
  0
ENDSEC
  0
SECTION
  2
OBJECTS
  0
DICTIONARY
  5
426
330
0
100
AcDbDictionary
281
     1
  3
ACAD_COLOR
350
47C
  3
ACAD_GROUP
350
427
  3
ACAD_LAYOUT
350
47B
  3
ACAD_MATERIAL
350
42A
  3
ACAD_MLEADERSTYLE
350
47F
  3
ACAD_MLINESTYLE
350
478
  3
ACAD_PLOTSETTINGS
350
47A
  3
ACAD_PLOTSTYLENAME
350
428
  3
ACAD_SCALELIST
350
45C
  3
ACAD_TABLESTYLE
350
47D
  3
ACAD_VISUALSTYLE
350
443
  3
ACDB_RECOMPOSE_DATA
350
561
  3
AcDbVariableDictionary
350
556
  0
DICTIONARY
  5
47C
102
{ACAD_REACTORS
330
426
102
}
330
426
100
AcDbDictionary
281
     1
  0
DICTIONARY
  5
427
102
{ACAD_REACTORS
330
426
102
}
330
426
100
AcDbDictionary
281
     1
  0
DICTIONARY
  5
47B
102
{ACAD_REACTORS
330
426
102
}
330
426
100
AcDbDictionary
281
     1
  3
Model
350
488
  3
レイアウト1
350
484
  0
DICTIONARY
  5
42A
102
{ACAD_REACTORS
330
426
102
}
330
426
100
AcDbDictionary
281
     1
  3
ByBlock
350
433
  3
ByLayer
350
42B
  3
Global
350
43B
  0
DICTIONARY
  5
47F
102
{ACAD_REACTORS
330
426
102
}
330
426
100
AcDbDictionary
281
     1
  3
Standard
350
480
  0
DICTIONARY
  5
478
102
{ACAD_REACTORS
330
426
102
}
330
426
100
AcDbDictionary
281
     1
  3
Standard
350
479
  0
DICTIONARY
  5
47A
102
{ACAD_REACTORS
330
426
102
}
330
426
100
AcDbDictionary
281
     1
  0
ACDBDICTIONARYWDFLT
  5
428
102
{ACAD_REACTORS
330
426
102
}
330
426
100
AcDbDictionary
281
     1
  3
Normal
350
429
100
AcDbDictionaryWithDefault
340
429
  0
DICTIONARY
  5
45C
102
{ACAD_REACTORS
330
426
102
}
330
426
100
AcDbDictionary
281
     1
  3
A0
350
45D
  3
A1
350
45E
  3
A2
350
45F
  3
A3
350
460
  3
A4
350
461
  3
A5
350
462
  3
A6
350
463
  3
A7
350
464
  3
A8
350
465
  3
A9
350
466
  3
B0
350
467
  3
B1
350
468
  3
B2
350
469
  3
B3
350
46A
  3
B4
350
46B
  3
B5
350
46C
  3
B6
350
46D
  0
DICTIONARY
  5
47D
102
{ACAD_REACTORS
330
426
102
}
330
426
100
AcDbDictionary
281
     1
  3
Standard
350
47E
  0
DICTIONARY
  5
443
102
{ACAD_REACTORS
330
426
102
}
330
426
100
AcDbDictionary
281
     1
  3
2dWireframe
350
449
  3
Basic
350
448
  3
Brighten
350
44F
  3
ColorChange
350
453
  3
Conceptual
350
44C
  3
Dim
350
44E
  3
EdgeColorOff
350
45B
  3
Facepattern
350
452
  3
Flat
350
444
  3
FlatWithEdges
350
445
  3
Gouraud
350
446
  3
GouraudWithEdges
350
447
  3
Hidden
350
44B
  3
JitterOff
350
459
  3
Linepattern
350
451
  3
OverhangOff
350
45A
  3
Realistic
350
44D
  3
Shaded
350
458
  3
Shaded with edges
350
457
  3
Shades of Gray
350
454
  3
Sketchy
350
455
  3
Thicken
350
450
  3
Wireframe
350
44A
  3
X-Ray
350
456
  0
XRECORD
  5
561
102
{ACAD_REACTORS
330
426
102
}
330
426
100
AcDbXrecord
280
     1
 90
        1
330
47E
  0
DICTIONARY
  5
556
102
{ACAD_REACTORS
330
426
102
}
330
426
100
AcDbDictionary
281
     1
  3
CANNOSCALE
350
55A
  3
CMLEADERSTYLE
350
558
  3
CTABLESTYLE
350
557
  3
LAYEREVAL
350
55C
  3
LAYERNOTIFY
350
55D
  3
LIGHTINGUNITS
350
55B
  3
MSLTSCALE
350
559
  3
XCLIPFRAME
350
55E
  0
LAYOUT
  5
488
102
{ACAD_REACTORS
330
47B
102
}
330
47B
100
AcDbPlotSettings
  1

  2
EPSON LP-8900
  4

  6

 40
0.0
 41
0.0
 42
0.0
 43
0.0
 44
0.0
 45
0.0
 46
0.0
 47
0.0
 48
0.0
 49
0.0
140
0.0
141
0.0
142
1.0
143
1.0
 70
  1712
 72
     0
 73
     0
 74
     0
  7

 75
     0
147
1.0
 76
     0
 77
     2
 78
   300
148
0.0
149
0.0
100
AcDbLayout
  1
Model
 70
     1
 71
     0
 10
0.0
 20
0.0
 11
12.0
 21
9.0
 12
0.0
 22
0.0
 32
0.0
 14
0.0
 24
0.0
 34
0.0
 15
0.0
 25
0.0
 35
0.0
146
0.0
 13
0.0
 23
0.0
 33
0.0
 16
1.0
 26
0.0
 36
0.0
 17
0.0
 27
1.0
 37
0.0
 76
     0
330
485
331
489
  0
LAYOUT
  5
484
102
{ACAD_REACTORS
330
47B
102
}
330
47B
100
AcDbPlotSettings
  1

  2
EPSON LP-8900
  4

  6

 40
0.0
 41
0.0
 42
0.0
 43
0.0
 44
0.0
 45
0.0
 46
0.0
 47
0.0
 48
0.0
 49
0.0
140
0.0
141
0.0
142
1.0
143
1.0
 70
   688
 72
     0
 73
     0
 74
     5
  7

 75
    16
147
1.0
 76
     0
 77
     2
 78
   300
148
0.0
149
0.0
100
AcDbLayout
  1
レイアウト1
 70
     0
 71
     1
 10
0.0
 20
0.0
 11
12.0
 21
9.0
 12
0.0
 22
0.0
 32
0.0
 14
1.000000000000000E+20
 24
1.000000000000000E+20
 34
1.000000000000000E+20
 15
-1.000000000000000E+20
 25
-1.000000000000000E+20
 35
-1.000000000000000E+20
146
0.0
 13
0.0
 23
0.0
 33
0.0
 16
1.0
 26
0.0
 36
0.0
 17
0.0
 27
1.0
 37
0.0
 76
     0
330
481
331
B0
  0
MATERIAL
  5
433
102
{ACAD_XDICTIONARY
360
434
102
}
102
{ACAD_REACTORS
330
42A
102
}
330
42A
100
AcDbMaterial
  1
ByBlock
 72
     0
 43
0.0208333333333333
 43
0.0
 43
0.0
 43
0.0
 43
0.0
 43
0.0208333333333333
 43
0.0
 43
0.0
 43
0.0
 43
0.0
 43
1.0
 43
0.0
 43
0.0
 43
0.0
 43
0.0
 43
1.0
 77
     0
 47
0.0208333333333333
 47
0.0
 47
0.0
 47
0.0
 47
0.0
 47
0.0208333333333333
 47
0.0
 47
0.0
 47
0.0
 47
0.0
 47
1.0
 47
0.0
 47
0.0
 47
0.0
 47
0.0
 47
1.0
171
     0
 49
0.0208333333333333
 49
0.0
 49
0.0
 49
0.0
 49
0.0
 49
0.0208333333333333
 49
0.0
 49
0.0
 49
0.0
 49
0.0
 49
1.0
 49
0.0
 49
0.0
 49
0.0
 49
0.0
 49
1.0
175
     0
142
0.0208333333333333
142
0.0
142
0.0
142
0.0
142
0.0
142
0.0208333333333333
142
0.0
142
0.0
142
0.0
142
0.0
142
1.0
142
0.0
142
0.0
142
0.0
142
0.0
142
1.0
179
     0
144
0.0208333333333333
144
0.0
144
0.0
144
0.0
144
0.0
144
0.0208333333333333
144
0.0
144
0.0
144
0.0
144
0.0
144
1.0
144
0.0
144
0.0
144
0.0
144
0.0
144
1.0
147
0.0208333333333333
147
0.0
147
0.0
147
0.0
147
0.0
147
0.0208333333333333
147
0.0
147
0.0
147
0.0
147
0.0
147
1.0
147
0.0
147
0.0
147
0.0
147
0.0
147
1.0
  0
MATERIAL
  5
42B
102
{ACAD_XDICTIONARY
360
42C
102
}
102
{ACAD_REACTORS
330
42A
102
}
330
42A
100
AcDbMaterial
  1
ByLayer
 72
     0
 43
0.0208333333333333
 43
0.0
 43
0.0
 43
0.0
 43
0.0
 43
0.0208333333333333
 43
0.0
 43
0.0
 43
0.0
 43
0.0
 43
1.0
 43
0.0
 43
0.0
 43
0.0
 43
0.0
 43
1.0
 77
     0
 47
0.0208333333333333
 47
0.0
 47
0.0
 47
0.0
 47
0.0
 47
0.0208333333333333
 47
0.0
 47
0.0
 47
0.0
 47
0.0
 47
1.0
 47
0.0
 47
0.0
 47
0.0
 47
0.0
 47
1.0
171
     0
 49
0.0208333333333333
 49
0.0
 49
0.0
 49
0.0
 49
0.0
 49
0.0208333333333333
 49
0.0
 49
0.0
 49
0.0
 49
0.0
 49
1.0
 49
0.0
 49
0.0
 49
0.0
 49
0.0
 49
1.0
175
     0
142
0.0208333333333333
142
0.0
142
0.0
142
0.0
142
0.0
142
0.0208333333333333
142
0.0
142
0.0
142
0.0
142
0.0
142
1.0
142
0.0
142
0.0
142
0.0
142
0.0
142
1.0
179
     0
144
0.0208333333333333
144
0.0
144
0.0
144
0.0
144
0.0
144
0.0208333333333333
144
0.0
144
0.0
144
0.0
144
0.0
144
1.0
144
0.0
144
0.0
144
0.0
144
0.0
144
1.0
147
0.0208333333333333
147
0.0
147
0.0
147
0.0
147
0.0
147
0.0208333333333333
147
0.0
147
0.0
147
0.0
147
0.0
147
1.0
147
0.0
147
0.0
147
0.0
147
0.0
147
1.0
  0
MATERIAL
  5
43B
102
{ACAD_XDICTIONARY
360
43C
102
}
102
{ACAD_REACTORS
330
42A
102
}
330
42A
100
AcDbMaterial
  1
Global
 72
     0
 43
0.0208333333333333
 43
0.0
 43
0.0
 43
0.0
 43
0.0
 43
0.0208333333333333
 43
0.0
 43
0.0
 43
0.0
 43
0.0
 43
1.0
 43
0.0
 43
0.0
 43
0.0
 43
0.0
 43
1.0
 77
     0
 47
0.0208333333333333
 47
0.0
 47
0.0
 47
0.0
 47
0.0
 47
0.0208333333333333
 47
0.0
 47
0.0
 47
0.0
 47
0.0
 47
1.0
 47
0.0
 47
0.0
 47
0.0
 47
0.0
 47
1.0
171
     0
 49
0.0208333333333333
 49
0.0
 49
0.0
 49
0.0
 49
0.0
 49
0.0208333333333333
 49
0.0
 49
0.0
 49
0.0
 49
0.0
 49
1.0
 49
0.0
 49
0.0
 49
0.0
 49
0.0
 49
1.0
175
     0
142
0.0208333333333333
142
0.0
142
0.0
142
0.0
142
0.0
142
0.0208333333333333
142
0.0
142
0.0
142
0.0
142
0.0
142
1.0
142
0.0
142
0.0
142
0.0
142
0.0
142
1.0
179
     0
144
0.0208333333333333
144
0.0
144
0.0
144
0.0
144
0.0
144
0.0208333333333333
144
0.0
144
0.0
144
0.0
144
0.0
144
1.0
144
0.0
144
0.0
144
0.0
144
0.0
144
1.0
147
0.0208333333333333
147
0.0
147
0.0
147
0.0
147
0.0
147
0.0208333333333333
147
0.0
147
0.0
147
0.0
147
0.0
147
1.0
147
0.0
147
0.0
147
0.0
147
0.0
147
1.0
  0
MLEADERSTYLE
  5
480
102
{ACAD_REACTORS
330
47F
102
}
330
47F
100
AcDbMLeaderStyle
170
     2
171
     1
172
     0
 90
        2
 40
0.0
 41
0.0
173
     1
 91
-1056964608
340
474
 92
       -2
290
     1
 42
0.09
291
     1
 43
0.36
  3
Standard
 44
0.18
300

342
46F
174
     1
178
     6
175
     1
176
     0
 93
-1056964608
 45
0.18
292
     0
297
     0
 46
0.18
 94
-1056964608
 47
1.0
 49
1.0
140
1.0
293
     1
141
0.0
294
     1
177
     0
142
1.0
295
     0
296
     0
143
0.125
1001
ACAD_MLEADERVER
1070
     2
  0
MLINESTYLE
  5
479
102
{ACAD_REACTORS
330
478
102
}
330
478
100
AcDbMlineStyle
  2
STANDARD
 70
     0
  3

 62
   256
 51
90.0
 52
90.0
 71
     2
 49
0.5
 62
   256
  6
BYLAYER
 49
-0.5
 62
   256
  6
BYLAYER
  0
ACDBPLACEHOLDER
  5
429
102
{ACAD_REACTORS
330
428
102
}
330
428
  0
SCALE
  5
45D
102
{ACAD_REACTORS
330
45C
102
}
330
45C
100
AcDbScale
 70
     0
300
1:1
140
1.0
141
1.0
290
     1
  0
SCALE
  5
45E
102
{ACAD_REACTORS
330
45C
102
}
330
45C
100
AcDbScale
 70
     0
300
1/128" = 1'-0"
140
0.0078125
141
12.0
290
     0
  0
SCALE
  5
45F
102
{ACAD_REACTORS
330
45C
102
}
330
45C
100
AcDbScale
 70
     0
300
1/64" = 1'-0"
140
0.015625
141
12.0
290
     0
  0
SCALE
  5
460
102
{ACAD_REACTORS
330
45C
102
}
330
45C
100
AcDbScale
 70
     0
300
1/32" = 1'-0"
140
0.03125
141
12.0
290
     0
  0
SCALE
  5
461
102
{ACAD_REACTORS
330
45C
102
}
330
45C
100
AcDbScale
 70
     0
300
1/16" = 1'-0"
140
0.0625
141
12.0
290
     0
  0
SCALE
  5
462
102
{ACAD_REACTORS
330
45C
102
}
330
45C
100
AcDbScale
 70
     0
300
3/32" = 1'-0"
140
0.09375
141
12.0
290
     0
  0
SCALE
  5
463
102
{ACAD_REACTORS
330
45C
102
}
330
45C
100
AcDbScale
 70
     0
300
1/8" = 1'-0"
140
0.125
141
12.0
290
     0
  0
SCALE
  5
464
102
{ACAD_REACTORS
330
45C
102
}
330
45C
100
AcDbScale
 70
     0
300
3/16" = 1'-0"
140
0.1875
141
12.0
290
     0
  0
SCALE
  5
465
102
{ACAD_REACTORS
330
45C
102
}
330
45C
100
AcDbScale
 70
     0
300
1/4" = 1'-0"
140
0.25
141
12.0
290
     0
  0
SCALE
  5
466
102
{ACAD_REACTORS
330
45C
102
}
330
45C
100
AcDbScale
 70
     0
300
3/8" = 1'-0"
140
0.375
141
12.0
290
     0
  0
SCALE
  5
467
102
{ACAD_REACTORS
330
45C
102
}
330
45C
100
AcDbScale
 70
     0
300
1/2" = 1'-0"
140
0.5
141
12.0
290
     0
  0
SCALE
  5
468
102
{ACAD_REACTORS
330
45C
102
}
330
45C
100
AcDbScale
 70
     0
300
3/4" = 1'-0"
140
0.75
141
12.0
290
     0
  0
SCALE
  5
469
102
{ACAD_REACTORS
330
45C
102
}
330
45C
100
AcDbScale
 70
     0
300
1" = 1'-0"
140
1.0
141
12.0
290
     0
  0
SCALE
  5
46A
102
{ACAD_REACTORS
330
45C
102
}
330
45C
100
AcDbScale
 70
     0
300
1-1/2" = 1'-0"
140
1.5
141
12.0
290
     0
  0
SCALE
  5
46B
102
{ACAD_REACTORS
330
45C
102
}
330
45C
100
AcDbScale
 70
     0
300
3" = 1'-0"
140
3.0
141
12.0
290
     0
  0
SCALE
  5
46C
102
{ACAD_REACTORS
330
45C
102
}
330
45C
100
AcDbScale
 70
     0
300
6" = 1'-0"
140
6.0
141
12.0
290
     0
  0
SCALE
  5
46D
102
{ACAD_REACTORS
330
45C
102
}
330
45C
100
AcDbScale
 70
     0
300
1'-0" = 1'-0"
140
12.0
141
12.0
290
     0
  0
TABLESTYLE
  5
47E
102
{ACAD_XDICTIONARY
360
55F
102
}
102
{ACAD_REACTORS
330
47D
102
}
330
47D
100
AcDbTableStyle
  3
Standard
 70
     0
 71
     0
 40
0.06
 41
0.06
280
     0
281
     0
  7
STANDARD
140
0.18
170
     2
 62
     0
 63
     7
283
     0
 90
      512
 91
        0
  1

274
    -2
284
     1
 64
     0
275
    -2
285
     1
 65
     0
276
    -2
286
     1
 66
     0
277
    -2
287
     1
 67
     0
278
    -2
288
     1
 68
     0
279
    -2
289
     1
 69
     0
  7
STANDARD
140
0.25
170
     5
 62
     0
 63
     7
283
     0
 90
      512
 91
        0
  1

274
    -2
284
     1
 64
     0
275
    -2
285
     1
 65
     0
276
    -2
286
     1
 66
     0
277
    -2
287
     1
 67
     0
278
    -2
288
     1
 68
     0
279
    -2
289
     1
 69
     0
  7
STANDARD
140
0.18
170
     5
 62
     0
 63
     7
283
     0
 90
      512
 91
        0
  1

274
    -2
284
     1
 64
     0
275
    -2
285
     1
 65
     0
276
    -2
286
     1
 66
     0
277
    -2
287
     1
 67
     0
278
    -2
288
     1
 68
     0
279
    -2
289
     1
 69
     0
  0
VISUALSTYLE
  5
449
102
{ACAD_XDICTIONARY
360
56C
102
}
102
{ACAD_REACTORS
330
443
102
}
330
443
100
AcDbVisualStyle
  2
2dWireframe
 70
     4
 71
     0
 72
     2
 73
     0
 90
        0
 40
-0.6
 41
-30.0
 62
     5
 63
     7
421
 16777215
 74
     1
 91
        4
 64
     7
 65
   257
 75
     1
175
     1
 42
1.0
 92
        0
 66
   257
 43
1.0
 76
     1
 77
     6
 78
     2
 67
     7
 79
     5
170
     0
171
     0
290
     0
174
     0
 93
        1
 44
0.0
173
     0
291
     0
 45
0.0
1001
ACAD
1000
AcDbSavedByObjectVersion
1070
     0
  0
VISUALSTYLE
  5
448
102
{ACAD_XDICTIONARY
360
56A
102
}
102
{ACAD_REACTORS
330
443
102
}
330
443
100
AcDbVisualStyle
  2
Basic
 70
     7
 71
     1
 72
     0
 73
     1
 90
        0
 40
-0.6
 41
-30.0
 62
     5
 63
     7
421
 16777215
 74
     0
 91
        4
 64
     7
 65
   257
 75
     1
175
     1
 42
1.0
 92
        8
 66
     7
 43
1.0
 76
     1
 77
     6
 78
     2
 67
     7
 79
     5
170
     0
171
     0
290
     0
174
     0
 93
        1
 44
0.0
173
     0
291
     1
 45
0.0
1001
ACAD
1000
AcDbSavedByObjectVersion
1070
     0
  0
VISUALSTYLE
  5
44F
102
{ACAD_XDICTIONARY
360
578
102
}
102
{ACAD_REACTORS
330
443
102
}
330
443
100
AcDbVisualStyle
  2
Brighten
 70
    12
 71
     2
 72
     2
 73
     0
 90
        0
 40
-0.6
 41
-30.0
 62
     5
 63
     7
421
 16777215
 74
     1
 91
        4
 64
     7
 65
   257
 75
     1
175
     1
 42
1.0
 92
        8
 66
     7
 43
1.0
 76
     1
 77
     6
 78
     2
 67
     7
 79
     5
170
     0
171
     0
290
     0
174
     0
 93
        1
 44
50.0
173
     0
291
     1
 45
0.0
1001
ACAD
1000
AcDbSavedByObjectVersion
1070
     0
  0
VISUALSTYLE
  5
453
102
{ACAD_XDICTIONARY
360
580
102
}
102
{ACAD_REACTORS
330
443
102
}
330
443
100
AcDbVisualStyle
  2
ColorChange
 70
    16
 71
     2
 72
     2
 73
     3
 90
        0
 40
-0.6
 41
-30.0
 62
     5
 63
     8
421
  8421504
 74
     1
 91
        4
 64
     7
 65
   257
 75
     1
175
     1
 42
1.0
 92
        8
 66
     8
424
  8421504
 43
1.0
 76
     1
 77
     6
 78
     2
 67
     7
 79
     5
170
     0
171
     0
290
     0
174
     0
 93
        1
 44
0.0
173
     0
291
     1
 45
0.0
1001
ACAD
1000
AcDbSavedByObjectVersion
1070
     0
  0
VISUALSTYLE
  5
44C
102
{ACAD_XDICTIONARY
360
572
102
}
102
{ACAD_REACTORS
330
443
102
}
330
443
100
AcDbVisualStyle
  2
Conceptual
 70
     9
 71
     3
 72
     2
 73
     0
 90
        0
 40
-0.6
 41
-30.0
 62
     5
 63
     7
421
 16777215
 74
     2
 91
        2
 64
     7
 65
   257
 75
     1
175
     1
 42
179.0
 92
        8
 66
     7
 43
1.0
 76
     1
 77
     6
 78
     2
 67
     7
 79
     3
170
     0
171
     0
290
     0
174
     0
 93
        1
 44
0.0
173
     0
291
     0
 45
0.0
1001
ACAD
1000
AcDbSavedByObjectVersion
1070
     0
  0
VISUALSTYLE
  5
44E
102
{ACAD_XDICTIONARY
360
576
102
}
102
{ACAD_REACTORS
330
443
102
}
330
443
100
AcDbVisualStyle
  2
Dim
 70
    11
 71
     2
 72
     2
 73
     0
 90
        0
 40
-0.6
 41
-30.0
 62
     5
 63
     7
421
 16777215
 74
     1
 91
        4
 64
     7
 65
   257
 75
     1
175
     1
 42
1.0
 92
        8
 66
     7
 43
1.0
 76
     1
 77
     6
 78
     2
 67
     7
 79
     5
170
     0
171
     0
290
     0
174
     0
 93
        1
 44
-50.0
173
     0
291
     1
 45
0.0
1001
ACAD
1000
AcDbSavedByObjectVersion
1070
     0
  0
VISUALSTYLE
  5
45B
102
{ACAD_XDICTIONARY
360
590
102
}
102
{ACAD_REACTORS
330
443
102
}
330
443
100
AcDbVisualStyle
  2
EdgeColorOff
 70
    22
 71
     2
 72
     2
 73
     0
 90
        0
 40
-0.6
 41
-30.0
 62
     5
 63
     7
421
 16777215
 74
     1
 91
        4
 64
     7
 65
   257
 75
     1
175
     1
 42
1.0
 92
        8
 66
     7
 43
1.0
 76
     1
 77
     6
 78
     2
 67
     7
 79
     5
170
     0
171
     0
290
     0
174
     0
 93
        1
 44
0.0
173
     0
291
     1
 45
0.0
1001
ACAD
1000
AcDbSavedByObjectVersion
1070
     0
  0
VISUALSTYLE
  5
452
102
{ACAD_XDICTIONARY
360
57E
102
}
102
{ACAD_REACTORS
330
443
102
}
330
443
100
AcDbVisualStyle
  2
Facepattern
 70
    15
 71
     2
 72
     2
 73
     0
 90
        0
 40
-0.6
 41
-30.0
 62
     5
 63
     7
421
 16777215
 74
     1
 91
        4
 64
     7
 65
   257
 75
     1
175
     1
 42
1.0
 92
        8
 66
     7
 43
1.0
 76
     1
 77
     6
 78
     2
 67
     7
 79
     5
170
     0
171
     0
290
     0
174
     0
 93
        1
 44
0.0
173
     0
291
     1
 45
0.0
1001
ACAD
1000
AcDbSavedByObjectVersion
1070
     0
  0
VISUALSTYLE
  5
444
102
{ACAD_XDICTIONARY
360
562
102
}
102
{ACAD_REACTORS
330
443
102
}
330
443
100
AcDbVisualStyle
  2
Flat
 70
     0
 71
     2
 72
     1
 73
     1
 90
        2
 40
-0.6
 41
30.0
 62
     5
 63
     7
421
 16777215
 74
     0
 91
        0
 64
     7
 65
   257
 75
     1
175
     1
 42
1.0
 92
        8
 66
     7
 43
1.0
 76
     1
 77
     6
 78
     2
 67
     7
 79
     5
170
     0
171
     0
290
     0
174
     0
 93
       13
 44
0.0
173
     0
291
     1
 45
0.0
1001
ACAD
1000
AcDbSavedByObjectVersion
1070
     0
  0
VISUALSTYLE
  5
445
102
{ACAD_XDICTIONARY
360
564
102
}
102
{ACAD_REACTORS
330
443
102
}
330
443
100
AcDbVisualStyle
  2
FlatWithEdges
 70
     1
 71
     2
 72
     1
 73
     1
 90
        2
 40
-0.6
 41
30.0
 62
     5
 63
     7
421
 16777215
 74
     1
 91
        0
 64
     7
 65
   257
 75
     1
175
     1
 42
1.0
 92
        0
 66
   257
 43
1.0
 76
     1
 77
     6
 78
     2
 67
     7
 79
     5
170
     0
171
     0
290
     0
174
     0
 93
       13
 44
0.0
173
     0
291
     1
 45
0.0
1001
ACAD
1000
AcDbSavedByObjectVersion
1070
     0
  0
VISUALSTYLE
  5
446
102
{ACAD_XDICTIONARY
360
566
102
}
102
{ACAD_REACTORS
330
443
102
}
330
443
100
AcDbVisualStyle
  2
Gouraud
 70
     2
 71
     2
 72
     2
 73
     1
 90
        2
 40
-0.6
 41
30.0
 62
     5
 63
     7
421
 16777215
 74
     0
 91
        0
 64
     7
 65
   257
 75
     1
175
     1
 42
1.0
 92
        0
 66
     7
 43
1.0
 76
     1
 77
     6
 78
     2
 67
     7
 79
     5
170
     0
171
     0
290
     0
174
     0
 93
       13
 44
0.0
173
     0
291
     1
 45
0.0
1001
ACAD
1000
AcDbSavedByObjectVersion
1070
     0
  0
VISUALSTYLE
  5
447
102
{ACAD_XDICTIONARY
360
568
102
}
102
{ACAD_REACTORS
330
443
102
}
330
443
100
AcDbVisualStyle
  2
GouraudWithEdges
 70
     3
 71
     2
 72
     2
 73
     1
 90
        2
 40
-0.6
 41
30.0
 62
     5
 63
     7
421
 16777215
 74
     1
 91
        0
 64
     7
 65
   257
 75
     1
175
     1
 42
1.0
 92
        0
 66
   257
 43
1.0
 76
     1
 77
     6
 78
     2
 67
     7
 79
     5
170
     0
171
     0
290
     0
174
     0
 93
       13
 44
0.0
173
     0
291
     1
 45
0.0
1001
ACAD
1000
AcDbSavedByObjectVersion
1070
     0
  0
VISUALSTYLE
  5
44B
102
{ACAD_XDICTIONARY
360
570
102
}
102
{ACAD_REACTORS
330
443
102
}
330
443
100
AcDbVisualStyle
  2
Hidden
 70
     6
 71
     1
 72
     2
 73
     2
 90
        0
 40
-0.6
 41
-30.0
 62
     5
 63
     7
421
 16777215
 74
     2
 91
        2
 64
     7
 65
   257
 75
     2
175
     1
 42
40.0
 92
        0
 66
   257
 43
1.0
 76
     1
 77
     6
 78
     2
 67
     7
 79
     3
170
     0
171
     0
290
     0
174
     0
 93
        1
 44
0.0
173
     0
291
     0
 45
0.0
1001
ACAD
1000
AcDbSavedByObjectVersion
1070
     0
  0
VISUALSTYLE
  5
459
102
{ACAD_XDICTIONARY
360
58C
102
}
102
{ACAD_REACTORS
330
443
102
}
330
443
100
AcDbVisualStyle
  2
JitterOff
 70
    20
 71
     2
 72
     2
 73
     0
 90
        0
 40
-0.6
 41
-30.0
 62
     5
 63
     7
421
 16777215
 74
     1
 91
        4
 64
     7
 65
   257
 75
     1
175
     1
 42
1.0
 92
       10
 66
     7
 43
1.0
 76
     1
 77
     6
 78
     2
 67
     7
 79
     5
170
     0
171
     0
290
     0
174
     0
 93
        1
 44
0.0
173
     0
291
     1
 45
0.0
1001
ACAD
1000
AcDbSavedByObjectVersion
1070
     0
  0
VISUALSTYLE
  5
451
102
{ACAD_XDICTIONARY
360
57C
102
}
102
{ACAD_REACTORS
330
443
102
}
330
443
100
AcDbVisualStyle
  2
Linepattern
 70
    14
 71
     2
 72
     2
 73
     0
 90
        0
 40
-0.6
 41
-30.0
 62
     5
 63
     7
421
 16777215
 74
     1
 91
        4
 64
     7
 65
   257
 75
     7
175
     7
 42
1.0
 92
        8
 66
     7
 43
1.0
 76
     1
 77
     6
 78
     2
 67
     7
 79
     5
170
     0
171
     0
290
     0
174
     0
 93
        1
 44
0.0
173
     0
291
     1
 45
0.0
1001
ACAD
1000
AcDbSavedByObjectVersion
1070
     0
  0
VISUALSTYLE
  5
45A
102
{ACAD_XDICTIONARY
360
58E
102
}
102
{ACAD_REACTORS
330
443
102
}
330
443
100
AcDbVisualStyle
  2
OverhangOff
 70
    21
 71
     2
 72
     2
 73
     0
 90
        0
 40
-0.6
 41
-30.0
 62
     5
 63
     7
421
 16777215
 74
     1
 91
        4
 64
     7
 65
   257
 75
     1
175
     1
 42
1.0
 92
        9
 66
     7
 43
1.0
 76
     1
 77
     6
 78
     2
 67
     7
 79
     5
170
     0
171
     0
290
     0
174
     0
 93
        1
 44
0.0
173
     0
291
     1
 45
0.0
1001
ACAD
1000
AcDbSavedByObjectVersion
1070
     0
  0
VISUALSTYLE
  5
44D
102
{ACAD_XDICTIONARY
360
574
102
}
102
{ACAD_REACTORS
330
443
102
}
330
443
100
AcDbVisualStyle
  2
Realistic
 70
     8
 71
     2
 72
     3
 73
     0
 90
        2
 40
-0.6
 41
30.0
 62
     5
 63
     7
421
 16777215
 74
     0
 91
        0
 64
     7
 65
   257
 75
     1
175
     1
 42
1.0
 92
        8
 66
   257
 43
1.0
 76
     1
 77
     6
 78
     2
 67
     7
 79
     3
170
     0
171
     0
290
     0
174
     0
 93
       13
 44
0.0
173
     0
291
     0
 45
0.0
1001
ACAD
1000
AcDbSavedByObjectVersion
1070
     0
  0
VISUALSTYLE
  5
458
102
{ACAD_XDICTIONARY
360
58A
102
}
102
{ACAD_REACTORS
330
443
102
}
330
443
100
AcDbVisualStyle
  2
Shaded
 70
    27
 71
     2
 72
     2
 73
     1
 90
        2
 40
-0.6
 41
30.0
 62
     5
 63
     7
421
 16777215
 74
     0
 91
        4
 64
     7
 65
   257
 75
     1
175
     1
 42
1.0
 92
        8
 66
   257
 43
1.0
 76
     1
 77
     6
 78
     2
 67
     8
425
  7895160
 79
     3
170
     0
171
     0
290
     0
174
     0
 93
        5
 44
0.0
173
     0
291
     0
 45
0.0
1001
ACAD
1000
AcDbSavedByObjectVersion
1070
     0
  0
VISUALSTYLE
  5
457
102
{ACAD_XDICTIONARY
360
588
102
}
102
{ACAD_REACTORS
330
443
102
}
330
443
100
AcDbVisualStyle
  2
Shaded with edges
 70
    26
 71
     2
 72
     2
 73
     1
 90
        2
 40
-0.6
 41
30.0
 62
     5
 63
     7
421
 16777215
 74
     1
 91
       10
 64
     7
 65
   257
 75
     2
175
     1
 42
1.0
 92
        8
 66
   257
 43
1.0
 76
     1
 77
     6
 78
     2
 67
     7
 79
     3
170
     0
171
     0
290
     0
174
     0
 93
        5
 44
0.0
173
     0
291
     0
 45
0.0
1001
ACAD
1000
AcDbSavedByObjectVersion
1070
     0
  0
VISUALSTYLE
  5
454
102
{ACAD_XDICTIONARY
360
582
102
}
102
{ACAD_REACTORS
330
443
102
}
330
443
100
AcDbVisualStyle
  2
Shades of Gray
 70
    23
 71
     2
 72
     2
 73
     3
 90
        0
 40
-0.6
 41
-30.0
 62
     5
 63
     7
421
 16777215
 74
     2
 91
        2
 64
     7
 65
     7
 75
     1
175
     1
 42
40.0
 92
        8
 66
     7
 43
1.0
 76
     1
 77
     6
 78
     2
 67
     7
 79
     3
170
     0
171
     0
290
     0
174
     0
 93
        1
 44
0.0
173
     0
291
     0
 45
0.0
1001
ACAD
1000
AcDbSavedByObjectVersion
1070
     0
  0
VISUALSTYLE
  5
455
102
{ACAD_XDICTIONARY
360
584
102
}
102
{ACAD_REACTORS
330
443
102
}
330
443
100
AcDbVisualStyle
  2
Sketchy
 70
    24
 71
     1
 72
     2
 73
     2
 90
        0
 40
-0.6
 41
-30.0
 62
     5
 63
     7
421
 16777215
 74
     2
 91
        2
 64
     7
 65
     7
 75
     1
175
     1
 42
40.0
 92
       11
 66
     7
 43
1.0
 76
     1
 77
     6
 78
     2
 67
     7
 79
     6
170
     0
171
     0
290
     0
174
     0
 93
        1
 44
0.0
173
     0
291
     0
 45
0.0
1001
ACAD
1000
AcDbSavedByObjectVersion
1070
     0
  0
VISUALSTYLE
  5
450
102
{ACAD_XDICTIONARY
360
57A
102
}
102
{ACAD_REACTORS
330
443
102
}
330
443
100
AcDbVisualStyle
  2
Thicken
 70
    13
 71
     2
 72
     2
 73
     0
 90
        0
 40
-0.6
 41
-30.0
 62
     5
 63
     7
421
 16777215
 74
     1
 91
        4
 64
     7
 65
   257
 75
     1
175
     1
 42
1.0
 92
       12
 66
     7
 43
1.0
 76
     1
 77
     6
 78
     2
 67
     7
 79
     5
170
     0
171
     0
290
     0
174
     0
 93
        1
 44
0.0
173
     0
291
     1
 45
0.0
1001
ACAD
1000
AcDbSavedByObjectVersion
1070
     0
  0
VISUALSTYLE
  5
44A
102
{ACAD_XDICTIONARY
360
56E
102
}
102
{ACAD_REACTORS
330
443
102
}
330
443
100
AcDbVisualStyle
  2
Wireframe
 70
     5
 71
     0
 72
     2
 73
     0
 90
        0
 40
-0.6
 41
-30.0
 62
     5
 63
     7
421
 16777215
 74
     1
 91
        4
 64
     7
 65
   257
 75
     1
175
     1
 42
1.0
 92
        0
 66
   257
 43
1.0
 76
     1
 77
     6
 78
     2
 67
     7
 79
     3
170
     0
171
     0
290
     0
174
     0
 93
        1
 44
0.0
173
     0
291
     0
 45
0.0
1001
ACAD
1000
AcDbSavedByObjectVersion
1070
     0
  0
VISUALSTYLE
  5
456
102
{ACAD_XDICTIONARY
360
586
102
}
102
{ACAD_REACTORS
330
443
102
}
330
443
100
AcDbVisualStyle
  2
X-Ray
 70
    25
 71
     2
 72
     2
 73
     1
 90
        1
 40
0.5
 41
-30.0
 62
     5
 63
     7
421
 16777215
 74
     1
 91
        0
 64
     7
 65
   257
 75
     1
175
     1
 42
1.0
 92
        8
 66
     7
 43
1.0
 76
     1
 77
     6
 78
     2
 67
     7
 79
     3
170
     0
171
     0
290
     0
174
     0
 93
       13
 44
0.0
173
     0
291
     0
 45
0.0
1001
ACAD
1000
AcDbSavedByObjectVersion
1070
     0
  0
DICTIONARYVAR
  5
55A
102
{ACAD_REACTORS
330
556
102
}
330
556
100
DictionaryVariables
280
     0
  1
1:1
  0
DICTIONARYVAR
  5
558
102
{ACAD_REACTORS
330
556
102
}
330
556
100
DictionaryVariables
280
     0
  1
STANDARD
  0
DICTIONARYVAR
  5
557
102
{ACAD_REACTORS
330
556
102
}
330
556
100
DictionaryVariables
280
     0
  1
STANDARD
  0
DICTIONARYVAR
  5
55C
102
{ACAD_REACTORS
330
556
102
}
330
556
100
DictionaryVariables
280
     0
  1
1
  0
DICTIONARYVAR
  5
55D
102
{ACAD_REACTORS
330
556
102
}
330
556
100
DictionaryVariables
280
     0
  1
15
  0
DICTIONARYVAR
  5
55B
102
{ACAD_REACTORS
330
556
102
}
330
556
100
DictionaryVariables
280
     0
  1
0
  0
DICTIONARYVAR
  5
559
102
{ACAD_REACTORS
330
556
102
}
330
556
100
DictionaryVariables
280
     0
  1
0
  0
DICTIONARYVAR
  5
55E
102
{ACAD_REACTORS
330
556
102
}
330
556
100
DictionaryVariables
280
     0
  1
2
  0
DICTIONARY
  5
434
330
433
100
AcDbDictionary
280
     1
281
     1
  3
BUMPTILE
360
436
  3
DIFFUSETILE
360
435
  3
OPACITYTILE
360
439
  3
REFLECTIONTILE
360
438
  3
REFRACTIONTILE
360
43A
  3
SPECULARTILE
360
437
  0
DICTIONARY
  5
42C
330
42B
100
AcDbDictionary
280
     1
281
     1
  3
BUMPTILE
360
42E
  3
DIFFUSETILE
360
42D
  3
OPACITYTILE
360
431
  3
REFLECTIONTILE
360
430
  3
REFRACTIONTILE
360
432
  3
SPECULARTILE
360
42F
  0
DICTIONARY
  5
43C
330
43B
100
AcDbDictionary
280
     1
281
     1
  3
BUMPTILE
360
43E
  3
DIFFUSETILE
360
43D
  3
OPACITYTILE
360
441
  3
REFLECTIONTILE
360
440
  3
REFRACTIONTILE
360
442
  3
SPECULARTILE
360
43F
  0
DICTIONARY
  5
55F
330
47E
100
AcDbDictionary
280
     1
281
     1
  3
ACAD_ROUNDTRIP_2008_TABLESTYLE_CELLSTYLEMAP
360
560
  0
DICTIONARY
  5
56C
330
449
100
AcDbDictionary
280
     1
281
     1
  3
ACAD_XREC_ROUNDTRIP
360
56D
  0
DICTIONARY
  5
56A
330
448
100
AcDbDictionary
280
     1
281
     1
  3
ACAD_XREC_ROUNDTRIP
360
56B
  0
DICTIONARY
  5
578
330
44F
100
AcDbDictionary
280
     1
281
     1
  3
ACAD_XREC_ROUNDTRIP
360
579
  0
DICTIONARY
  5
580
330
453
100
AcDbDictionary
280
     1
281
     1
  3
ACAD_XREC_ROUNDTRIP
360
581
  0
DICTIONARY
  5
572
330
44C
100
AcDbDictionary
280
     1
281
     1
  3
ACAD_XREC_ROUNDTRIP
360
573
  0
DICTIONARY
  5
576
330
44E
100
AcDbDictionary
280
     1
281
     1
  3
ACAD_XREC_ROUNDTRIP
360
577
  0
DICTIONARY
  5
590
330
45B
100
AcDbDictionary
280
     1
281
     1
  3
ACAD_XREC_ROUNDTRIP
360
591
  0
DICTIONARY
  5
57E
330
452
100
AcDbDictionary
280
     1
281
     1
  3
ACAD_XREC_ROUNDTRIP
360
57F
  0
DICTIONARY
  5
562
330
444
100
AcDbDictionary
280
     1
281
     1
  3
ACAD_XREC_ROUNDTRIP
360
563
  0
DICTIONARY
  5
564
330
445
100
AcDbDictionary
280
     1
281
     1
  3
ACAD_XREC_ROUNDTRIP
360
565
  0
DICTIONARY
  5
566
330
446
100
AcDbDictionary
280
     1
281
     1
  3
ACAD_XREC_ROUNDTRIP
360
567
  0
DICTIONARY
  5
568
330
447
100
AcDbDictionary
280
     1
281
     1
  3
ACAD_XREC_ROUNDTRIP
360
569
  0
DICTIONARY
  5
570
330
44B
100
AcDbDictionary
280
     1
281
     1
  3
ACAD_XREC_ROUNDTRIP
360
571
  0
DICTIONARY
  5
58C
330
459
100
AcDbDictionary
280
     1
281
     1
  3
ACAD_XREC_ROUNDTRIP
360
58D
  0
DICTIONARY
  5
57C
330
451
100
AcDbDictionary
280
     1
281
     1
  3
ACAD_XREC_ROUNDTRIP
360
57D
  0
DICTIONARY
  5
58E
330
45A
100
AcDbDictionary
280
     1
281
     1
  3
ACAD_XREC_ROUNDTRIP
360
58F
  0
DICTIONARY
  5
574
330
44D
100
AcDbDictionary
280
     1
281
     1
  3
ACAD_XREC_ROUNDTRIP
360
575
  0
DICTIONARY
  5
58A
330
458
100
AcDbDictionary
280
     1
281
     1
  3
ACAD_XREC_ROUNDTRIP
360
58B
  0
DICTIONARY
  5
588
330
457
100
AcDbDictionary
280
     1
281
     1
  3
ACAD_XREC_ROUNDTRIP
360
589
  0
DICTIONARY
  5
582
330
454
100
AcDbDictionary
280
     1
281
     1
  3
ACAD_XREC_ROUNDTRIP
360
583
  0
DICTIONARY
  5
584
330
455
100
AcDbDictionary
280
     1
281
     1
  3
ACAD_XREC_ROUNDTRIP
360
585
  0
DICTIONARY
  5
57A
330
450
100
AcDbDictionary
280
     1
281
     1
  3
ACAD_XREC_ROUNDTRIP
360
57B
  0
DICTIONARY
  5
56E
330
44A
100
AcDbDictionary
280
     1
281
     1
  3
ACAD_XREC_ROUNDTRIP
360
56F
  0
DICTIONARY
  5
586
330
456
100
AcDbDictionary
280
     1
281
     1
  3
ACAD_XREC_ROUNDTRIP
360
587
  0
XRECORD
  5
436
102
{ACAD_REACTORS
330
434
102
}
330
434
100
AcDbXrecord
280
     1
270
     1
271
     1
  0
XRECORD
  5
435
102
{ACAD_REACTORS
330
434
102
}
330
434
100
AcDbXrecord
280
     1
270
     1
271
     1
  0
XRECORD
  5
439
102
{ACAD_REACTORS
330
434
102
}
330
434
100
AcDbXrecord
280
     1
270
     1
271
     1
  0
XRECORD
  5
438
102
{ACAD_REACTORS
330
434
102
}
330
434
100
AcDbXrecord
280
     1
270
     1
271
     1
  0
XRECORD
  5
43A
102
{ACAD_REACTORS
330
434
102
}
330
434
100
AcDbXrecord
280
     1
270
     1
271
     1
  0
XRECORD
  5
437
102
{ACAD_REACTORS
330
434
102
}
330
434
100
AcDbXrecord
280
     1
270
     1
271
     1
  0
XRECORD
  5
42E
102
{ACAD_REACTORS
330
42C
102
}
330
42C
100
AcDbXrecord
280
     1
270
     1
271
     1
  0
XRECORD
  5
42D
102
{ACAD_REACTORS
330
42C
102
}
330
42C
100
AcDbXrecord
280
     1
270
     1
271
     1
  0
XRECORD
  5
431
102
{ACAD_REACTORS
330
42C
102
}
330
42C
100
AcDbXrecord
280
     1
270
     1
271
     1
  0
XRECORD
  5
430
102
{ACAD_REACTORS
330
42C
102
}
330
42C
100
AcDbXrecord
280
     1
270
     1
271
     1
  0
XRECORD
  5
432
102
{ACAD_REACTORS
330
42C
102
}
330
42C
100
AcDbXrecord
280
     1
270
     1
271
     1
  0
XRECORD
  5
42F
102
{ACAD_REACTORS
330
42C
102
}
330
42C
100
AcDbXrecord
280
     1
270
     1
271
     1
  0
XRECORD
  5
43E
102
{ACAD_REACTORS
330
43C
102
}
330
43C
100
AcDbXrecord
280
     1
270
     1
271
     1
  0
XRECORD
  5
43D
102
{ACAD_REACTORS
330
43C
102
}
330
43C
100
AcDbXrecord
280
     1
270
     1
271
     1
  0
XRECORD
  5
441
102
{ACAD_REACTORS
330
43C
102
}
330
43C
100
AcDbXrecord
280
     1
270
     1
271
     1
  0
XRECORD
  5
440
102
{ACAD_REACTORS
330
43C
102
}
330
43C
100
AcDbXrecord
280
     1
270
     1
271
     1
  0
XRECORD
  5
442
102
{ACAD_REACTORS
330
43C
102
}
330
43C
100
AcDbXrecord
280
     1
270
     1
271
     1
  0
XRECORD
  5
43F
102
{ACAD_REACTORS
330
43C
102
}
330
43C
100
AcDbXrecord
280
     1
270
     1
271
     1
  0
CELLSTYLEMAP
  5
560
102
{ACAD_REACTORS
330
55F
102
}
330
55F
100
AcDbCellStyleMap
 90
        3
300
CELLSTYLE
  1
TABLEFORMAT_BEGIN
 90
        5
170
     1
 91
        0
 92
    32768
 62
   257
 93
        1
300
CONTENTFORMAT
  1
CONTENTFORMAT_BEGIN
 90
        0
 91
        0
 92
      512
 93
        0
300

 40
0.0
140
1.0
 94
        5
 62
     0
340
46F
144
0.25
309
CONTENTFORMAT_END
171
     0
 94
        0
309
TABLEFORMAT_END
  1
CELLSTYLE_BEGIN
 90
        1
 91
        1
300
_TITLE
309
CELLSTYLE_END
300
CELLSTYLE
  1
TABLEFORMAT_BEGIN
 90
        5
170
     1
 91
        0
 92
        0
 62
   257
 93
        1
300
CONTENTFORMAT
  1
CONTENTFORMAT_BEGIN
 90
        0
 91
        0
 92
      512
 93
        0
300

 40
0.0
140
1.0
 94
        5
 62
     0
340
46F
144
0.18
309
CONTENTFORMAT_END
171
     0
 94
        0
309
TABLEFORMAT_END
  1
CELLSTYLE_BEGIN
 90
        2
 91
        1
300
_HEADER
309
CELLSTYLE_END
300
CELLSTYLE
  1
TABLEFORMAT_BEGIN
 90
        5
170
     1
 91
        0
 92
        0
 62
   257
 93
        1
300
CONTENTFORMAT
  1
CONTENTFORMAT_BEGIN
 90
        0
 91
        0
 92
      512
 93
        0
300

 40
0.0
140
1.0
 94
        2
 62
     0
340
46F
144
0.18
309
CONTENTFORMAT_END
171
     0
 94
        0
309
TABLEFORMAT_END
  1
CELLSTYLE_BEGIN
 90
        3
 91
        2
300
_DATA
309
CELLSTYLE_END
  0
XRECORD
  5
56D
102
{ACAD_REACTORS
330
56C
102
}
330
56C
100
AcDbXrecord
280
     1
102
RTVSPropertyOp0
 70
     1
102
RTVSPropertyOp1
 70
     1
102
RTVSPropertyOp2
 70
     1
102
RTVSPropertyOp3
 70
     1
102
RTVSPropertyOp4
 70
     1
102
RTVSPropertyOp5
 70
     1
102
RTVSPropertyOp6
 70
     1
102
RTVSPropertyOp7
 70
     1
102
RTVSPropertyOp8
 70
     1
102
RTVSPropertyOp9
 70
     1
102
RTVSPropertyOp10
 70
     1
102
RTVSPropertyOp11
 70
     1
102
RTVSPropertyOp12
 70
     1
102
RTVSPropertyOp13
 70
     1
102
RTVSPropertyOp14
 70
     1
102
RTVSPropertyOp15
 70
     1
102
RTVSPropertyOp16
 70
     1
102
RTVSPropertyOp17
 70
     1
102
RTVSPropertyOp18
 70
     1
102
RTVSPropertyOp19
 70
     1
102
RTVSPropertyOp20
 70
     1
102
RTVSPropertyOp21
 70
     1
102
RTVSPropertyOp22
 70
     1
102
RTVSPropertyOp23
 70
     1
102
RTVSPropertyOp24
 70
     1
102
RTVSPropertyOp25
 70
     1
102
RTVSPropertyOp26
 70
     1
102
RTVSPropertyOp27
 70
     1
102
RTVSPropertyOp28
 70
     1
102
RTVSPropertyOp29
 70
     1
102
RTVSPropertyOp30
 70
     1
102
RTVSPropertyOp31
 70
     1
102
RTVSPropertyOp32
 70
     1
  0
XRECORD
  5
56B
102
{ACAD_REACTORS
330
56A
102
}
330
56A
100
AcDbXrecord
280
     1
102
RTVSPropertyOp0
 70
     1
102
RTVSPropertyOp1
 70
     1
102
RTVSPropertyOp2
 70
     1
102
RTVSPropertyOp3
 70
     1
102
RTVSPropertyOp4
 70
     1
102
RTVSPropertyOp5
 70
     1
102
RTVSPropertyOp6
 70
     1
102
RTVSPropertyOp7
 70
     1
102
RTVSPropertyOp8
 70
     1
102
RTVSPropertyOp9
 70
     1
102
RTVSPropertyOp10
 70
     1
102
RTVSPropertyOp11
 70
     1
102
RTVSPropertyOp12
 70
     1
102
RTVSPropertyOp13
 70
     1
102
RTVSPropertyOp14
 70
     1
102
RTVSPropertyOp15
 70
     1
102
RTVSPropertyOp16
 70
     1
102
RTVSPropertyOp17
 70
     1
102
RTVSPropertyOp18
 70
     1
102
RTVSPropertyOp19
 70
     1
102
RTVSPropertyOp20
 70
     1
102
RTVSPropertyOp21
 70
     1
102
RTVSPropertyOp22
 70
     1
102
RTVSPropertyOp23
 70
     1
102
RTVSPropertyOp24
 70
     1
102
RTVSPropertyOp25
 70
     1
102
RTVSPropertyOp26
 70
     1
102
RTVSPropertyOp27
 70
     1
102
RTVSPropertyOp28
 70
     1
102
RTVSPropertyOp29
 70
     1
102
RTVSPropertyOp30
 70
     1
102
RTVSPropertyOp31
 70
     1
102
RTVSPropertyOp32
 70
     1
  0
XRECORD
  5
579
102
{ACAD_REACTORS
330
578
102
}
330
578
100
AcDbXrecord
280
     1
102
RTVSPropertyOp0
 70
     1
102
RTVSPropertyOp1
 70
     1
102
RTVSPropertyOp2
 70
     1
102
RTVSPropertyOp3
 70
     1
102
RTVSPropertyOp4
 70
     1
102
RTVSPropertyOp5
 70
     1
102
RTVSPropertyOp6
 70
     1
102
RTVSPropertyOp7
 70
     1
102
RTVSPropertyOp8
 70
     1
102
RTVSPropertyOp9
 70
     1
102
RTVSPropertyOp10
 70
     1
102
RTVSPropertyOp11
 70
     1
102
RTVSPropertyOp12
 70
     1
102
RTVSPropertyOp13
 70
     1
102
RTVSPropertyOp14
 70
     1
102
RTVSPropertyOp15
 70
     1
102
RTVSPropertyOp16
 70
     1
102
RTVSPropertyOp17
 70
     1
102
RTVSPropertyOp18
 70
     1
102
RTVSPropertyOp19
 70
     1
102
RTVSPropertyOp20
 70
     1
102
RTVSPropertyOp21
 70
     1
102
RTVSPropertyOp22
 70
     1
102
RTVSPropertyOp23
 70
     1
102
RTVSPropertyOp24
 70
     1
102
RTVSPropertyOp25
 70
     1
102
RTVSPropertyOp26
 70
     1
102
RTVSPropertyOp27
 70
     1
102
RTVSPropertyOp28
 70
     1
102
RTVSPropertyOp29
 70
     1
102
RTVSPropertyOp30
 70
     1
102
RTVSPropertyOp31
 70
     1
102
RTVSPropertyOp32
 70
     1
  0
XRECORD
  5
581
102
{ACAD_REACTORS
330
580
102
}
330
580
100
AcDbXrecord
280
     1
102
RTVSPropertyOp0
 70
     1
102
RTVSPropertyOp1
 70
     1
102
RTVSPropertyOp2
 70
     1
102
RTVSPropertyOp3
 70
     1
102
RTVSPropertyOp4
 70
     1
102
RTVSPropertyOp5
 70
     1
102
RTVSPropertyOp6
 70
     1
102
RTVSPropertyOp7
 70
     1
102
RTVSPropertyOp8
 70
     1
102
RTVSPropertyOp9
 70
     1
102
RTVSPropertyOp10
 70
     1
102
RTVSPropertyOp11
 70
     1
102
RTVSPropertyOp12
 70
     1
102
RTVSPropertyOp13
 70
     1
102
RTVSPropertyOp14
 70
     1
102
RTVSPropertyOp15
 70
     1
102
RTVSPropertyOp16
 70
     1
102
RTVSPropertyOp17
 70
     1
102
RTVSPropertyOp18
 70
     1
102
RTVSPropertyOp19
 70
     1
102
RTVSPropertyOp20
 70
     1
102
RTVSPropertyOp21
 70
     1
102
RTVSPropertyOp22
 70
     1
102
RTVSPropertyOp23
 70
     1
102
RTVSPropertyOp24
 70
     1
102
RTVSPropertyOp25
 70
     1
102
RTVSPropertyOp26
 70
     1
102
RTVSPropertyOp27
 70
     1
102
RTVSPropertyOp28
 70
     1
102
RTVSPropertyOp29
 70
     1
102
RTVSPropertyOp30
 70
     1
102
RTVSPropertyOp31
 70
     1
102
RTVSPropertyOp32
 70
     1
  0
XRECORD
  5
573
102
{ACAD_REACTORS
330
572
102
}
330
572
100
AcDbXrecord
280
     1
102
RTVSPropertyOp0
 70
     1
102
RTVSPropertyOp1
 70
     1
102
RTVSPropertyOp2
 70
     1
102
RTVSPropertyOp3
 70
     1
102
RTVSPropertyOp4
 70
     1
102
RTVSPropertyOp5
 70
     1
102
RTVSPropertyOp6
 70
     1
102
RTVSPropertyOp7
 70
     1
102
RTVSPropertyOp8
 70
     1
102
RTVSPropertyOp9
 70
     1
102
RTVSPropertyOp10
 70
     1
102
RTVSPropertyOp11
 70
     1
102
RTVSPropertyOp12
 70
     1
102
RTVSPropertyOp13
 70
     1
102
RTVSPropertyOp14
 70
     1
102
RTVSPropertyOp15
 70
     1
102
RTVSPropertyOp16
 70
     1
102
RTVSPropertyOp17
 70
     1
102
RTVSPropertyOp18
 70
     1
102
RTVSPropertyOp19
 70
     1
102
RTVSPropertyOp20
 70
     1
102
RTVSPropertyOp21
 70
     1
102
RTVSPropertyOp22
 70
     1
102
RTVSPropertyOp23
 70
     1
102
RTVSPropertyOp24
 70
     1
102
RTVSPropertyOp25
 70
     1
102
RTVSPropertyOp26
 70
     1
102
RTVSPropertyOp27
 70
     1
102
RTVSPropertyOp28
 70
     1
102
RTVSPropertyOp29
 70
     1
102
RTVSPropertyOp30
 70
     1
102
RTVSPropertyOp31
 70
     1
102
RTVSPropertyOp32
 70
     1
  0
XRECORD
  5
577
102
{ACAD_REACTORS
330
576
102
}
330
576
100
AcDbXrecord
280
     1
102
RTVSPropertyOp0
 70
     1
102
RTVSPropertyOp1
 70
     1
102
RTVSPropertyOp2
 70
     1
102
RTVSPropertyOp3
 70
     1
102
RTVSPropertyOp4
 70
     1
102
RTVSPropertyOp5
 70
     1
102
RTVSPropertyOp6
 70
     1
102
RTVSPropertyOp7
 70
     1
102
RTVSPropertyOp8
 70
     1
102
RTVSPropertyOp9
 70
     1
102
RTVSPropertyOp10
 70
     1
102
RTVSPropertyOp11
 70
     1
102
RTVSPropertyOp12
 70
     1
102
RTVSPropertyOp13
 70
     1
102
RTVSPropertyOp14
 70
     1
102
RTVSPropertyOp15
 70
     1
102
RTVSPropertyOp16
 70
     1
102
RTVSPropertyOp17
 70
     1
102
RTVSPropertyOp18
 70
     1
102
RTVSPropertyOp19
 70
     1
102
RTVSPropertyOp20
 70
     1
102
RTVSPropertyOp21
 70
     1
102
RTVSPropertyOp22
 70
     1
102
RTVSPropertyOp23
 70
     1
102
RTVSPropertyOp24
 70
     1
102
RTVSPropertyOp25
 70
     1
102
RTVSPropertyOp26
 70
     1
102
RTVSPropertyOp27
 70
     1
102
RTVSPropertyOp28
 70
     1
102
RTVSPropertyOp29
 70
     1
102
RTVSPropertyOp30
 70
     1
102
RTVSPropertyOp31
 70
     1
102
RTVSPropertyOp32
 70
     1
  0
XRECORD
  5
591
102
{ACAD_REACTORS
330
590
102
}
330
590
100
AcDbXrecord
280
     1
102
RTVSPropertyOp0
 70
     0
102
RTVSPropertyOp1
 70
     0
102
RTVSPropertyOp2
 70
     0
102
RTVSPropertyOp3
 70
     0
102
RTVSPropertyOp4
 70
     0
102
RTVSPropertyOp5
 70
     0
102
RTVSPropertyOp6
 70
     0
102
RTVSPropertyOp7
 70
     0
102
RTVSPropertyOp8
 70
     0
102
RTVSPropertyOp9
 70
     0
102
RTVSPropertyOp10
 70
     0
102
RTVSPropertyOp11
 70
     0
102
RTVSPropertyOp12
 70
     0
102
RTVSPropertyOp13
 70
     0
102
RTVSPropertyOp14
 70
     2
102
RTVSPropertyOp15
 70
     0
102
RTVSPropertyOp16
 70
     0
102
RTVSPropertyOp17
 70
     0
102
RTVSPropertyOp18
 70
     0
102
RTVSPropertyOp19
 70
     0
102
RTVSPropertyOp20
 70
     0
102
RTVSPropertyOp21
 70
     0
102
RTVSPropertyOp22
 70
     0
102
RTVSPropertyOp23
 70
     0
102
RTVSPropertyOp24
 70
     0
102
RTVSPropertyOp25
 70
     0
102
RTVSPropertyOp26
 70
     0
102
RTVSPropertyOp27
 70
     0
102
RTVSPropertyOp28
 70
     0
102
RTVSPropertyOp29
 70
     0
102
RTVSPropertyOp30
 70
     0
102
RTVSPropertyOp31
 70
     0
102
RTVSPropertyOp32
 70
     0
  0
XRECORD
  5
57F
102
{ACAD_REACTORS
330
57E
102
}
330
57E
100
AcDbXrecord
280
     1
102
RTVSPropertyOp0
 70
     1
102
RTVSPropertyOp1
 70
     1
102
RTVSPropertyOp2
 70
     1
102
RTVSPropertyOp3
 70
     1
102
RTVSPropertyOp4
 70
     1
102
RTVSPropertyOp5
 70
     1
102
RTVSPropertyOp6
 70
     1
102
RTVSPropertyOp7
 70
     1
102
RTVSPropertyOp8
 70
     1
102
RTVSPropertyOp9
 70
     1
102
RTVSPropertyOp10
 70
     1
102
RTVSPropertyOp11
 70
     1
102
RTVSPropertyOp12
 70
     1
102
RTVSPropertyOp13
 70
     1
102
RTVSPropertyOp14
 70
     1
102
RTVSPropertyOp15
 70
     1
102
RTVSPropertyOp16
 70
     1
102
RTVSPropertyOp17
 70
     1
102
RTVSPropertyOp18
 70
     1
102
RTVSPropertyOp19
 70
     1
102
RTVSPropertyOp20
 70
     1
102
RTVSPropertyOp21
 70
     1
102
RTVSPropertyOp22
 70
     1
102
RTVSPropertyOp23
 70
     1
102
RTVSPropertyOp24
 70
     1
102
RTVSPropertyOp25
 70
     1
102
RTVSPropertyOp26
 70
     1
102
RTVSPropertyOp27
 70
     1
102
RTVSPropertyOp28
 70
     1
102
RTVSPropertyOp29
 70
     1
102
RTVSPropertyOp30
 70
     1
102
RTVSPropertyOp31
 70
     1
102
RTVSPropertyOp32
 70
     1
  0
XRECORD
  5
563
102
{ACAD_REACTORS
330
562
102
}
330
562
100
AcDbXrecord
280
     1
102
RTVSPropertyOp0
 70
     1
102
RTVSPropertyOp1
 70
     1
102
RTVSPropertyOp2
 70
     1
102
RTVSPropertyOp3
 70
     1
102
RTVSPropertyOp4
 70
     1
102
RTVSPropertyOp5
 70
     1
102
RTVSPropertyOp6
 70
     1
102
RTVSPropertyOp7
 70
     1
102
RTVSPropertyOp8
 70
     1
102
RTVSPropertyOp9
 70
     1
102
RTVSPropertyOp10
 70
     1
102
RTVSPropertyOp11
 70
     1
102
RTVSPropertyOp12
 70
     1
102
RTVSPropertyOp13
 70
     1
102
RTVSPropertyOp14
 70
     1
102
RTVSPropertyOp15
 70
     1
102
RTVSPropertyOp16
 70
     1
102
RTVSPropertyOp17
 70
     1
102
RTVSPropertyOp18
 70
     1
102
RTVSPropertyOp19
 70
     1
102
RTVSPropertyOp20
 70
     1
102
RTVSPropertyOp21
 70
     1
102
RTVSPropertyOp22
 70
     1
102
RTVSPropertyOp23
 70
     1
102
RTVSPropertyOp24
 70
     1
102
RTVSPropertyOp25
 70
     1
102
RTVSPropertyOp26
 70
     1
102
RTVSPropertyOp27
 70
     1
102
RTVSPropertyOp28
 70
     1
102
RTVSPropertyOp29
 70
     1
102
RTVSPropertyOp30
 70
     1
102
RTVSPropertyOp31
 70
     1
102
RTVSPropertyOp32
 70
     1
  0
XRECORD
  5
565
102
{ACAD_REACTORS
330
564
102
}
330
564
100
AcDbXrecord
280
     1
102
RTVSPropertyOp0
 70
     1
102
RTVSPropertyOp1
 70
     1
102
RTVSPropertyOp2
 70
     1
102
RTVSPropertyOp3
 70
     1
102
RTVSPropertyOp4
 70
     1
102
RTVSPropertyOp5
 70
     1
102
RTVSPropertyOp6
 70
     1
102
RTVSPropertyOp7
 70
     1
102
RTVSPropertyOp8
 70
     1
102
RTVSPropertyOp9
 70
     1
102
RTVSPropertyOp10
 70
     1
102
RTVSPropertyOp11
 70
     1
102
RTVSPropertyOp12
 70
     1
102
RTVSPropertyOp13
 70
     1
102
RTVSPropertyOp14
 70
     1
102
RTVSPropertyOp15
 70
     1
102
RTVSPropertyOp16
 70
     1
102
RTVSPropertyOp17
 70
     1
102
RTVSPropertyOp18
 70
     1
102
RTVSPropertyOp19
 70
     1
102
RTVSPropertyOp20
 70
     1
102
RTVSPropertyOp21
 70
     1
102
RTVSPropertyOp22
 70
     1
102
RTVSPropertyOp23
 70
     1
102
RTVSPropertyOp24
 70
     1
102
RTVSPropertyOp25
 70
     1
102
RTVSPropertyOp26
 70
     1
102
RTVSPropertyOp27
 70
     1
102
RTVSPropertyOp28
 70
     1
102
RTVSPropertyOp29
 70
     1
102
RTVSPropertyOp30
 70
     1
102
RTVSPropertyOp31
 70
     1
102
RTVSPropertyOp32
 70
     1
  0
XRECORD
  5
567
102
{ACAD_REACTORS
330
566
102
}
330
566
100
AcDbXrecord
280
     1
102
RTVSPropertyOp0
 70
     1
102
RTVSPropertyOp1
 70
     1
102
RTVSPropertyOp2
 70
     1
102
RTVSPropertyOp3
 70
     1
102
RTVSPropertyOp4
 70
     1
102
RTVSPropertyOp5
 70
     1
102
RTVSPropertyOp6
 70
     1
102
RTVSPropertyOp7
 70
     1
102
RTVSPropertyOp8
 70
     1
102
RTVSPropertyOp9
 70
     1
102
RTVSPropertyOp10
 70
     1
102
RTVSPropertyOp11
 70
     1
102
RTVSPropertyOp12
 70
     1
102
RTVSPropertyOp13
 70
     1
102
RTVSPropertyOp14
 70
     1
102
RTVSPropertyOp15
 70
     1
102
RTVSPropertyOp16
 70
     1
102
RTVSPropertyOp17
 70
     1
102
RTVSPropertyOp18
 70
     1
102
RTVSPropertyOp19
 70
     1
102
RTVSPropertyOp20
 70
     1
102
RTVSPropertyOp21
 70
     1
102
RTVSPropertyOp22
 70
     1
102
RTVSPropertyOp23
 70
     1
102
RTVSPropertyOp24
 70
     1
102
RTVSPropertyOp25
 70
     1
102
RTVSPropertyOp26
 70
     1
102
RTVSPropertyOp27
 70
     1
102
RTVSPropertyOp28
 70
     1
102
RTVSPropertyOp29
 70
     1
102
RTVSPropertyOp30
 70
     1
102
RTVSPropertyOp31
 70
     1
102
RTVSPropertyOp32
 70
     1
  0
XRECORD
  5
569
102
{ACAD_REACTORS
330
568
102
}
330
568
100
AcDbXrecord
280
     1
102
RTVSPropertyOp0
 70
     1
102
RTVSPropertyOp1
 70
     1
102
RTVSPropertyOp2
 70
     1
102
RTVSPropertyOp3
 70
     1
102
RTVSPropertyOp4
 70
     1
102
RTVSPropertyOp5
 70
     1
102
RTVSPropertyOp6
 70
     1
102
RTVSPropertyOp7
 70
     1
102
RTVSPropertyOp8
 70
     1
102
RTVSPropertyOp9
 70
     1
102
RTVSPropertyOp10
 70
     1
102
RTVSPropertyOp11
 70
     1
102
RTVSPropertyOp12
 70
     1
102
RTVSPropertyOp13
 70
     1
102
RTVSPropertyOp14
 70
     1
102
RTVSPropertyOp15
 70
     1
102
RTVSPropertyOp16
 70
     1
102
RTVSPropertyOp17
 70
     1
102
RTVSPropertyOp18
 70
     1
102
RTVSPropertyOp19
 70
     1
102
RTVSPropertyOp20
 70
     1
102
RTVSPropertyOp21
 70
     1
102
RTVSPropertyOp22
 70
     1
102
RTVSPropertyOp23
 70
     1
102
RTVSPropertyOp24
 70
     1
102
RTVSPropertyOp25
 70
     1
102
RTVSPropertyOp26
 70
     1
102
RTVSPropertyOp27
 70
     1
102
RTVSPropertyOp28
 70
     1
102
RTVSPropertyOp29
 70
     1
102
RTVSPropertyOp30
 70
     1
102
RTVSPropertyOp31
 70
     1
102
RTVSPropertyOp32
 70
     1
  0
XRECORD
  5
571
102
{ACAD_REACTORS
330
570
102
}
330
570
100
AcDbXrecord
280
     1
102
RTVSPropertyOp0
 70
     1
102
RTVSPropertyOp1
 70
     1
102
RTVSPropertyOp2
 70
     1
102
RTVSPropertyOp3
 70
     1
102
RTVSPropertyOp4
 70
     1
102
RTVSPropertyOp5
 70
     1
102
RTVSPropertyOp6
 70
     1
102
RTVSPropertyOp7
 70
     1
102
RTVSPropertyOp8
 70
     1
102
RTVSPropertyOp9
 70
     1
102
RTVSPropertyOp10
 70
     1
102
RTVSPropertyOp11
 70
     1
102
RTVSPropertyOp12
 70
     1
102
RTVSPropertyOp13
 70
     1
102
RTVSPropertyOp14
 70
     1
102
RTVSPropertyOp15
 70
     1
102
RTVSPropertyOp16
 70
     1
102
RTVSPropertyOp17
 70
     1
102
RTVSPropertyOp18
 70
     1
102
RTVSPropertyOp19
 70
     1
102
RTVSPropertyOp20
 70
     1
102
RTVSPropertyOp21
 70
     1
102
RTVSPropertyOp22
 70
     1
102
RTVSPropertyOp23
 70
     1
102
RTVSPropertyOp24
 70
     1
102
RTVSPropertyOp25
 70
     1
102
RTVSPropertyOp26
 70
     1
102
RTVSPropertyOp27
 70
     1
102
RTVSPropertyOp28
 70
     1
102
RTVSPropertyOp29
 70
     1
102
RTVSPropertyOp30
 70
     1
102
RTVSPropertyOp31
 70
     1
102
RTVSPropertyOp32
 70
     1
  0
XRECORD
  5
58D
102
{ACAD_REACTORS
330
58C
102
}
330
58C
100
AcDbXrecord
280
     1
102
RTVSPropertyOp0
 70
     0
102
RTVSPropertyOp1
 70
     0
102
RTVSPropertyOp2
 70
     0
102
RTVSPropertyOp3
 70
     0
102
RTVSPropertyOp4
 70
     0
102
RTVSPropertyOp5
 70
     0
102
RTVSPropertyOp6
 70
     0
102
RTVSPropertyOp7
 70
     0
102
RTVSPropertyOp8
 70
     0
102
RTVSPropertyOp9
 70
     0
102
RTVSPropertyOp10
 70
     0
102
RTVSPropertyOp11
 70
     0
102
RTVSPropertyOp12
 70
     0
102
RTVSPropertyOp13
 70
     0
102
RTVSPropertyOp14
 70
     2
102
RTVSPropertyOp15
 70
     0
102
RTVSPropertyOp16
 70
     0
102
RTVSPropertyOp17
 70
     0
102
RTVSPropertyOp18
 70
     0
102
RTVSPropertyOp19
 70
     0
102
RTVSPropertyOp20
 70
     0
102
RTVSPropertyOp21
 70
     0
102
RTVSPropertyOp22
 70
     0
102
RTVSPropertyOp23
 70
     0
102
RTVSPropertyOp24
 70
     0
102
RTVSPropertyOp25
 70
     0
102
RTVSPropertyOp26
 70
     0
102
RTVSPropertyOp27
 70
     0
102
RTVSPropertyOp28
 70
     0
102
RTVSPropertyOp29
 70
     0
102
RTVSPropertyOp30
 70
     0
102
RTVSPropertyOp31
 70
     0
102
RTVSPropertyOp32
 70
     0
  0
XRECORD
  5
57D
102
{ACAD_REACTORS
330
57C
102
}
330
57C
100
AcDbXrecord
280
     1
102
RTVSPropertyOp0
 70
     1
102
RTVSPropertyOp1
 70
     1
102
RTVSPropertyOp2
 70
     1
102
RTVSPropertyOp3
 70
     1
102
RTVSPropertyOp4
 70
     1
102
RTVSPropertyOp5
 70
     1
102
RTVSPropertyOp6
 70
     1
102
RTVSPropertyOp7
 70
     1
102
RTVSPropertyOp8
 70
     1
102
RTVSPropertyOp9
 70
     1
102
RTVSPropertyOp10
 70
     1
102
RTVSPropertyOp11
 70
     1
102
RTVSPropertyOp12
 70
     1
102
RTVSPropertyOp13
 70
     1
102
RTVSPropertyOp14
 70
     1
102
RTVSPropertyOp15
 70
     1
102
RTVSPropertyOp16
 70
     1
102
RTVSPropertyOp17
 70
     1
102
RTVSPropertyOp18
 70
     1
102
RTVSPropertyOp19
 70
     1
102
RTVSPropertyOp20
 70
     1
102
RTVSPropertyOp21
 70
     1
102
RTVSPropertyOp22
 70
     1
102
RTVSPropertyOp23
 70
     1
102
RTVSPropertyOp24
 70
     1
102
RTVSPropertyOp25
 70
     1
102
RTVSPropertyOp26
 70
     1
102
RTVSPropertyOp27
 70
     1
102
RTVSPropertyOp28
 70
     1
102
RTVSPropertyOp29
 70
     1
102
RTVSPropertyOp30
 70
     1
102
RTVSPropertyOp31
 70
     1
102
RTVSPropertyOp32
 70
     1
  0
XRECORD
  5
58F
102
{ACAD_REACTORS
330
58E
102
}
330
58E
100
AcDbXrecord
280
     1
102
RTVSPropertyOp0
 70
     0
102
RTVSPropertyOp1
 70
     0
102
RTVSPropertyOp2
 70
     0
102
RTVSPropertyOp3
 70
     0
102
RTVSPropertyOp4
 70
     0
102
RTVSPropertyOp5
 70
     0
102
RTVSPropertyOp6
 70
     0
102
RTVSPropertyOp7
 70
     0
102
RTVSPropertyOp8
 70
     0
102
RTVSPropertyOp9
 70
     0
102
RTVSPropertyOp10
 70
     0
102
RTVSPropertyOp11
 70
     0
102
RTVSPropertyOp12
 70
     0
102
RTVSPropertyOp13
 70
     0
102
RTVSPropertyOp14
 70
     2
102
RTVSPropertyOp15
 70
     0
102
RTVSPropertyOp16
 70
     0
102
RTVSPropertyOp17
 70
     0
102
RTVSPropertyOp18
 70
     0
102
RTVSPropertyOp19
 70
     0
102
RTVSPropertyOp20
 70
     0
102
RTVSPropertyOp21
 70
     0
102
RTVSPropertyOp22
 70
     0
102
RTVSPropertyOp23
 70
     0
102
RTVSPropertyOp24
 70
     0
102
RTVSPropertyOp25
 70
     0
102
RTVSPropertyOp26
 70
     0
102
RTVSPropertyOp27
 70
     0
102
RTVSPropertyOp28
 70
     0
102
RTVSPropertyOp29
 70
     0
102
RTVSPropertyOp30
 70
     0
102
RTVSPropertyOp31
 70
     0
102
RTVSPropertyOp32
 70
     0
  0
XRECORD
  5
575
102
{ACAD_REACTORS
330
574
102
}
330
574
100
AcDbXrecord
280
     1
102
RTVSPropertyOp0
 70
     1
102
RTVSPropertyOp1
 70
     1
102
RTVSPropertyOp2
 70
     1
102
RTVSPropertyOp3
 70
     1
102
RTVSPropertyOp4
 70
     1
102
RTVSPropertyOp5
 70
     1
102
RTVSPropertyOp6
 70
     1
102
RTVSPropertyOp7
 70
     1
102
RTVSPropertyOp8
 70
     1
102
RTVSPropertyOp9
 70
     1
102
RTVSPropertyOp10
 70
     1
102
RTVSPropertyOp11
 70
     1
102
RTVSPropertyOp12
 70
     1
102
RTVSPropertyOp13
 70
     1
102
RTVSPropertyOp14
 70
     1
102
RTVSPropertyOp15
 70
     1
102
RTVSPropertyOp16
 70
     1
102
RTVSPropertyOp17
 70
     1
102
RTVSPropertyOp18
 70
     1
102
RTVSPropertyOp19
 70
     1
102
RTVSPropertyOp20
 70
     1
102
RTVSPropertyOp21
 70
     1
102
RTVSPropertyOp22
 70
     1
102
RTVSPropertyOp23
 70
     1
102
RTVSPropertyOp24
 70
     1
102
RTVSPropertyOp25
 70
     1
102
RTVSPropertyOp26
 70
     1
102
RTVSPropertyOp27
 70
     1
102
RTVSPropertyOp28
 70
     1
102
RTVSPropertyOp29
 70
     1
102
RTVSPropertyOp30
 70
     1
102
RTVSPropertyOp31
 70
     1
102
RTVSPropertyOp32
 70
     1
  0
XRECORD
  5
58B
102
{ACAD_REACTORS
330
58A
102
}
330
58A
100
AcDbXrecord
280
     1
102
RTVSPropertyOp0
 70
     1
102
RTVSPropertyOp1
 70
     1
102
RTVSPropertyOp2
 70
     1
102
RTVSPropertyOp3
 70
     1
102
RTVSPropertyOp4
 70
     1
102
RTVSPropertyOp5
 70
     1
102
RTVSPropertyOp6
 70
     1
102
RTVSPropertyOp7
 70
     1
102
RTVSPropertyOp8
 70
     1
102
RTVSPropertyOp9
 70
     1
102
RTVSPropertyOp10
 70
     1
102
RTVSPropertyOp11
 70
     1
102
RTVSPropertyOp12
 70
     1
102
RTVSPropertyOp13
 70
     1
102
RTVSPropertyOp14
 70
     1
102
RTVSPropertyOp15
 70
     1
102
RTVSPropertyOp16
 70
     1
102
RTVSPropertyOp17
 70
     1
102
RTVSPropertyOp18
 70
     1
102
RTVSPropertyOp19
 70
     1
102
RTVSPropertyOp20
 70
     1
102
RTVSPropertyOp21
 70
     1
102
RTVSPropertyOp22
 70
     1
102
RTVSPropertyOp23
 70
     1
102
RTVSPropertyOp24
 70
     1
102
RTVSPropertyOp25
 70
     1
102
RTVSPropertyOp26
 70
     1
102
RTVSPropertyOp27
 70
     1
102
RTVSPropertyOp28
 70
     1
102
RTVSPropertyOp29
 70
     1
102
RTVSPropertyOp30
 70
     1
102
RTVSPropertyOp31
 70
     1
102
RTVSPropertyOp32
 70
     1
  0
XRECORD
  5
589
102
{ACAD_REACTORS
330
588
102
}
330
588
100
AcDbXrecord
280
     1
102
RTVSPropertyOp0
 70
     1
102
RTVSPropertyOp1
 70
     1
102
RTVSPropertyOp2
 70
     1
102
RTVSPropertyOp3
 70
     1
102
RTVSPropertyOp4
 70
     1
102
RTVSPropertyOp5
 70
     1
102
RTVSPropertyOp6
 70
     1
102
RTVSPropertyOp7
 70
     1
102
RTVSPropertyOp8
 70
     1
102
RTVSPropertyOp9
 70
     1
102
RTVSPropertyOp10
 70
     1
102
RTVSPropertyOp11
 70
     1
102
RTVSPropertyOp12
 70
     1
102
RTVSPropertyOp13
 70
     1
102
RTVSPropertyOp14
 70
     1
102
RTVSPropertyOp15
 70
     1
102
RTVSPropertyOp16
 70
     1
102
RTVSPropertyOp17
 70
     1
102
RTVSPropertyOp18
 70
     1
102
RTVSPropertyOp19
 70
     1
102
RTVSPropertyOp20
 70
     1
102
RTVSPropertyOp21
 70
     1
102
RTVSPropertyOp22
 70
     1
102
RTVSPropertyOp23
 70
     1
102
RTVSPropertyOp24
 70
     1
102
RTVSPropertyOp25
 70
     1
102
RTVSPropertyOp26
 70
     1
102
RTVSPropertyOp27
 70
     1
102
RTVSPropertyOp28
 70
     1
102
RTVSPropertyOp29
 70
     1
102
RTVSPropertyOp30
 70
     1
102
RTVSPropertyOp31
 70
     1
102
RTVSPropertyOp32
 70
     1
  0
XRECORD
  5
583
102
{ACAD_REACTORS
330
582
102
}
330
582
100
AcDbXrecord
280
     1
102
RTVSPropertyOp0
 70
     1
102
RTVSPropertyOp1
 70
     1
102
RTVSPropertyOp2
 70
     1
102
RTVSPropertyOp3
 70
     1
102
RTVSPropertyOp4
 70
     1
102
RTVSPropertyOp5
 70
     1
102
RTVSPropertyOp6
 70
     1
102
RTVSPropertyOp7
 70
     1
102
RTVSPropertyOp8
 70
     1
102
RTVSPropertyOp9
 70
     1
102
RTVSPropertyOp10
 70
     1
102
RTVSPropertyOp11
 70
     1
102
RTVSPropertyOp12
 70
     1
102
RTVSPropertyOp13
 70
     1
102
RTVSPropertyOp14
 70
     1
102
RTVSPropertyOp15
 70
     1
102
RTVSPropertyOp16
 70
     1
102
RTVSPropertyOp17
 70
     1
102
RTVSPropertyOp18
 70
     1
102
RTVSPropertyOp19
 70
     1
102
RTVSPropertyOp20
 70
     1
102
RTVSPropertyOp21
 70
     1
102
RTVSPropertyOp22
 70
     1
102
RTVSPropertyOp23
 70
     1
102
RTVSPropertyOp24
 70
     1
102
RTVSPropertyOp25
 70
     1
102
RTVSPropertyOp26
 70
     1
102
RTVSPropertyOp27
 70
     1
102
RTVSPropertyOp28
 70
     1
102
RTVSPropertyOp29
 70
     1
102
RTVSPropertyOp30
 70
     1
102
RTVSPropertyOp31
 70
     1
102
RTVSPropertyOp32
 70
     1
  0
XRECORD
  5
585
102
{ACAD_REACTORS
330
584
102
}
330
584
100
AcDbXrecord
280
     1
102
RTVSPropertyOp0
 70
     1
102
RTVSPropertyOp1
 70
     1
102
RTVSPropertyOp2
 70
     1
102
RTVSPropertyOp3
 70
     1
102
RTVSPropertyOp4
 70
     1
102
RTVSPropertyOp5
 70
     1
102
RTVSPropertyOp6
 70
     1
102
RTVSPropertyOp7
 70
     1
102
RTVSPropertyOp8
 70
     1
102
RTVSPropertyOp9
 70
     1
102
RTVSPropertyOp10
 70
     1
102
RTVSPropertyOp11
 70
     1
102
RTVSPropertyOp12
 70
     1
102
RTVSPropertyOp13
 70
     1
102
RTVSPropertyOp14
 70
     1
102
RTVSPropertyOp15
 70
     1
102
RTVSPropertyOp16
 70
     1
102
RTVSPropertyOp17
 70
     1
102
RTVSPropertyOp18
 70
     1
102
RTVSPropertyOp19
 70
     1
102
RTVSPropertyOp20
 70
     1
102
RTVSPropertyOp21
 70
     1
102
RTVSPropertyOp22
 70
     1
102
RTVSPropertyOp23
 70
     1
102
RTVSPropertyOp24
 70
     1
102
RTVSPropertyOp25
 70
     1
102
RTVSPropertyOp26
 70
     1
102
RTVSPropertyOp27
 70
     1
102
RTVSPropertyOp28
 70
     1
102
RTVSPropertyOp29
 70
     1
102
RTVSPropertyOp30
 70
     1
102
RTVSPropertyOp31
 70
     1
102
RTVSPropertyOp32
 70
     1
  0
XRECORD
  5
57B
102
{ACAD_REACTORS
330
57A
102
}
330
57A
100
AcDbXrecord
280
     1
102
RTVSPropertyOp0
 70
     1
102
RTVSPropertyOp1
 70
     1
102
RTVSPropertyOp2
 70
     1
102
RTVSPropertyOp3
 70
     1
102
RTVSPropertyOp4
 70
     1
102
RTVSPropertyOp5
 70
     1
102
RTVSPropertyOp6
 70
     1
102
RTVSPropertyOp7
 70
     1
102
RTVSPropertyOp8
 70
     1
102
RTVSPropertyOp9
 70
     1
102
RTVSPropertyOp10
 70
     1
102
RTVSPropertyOp11
 70
     1
102
RTVSPropertyOp12
 70
     1
102
RTVSPropertyOp13
 70
     1
102
RTVSPropertyOp14
 70
     1
102
RTVSPropertyOp15
 70
     1
102
RTVSPropertyOp16
 70
     1
102
RTVSPropertyOp17
 70
     1
102
RTVSPropertyOp18
 70
     1
102
RTVSPropertyOp19
 70
     1
102
RTVSPropertyOp20
 70
     1
102
RTVSPropertyOp21
 70
     1
102
RTVSPropertyOp22
 70
     1
102
RTVSPropertyOp23
 70
     1
102
RTVSPropertyOp24
 70
     1
102
RTVSPropertyOp25
 70
     1
102
RTVSPropertyOp26
 70
     1
102
RTVSPropertyOp27
 70
     1
102
RTVSPropertyOp28
 70
     1
102
RTVSPropertyOp29
 70
     1
102
RTVSPropertyOp30
 70
     1
102
RTVSPropertyOp31
 70
     1
102
RTVSPropertyOp32
 70
     1
  0
XRECORD
  5
56F
102
{ACAD_REACTORS
330
56E
102
}
330
56E
100
AcDbXrecord
280
     1
102
RTVSPropertyOp0
 70
     1
102
RTVSPropertyOp1
 70
     1
102
RTVSPropertyOp2
 70
     1
102
RTVSPropertyOp3
 70
     1
102
RTVSPropertyOp4
 70
     1
102
RTVSPropertyOp5
 70
     1
102
RTVSPropertyOp6
 70
     1
102
RTVSPropertyOp7
 70
     1
102
RTVSPropertyOp8
 70
     1
102
RTVSPropertyOp9
 70
     1
102
RTVSPropertyOp10
 70
     1
102
RTVSPropertyOp11
 70
     1
102
RTVSPropertyOp12
 70
     1
102
RTVSPropertyOp13
 70
     1
102
RTVSPropertyOp14
 70
     1
102
RTVSPropertyOp15
 70
     1
102
RTVSPropertyOp16
 70
     1
102
RTVSPropertyOp17
 70
     1
102
RTVSPropertyOp18
 70
     1
102
RTVSPropertyOp19
 70
     1
102
RTVSPropertyOp20
 70
     1
102
RTVSPropertyOp21
 70
     1
102
RTVSPropertyOp22
 70
     1
102
RTVSPropertyOp23
 70
     1
102
RTVSPropertyOp24
 70
     1
102
RTVSPropertyOp25
 70
     1
102
RTVSPropertyOp26
 70
     1
102
RTVSPropertyOp27
 70
     1
102
RTVSPropertyOp28
 70
     1
102
RTVSPropertyOp29
 70
     1
102
RTVSPropertyOp30
 70
     1
102
RTVSPropertyOp31
 70
     1
102
RTVSPropertyOp32
 70
     1
  0
XRECORD
  5
587
102
{ACAD_REACTORS
330
586
102
}
330
586
100
AcDbXrecord
280
     1
102
RTVSPropertyOp0
 70
     1
102
RTVSPropertyOp1
 70
     1
102
RTVSPropertyOp2
 70
     1
102
RTVSPropertyOp3
 70
     1
102
RTVSPropertyOp4
 70
     1
102
RTVSPropertyOp5
 70
     1
102
RTVSPropertyOp6
 70
     1
102
RTVSPropertyOp7
 70
     1
102
RTVSPropertyOp8
 70
     1
102
RTVSPropertyOp9
 70
     1
102
RTVSPropertyOp10
 70
     1
102
RTVSPropertyOp11
 70
     1
102
RTVSPropertyOp12
 70
     1
102
RTVSPropertyOp13
 70
     1
102
RTVSPropertyOp14
 70
     1
102
RTVSPropertyOp15
 70
     1
102
RTVSPropertyOp16
 70
     1
102
RTVSPropertyOp17
 70
     1
102
RTVSPropertyOp18
 70
     1
102
RTVSPropertyOp19
 70
     1
102
RTVSPropertyOp20
 70
     1
102
RTVSPropertyOp21
 70
     1
102
RTVSPropertyOp22
 70
     1
102
RTVSPropertyOp23
 70
     1
102
RTVSPropertyOp24
 70
     1
102
RTVSPropertyOp25
 70
     1
102
RTVSPropertyOp26
 70
     1
102
RTVSPropertyOp27
 70
     1
102
RTVSPropertyOp28
 70
     1
102
RTVSPropertyOp29
 70
     1
102
RTVSPropertyOp30
 70
     1
102
RTVSPropertyOp31
 70
     1
102
RTVSPropertyOp32
 70
     1
  0
ENDSEC
  0
EOF
